  0
SECTION
  2
HEADER
  9
$ACADVER
  1
AC1009
  9
$INSBASE
 10
0.000000
 20
0.000000
  9
$EXTMIN
 10
0.000000
 20
0.000000
  9
$EXTMAX
 10
297.000000
 20
210.000000
  9
$LIMMIN
 10
0.000000
 20
0.000000
  9
$LIMMAX
 10
297.000000
 20
210.000000
  9
$VIEWCTR
 10
148.500000
 20
105.000000
  9
$VIEWSIZE
 40
210.000000
  9
$PEXTMIN
 10
0.000000
 20
0.000000
 30
0.000000
  9
$PEXTMAX
 10
297.000000
 20
210.000000
 30
0.000000
  9
$SNAPMODE
 70
     0
  9
$SNAPUNIT
 10
1.000000
 20
1.000000
  9
$SNAPBASE
 10
0.000000
 20
0.000000
  9
$SNAPANG
 50
0.000000
  9
$SNAPISOPAIR
 70
     0
  9
$SNAPSTYLE
 70
     0
  9
$GRIDMODE
 70
     0
  9
$GRIDUNIT
 10
0.000000
 20
0.000000
  9
$ORTHOMODE
 70
     0
  9
$REGENMODE
 70
     1
  9
$FILLMODE
 70
     1
  9
$QTEXTMODE
 70
     0
  9
$DRAGMODE
 70
     2
  9
$LTSCALE
 40
0.250000
  9
$OSMODE
 70
     0
  9
$ATTMODE
 70
     1
  9
$TEXTSIZE
 40
4.000000
  9
$TRACEWID
 40
0.050000
  9
$TEXTSTYLE
  7
STANDARD
  9
$CLAYER
  8
0
  9
$CELTYPE
  6
BYLAYER
  9
$CECOLOR
 62
   256
  9
$DIMSCALE
 40
1.000000
  9
$DIMASZ
 40
1.000000
  9
$DIMEXO
 40
0.000000
  9
$DIMDLI
 40
0.500000
  9
$DIMRND
 40
0.000000
  9
$DIMDLE
 40
0.000000
  9
$DIMEXE
 40
0.000000
  9
$DIMTP
 40
0.000000
  9
$DIMTM
 40
0.000000
  9
$DIMTXT
 40
4.000000
  9
$DIMCEN
 40
0.000000
  9
$DIMTSZ
 40
0.000000
  9
$DIMTOL
 70
     0
  9
$DIMLIM
 70
     0
  9
$DIMTIH
 70
     1
  9
$DIMTOH
 70
     1
  9
$DIMSE1
 70
     0
  9
$DIMSE2
 70
     0
  9
$DIMTAD
 70
     0
  9
$DIMZIN
 70
     0
  9
$DIMBLK
  1

  9
$DIMASO
 70
     0
  9
$DIMSHO
 70
     0
  9
$DIMPOST
  1

  9
$DIMAPOST
  1

  9
$DIMALT
 70
     0
  9
$DIMALTD
 70
     0
  9
$DIMALTF
 40
25.400000
  9
$DIMLFAC
 40
1.000000
  9
$DIMTOFL
 70
     0
  9
$DIMTVP
 40
0.000000
  9
$DIMTIX
 70
     0
  9
$DIMSOXD
 70
     0
  9
$DIMSAH
 70
     0
  9
$DIMBLKL
  1

  9
$DIMBLKR
  1

  9
$LUNITS
 70
     2
  9
$LUPREC
 70
     2
  9
$AXISMODE
 70
     0
  9
$AXISUNIT
 10
1.000000
 20
1.000000
  9
$SKETCHINC
 40
0.000000
  9
$FILLETRAD
 40
0.000000
  9
$AUNITS
 70
     1
  9
$AUPREC
 70
     2
  9
$MENU
  1
ACAD
  9
$ELEVATION
 40
0.000000
  9
$THICKNESS
 40
0.000000
  9
$VIEWDIR
 10
0.000000
 20
0.000000
 30
1.000000
  9
$LIMCHECK
 70
     1
  9
$BLIPMODE
 70
     1
  9
$CHAMFERA
 40
0.000000
  9
$CHAMFERB
 40
0.000000
  9
$FASTZOOM
 70
     1
  9
$SKPOLY
 70
     0
  9
$TDCREATE
 40
0.000000
  9
$TDUPDATE
 40
0.000000
  9
$TDINDWG
 40
0.000000
  9
$TDUSRTIMER
 40
0.000000
  9
$USRTIMER
 70
     1
  9
$ANGBASE
 50
0.000000
  9
$ANGDIR
 70
     0
  9
$PDMODE
 70
     0
  9
$PDSIZE
 40
0.000000
  9
$PLINEWID
 40
0.000000
  9
$COORDS
 70
     2
  9
$USERI1
 70
     0
  9
$USERI2
 70
     0
  9
$USERI3
 70
     0
  9
$USERI4
 70
     0
  9
$USERI5
 70
     0
  9
$USERR1
 40
0.000000
  9
$USERR2
 40
0.000000
  9
$USERR3
 40
0.000000
  9
$USERR4
 40
0.000000
  9
$USERR5
 40
0.000000
  0
ENDSEC
  0
SECTION
  2
TABLES
  0
TABLE
  2
LTYPE
 70
     5
  0
LTYPE
  2
CONTINUOUS
 70
    64
  3
Solid line
 72
    65
 73
     0
 40
0.0
  0
LTYPE
  2
HIDDEN
 70
    64
  3
------------------------
 72
    65
 73
     2
 40
12.6
 49
8.4
 49
-4.2
  0
LTYPE
  2
DOT
 70
    64
  3
････････････････････････
 72
    65
 73
     2
 40
8.0
 49
6.0
 49
-2.0
  0
LTYPE
  2
DASHDOT
 70
    64
  3
--･--･--･--･--･--･--･--
 72
    65
 73
     4
 40
50.5
 49
30.0
 49
-9.0
 49
2.5
 49
-9.0
  0
LTYPE
  2
DIVIDE
 70
    64
  3
--･･--･･--･･--･･--･･--
 72
    65
 73
     6
 40
58.0
 49
30.0
 49
-9.0
 49
2.5
 49
-5.0
 49
2.5
 49
-9.0
  0
LTYPE
  2
ACAD_ISO06W100
 70
    64
  3
____ ... ____ ... ____
 72
    65
 73
     8
 40
37.5
 49
24.0
 49
-3.0
 49
0.5
 49
-3.0
 49
0.5
 49
-3.0
 49
0.5
 49
-3.0
  0
LTYPE
  2
ACAD_ISO14W100
 70
    64
  3
__ . . . __ . . . __ . . . 
 72
    65
 73
     8
 40
25.5
 49
12.0
 49
-3.0
 49
0.5
 49
-3.0
 49
0.5
 49
-3.0
 49
0.5
 49
-3.0
  0
ENDTAB
  0
TABLE
  2
LAYER
 70
4
  0
LAYER
  2
1
 70
64
 62
7
  6
CONTINUOUS
  0
LAYER
  2
2
 70
64
 62
134
  6
CONTINUOUS
  0
LAYER
  2
5
 70
64
 62
94
  6
CONTINUOUS
  0
LAYER
  2
10
 70
64
 62
3
  6
CONTINUOUS
  0
ENDTAB
  0
TABLE
  2
STYLE
 70
     2
  0
STYLE
  2
STANDARD
 70
    64
 40
0.0
 41
1.0
 50
0.0
 71
     0
 42
0.2
  3
TXT
  4

  0
STYLE
  2
KANJI
 70
    64
 40
0.0
 41
1.0
 50
0.0
 71
     0
 42
0.2
  3
TXT
  4
BIGFONT
  0
ENDTAB
  0
TABLE
  2
VIEW
 70
     0
  0
ENDTAB
  0
ENDSEC
  0
SECTION
  2
BLOCKS
  0
BLOCK
  8
2
 62
134
  6
CONTINUOUS
  2
*D1
 70
    65
 10
0.0
 20
0.0
  0
LINE
  8
2
 62
134
  6
CONTINUOUS
 10
196.289970
 20
117.161146
 11
196.289970
 21
123.161146
  0
LINE
  8
2
 62
134
  6
CONTINUOUS
 10
197.289970
 20
117.161146
 11
187.628357
 21
117.161146
  0
LINE
  8
2
 62
134
  6
CONTINUOUS
 10
197.289970
 20
123.161146
 11
187.015214
 21
123.161146
  0
LINE
  8
2
 62
134
  6
CONTINUOUS
 10
196.289970
 20
117.161146
 11
195.772332
 21
119.092998
  0
LINE
  8
2
 62
134
  6
CONTINUOUS
 10
196.289970
 20
117.161146
 11
196.807609
 21
119.092998
  0
LINE
  8
2
 62
134
  6
CONTINUOUS
 10
195.772332
 20
119.092998
 11
196.807609
 21
119.092998
  0
LINE
  8
2
 62
134
  6
CONTINUOUS
 10
196.289970
 20
117.644109
 11
196.031151
 21
118.610035
  0
LINE
  8
2
 62
134
  6
CONTINUOUS
 10
196.289970
 20
117.644109
 11
196.548789
 21
118.610035
  0
LINE
  8
2
 62
134
  6
CONTINUOUS
 10
196.031151
 20
118.610035
 11
196.548789
 21
118.610035
  0
LINE
  8
2
 62
134
  6
CONTINUOUS
 10
196.289970
 20
123.161146
 11
196.807609
 21
121.229295
  0
LINE
  8
2
 62
134
  6
CONTINUOUS
 10
196.289970
 20
123.161146
 11
195.772332
 21
121.229295
  0
LINE
  8
2
 62
134
  6
CONTINUOUS
 10
196.807609
 20
121.229295
 11
195.772332
 21
121.229295
  0
LINE
  8
2
 62
134
  6
CONTINUOUS
 10
196.289970
 20
122.678183
 11
196.548789
 21
121.712257
  0
LINE
  8
2
 62
134
  6
CONTINUOUS
 10
196.289970
 20
122.678183
 11
196.031151
 21
121.712257
  0
LINE
  8
2
 62
134
  6
CONTINUOUS
 10
196.548789
 20
121.712257
 11
196.031151
 21
121.712257
  0
TEXT
  8
2
 62
134
  6
CONTINUOUS
 10
196.289970
 20
119.470128
 40
4.000000
 41
1.000000
  1
6
  7
KANJI
 50
90.000000
 51
0.000000
  0
ENDBLK
  0
BLOCK
  8
2
 62
134
  6
CONTINUOUS
  2
*D2
 70
    65
 10
0.0
 20
0.0
  0
LINE
  8
2
 62
134
  6
CONTINUOUS
 10
217.029237
 20
117.161146
 11
217.029237
 21
159.161146
  0
LINE
  8
2
 62
134
  6
CONTINUOUS
 10
216.029237
 20
159.161146
 11
220.133563
 21
159.161146
  0
LINE
  8
2
 62
134
  6
CONTINUOUS
 10
217.029237
 20
117.161146
 11
216.511599
 21
119.092998
  0
LINE
  8
2
 62
134
  6
CONTINUOUS
 10
217.029237
 20
117.161146
 11
217.546875
 21
119.092998
  0
LINE
  8
2
 62
134
  6
CONTINUOUS
 10
216.511599
 20
119.092998
 11
217.546875
 21
119.092998
  0
LINE
  8
2
 62
134
  6
CONTINUOUS
 10
217.029237
 20
117.644109
 11
216.770418
 21
118.610035
  0
LINE
  8
2
 62
134
  6
CONTINUOUS
 10
217.029237
 20
117.644109
 11
217.288056
 21
118.610035
  0
LINE
  8
2
 62
134
  6
CONTINUOUS
 10
216.770418
 20
118.610035
 11
217.288056
 21
118.610035
  0
LINE
  8
2
 62
134
  6
CONTINUOUS
 10
217.029237
 20
159.161146
 11
217.546875
 21
157.229295
  0
LINE
  8
2
 62
134
  6
CONTINUOUS
 10
217.029237
 20
159.161146
 11
216.511599
 21
157.229295
  0
LINE
  8
2
 62
134
  6
CONTINUOUS
 10
217.546875
 20
157.229295
 11
216.511599
 21
157.229295
  0
LINE
  8
2
 62
134
  6
CONTINUOUS
 10
217.029237
 20
158.678183
 11
217.288056
 21
157.712257
  0
LINE
  8
2
 62
134
  6
CONTINUOUS
 10
217.029237
 20
158.678183
 11
216.770418
 21
157.712257
  0
LINE
  8
2
 62
134
  6
CONTINUOUS
 10
217.288056
 20
157.712257
 11
216.770418
 21
157.712257
  0
TEXT
  8
2
 62
134
  6
CONTINUOUS
 10
217.029237
 20
135.877102
 40
4.000000
 41
1.000000
  1
42
  7
KANJI
 50
90.000000
 51
0.000000
  0
ENDBLK
  0
BLOCK
  8
2
 62
134
  6
CONTINUOUS
  2
*D3
 70
    65
 10
0.0
 20
0.0
  0
LINE
  8
2
 62
134
  6
CONTINUOUS
 10
177.128357
 20
176.080241
 11
228.128357
 21
176.080241
  0
LINE
  8
2
 62
134
  6
CONTINUOUS
 10
177.128357
 20
177.080241
 11
177.128357
 21
162.657821
  0
LINE
  8
2
 62
134
  6
CONTINUOUS
 10
228.128357
 20
177.080241
 11
228.128357
 21
162.654496
  0
LINE
  8
2
 62
134
  6
CONTINUOUS
 10
177.128357
 20
176.080241
 11
179.060209
 21
176.597880
  0
LINE
  8
2
 62
134
  6
CONTINUOUS
 10
177.128357
 20
176.080241
 11
179.060209
 21
175.562603
  0
LINE
  8
2
 62
134
  6
CONTINUOUS
 10
179.060209
 20
176.597880
 11
179.060209
 21
175.562603
  0
LINE
  8
2
 62
134
  6
CONTINUOUS
 10
177.611320
 20
176.080241
 11
178.577246
 21
176.339061
  0
LINE
  8
2
 62
134
  6
CONTINUOUS
 10
177.611320
 20
176.080241
 11
178.577246
 21
175.821422
  0
LINE
  8
2
 62
134
  6
CONTINUOUS
 10
178.577246
 20
176.339061
 11
178.577246
 21
175.821422
  0
LINE
  8
2
 62
134
  6
CONTINUOUS
 10
228.128357
 20
176.080241
 11
226.196506
 21
175.562603
  0
LINE
  8
2
 62
134
  6
CONTINUOUS
 10
228.128357
 20
176.080241
 11
226.196506
 21
176.597880
  0
LINE
  8
2
 62
134
  6
CONTINUOUS
 10
226.196506
 20
175.562603
 11
226.196506
 21
176.597880
  0
LINE
  8
2
 62
134
  6
CONTINUOUS
 10
227.645394
 20
176.080241
 11
226.679468
 21
175.821422
  0
LINE
  8
2
 62
134
  6
CONTINUOUS
 10
227.645394
 20
176.080241
 11
226.679468
 21
176.339061
  0
LINE
  8
2
 62
134
  6
CONTINUOUS
 10
226.679468
 20
175.821422
 11
226.679468
 21
176.339061
  0
TEXT
  8
2
 62
134
  6
CONTINUOUS
 10
202.190339
 20
176.080241
 40
4.000000
 41
1.000000
  1
51
  7
KANJI
 50
0.000000
 51
0.000000
  0
ENDBLK
  0
BLOCK
  8
2
 62
134
  6
CONTINUOUS
  2
*D4
 70
    65
 10
0.0
 20
0.0
  0
LINE
  8
2
 62
134
  6
CONTINUOUS
 10
196.289970
 20
123.161146
 11
196.289970
 21
156.161146
  0
LINE
  8
2
 62
134
  6
CONTINUOUS
 10
197.289970
 20
123.161146
 11
187.015214
 21
123.161146
  0
LINE
  8
2
 62
134
  6
CONTINUOUS
 10
197.289970
 20
156.161146
 11
187.015214
 21
156.161146
  0
LINE
  8
2
 62
134
  6
CONTINUOUS
 10
196.289970
 20
123.161146
 11
195.772332
 21
125.092998
  0
LINE
  8
2
 62
134
  6
CONTINUOUS
 10
196.289970
 20
123.161146
 11
196.807609
 21
125.092998
  0
LINE
  8
2
 62
134
  6
CONTINUOUS
 10
195.772332
 20
125.092998
 11
196.807609
 21
125.092998
  0
LINE
  8
2
 62
134
  6
CONTINUOUS
 10
196.289970
 20
123.644109
 11
196.031151
 21
124.610035
  0
LINE
  8
2
 62
134
  6
CONTINUOUS
 10
196.289970
 20
123.644109
 11
196.548789
 21
124.610035
  0
LINE
  8
2
 62
134
  6
CONTINUOUS
 10
196.031151
 20
124.610035
 11
196.548789
 21
124.610035
  0
LINE
  8
2
 62
134
  6
CONTINUOUS
 10
196.289970
 20
156.161146
 11
196.807609
 21
154.229295
  0
LINE
  8
2
 62
134
  6
CONTINUOUS
 10
196.289970
 20
156.161146
 11
195.772332
 21
154.229295
  0
LINE
  8
2
 62
134
  6
CONTINUOUS
 10
196.807609
 20
154.229295
 11
195.772332
 21
154.229295
  0
LINE
  8
2
 62
134
  6
CONTINUOUS
 10
196.289970
 20
155.678183
 11
196.548789
 21
154.712257
  0
LINE
  8
2
 62
134
  6
CONTINUOUS
 10
196.289970
 20
155.678183
 11
196.031151
 21
154.712257
  0
LINE
  8
2
 62
134
  6
CONTINUOUS
 10
196.548789
 20
154.712257
 11
196.031151
 21
154.712257
  0
TEXT
  8
2
 62
134
  6
CONTINUOUS
 10
196.289970
 20
137.786925
 40
4.000000
 41
1.000000
  1
33
  7
KANJI
 50
90.000000
 51
0.000000
  0
ENDBLK
  0
BLOCK
  8
2
 62
134
  6
CONTINUOUS
  2
*D5
 70
    65
 10
0.0
 20
0.0
  0
LINE
  8
2
 62
134
  6
CONTINUOUS
 10
177.128357
 20
168.096716
 11
182.128357
 21
168.096716
  0
LINE
  8
2
 62
134
  6
CONTINUOUS
 10
177.128357
 20
169.096716
 11
177.128357
 21
162.657821
  0
LINE
  8
2
 62
134
  6
CONTINUOUS
 10
182.128357
 20
169.096716
 11
182.128357
 21
159.758854
  0
LINE
  8
2
 62
134
  6
CONTINUOUS
 10
177.128357
 20
168.096716
 11
179.060209
 21
168.614354
  0
LINE
  8
2
 62
134
  6
CONTINUOUS
 10
177.128357
 20
168.096716
 11
179.060209
 21
167.579078
  0
LINE
  8
2
 62
134
  6
CONTINUOUS
 10
179.060209
 20
168.614354
 11
179.060209
 21
167.579078
  0
LINE
  8
2
 62
134
  6
CONTINUOUS
 10
177.611320
 20
168.096716
 11
178.577246
 21
168.355535
  0
LINE
  8
2
 62
134
  6
CONTINUOUS
 10
177.611320
 20
168.096716
 11
178.577246
 21
167.837897
  0
LINE
  8
2
 62
134
  6
CONTINUOUS
 10
178.577246
 20
168.355535
 11
178.577246
 21
167.837897
  0
LINE
  8
2
 62
134
  6
CONTINUOUS
 10
182.128357
 20
168.096716
 11
180.196506
 21
167.579078
  0
LINE
  8
2
 62
134
  6
CONTINUOUS
 10
182.128357
 20
168.096716
 11
180.196506
 21
168.614354
  0
LINE
  8
2
 62
134
  6
CONTINUOUS
 10
180.196506
 20
167.579078
 11
180.196506
 21
168.614354
  0
LINE
  8
2
 62
134
  6
CONTINUOUS
 10
181.645394
 20
168.096716
 11
180.679468
 21
167.837897
  0
LINE
  8
2
 62
134
  6
CONTINUOUS
 10
181.645394
 20
168.096716
 11
180.679468
 21
168.355535
  0
LINE
  8
2
 62
134
  6
CONTINUOUS
 10
180.679468
 20
167.837897
 11
180.679468
 21
168.355535
  0
TEXT
  8
2
 62
134
  6
CONTINUOUS
 10
178.669510
 20
168.096716
 40
4.000000
 41
1.000000
  1
5
  7
KANJI
 50
0.000000
 51
0.000000
  0
ENDBLK
  0
BLOCK
  8
2
 62
134
  6
CONTINUOUS
  2
*D6
 70
    65
 10
0.0
 20
0.0
  0
LINE
  8
2
 62
134
  6
CONTINUOUS
 10
182.128357
 20
168.096716
 11
224.128357
 21
168.096716
  0
LINE
  8
2
 62
134
  6
CONTINUOUS
 10
182.128357
 20
169.096716
 11
182.128357
 21
159.758854
  0
LINE
  8
2
 62
134
  6
CONTINUOUS
 10
224.128357
 20
169.096716
 11
224.128357
 21
162.096351
  0
LINE
  8
2
 62
134
  6
CONTINUOUS
 10
182.128357
 20
168.096716
 11
184.060209
 21
168.614354
  0
LINE
  8
2
 62
134
  6
CONTINUOUS
 10
182.128357
 20
168.096716
 11
184.060209
 21
167.579078
  0
LINE
  8
2
 62
134
  6
CONTINUOUS
 10
184.060209
 20
168.614354
 11
184.060209
 21
167.579078
  0
LINE
  8
2
 62
134
  6
CONTINUOUS
 10
182.611320
 20
168.096716
 11
183.577246
 21
168.355535
  0
LINE
  8
2
 62
134
  6
CONTINUOUS
 10
182.611320
 20
168.096716
 11
183.577246
 21
167.837897
  0
LINE
  8
2
 62
134
  6
CONTINUOUS
 10
183.577246
 20
168.355535
 11
183.577246
 21
167.837897
  0
LINE
  8
2
 62
134
  6
CONTINUOUS
 10
224.128357
 20
168.096716
 11
222.196506
 21
167.579078
  0
LINE
  8
2
 62
134
  6
CONTINUOUS
 10
224.128357
 20
168.096716
 11
222.196506
 21
168.614354
  0
LINE
  8
2
 62
134
  6
CONTINUOUS
 10
222.196506
 20
167.579078
 11
222.196506
 21
168.614354
  0
LINE
  8
2
 62
134
  6
CONTINUOUS
 10
223.645394
 20
168.096716
 11
222.679468
 21
167.837897
  0
LINE
  8
2
 62
134
  6
CONTINUOUS
 10
223.645394
 20
168.096716
 11
222.679468
 21
168.355535
  0
LINE
  8
2
 62
134
  6
CONTINUOUS
 10
222.679468
 20
167.837897
 11
222.679468
 21
168.355535
  0
TEXT
  8
2
 62
134
  6
CONTINUOUS
 10
199.624206
 20
168.096716
 40
4.000000
 41
1.000000
  1
42
  7
KANJI
 50
0.000000
 51
0.000000
  0
ENDBLK
  0
BLOCK
  8
2
 62
134
  6
CONTINUOUS
  2
*D7
 70
    65
 10
0.0
 20
0.0
  0
LINE
  8
2
 62
134
  6
CONTINUOUS
 10
124.128357
 20
176.080241
 11
177.128357
 21
176.080241
  0
LINE
  8
2
 62
134
  6
CONTINUOUS
 10
124.128357
 20
177.080241
 11
124.128357
 21
155.361146
  0
LINE
  8
2
 62
134
  6
CONTINUOUS
 10
177.128357
 20
177.080241
 11
177.128357
 21
162.657821
  0
LINE
  8
2
 62
134
  6
CONTINUOUS
 10
124.128357
 20
176.080241
 11
126.060209
 21
176.597880
  0
LINE
  8
2
 62
134
  6
CONTINUOUS
 10
124.128357
 20
176.080241
 11
126.060209
 21
175.562603
  0
LINE
  8
2
 62
134
  6
CONTINUOUS
 10
126.060209
 20
176.597880
 11
126.060209
 21
175.562603
  0
LINE
  8
2
 62
134
  6
CONTINUOUS
 10
124.611320
 20
176.080241
 11
125.577246
 21
176.339061
  0
LINE
  8
2
 62
134
  6
CONTINUOUS
 10
124.611320
 20
176.080241
 11
125.577246
 21
175.821422
  0
LINE
  8
2
 62
134
  6
CONTINUOUS
 10
125.577246
 20
176.339061
 11
125.577246
 21
175.821422
  0
LINE
  8
2
 62
134
  6
CONTINUOUS
 10
177.128357
 20
176.080241
 11
175.196506
 21
175.562603
  0
LINE
  8
2
 62
134
  6
CONTINUOUS
 10
177.128357
 20
176.080241
 11
175.196506
 21
176.597880
  0
LINE
  8
2
 62
134
  6
CONTINUOUS
 10
175.196506
 20
175.562603
 11
175.196506
 21
176.597880
  0
LINE
  8
2
 62
134
  6
CONTINUOUS
 10
176.645394
 20
176.080241
 11
175.679468
 21
175.821422
  0
LINE
  8
2
 62
134
  6
CONTINUOUS
 10
176.645394
 20
176.080241
 11
175.679468
 21
176.339061
  0
LINE
  8
2
 62
134
  6
CONTINUOUS
 10
175.679468
 20
175.821422
 11
175.679468
 21
176.339061
  0
TEXT
  8
2
 62
134
  6
CONTINUOUS
 10
150.879689
 20
176.080241
 40
4.000000
 41
1.000000
  1
53
  7
KANJI
 50
0.000000
 51
0.000000
  0
ENDBLK
  0
BLOCK
  8
2
 62
134
  6
CONTINUOUS
  2
*D8
 70
    65
 10
0.0
 20
0.0
  0
LINE
  8
2
 62
134
  6
CONTINUOUS
 10
124.128357
 20
182.638138
 11
228.128357
 21
182.638138
  0
LINE
  8
2
 62
134
  6
CONTINUOUS
 10
124.128357
 20
183.638138
 11
124.128357
 21
155.361146
  0
LINE
  8
2
 62
134
  6
CONTINUOUS
 10
228.128357
 20
183.638138
 11
228.128357
 21
162.654496
  0
LINE
  8
2
 62
134
  6
CONTINUOUS
 10
124.128357
 20
182.638138
 11
126.060209
 21
183.155776
  0
LINE
  8
2
 62
134
  6
CONTINUOUS
 10
124.128357
 20
182.638138
 11
126.060209
 21
182.120499
  0
LINE
  8
2
 62
134
  6
CONTINUOUS
 10
126.060209
 20
183.155776
 11
126.060209
 21
182.120499
  0
LINE
  8
2
 62
134
  6
CONTINUOUS
 10
124.611320
 20
182.638138
 11
125.577246
 21
182.896957
  0
LINE
  8
2
 62
134
  6
CONTINUOUS
 10
124.611320
 20
182.638138
 11
125.577246
 21
182.379318
  0
LINE
  8
2
 62
134
  6
CONTINUOUS
 10
125.577246
 20
182.896957
 11
125.577246
 21
182.379318
  0
LINE
  8
2
 62
134
  6
CONTINUOUS
 10
228.128357
 20
182.638138
 11
226.196506
 21
182.120499
  0
LINE
  8
2
 62
134
  6
CONTINUOUS
 10
228.128357
 20
182.638138
 11
226.196506
 21
183.155776
  0
LINE
  8
2
 62
134
  6
CONTINUOUS
 10
226.196506
 20
182.120499
 11
226.196506
 21
183.155776
  0
LINE
  8
2
 62
134
  6
CONTINUOUS
 10
227.645394
 20
182.638138
 11
226.679468
 21
182.379318
  0
LINE
  8
2
 62
134
  6
CONTINUOUS
 10
227.645394
 20
182.638138
 11
226.679468
 21
182.896957
  0
LINE
  8
2
 62
134
  6
CONTINUOUS
 10
226.679468
 20
182.379318
 11
226.679468
 21
182.896957
  0
TEXT
  8
2
 62
134
  6
CONTINUOUS
 10
174.115392
 20
182.638138
 40
4.000000
 41
1.000000
  1
104
  7
KANJI
 50
0.000000
 51
0.000000
  0
ENDBLK
  0
BLOCK
  8
2
 62
134
  6
CONTINUOUS
  2
*D9
 70
    65
 10
0.0
 20
0.0
  0
LINE
  8
2
 62
134
  6
CONTINUOUS
 10
124.128357
 20
182.638138
 11
98.939616
 21
182.638138
  0
LINE
  8
2
 62
134
  6
CONTINUOUS
 10
124.128357
 20
183.638138
 11
124.128357
 21
155.361146
  0
LINE
  8
2
 62
134
  6
CONTINUOUS
 10
124.128357
 20
182.638138
 11
122.196506
 21
182.120499
  0
LINE
  8
2
 62
134
  6
CONTINUOUS
 10
124.128357
 20
182.638138
 11
122.196506
 21
183.155776
  0
LINE
  8
2
 62
134
  6
CONTINUOUS
 10
122.196506
 20
182.120499
 11
122.196506
 21
183.155776
  0
LINE
  8
2
 62
134
  6
CONTINUOUS
 10
123.645394
 20
182.638138
 11
122.679468
 21
182.379318
  0
LINE
  8
2
 62
134
  6
CONTINUOUS
 10
123.645394
 20
182.638138
 11
122.679468
 21
182.896957
  0
LINE
  8
2
 62
134
  6
CONTINUOUS
 10
122.679468
 20
182.379318
 11
122.679468
 21
182.896957
  0
TEXT
  8
2
 62
134
  6
CONTINUOUS
 10
103.623646
 20
182.638138
 40
4.000000
 41
1.000000
  1
測定距離
  7
KANJI
 50
0.000000
 51
0.000000
  0
ENDBLK
  0
BLOCK
  8
2
 62
7
  6
CONTINUOUS
  2
*D10
 70
    65
 10
0.0
 20
0.0
  0
LINE
  8
2
 62
7
  6
CONTINUOUS
 10
168.891858
 20
117.161146
 11
168.891858
 21
140.161146
  0
LINE
  8
2
 62
7
  6
CONTINUOUS
 10
166.891858
 20
117.161146
 11
176.628357
 21
117.161146
  0
LINE
  8
2
 62
7
  6
CONTINUOUS
 10
166.891858
 20
140.161146
 11
174.628357
 21
140.161146
  0
LINE
  8
2
 62
7
  6
CONTINUOUS
 10
168.891858
 20
117.161146
 11
168.374220
 21
119.092998
  0
LINE
  8
2
 62
7
  6
CONTINUOUS
 10
168.891858
 20
117.161146
 11
169.409496
 21
119.092998
  0
LINE
  8
2
 62
7
  6
CONTINUOUS
 10
168.374220
 20
119.092998
 11
169.409496
 21
119.092998
  0
LINE
  8
2
 62
7
  6
CONTINUOUS
 10
168.891858
 20
117.644109
 11
168.633039
 21
118.610035
  0
LINE
  8
2
 62
7
  6
CONTINUOUS
 10
168.891858
 20
117.644109
 11
169.150677
 21
118.610035
  0
LINE
  8
2
 62
7
  6
CONTINUOUS
 10
168.633039
 20
118.610035
 11
169.150677
 21
118.610035
  0
LINE
  8
2
 62
7
  6
CONTINUOUS
 10
168.891858
 20
140.161146
 11
169.409496
 21
138.229295
  0
LINE
  8
2
 62
7
  6
CONTINUOUS
 10
168.891858
 20
140.161146
 11
168.374220
 21
138.229295
  0
LINE
  8
2
 62
7
  6
CONTINUOUS
 10
169.409496
 20
138.229295
 11
168.374220
 21
138.229295
  0
LINE
  8
2
 62
7
  6
CONTINUOUS
 10
168.891858
 20
139.678183
 11
169.150677
 21
138.712257
  0
LINE
  8
2
 62
7
  6
CONTINUOUS
 10
168.891858
 20
139.678183
 11
168.633039
 21
138.712257
  0
LINE
  8
2
 62
7
  6
CONTINUOUS
 10
169.150677
 20
138.712257
 11
168.633039
 21
138.712257
  0
TEXT
  8
2
 62
7
  6
CONTINUOUS
 10
168.891858
 20
128.234812
 40
4.000000
 41
1.000000
  1
23
  7
KANJI
 50
90.000000
 51
30.000000
  0
ENDBLK
  0
BLOCK
  8
2
 62
134
  6
CONTINUOUS
  2
*D11
 70
    65
 10
0.0
 20
0.0
  0
LINE
  8
2
 62
134
  6
CONTINUOUS
 10
228.128357
 20
182.638138
 11
271.728357
 21
182.638138
  0
LINE
  8
2
 62
134
  6
CONTINUOUS
 10
228.128357
 20
183.638138
 11
228.128357
 21
162.654496
  0
LINE
  8
2
 62
134
  6
CONTINUOUS
 10
271.728357
 20
183.638138
 11
271.728357
 21
147.361146
  0
LINE
  8
2
 62
134
  6
CONTINUOUS
 10
228.128357
 20
182.638138
 11
230.060209
 21
183.155776
  0
LINE
  8
2
 62
134
  6
CONTINUOUS
 10
228.128357
 20
182.638138
 11
230.060209
 21
182.120499
  0
LINE
  8
2
 62
134
  6
CONTINUOUS
 10
230.060209
 20
183.155776
 11
230.060209
 21
182.120499
  0
LINE
  8
2
 62
134
  6
CONTINUOUS
 10
228.611320
 20
182.638138
 11
229.577246
 21
182.896957
  0
LINE
  8
2
 62
134
  6
CONTINUOUS
 10
228.611320
 20
182.638138
 11
229.577246
 21
182.379318
  0
LINE
  8
2
 62
134
  6
CONTINUOUS
 10
229.577246
 20
182.896957
 11
229.577246
 21
182.379318
  0
LINE
  8
2
 62
134
  6
CONTINUOUS
 10
271.728357
 20
182.638138
 11
269.796506
 21
182.120499
  0
LINE
  8
2
 62
134
  6
CONTINUOUS
 10
271.728357
 20
182.638138
 11
269.796506
 21
183.155776
  0
LINE
  8
2
 62
134
  6
CONTINUOUS
 10
269.796506
 20
182.120499
 11
269.796506
 21
183.155776
  0
LINE
  8
2
 62
134
  6
CONTINUOUS
 10
271.245394
 20
182.638138
 11
270.279468
 21
182.379318
  0
LINE
  8
2
 62
134
  6
CONTINUOUS
 10
271.245394
 20
182.638138
 11
270.279468
 21
182.896957
  0
LINE
  8
2
 62
134
  6
CONTINUOUS
 10
270.279468
 20
182.379318
 11
270.279468
 21
182.896957
  0
TEXT
  8
2
 62
134
  6
CONTINUOUS
 10
248.571791
 20
182.638138
 40
4.000000
 41
1.000000
  1
44
  7
KANJI
 50
0.000000
 51
0.000000
  0
ENDBLK
  0
BLOCK
  8
2
 62
134
  6
CONTINUOUS
  2
*D12
 70
    65
 10
0.0
 20
0.0
  0
LINE
  8
2
 62
134
  6
CONTINUOUS
 10
236.662559
 20
124.479295
 11
236.662559
 21
160.874492
  0
LINE
  8
2
 62
134
  6
CONTINUOUS
 10
237.662559
 20
147.261146
 11
234.308357
 21
147.261146
  0
LINE
  8
2
 62
134
  6
CONTINUOUS
 10
236.662559
 20
132.479295
 11
237.180197
 21
130.547444
  0
LINE
  8
2
 62
134
  6
CONTINUOUS
 10
236.662559
 20
132.479295
 11
236.144921
 21
130.547444
  0
LINE
  8
2
 62
134
  6
CONTINUOUS
 10
237.180197
 20
130.547444
 11
236.144921
 21
130.547444
  0
LINE
  8
2
 62
134
  6
CONTINUOUS
 10
236.662559
 20
131.996332
 11
236.921378
 21
131.030407
  0
LINE
  8
2
 62
134
  6
CONTINUOUS
 10
236.662559
 20
131.996332
 11
236.403740
 21
131.030407
  0
LINE
  8
2
 62
134
  6
CONTINUOUS
 10
236.921378
 20
131.030407
 11
236.403740
 21
131.030407
  0
LINE
  8
2
 62
134
  6
CONTINUOUS
 10
236.662559
 20
147.261146
 11
236.144921
 21
149.192998
  0
LINE
  8
2
 62
134
  6
CONTINUOUS
 10
236.662559
 20
147.261146
 11
237.180197
 21
149.192998
  0
LINE
  8
2
 62
134
  6
CONTINUOUS
 10
236.144921
 20
149.192998
 11
237.180197
 21
149.192998
  0
LINE
  8
2
 62
134
  6
CONTINUOUS
 10
236.662559
 20
147.744109
 11
236.403740
 21
148.710035
  0
LINE
  8
2
 62
134
  6
CONTINUOUS
 10
236.662559
 20
147.744109
 11
236.921378
 21
148.710035
  0
LINE
  8
2
 62
134
  6
CONTINUOUS
 10
236.403740
 20
148.710035
 11
236.921378
 21
148.710035
  0
TEXT
  8
2
 62
134
  6
CONTINUOUS
 10
236.662559
 20
152.874492
 40
4.000000
 41
1.000000
  1
φ15
  7
KANJI
 50
90.000000
 51
0.000000
  0
ENDBLK
  0
BLOCK
  8
2
 62
134
  6
CONTINUOUS
  2
*D13
 70
    65
 10
0.0
 20
0.0
  0
LINE
  8
2
 62
134
  6
CONTINUOUS
 10
279.295675
 20
117.161146
 11
279.295675
 21
139.861146
  0
LINE
  8
2
 62
134
  6
CONTINUOUS
 10
280.295675
 20
117.161146
 11
227.628357
 21
117.161146
  0
LINE
  8
2
 62
134
  6
CONTINUOUS
 10
279.295675
 20
117.161146
 11
278.778036
 21
119.092998
  0
LINE
  8
2
 62
134
  6
CONTINUOUS
 10
279.295675
 20
117.161146
 11
279.813313
 21
119.092998
  0
LINE
  8
2
 62
134
  6
CONTINUOUS
 10
278.778036
 20
119.092998
 11
279.813313
 21
119.092998
  0
LINE
  8
2
 62
134
  6
CONTINUOUS
 10
279.295675
 20
117.644109
 11
279.036856
 21
118.610035
  0
LINE
  8
2
 62
134
  6
CONTINUOUS
 10
279.295675
 20
117.644109
 11
279.554494
 21
118.610035
  0
LINE
  8
2
 62
134
  6
CONTINUOUS
 10
279.036856
 20
118.610035
 11
279.554494
 21
118.610035
  0
LINE
  8
2
 62
134
  6
CONTINUOUS
 10
279.295675
 20
139.861146
 11
279.813313
 21
137.929295
  0
LINE
  8
2
 62
134
  6
CONTINUOUS
 10
279.295675
 20
139.861146
 11
278.778036
 21
137.929295
  0
LINE
  8
2
 62
134
  6
CONTINUOUS
 10
279.813313
 20
137.929295
 11
278.778036
 21
137.929295
  0
LINE
  8
2
 62
134
  6
CONTINUOUS
 10
279.295675
 20
139.378183
 11
279.554494
 21
138.412257
  0
LINE
  8
2
 62
134
  6
CONTINUOUS
 10
279.295675
 20
139.378183
 11
279.036856
 21
138.412257
  0
LINE
  8
2
 62
134
  6
CONTINUOUS
 10
279.554494
 20
138.412257
 11
279.036856
 21
138.412257
  0
TEXT
  8
2
 62
134
  6
CONTINUOUS
 10
279.295675
 20
122.545733
 40
4.000000
 41
1.000000
  1
22.7
  7
KANJI
 50
90.000000
 51
0.000000
  0
ENDBLK
  0
BLOCK
  8
2
 62
134
  6
CONTINUOUS
  2
*D14
 70
    65
 10
0.0
 20
0.0
  0
LINE
  8
2
 62
134
  6
CONTINUOUS
 10
213.420017
 20
48.764309
 11
207.420017
 21
48.764309
  0
LINE
  8
2
 62
134
  6
CONTINUOUS
 10
213.420017
 20
47.764309
 11
213.420017
 21
55.313169
  0
LINE
  8
2
 62
134
  6
CONTINUOUS
 10
207.420017
 20
47.764309
 11
207.420017
 21
55.313169
  0
LINE
  8
2
 62
134
  6
CONTINUOUS
 10
213.420017
 20
48.764309
 11
211.488165
 21
48.246671
  0
LINE
  8
2
 62
134
  6
CONTINUOUS
 10
213.420017
 20
48.764309
 11
211.488165
 21
49.281947
  0
LINE
  8
2
 62
134
  6
CONTINUOUS
 10
211.488165
 20
48.246671
 11
211.488165
 21
49.281947
  0
LINE
  8
2
 62
134
  6
CONTINUOUS
 10
212.937054
 20
48.764309
 11
211.971128
 21
48.505490
  0
LINE
  8
2
 62
134
  6
CONTINUOUS
 10
212.937054
 20
48.764309
 11
211.971128
 21
49.023128
  0
LINE
  8
2
 62
134
  6
CONTINUOUS
 10
211.971128
 20
48.505490
 11
211.971128
 21
49.023128
  0
LINE
  8
2
 62
134
  6
CONTINUOUS
 10
207.420017
 20
48.764309
 11
209.351869
 21
49.281947
  0
LINE
  8
2
 62
134
  6
CONTINUOUS
 10
207.420017
 20
48.764309
 11
209.351869
 21
48.246671
  0
LINE
  8
2
 62
134
  6
CONTINUOUS
 10
209.351869
 20
49.281947
 11
209.351869
 21
48.246671
  0
LINE
  8
2
 62
134
  6
CONTINUOUS
 10
207.902980
 20
48.764309
 11
208.868906
 21
49.023128
  0
LINE
  8
2
 62
134
  6
CONTINUOUS
 10
207.902980
 20
48.764309
 11
208.868906
 21
48.505490
  0
LINE
  8
2
 62
134
  6
CONTINUOUS
 10
208.868906
 20
49.023128
 11
208.868906
 21
48.505490
  0
TEXT
  8
2
 62
134
  6
CONTINUOUS
 10
209.420017
 20
48.764309
 40
4.000000
 41
1.000000
  1
6
  7
KANJI
 50
0.000000
 51
0.000000
  0
ENDBLK
  0
BLOCK
  8
2
 62
134
  6
CONTINUOUS
  2
*D15
 70
    65
 10
0.0
 20
0.0
  0
LINE
  8
2
 62
134
  6
CONTINUOUS
 10
146.109133
 20
54.763169
 11
146.109133
 21
78.975197
  0
LINE
  8
2
 62
134
  6
CONTINUOUS
 10
146.109133
 20
62.763169
 11
146.626771
 21
60.831317
  0
LINE
  8
2
 62
134
  6
CONTINUOUS
 10
146.109133
 20
62.763169
 11
145.591495
 21
60.831317
  0
LINE
  8
2
 62
134
  6
CONTINUOUS
 10
146.626771
 20
60.831317
 11
145.591495
 21
60.831317
  0
LINE
  8
2
 62
134
  6
CONTINUOUS
 10
146.109133
 20
62.280206
 11
146.367952
 21
61.314280
  0
LINE
  8
2
 62
134
  6
CONTINUOUS
 10
146.109133
 20
62.280206
 11
145.850314
 21
61.314280
  0
LINE
  8
2
 62
134
  6
CONTINUOUS
 10
146.367952
 20
61.314280
 11
145.850314
 21
61.314280
  0
LINE
  8
2
 62
134
  6
CONTINUOUS
 10
146.109133
 20
69.763169
 11
145.591495
 21
71.695021
  0
LINE
  8
2
 62
134
  6
CONTINUOUS
 10
146.109133
 20
69.763169
 11
146.626771
 21
71.695021
  0
LINE
  8
2
 62
134
  6
CONTINUOUS
 10
145.591495
 20
71.695021
 11
146.626771
 21
71.695021
  0
LINE
  8
2
 62
134
  6
CONTINUOUS
 10
146.109133
 20
70.246132
 11
145.850314
 21
71.212058
  0
LINE
  8
2
 62
134
  6
CONTINUOUS
 10
146.109133
 20
70.246132
 11
146.367952
 21
71.212058
  0
LINE
  8
2
 62
134
  6
CONTINUOUS
 10
145.850314
 20
71.212058
 11
146.367952
 21
71.212058
  0
TEXT
  8
2
 62
134
  6
CONTINUOUS
 10
146.109133
 20
72.975197
 40
4.000000
 41
1.000000
  1
φ7
  7
KANJI
 50
90.000000
 51
0.000000
  0
ENDBLK
  0
BLOCK
  8
2
 62
134
  6
CONTINUOUS
  2
*D16
 70
    65
 10
0.0
 20
0.0
  0
LINE
  8
2
 62
134
  6
CONTINUOUS
 10
114.490380
 20
87.722933
 11
175.862166
 21
87.722933
  0
LINE
  8
2
 62
134
  6
CONTINUOUS
 10
114.490380
 20
88.722933
 11
114.490380
 21
73.013169
  0
LINE
  8
2
 62
134
  6
CONTINUOUS
 10
175.862166
 20
88.722933
 11
175.862166
 21
78.700130
  0
LINE
  8
2
 62
134
  6
CONTINUOUS
 10
114.490380
 20
87.722933
 11
116.422232
 21
88.240571
  0
LINE
  8
2
 62
134
  6
CONTINUOUS
 10
114.490380
 20
87.722933
 11
116.422232
 21
87.205295
  0
LINE
  8
2
 62
134
  6
CONTINUOUS
 10
116.422232
 20
88.240571
 11
116.422232
 21
87.205295
  0
LINE
  8
2
 62
134
  6
CONTINUOUS
 10
114.973343
 20
87.722933
 11
115.939269
 21
87.981752
  0
LINE
  8
2
 62
134
  6
CONTINUOUS
 10
114.973343
 20
87.722933
 11
115.939269
 21
87.464114
  0
LINE
  8
2
 62
134
  6
CONTINUOUS
 10
115.939269
 20
87.981752
 11
115.939269
 21
87.464114
  0
LINE
  8
2
 62
134
  6
CONTINUOUS
 10
175.862166
 20
87.722933
 11
173.930314
 21
87.205295
  0
LINE
  8
2
 62
134
  6
CONTINUOUS
 10
175.862166
 20
87.722933
 11
173.930314
 21
88.240571
  0
LINE
  8
2
 62
134
  6
CONTINUOUS
 10
173.930314
 20
87.205295
 11
173.930314
 21
88.240571
  0
LINE
  8
2
 62
134
  6
CONTINUOUS
 10
175.379203
 20
87.722933
 11
174.413277
 21
87.464114
  0
LINE
  8
2
 62
134
  6
CONTINUOUS
 10
175.379203
 20
87.722933
 11
174.413277
 21
87.981752
  0
LINE
  8
2
 62
134
  6
CONTINUOUS
 10
174.413277
 20
87.464114
 11
174.413277
 21
87.981752
  0
TEXT
  8
2
 62
134
  6
CONTINUOUS
 10
130.974536
 20
87.722933
 40
4.000000
 41
1.000000
  1
ｹｰﾌﾞﾙ長(標準2m)
  7
KANJI
 50
0.000000
 51
0.000000
  0
ENDBLK
  0
BLOCK
  8
2
 62
134
  6
CONTINUOUS
  2
*D17
 70
    65
 10
0.0
 20
0.0
  0
LINE
  8
2
 62
134
  6
CONTINUOUS
 10
74.128357
 20
112.563635
 11
124.128357
 21
112.563635
  0
LINE
  8
2
 62
134
  6
CONTINUOUS
 10
74.128357
 20
111.563635
 11
74.128357
 21
124.761146
  0
LINE
  8
2
 62
134
  6
CONTINUOUS
 10
124.128357
 20
111.563635
 11
124.128357
 21
124.761146
  0
LINE
  8
2
 62
134
  6
CONTINUOUS
 10
74.128357
 20
112.563635
 11
76.060209
 21
113.081273
  0
LINE
  8
2
 62
134
  6
CONTINUOUS
 10
74.128357
 20
112.563635
 11
76.060209
 21
112.045997
  0
LINE
  8
2
 62
134
  6
CONTINUOUS
 10
76.060209
 20
113.081273
 11
76.060209
 21
112.045997
  0
LINE
  8
2
 62
134
  6
CONTINUOUS
 10
74.611320
 20
112.563635
 11
75.577246
 21
112.822454
  0
LINE
  8
2
 62
134
  6
CONTINUOUS
 10
74.611320
 20
112.563635
 11
75.577246
 21
112.304816
  0
LINE
  8
2
 62
134
  6
CONTINUOUS
 10
75.577246
 20
112.822454
 11
75.577246
 21
112.304816
  0
LINE
  8
2
 62
134
  6
CONTINUOUS
 10
124.128357
 20
112.563635
 11
122.196506
 21
112.045997
  0
LINE
  8
2
 62
134
  6
CONTINUOUS
 10
124.128357
 20
112.563635
 11
122.196506
 21
113.081273
  0
LINE
  8
2
 62
134
  6
CONTINUOUS
 10
122.196506
 20
112.045997
 11
122.196506
 21
113.081273
  0
LINE
  8
2
 62
134
  6
CONTINUOUS
 10
123.645394
 20
112.563635
 11
122.679468
 21
112.304816
  0
LINE
  8
2
 62
134
  6
CONTINUOUS
 10
123.645394
 20
112.563635
 11
122.679468
 21
112.822454
  0
LINE
  8
2
 62
134
  6
CONTINUOUS
 10
122.679468
 20
112.304816
 11
122.679468
 21
112.822454
  0
TEXT
  8
2
 62
134
  6
CONTINUOUS
 10
80.989128
 20
112.563635
 40
4.000000
 41
1.000000
  1
50(TMFX-25-50)
  7
KANJI
 50
0.000000
 51
0.000000
  0
ENDBLK
  0
BLOCK
  8
2
 62
7
  6
CONTINUOUS
  2
*D18
 70
    65
 10
0.0
 20
0.0
  0
LINE
  8
2
 62
7
  6
CONTINUOUS
 10
66.257019
 20
125.261146
 11
66.257019
 21
155.061146
  0
LINE
  8
2
 62
7
  6
CONTINUOUS
 10
65.257019
 20
125.261146
 11
73.628357
 21
125.261146
  0
LINE
  8
2
 62
7
  6
CONTINUOUS
 10
65.257019
 20
155.061146
 11
73.628357
 21
155.061146
  0
LINE
  8
2
 62
7
  6
CONTINUOUS
 10
66.257019
 20
125.261146
 11
65.739381
 21
127.192998
  0
LINE
  8
2
 62
7
  6
CONTINUOUS
 10
66.257019
 20
125.261146
 11
66.774657
 21
127.192998
  0
LINE
  8
2
 62
7
  6
CONTINUOUS
 10
65.739381
 20
127.192998
 11
66.774657
 21
127.192998
  0
LINE
  8
2
 62
7
  6
CONTINUOUS
 10
66.257019
 20
125.744109
 11
65.998200
 21
126.710035
  0
LINE
  8
2
 62
7
  6
CONTINUOUS
 10
66.257019
 20
125.744109
 11
66.515838
 21
126.710035
  0
LINE
  8
2
 62
7
  6
CONTINUOUS
 10
65.998200
 20
126.710035
 11
66.515838
 21
126.710035
  0
LINE
  8
2
 62
7
  6
CONTINUOUS
 10
66.257019
 20
155.061146
 11
66.774657
 21
153.129295
  0
LINE
  8
2
 62
7
  6
CONTINUOUS
 10
66.257019
 20
155.061146
 11
65.739381
 21
153.129295
  0
LINE
  8
2
 62
7
  6
CONTINUOUS
 10
66.774657
 20
153.129295
 11
65.739381
 21
153.129295
  0
LINE
  8
2
 62
7
  6
CONTINUOUS
 10
66.257019
 20
154.578183
 11
66.515838
 21
153.612257
  0
LINE
  8
2
 62
7
  6
CONTINUOUS
 10
66.257019
 20
154.578183
 11
65.998200
 21
153.612257
  0
LINE
  8
2
 62
7
  6
CONTINUOUS
 10
66.515838
 20
153.612257
 11
65.998200
 21
153.612257
  0
TEXT
  8
2
 62
7
  6
CONTINUOUS
 10
66.257019
 20
134.161146
 40
4.000000
 41
1.000000
  1
φ29.8
  7
KANJI
 50
90.000000
 51
0.000000
  0
ENDBLK
  0
BLOCK
  8
2
 62
134
  6
CONTINUOUS
  2
*D19
 70
    65
 10
0.0
 20
0.0
  0
LINE
  8
2
 62
134
  6
CONTINUOUS
 10
55.010945
 20
117.161146
 11
55.010945
 21
163.157822
  0
LINE
  8
2
 62
134
  6
CONTINUOUS
 10
56.010945
 20
117.161146
 11
47.896507
 21
117.161146
  0
LINE
  8
2
 62
134
  6
CONTINUOUS
 10
56.010945
 20
163.157822
 11
47.896507
 21
163.157822
  0
LINE
  8
2
 62
134
  6
CONTINUOUS
 10
55.010945
 20
117.161146
 11
54.493307
 21
119.092998
  0
LINE
  8
2
 62
134
  6
CONTINUOUS
 10
55.010945
 20
117.161146
 11
55.528583
 21
119.092998
  0
LINE
  8
2
 62
134
  6
CONTINUOUS
 10
54.493307
 20
119.092998
 11
55.528583
 21
119.092998
  0
LINE
  8
2
 62
134
  6
CONTINUOUS
 10
55.010945
 20
117.644109
 11
54.752126
 21
118.610035
  0
LINE
  8
2
 62
134
  6
CONTINUOUS
 10
55.010945
 20
117.644109
 11
55.269764
 21
118.610035
  0
LINE
  8
2
 62
134
  6
CONTINUOUS
 10
54.752126
 20
118.610035
 11
55.269764
 21
118.610035
  0
LINE
  8
2
 62
134
  6
CONTINUOUS
 10
55.010945
 20
163.157822
 11
55.528583
 21
161.225970
  0
LINE
  8
2
 62
134
  6
CONTINUOUS
 10
55.010945
 20
163.157822
 11
54.493307
 21
161.225970
  0
LINE
  8
2
 62
134
  6
CONTINUOUS
 10
55.528583
 20
161.225970
 11
54.493307
 21
161.225970
  0
LINE
  8
2
 62
134
  6
CONTINUOUS
 10
55.010945
 20
162.674859
 11
55.269764
 21
161.708933
  0
LINE
  8
2
 62
134
  6
CONTINUOUS
 10
55.010945
 20
162.674859
 11
54.752126
 21
161.708933
  0
LINE
  8
2
 62
134
  6
CONTINUOUS
 10
55.269764
 20
161.708933
 11
54.752126
 21
161.708933
  0
TEXT
  8
2
 62
134
  6
CONTINUOUS
 10
55.010945
 20
138.161146
 40
4.000000
 41
1.000000
  1
46
  7
KANJI
 50
90.000000
 51
0.000000
  0
ENDBLK
  0
BLOCK
  8
2
 62
134
  6
CONTINUOUS
  2
*D20
 70
    65
 10
0.0
 20
0.0
  0
LINE
  8
2
 62
134
  6
CONTINUOUS
 10
18.396507
 20
111.274231
 11
33.396507
 21
111.274231
  0
LINE
  8
2
 62
134
  6
CONTINUOUS
 10
18.396507
 20
110.274231
 11
18.396507
 21
117.661146
  0
LINE
  8
2
 62
134
  6
CONTINUOUS
 10
33.396507
 20
110.274231
 11
33.396507
 21
114.835951
  0
LINE
  8
2
 62
134
  6
CONTINUOUS
 10
18.396507
 20
111.274231
 11
20.328358
 21
111.791869
  0
LINE
  8
2
 62
134
  6
CONTINUOUS
 10
18.396507
 20
111.274231
 11
20.328358
 21
110.756593
  0
LINE
  8
2
 62
134
  6
CONTINUOUS
 10
20.328358
 20
111.791869
 11
20.328358
 21
110.756593
  0
LINE
  8
2
 62
134
  6
CONTINUOUS
 10
18.879470
 20
111.274231
 11
19.845395
 21
111.533050
  0
LINE
  8
2
 62
134
  6
CONTINUOUS
 10
18.879470
 20
111.274231
 11
19.845395
 21
111.015412
  0
LINE
  8
2
 62
134
  6
CONTINUOUS
 10
19.845395
 20
111.533050
 11
19.845395
 21
111.015412
  0
LINE
  8
2
 62
134
  6
CONTINUOUS
 10
33.396507
 20
111.274231
 11
31.464655
 21
110.756593
  0
LINE
  8
2
 62
134
  6
CONTINUOUS
 10
33.396507
 20
111.274231
 11
31.464655
 21
111.791869
  0
LINE
  8
2
 62
134
  6
CONTINUOUS
 10
31.464655
 20
110.756593
 11
31.464655
 21
111.791869
  0
LINE
  8
2
 62
134
  6
CONTINUOUS
 10
32.913544
 20
111.274231
 11
31.947618
 21
111.015412
  0
LINE
  8
2
 62
134
  6
CONTINUOUS
 10
32.913544
 20
111.274231
 11
31.947618
 21
111.533050
  0
LINE
  8
2
 62
134
  6
CONTINUOUS
 10
31.947618
 20
111.015412
 11
31.947618
 21
111.533050
  0
TEXT
  8
2
 62
134
  6
CONTINUOUS
 10
24.213587
 20
111.274231
 40
4.000000
 41
1.000000
  1
15
  7
KANJI
 50
0.000000
 51
0.000000
  0
ENDBLK
  0
BLOCK
  8
2
 62
134
  6
CONTINUOUS
  2
*D21
 70
    65
 10
0.0
 20
0.0
  0
LINE
  8
2
 62
134
  6
CONTINUOUS
 10
33.396507
 20
111.274231
 11
48.396507
 21
111.274231
  0
LINE
  8
2
 62
134
  6
CONTINUOUS
 10
33.396507
 20
110.274231
 11
33.396507
 21
114.835951
  0
LINE
  8
2
 62
134
  6
CONTINUOUS
 10
48.396507
 20
110.274231
 11
48.396507
 21
117.661146
  0
LINE
  8
2
 62
134
  6
CONTINUOUS
 10
33.396507
 20
111.274231
 11
35.328358
 21
111.791869
  0
LINE
  8
2
 62
134
  6
CONTINUOUS
 10
33.396507
 20
111.274231
 11
35.328358
 21
110.756593
  0
LINE
  8
2
 62
134
  6
CONTINUOUS
 10
35.328358
 20
111.791869
 11
35.328358
 21
110.756593
  0
LINE
  8
2
 62
134
  6
CONTINUOUS
 10
33.879470
 20
111.274231
 11
34.845395
 21
111.533050
  0
LINE
  8
2
 62
134
  6
CONTINUOUS
 10
33.879470
 20
111.274231
 11
34.845395
 21
111.015412
  0
LINE
  8
2
 62
134
  6
CONTINUOUS
 10
34.845395
 20
111.533050
 11
34.845395
 21
111.015412
  0
LINE
  8
2
 62
134
  6
CONTINUOUS
 10
48.396507
 20
111.274231
 11
46.464655
 21
110.756593
  0
LINE
  8
2
 62
134
  6
CONTINUOUS
 10
48.396507
 20
111.274231
 11
46.464655
 21
111.791869
  0
LINE
  8
2
 62
134
  6
CONTINUOUS
 10
46.464655
 20
110.756593
 11
46.464655
 21
111.791869
  0
LINE
  8
2
 62
134
  6
CONTINUOUS
 10
47.913544
 20
111.274231
 11
46.947618
 21
111.015412
  0
LINE
  8
2
 62
134
  6
CONTINUOUS
 10
47.913544
 20
111.274231
 11
46.947618
 21
111.533050
  0
LINE
  8
2
 62
134
  6
CONTINUOUS
 10
46.947618
 20
111.015412
 11
46.947618
 21
111.533050
  0
TEXT
  8
2
 62
134
  6
CONTINUOUS
 10
39.226651
 20
111.274231
 40
4.000000
 41
1.000000
  1
15
  7
KANJI
 50
0.000000
 51
0.000000
  0
ENDBLK
  0
BLOCK
  8
2
 62
134
  6
CONTINUOUS
  2
*D22
 70
    65
 10
0.0
 20
0.0
  0
LINE
  8
2
 62
134
  6
CONTINUOUS
 10
18.396507
 20
106.120493
 11
48.396507
 21
106.120493
  0
LINE
  8
2
 62
134
  6
CONTINUOUS
 10
18.396507
 20
105.120493
 11
18.396507
 21
117.661146
  0
LINE
  8
2
 62
134
  6
CONTINUOUS
 10
48.396507
 20
105.120493
 11
48.396507
 21
117.661146
  0
LINE
  8
2
 62
134
  6
CONTINUOUS
 10
18.396507
 20
106.120493
 11
20.328358
 21
106.638131
  0
LINE
  8
2
 62
134
  6
CONTINUOUS
 10
18.396507
 20
106.120493
 11
20.328358
 21
105.602854
  0
LINE
  8
2
 62
134
  6
CONTINUOUS
 10
20.328358
 20
106.638131
 11
20.328358
 21
105.602854
  0
LINE
  8
2
 62
134
  6
CONTINUOUS
 10
18.879470
 20
106.120493
 11
19.845395
 21
106.379312
  0
LINE
  8
2
 62
134
  6
CONTINUOUS
 10
18.879470
 20
106.120493
 11
19.845395
 21
105.861674
  0
LINE
  8
2
 62
134
  6
CONTINUOUS
 10
19.845395
 20
106.379312
 11
19.845395
 21
105.861674
  0
LINE
  8
2
 62
134
  6
CONTINUOUS
 10
48.396507
 20
106.120493
 11
46.464655
 21
105.602854
  0
LINE
  8
2
 62
134
  6
CONTINUOUS
 10
48.396507
 20
106.120493
 11
46.464655
 21
106.638131
  0
LINE
  8
2
 62
134
  6
CONTINUOUS
 10
46.464655
 20
105.602854
 11
46.464655
 21
106.638131
  0
LINE
  8
2
 62
134
  6
CONTINUOUS
 10
47.913544
 20
106.120493
 11
46.947618
 21
105.861674
  0
LINE
  8
2
 62
134
  6
CONTINUOUS
 10
47.913544
 20
106.120493
 11
46.947618
 21
106.379312
  0
LINE
  8
2
 62
134
  6
CONTINUOUS
 10
46.947618
 20
105.861674
 11
46.947618
 21
106.379312
  0
TEXT
  8
2
 62
134
  6
CONTINUOUS
 10
31.720119
 20
106.120493
 40
4.000000
 41
1.000000
  1
30
  7
KANJI
 50
0.000000
 51
0.000000
  0
ENDBLK
  0
ENDSEC
  0
SECTION
  2
ENTITIES
  0
LINE
  8
5
 62
7
  6
CONTINUOUS
 10
285.000000
 20
195.000000
 11
10.000000
 21
195.000000
  0
LINE
  8
5
 62
7
  6
CONTINUOUS
 10
10.000000
 20
195.000000
 11
10.000000
 21
10.000000
  0
LINE
  8
5
 62
7
  6
CONTINUOUS
 10
10.000000
 20
10.000000
 11
285.000000
 21
10.000000
  0
LINE
  8
5
 62
7
  6
CONTINUOUS
 10
285.000000
 20
10.000000
 11
285.000000
 21
195.000000
  0
TEXT
  8
5
 62
7
  6
CONTINUOUS
 10
210.962748
 20
25.651490
 40
1.750000
 41
4.000000
  1
製図
  7
KANJI
 50
-90.000000
 51
0.000000
  0
TEXT
  8
5
 62
7
  6
CONTINUOUS
 10
230.795530
 20
25.487583
 40
1.750000
 41
4.000000
  1
図番
  7
KANJI
 50
-90.000000
 51
0.000000
  0
TEXT
  8
5
 62
7
  6
CONTINUOUS
 10
230.795530
 20
38.764073
 40
1.750000
 41
4.000000
  1
図　名
  7
KANJI
 50
-90.000000
 51
0.000000
  0
TEXT
  8
5
 62
7
  6
CONTINUOUS
 10
165.888245
 20
33.355132
 40
1.750000
 41
4.000000
  1
日付
  7
KANJI
 50
-90.000000
 51
0.000000
  0
TEXT
  8
5
 62
7
  6
CONTINUOUS
 10
200.964404
 20
33.519040
 40
1.750000
 41
4.000000
  1
図法
  7
KANJI
 50
-90.000000
 51
0.000000
  0
TEXT
  8
5
 62
7
  6
CONTINUOUS
 10
200.800497
 20
41.550497
 40
1.750000
 41
4.000000
  1
尺度
  7
KANJI
 50
-90.000000
 51
0.000000
  0
TEXT
  8
5
 62
7
  6
CONTINUOUS
 10
165.888245
 20
41.386589
 40
1.750000
 41
4.000000
  1
公差
  7
KANJI
 50
-90.000000
 51
0.000000
  0
TEXT
  8
5
 62
7
  6
CONTINUOUS
 10
165.888245
 20
25.487583
 40
1.750000
 41
4.000000
  1
承認
  7
KANJI
 50
-90.000000
 51
0.000000
  0
TEXT
  8
5
 62
7
  6
CONTINUOUS
 10
190.966060
 20
25.487583
 40
1.750000
 41
4.000000
  1
設計
  7
KANJI
 50
-90.000000
 51
0.000000
  0
TEXT
  8
5
 62
7
  6
CONTINUOUS
 10
184.409768
 20
11.555464
 40
4.500000
 41
1.888889
  1
ジャパンセンサー株式会社
  7
KANJI
 50
0.000000
 51
0.000000
  0
LINE
  8
5
 62
7
  6
CONTINUOUS
 10
165.000000
 20
42.000000
 11
285.000000
 21
42.000000
  0
LINE
  8
5
 62
7
  6
CONTINUOUS
 10
165.000000
 20
10.000000
 11
165.000000
 21
42.000000
  0
LINE
  8
5
 62
7
  6
CONTINUOUS
 10
285.000000
 20
18.000000
 11
165.000000
 21
18.000000
  0
LINE
  8
5
 62
7
  6
CONTINUOUS
 10
230.000000
 20
42.000000
 11
230.000000
 21
18.000000
  0
LINE
  8
5
 62
7
  6
CONTINUOUS
 10
285.000000
 20
26.000000
 11
165.000000
 21
26.000000
  0
LINE
  8
5
 62
7
  6
CONTINUOUS
 10
235.000000
 20
18.000000
 11
235.000000
 21
42.000000
  0
LINE
  8
5
 62
7
  6
CONTINUOUS
 10
205.000000
 20
42.000000
 11
205.000000
 21
26.000000
  0
LINE
  8
5
 62
7
  6
CONTINUOUS
 10
170.000000
 20
18.000000
 11
170.000000
 21
42.000000
  0
LINE
  8
5
 62
7
  6
CONTINUOUS
 10
165.000000
 20
34.000000
 11
230.000000
 21
34.000000
  0
LINE
  8
5
 62
7
  6
CONTINUOUS
 10
200.000000
 20
42.000000
 11
200.000000
 21
26.000000
  0
LINE
  8
5
 62
7
  6
CONTINUOUS
 10
190.000000
 20
18.000000
 11
190.000000
 21
26.000000
  0
LINE
  8
5
 62
7
  6
CONTINUOUS
 10
210.000000
 20
18.000000
 11
210.000000
 21
26.000000
  0
LINE
  8
5
 62
7
  6
CONTINUOUS
 10
195.000000
 20
26.000000
 11
195.000000
 21
18.000000
  0
LINE
  8
5
 62
7
  6
CONTINUOUS
 10
215.000000
 20
26.000000
 11
215.000000
 21
18.000000
  0
TEXT
  8
5
 62
7
  6
CONTINUOUS
 10
209.979305
 20
35.649834
 40
4.000000
 41
1.000000
  1
１／１
  7
KANJI
 50
0.000000
 51
0.000000
  0
TEXT
  8
5
 62
7
  6
CONTINUOUS
 10
208.995861
 20
27.290563
 40
4.000000
 41
1.000000
  1
三角法
  7
KANJI
 50
0.000000
 51
0.000000
  0
TEXT
  8
5
 62
7
  6
CONTINUOUS
 10
239.646523
 20
35.322020
 40
4.000000
 41
1.000000
  1
ＴＭＨＸ外形図
  7
KANJI
 50
0.000000
 51
0.000000
  0
LINE
  8
1
 62
6
  6
CONTINUOUS
 10
226.628357
 20
117.161146
 11
228.128357
 21
118.661146
  0
LINE
  8
1
 62
6
  6
CONTINUOUS
 10
228.128357
 20
118.661146
 11
228.128357
 21
161.654496
  0
LINE
  8
1
 62
6
  6
CONTINUOUS
 10
228.128357
 20
161.654496
 11
226.628357
 21
163.154496
  0
LINE
  8
1
 62
214
  6
CONTINUOUS
 10
186.628357
 20
162.454496
 11
186.628357
 21
163.154496
  0
LINE
  8
1
 62
214
  6
CONTINUOUS
 10
186.628357
 20
117.861145
 11
186.628357
 21
117.161146
  0
LINE
  8
1
 62
7
  6
CONTINUOUS
 10
186.628357
 20
162.454496
 11
186.628357
 21
117.861145
  0
LINE
  8
1
 62
6
  6
CONTINUOUS
 10
186.628357
 20
117.161146
 11
226.628357
 21
117.161146
  0
LINE
  8
1
 62
6
  6
CONTINUOUS
 10
186.628357
 20
163.154496
 11
226.628357
 21
163.154496
  0
LINE
  8
1
 62
7
  6
DASHDOT
 10
192.291969
 20
140.161146
 11
173.097990
 21
140.161146
  0
LINE
  8
1
 62
7
  6
CONTINUOUS
 10
177.128357
 20
161.657821
 11
178.628357
 21
163.157821
  0
LINE
  8
1
 62
7
  6
CONTINUOUS
 10
177.128357
 20
118.661146
 11
178.628357
 21
117.161146
  0
LINE
  8
1
 62
7
  6
CONTINUOUS
 10
177.128357
 20
161.657821
 11
177.128357
 21
118.661146
  0
LINE
  8
1
 62
6
  6
DASHDOT
 10
188.579659
 20
157.657822
 11
180.065702
 21
157.657822
  0
LINE
  8
1
 62
7
  6
CONTINUOUS
 10
186.628357
 20
160.957822
 11
186.628357
 21
160.257822
  0
LINE
  8
1
 62
7
  6
CONTINUOUS
 10
186.628357
 20
163.157821
 11
186.628357
 21
160.257822
  0
LINE
  8
1
 62
6
  6
CONTINUOUS
 10
186.628357
 20
163.157821
 11
178.628357
 21
163.157821
  0
LINE
  8
1
 62
3
  6
CONTINUOUS
 10
186.628357
 20
160.257822
 11
186.628357
 21
123.161145
  0
LINE
  8
1
 62
6
  6
CONTINUOUS
 10
186.628357
 20
117.161146
 11
178.628357
 21
117.161146
  0
LINE
  8
1
 62
7
  6
CONTINUOUS
 10
186.628357
 20
117.161146
 11
186.628357
 21
123.161145
  0
LINE
  8
1
 62
214
  6
DASHDOT
 10
182.128357
 20
120.563438
 11
182.128357
 21
127.152339
  0
CIRCLE
  8
1
 62
7
  6
CONTINUOUS
 10
182.128357
 20
123.161146
 40
1.750000
  0
LINE
  8
1
 62
214
  6
DASHDOT
 10
177.248709
 20
123.161146
 11
186.015214
 21
123.161146
  0
CIRCLE
  8
1
 62
7
  6
DOT
 10
182.128357
 20
123.154495
 40
3.000000
  0
LINE
  8
1
 62
250
  6
CONTINUOUS
 10
177.128357
 20
152.361146
 11
177.128357
 21
154.061146
  0
LINE
  8
1
 62
250
  6
CONTINUOUS
 10
177.128357
 20
140.161146
 11
177.128357
 21
129.561146
  0
LINE
  8
1
 62
250
  6
CONTINUOUS
 10
177.128357
 20
129.661146
 11
177.128357
 21
126.261146
  0
LINE
  8
1
 62
250
  6
CONTINUOUS
 10
177.128357
 20
149.349146
 11
177.128357
 21
151.161146
  0
LINE
  8
1
 62
3
  6
CONTINUOUS
 10
178.628357
 20
160.261147
 11
178.628357
 21
123.164471
  0
LINE
  8
1
 62
3
  6
CONTINUOUS
 10
226.628357
 20
160.257822
 11
226.628357
 21
123.161145
  0
LINE
  8
1
 62
6
  6
CONTINUOUS
 10
178.628357
 20
161.657821
 11
226.628357
 21
161.657821
  0
LINE
  8
1
 62
7
  6
CONTINUOUS
 10
178.628357
 20
161.657821
 11
178.628357
 21
118.661146
  0
LINE
  8
1
 62
6
  6
CONTINUOUS
 10
178.628357
 20
118.661146
 11
226.628357
 21
118.661146
  0
LINE
  8
1
 62
7
  6
CONTINUOUS
 10
226.628357
 20
161.657821
 11
226.628357
 21
118.661146
  0
DIMENSION
  8
2
 62
134
  6
CONTINUOUS
  2
*D1
 10
196.289970
 20
117.161146
 11
196.289970
 21
120.470128
 70
     0
  1
6
 13
187.628357
 23
117.161146
 14
187.015214
 24
123.161146
 50
90.000000
  0
LINE
  8
1
 62
7
  6
DASHDOT
 10
224.128357
 20
161.096351
 11
224.128357
 21
155.885558
  0
CIRCLE
  8
1
 62
7
  6
CONTINUOUS
 10
224.128357
 20
159.161146
 40
1.750000
  0
LINE
  8
1
 62
7
  6
DASHDOT
 10
221.133563
 20
159.161146
 11
227.799936
 21
159.161146
  0
CIRCLE
  8
1
 62
7
  6
DOT
 10
224.128357
 20
159.161146
 40
3.000000
  0
CIRCLE
  8
1
 62
7
  6
DOT
 10
224.128357
 20
159.161146
 40
3.000000
  0
DIMENSION
  8
2
 62
134
  6
CONTINUOUS
  2
*D2
 10
217.029237
 20
117.161146
 11
217.029237
 21
137.877102
 70
     0
  1
42
 13
217.029237
 23
117.161146
 14
220.133563
 24
159.161146
 50
90.000000
  0
DIMENSION
  8
2
 62
134
  6
CONTINUOUS
  2
*D3
 10
177.128357
 20
176.080241
 11
204.190339
 21
176.080241
 70
     0
  1
51
 13
177.128357
 23
162.657821
 14
228.128357
 24
162.654496
 50
0.000000
  0
LINE
  8
1
 62
214
  6
DASHDOT
 10
182.128357
 20
158.758854
 11
182.128357
 21
152.169953
  0
CIRCLE
  8
1
 62
7
  6
CONTINUOUS
 10
182.128357
 20
156.161146
 40
1.750000
  0
LINE
  8
1
 62
214
  6
DASHDOT
 10
177.248709
 20
156.161146
 11
186.015214
 21
156.161146
  0
CIRCLE
  8
1
 62
7
  6
DOT
 10
182.128357
 20
156.167797
 40
3.000000
  0
DIMENSION
  8
2
 62
134
  6
CONTINUOUS
  2
*D4
 10
196.289970
 20
123.161146
 11
196.289970
 21
139.786925
 70
     0
  1
33
 13
187.015214
 23
123.161146
 14
187.015214
 24
156.161146
 50
90.000000
  0
DIMENSION
  8
2
 62
134
  6
CONTINUOUS
  2
*D5
 10
177.128357
 20
168.096716
 11
179.669510
 21
168.096716
 70
     0
  1
5
 13
177.128357
 23
162.657821
 14
182.128357
 24
159.758854
 50
0.000000
  0
DIMENSION
  8
2
 62
134
  6
CONTINUOUS
  2
*D6
 10
182.128357
 20
168.096716
 11
201.624206
 21
168.096716
 70
     0
  1
42
 13
182.128357
 23
159.758854
 14
224.128357
 24
162.096351
 50
0.000000
  0
LINE
  8
1
 62
7
  6
DASHDOT
 10
187.906851
 20
140.161146
 11
119.419367
 21
140.161146
  0
LINE
  8
1
 62
7
  6
DASHDOT
 10
140.541777
 20
140.161146
 11
125.788541
 21
140.161146
  0
DIMENSION
  8
2
 62
134
  6
CONTINUOUS
  2
*D7
 10
124.128357
 20
176.080241
 11
152.879689
 21
176.080241
 70
     0
  1
53
 13
124.128357
 23
155.361146
 14
177.128357
 24
162.657821
 50
0.000000
  0
DIMENSION
  8
2
 62
134
  6
CONTINUOUS
  2
*D8
 10
124.128357
 20
182.638138
 11
177.115392
 21
182.638138
 70
     0
  1
104
 13
124.128357
 23
155.361146
 14
228.128357
 24
162.654496
 50
0.000000
  0
DIMENSION
  8
2
 62
134
  6
CONTINUOUS
  2
*D9
 10
124.128357
 20
182.638138
 11
111.623646
 21
182.638138
 70
     0
  1
測定距離
 13
124.128357
 23
155.361146
 14
98.939616
 24
182.638138
 50
180.000000
  0
LINE
  8
1
 62
7
  6
DOT
 10
124.128357
 20
152.711146
 11
132.128357
 21
152.711146
  0
LINE
  8
1
 62
7
  6
DOT
 10
124.128357
 20
153.169221
 11
132.128357
 21
153.169221
  0
LINE
  8
1
 62
7
  6
DOT
 10
133.128357
 20
153.169221
 11
132.128357
 21
153.169221
  0
LINE
  8
1
 62
7
  6
DOT
 10
124.128357
 20
127.611146
 11
132.128357
 21
127.611146
  0
LINE
  8
1
 62
7
  6
DOT
 10
124.128357
 20
127.153071
 11
132.128357
 21
127.153071
  0
LINE
  8
1
 62
7
  6
DOT
 10
133.128357
 20
127.153071
 11
132.128357
 21
127.153071
  0
LINE
  8
1
 62
14
  6
DOT
 10
129.934556
 20
127.661146
 11
129.934556
 21
152.661146
  0
LINE
  8
1
 62
14
  6
DOT
 10
129.934556
 20
152.661146
 11
131.525687
 21
152.661146
  0
ARC
  8
1
 62
14
  6
DOT
 10
77.074556
 20
140.161146
 40
55.860000
 50
-12.930779
 51
12.930779
  0
LINE
  8
1
 62
14
  6
DOT
 10
131.518009
 20
127.661146
 11
129.934556
 21
127.661146
  0
DIMENSION
  8
2
 62
7
  6
CONTINUOUS
  2
*D10
 10
168.891858
 20
117.161146
 11
168.891858
 21
130.234812
 70
     0
  1
23
 13
176.628357
 23
117.161146
 14
174.628357
 24
140.161146
 50
90.000000
  0
LINE
  8
1
 62
7
  6
DASHDOT
 10
222.103708
 20
139.861146
 11
266.403763
 21
139.861146
  0
DIMENSION
  8
2
 62
134
  6
CONTINUOUS
  2
*D11
 10
228.128357
 20
182.638138
 11
250.571791
 21
182.638138
 70
     0
  1
44
 13
228.128357
 23
162.654496
 14
271.728357
 24
147.361146
 50
0.000000
  0
DIMENSION
  8
2
 62
134
  6
CONTINUOUS
  2
*D12
 10
236.662559
 20
132.479295
 11
236.662559
 21
156.874492
 70
     0
  1
φ15
 13
236.662559
 23
132.479295
 14
234.308357
 24
147.261146
 50
90.000000
  0
DIMENSION
  8
2
 62
134
  6
CONTINUOUS
  2
*D13
 10
279.295675
 20
117.161146
 11
279.295675
 21
126.545733
 70
     0
  1
22.7
 13
227.628357
 23
117.161146
 14
279.295675
 24
139.861146
 50
90.000000
  0
ARC
  8
1
 62
2
  6
CONTINUOUS
 10
228.328357
 20
147.311146
 40
0.200000
 50
90.000000
 51
180.000000
  0
ARC
  8
1
 62
2
  6
CONTINUOUS
 10
229.528357
 20
147.311146
 40
0.200000
 50
-89.230975
 51
-89.187365
  0
ARC
  8
1
 62
2
  6
CONTINUOUS
 10
229.528357
 20
147.311146
 40
0.200000
 50
-89.143735
 51
-88.819498
  0
ARC
  8
1
 62
2
  6
CONTINUOUS
 10
229.528357
 20
147.311146
 40
0.200000
 50
-88.640266
 51
-84.763088
  0
LINE
  8
1
 62
2
  6
CONTINUOUS
 10
229.909763
 20
139.033422
 11
229.928357
 21
139.033422
  0
LINE
  8
1
 62
2
  6
CONTINUOUS
 10
229.726557
 20
137.474217
 11
229.728660
 21
137.474217
  0
LINE
  8
1
 62
2
  6
CONTINUOUS
 10
229.726557
 20
137.390006
 11
229.728476
 21
137.390006
  0
LINE
  8
1
 62
2
  6
CONTINUOUS
 10
229.528357
 20
147.511146
 11
228.328357
 21
147.511146
  0
LINE
  8
1
 62
2
  6
CONTINUOUS
 10
229.528357
 20
132.211146
 11
228.328357
 21
132.211146
  0
LINE
  8
1
 62
2
  6
CONTINUOUS
 10
229.726557
 20
137.468422
 11
229.728647
 21
137.468422
  0
LINE
  8
1
 62
2
  6
CONTINUOUS
 10
229.909712
 20
139.031146
 11
229.928357
 21
139.031146
  0
ARC
  8
1
 62
2
  6
CONTINUOUS
 10
229.928357
 20
133.261146
 40
0.200000
 50
90.000000
 51
180.000000
  0
ARC
  8
1
 62
2
  6
CONTINUOUS
 10
229.928357
 20
146.461146
 40
0.200000
 50
180.000000
 51
-90.000000
  0
ARC
  8
1
 62
2
  6
CONTINUOUS
 10
229.528357
 20
132.411146
 40
0.200000
 50
83.421437
 51
84.763088
  0
ARC
  8
1
 62
2
  6
CONTINUOUS
 10
229.528357
 20
132.411146
 40
0.200000
 50
-90.000000
 51
0.000000
  0
ARC
  8
1
 62
2
  6
CONTINUOUS
 10
229.528357
 20
147.311146
 40
0.200000
 50
7.692308
 51
90.000000
  0
LINE
  8
1
 62
2
  6
CONTINUOUS
 10
228.128357
 20
132.411146
 11
228.128357
 21
132.664999
  0
ARC
  8
1
 62
2
  6
CONTINUOUS
 10
228.328357
 20
132.411146
 40
0.200000
 50
180.000000
 51
-90.000000
  0
LINE
  8
1
 62
2
  6
CONTINUOUS
 10
229.528357
 20
132.211146
 11
228.328357
 21
132.211146
  0
LINE
  8
1
 62
2
  6
CONTINUOUS
 10
229.528357
 20
147.511146
 11
228.328357
 21
147.511146
  0
LINE
  8
1
 62
2
  6
CONTINUOUS
 10
228.128357
 20
135.258209
 11
228.128357
 21
135.325874
  0
LINE
  8
1
 62
2
  6
CONTINUOUS
 10
229.728357
 20
147.311146
 11
229.728357
 21
132.411146
  0
LINE
  8
1
 62
2
  6
CONTINUOUS
 10
229.728357
 20
134.145379
 11
229.728357
 21
134.593201
  0
LINE
  8
1
 62
2
  6
CONTINUOUS
 10
228.128357
 20
132.411146
 11
228.128357
 21
147.311146
  0
LINE
  8
1
 62
2
  6
CONTINUOUS
 10
228.128357
 20
132.664999
 11
228.128357
 21
132.411146
  0
LINE
  8
1
 62
2
  6
CONTINUOUS
 10
229.928357
 20
146.261146
 11
229.928357
 21
133.461146
  0
LINE
  8
1
 62
2
  6
CONTINUOUS
 10
228.328357
 20
147.511146
 11
228.328357
 21
132.211146
  0
LINE
  8
1
 62
2
  6
CONTINUOUS
 10
229.528357
 20
147.511146
 11
229.528357
 21
132.211146
  0
ARC
  8
1
 62
2
  6
CONTINUOUS
 10
229.528357
 20
147.311146
 40
0.200000
 50
-9.731036
 51
90.000000
  0
LINE
  8
1
 62
2
  6
CONTINUOUS
 10
230.708357
 20
146.261146
 11
229.928357
 21
146.261146
  0
LINE
  8
1
 62
2
  6
CONTINUOUS
 10
230.708357
 20
133.461146
 11
229.928357
 21
133.461146
  0
LINE
  8
1
 62
2
  6
CONTINUOUS
 10
230.708357
 20
133.461146
 11
229.928357
 21
133.461146
  0
LINE
  8
1
 62
2
  6
CONTINUOUS
 10
230.708357
 20
146.261146
 11
229.928357
 21
146.261146
  0
LINE
  8
1
 62
2
  6
CONTINUOUS
 10
238.958357
 20
146.761146
 11
238.458357
 21
146.261146
  0
LINE
  8
1
 62
2
  6
CONTINUOUS
 10
238.958357
 20
132.961146
 11
238.458357
 21
133.461146
  0
LINE
  8
1
 62
2
  6
CONTINUOUS
 10
230.128357
 20
135.086146
 11
230.708357
 21
135.086146
  0
LINE
  8
1
 62
2
  6
CONTINUOUS
 10
242.458357
 20
146.761146
 11
238.958357
 21
146.761146
  0
LINE
  8
1
 62
2
  6
CONTINUOUS
 10
230.128357
 20
135.086146
 11
229.928357
 21
135.286146
  0
LINE
  8
1
 62
2
  6
CONTINUOUS
 10
257.958357
 20
146.111146
 11
260.228357
 21
146.111146
  0
LINE
  8
1
 62
2
  6
CONTINUOUS
 10
257.958357
 20
133.611146
 11
260.228357
 21
133.611146
  0
LINE
  8
1
 62
2
  6
CONTINUOUS
 10
242.458357
 20
132.961146
 11
238.958357
 21
132.961146
  0
LINE
  8
1
 62
2
  6
CONTINUOUS
 10
242.458357
 20
146.761146
 11
257.958357
 21
146.111146
  0
LINE
  8
1
 62
2
  6
CONTINUOUS
 10
242.458357
 20
132.961146
 11
257.958357
 21
133.611146
  0
LINE
  8
1
 62
2
  6
CONTINUOUS
 10
271.028357
 20
132.661146
 11
271.728357
 21
133.361146
  0
LINE
  8
1
 62
2
  6
CONTINUOUS
 10
271.028357
 20
147.061146
 11
271.728357
 21
146.361146
  0
LINE
  8
1
 62
2
  6
CONTINUOUS
 10
230.128357
 20
135.086146
 11
230.708357
 21
135.086146
  0
LINE
  8
1
 62
2
  6
CONTINUOUS
 10
238.158357
 20
147.261146
 11
238.458357
 21
146.961146
  0
LINE
  8
1
 62
2
  6
CONTINUOUS
 10
230.128357
 20
135.086146
 11
229.928357
 21
135.286146
  0
LINE
  8
1
 62
2
  6
CONTINUOUS
 10
231.008357
 20
147.261146
 11
230.708357
 21
146.961146
  0
LINE
  8
1
 62
2
  6
CONTINUOUS
 10
238.158357
 20
147.261146
 11
234.308357
 21
147.261146
  0
LINE
  8
1
 62
2
  6
CONTINUOUS
 10
233.308357
 20
147.261146
 11
231.008357
 21
147.261146
  0
LINE
  8
1
 62
2
  6
CONTINUOUS
 10
230.724740
 20
132.761146
 11
230.708357
 21
132.761146
  0
LINE
  8
1
 62
2
  6
CONTINUOUS
 10
238.458357
 20
132.761146
 11
238.442092
 21
132.761146
  0
LINE
  8
1
 62
2
  6
CONTINUOUS
 10
242.458357
 20
132.961146
 11
238.958357
 21
132.961146
  0
LINE
  8
1
 62
2
  6
CONTINUOUS
 10
238.958357
 20
132.961146
 11
238.458357
 21
133.461146
  0
LINE
  8
1
 62
2
  6
CONTINUOUS
 10
238.958357
 20
146.761146
 11
238.458357
 21
146.261146
  0
LINE
  8
1
 62
2
  6
CONTINUOUS
 10
242.458357
 20
146.761146
 11
238.958357
 21
146.761146
  0
LINE
  8
1
 62
2
  6
CONTINUOUS
 10
242.458357
 20
132.961146
 11
257.958357
 21
133.611146
  0
LINE
  8
1
 62
2
  6
CONTINUOUS
 10
242.458357
 20
146.761146
 11
257.958357
 21
146.111146
  0
LINE
  8
1
 62
2
  6
CONTINUOUS
 10
257.958357
 20
133.611146
 11
260.228357
 21
133.611146
  0
LINE
  8
1
 62
2
  6
CONTINUOUS
 10
257.958357
 20
146.111146
 11
260.228357
 21
146.111146
  0
LINE
  8
1
 62
2
  6
CONTINUOUS
 10
271.028357
 20
147.061146
 11
271.728357
 21
146.361146
  0
LINE
  8
1
 62
2
  6
CONTINUOUS
 10
271.028357
 20
132.661146
 11
271.728357
 21
133.361146
  0
LINE
  8
1
 62
2
  6
CONTINUOUS
 10
271.728357
 20
146.361146
 11
271.728357
 21
133.361146
  0
LINE
  8
1
 62
2
  6
CONTINUOUS
 10
270.728357
 20
146.786524
 11
260.528357
 21
146.786524
  0
LINE
  8
1
 62
2
  6
CONTINUOUS
 10
270.728357
 20
145.817198
 11
270.819783
 21
145.831830
  0
LINE
  8
1
 62
2
  6
CONTINUOUS
 10
270.819783
 20
145.831830
 11
270.858607
 21
145.843992
  0
LINE
  8
1
 62
2
  6
CONTINUOUS
 10
270.858607
 20
145.843992
 11
270.916442
 21
145.872520
  0
LINE
  8
1
 62
2
  6
CONTINUOUS
 10
270.916442
 20
145.872520
 11
270.929602
 21
145.881509
  0
LINE
  8
1
 62
2
  6
CONTINUOUS
 10
270.929602
 20
145.881509
 11
270.999725
 21
145.963454
  0
LINE
  8
1
 62
2
  6
CONTINUOUS
 10
270.999725
 20
145.963454
 11
271.004422
 21
145.973308
  0
LINE
  8
1
 62
2
  6
CONTINUOUS
 10
271.004422
 20
145.973308
 11
271.025585
 21
146.050921
  0
LINE
  8
1
 62
2
  6
CONTINUOUS
 10
271.025585
 20
146.050921
 11
271.027838
 21
146.076342
  0
LINE
  8
1
 62
2
  6
CONTINUOUS
 10
271.027838
 20
146.076342
 11
271.028357
 21
146.096551
  0
LINE
  8
1
 62
2
  6
CONTINUOUS
 10
271.028357
 20
146.096551
 11
271.013016
 21
146.218401
  0
LINE
  8
1
 62
2
  6
CONTINUOUS
 10
271.013016
 20
146.218401
 11
271.004420
 21
146.251905
  0
LINE
  8
1
 62
2
  6
CONTINUOUS
 10
271.004420
 20
146.251905
 11
270.966340
 21
146.362006
  0
LINE
  8
1
 62
2
  6
CONTINUOUS
 10
270.966340
 20
146.362006
 11
270.955759
 21
146.387349
  0
LINE
  8
1
 62
2
  6
CONTINUOUS
 10
270.955759
 20
146.387349
 11
270.916442
 21
146.471776
  0
LINE
  8
1
 62
2
  6
CONTINUOUS
 10
270.916442
 20
146.471776
 11
270.858608
 21
146.579373
  0
LINE
  8
1
 62
2
  6
CONTINUOUS
 10
270.858608
 20
146.579373
 11
270.857919
 21
146.580576
  0
LINE
  8
1
 62
2
  6
CONTINUOUS
 10
270.857919
 20
146.580576
 11
270.728357
 21
146.786524
  0
LINE
  8
1
 62
2
  6
CONTINUOUS
 10
270.728357
 20
145.817198
 11
260.528357
 21
145.817198
  0
LINE
  8
1
 62
2
  6
CONTINUOUS
 10
260.228357
 20
146.096529
 11
260.228878
 21
146.076302
  0
LINE
  8
1
 62
2
  6
CONTINUOUS
 10
260.228878
 20
146.076302
 11
260.257000
 21
145.963433
  0
LINE
  8
1
 62
2
  6
CONTINUOUS
 10
260.257000
 20
145.963433
 11
260.272804
 21
145.936830
  0
LINE
  8
1
 62
2
  6
CONTINUOUS
 10
260.272804
 20
145.936830
 11
260.327099
 21
145.881519
  0
LINE
  8
1
 62
2
  6
CONTINUOUS
 10
260.327099
 20
145.881519
 11
260.361378
 21
145.860302
  0
LINE
  8
1
 62
2
  6
CONTINUOUS
 10
260.361378
 20
145.860302
 11
260.416363
 21
145.837717
  0
LINE
  8
1
 62
2
  6
CONTINUOUS
 10
260.416363
 20
145.837717
 11
260.436934
 21
145.831829
  0
LINE
  8
1
 62
2
  6
CONTINUOUS
 10
260.436934
 20
145.831829
 11
260.528357
 21
145.817198
  0
LINE
  8
1
 62
2
  6
CONTINUOUS
 10
260.528357
 20
146.786524
 11
260.472123
 21
146.701259
  0
LINE
  8
1
 62
2
  6
CONTINUOUS
 10
260.472123
 20
146.701259
 11
260.416362
 21
146.610736
  0
LINE
  8
1
 62
2
  6
CONTINUOUS
 10
260.416362
 20
146.610736
 11
260.415987
 21
146.610102
  0
LINE
  8
1
 62
2
  6
CONTINUOUS
 10
260.415987
 20
146.610102
 11
260.398805
 21
146.580592
  0
LINE
  8
1
 62
2
  6
CONTINUOUS
 10
260.398805
 20
146.580592
 11
260.361376
 21
146.512774
  0
LINE
  8
1
 62
2
  6
CONTINUOUS
 10
260.361376
 20
146.512774
 11
260.307876
 21
146.403200
  0
LINE
  8
1
 62
2
  6
CONTINUOUS
 10
260.307876
 20
146.403200
 11
260.300968
 21
146.387377
  0
LINE
  8
1
 62
2
  6
CONTINUOUS
 10
260.300968
 20
146.387377
 11
260.243705
 21
146.218430
  0
LINE
  8
1
 62
2
  6
CONTINUOUS
 10
260.243705
 20
146.218430
 11
260.228357
 21
146.096529
  0
LINE
  8
1
 62
2
  6
CONTINUOUS
 10
270.728357
 20
144.419155
 11
260.528357
 21
144.419155
  0
LINE
  8
1
 62
2
  6
CONTINUOUS
 10
270.728357
 20
142.740234
 11
270.773310
 21
142.785275
  0
LINE
  8
1
 62
2
  6
CONTINUOUS
 10
270.773310
 20
142.785275
 11
270.795376
 21
142.809710
  0
LINE
  8
1
 62
2
  6
CONTINUOUS
 10
270.795376
 20
142.809710
 11
270.858607
 21
142.890771
  0
LINE
  8
1
 62
2
  6
CONTINUOUS
 10
270.858607
 20
142.890771
 11
270.896077
 21
142.949311
  0
LINE
  8
1
 62
2
  6
CONTINUOUS
 10
270.896077
 20
142.949311
 11
270.916442
 21
142.985834
  0
LINE
  8
1
 62
2
  6
CONTINUOUS
 10
270.916442
 20
142.985834
 11
270.966342
 21
143.097770
  0
LINE
  8
1
 62
2
  6
CONTINUOUS
 10
270.966342
 20
143.097770
 11
270.980197
 21
143.138103
  0
LINE
  8
1
 62
2
  6
CONTINUOUS
 10
270.980197
 20
143.138103
 11
271.022977
 21
143.348719
  0
LINE
  8
1
 62
2
  6
CONTINUOUS
 10
271.022977
 20
143.348719
 11
271.028357
 21
143.461151
  0
LINE
  8
1
 62
2
  6
CONTINUOUS
 10
271.028357
 20
143.461151
 11
271.022977
 21
143.577741
  0
LINE
  8
1
 62
2
  6
CONTINUOUS
 10
271.022977
 20
143.577741
 11
270.980197
 21
143.821599
  0
LINE
  8
1
 62
2
  6
CONTINUOUS
 10
270.980197
 20
143.821599
 11
270.966340
 21
143.872746
  0
LINE
  8
1
 62
2
  6
CONTINUOUS
 10
270.966340
 20
143.872746
 11
270.916442
 21
144.023775
  0
LINE
  8
1
 62
2
  6
CONTINUOUS
 10
270.916442
 20
144.023775
 11
270.896077
 21
144.076332
  0
LINE
  8
1
 62
2
  6
CONTINUOUS
 10
270.896077
 20
144.076332
 11
270.858608
 21
144.164489
  0
LINE
  8
1
 62
2
  6
CONTINUOUS
 10
270.858608
 20
144.164489
 11
270.795376
 21
144.295873
  0
LINE
  8
1
 62
2
  6
CONTINUOUS
 10
270.795376
 20
144.295873
 11
270.773310
 21
144.337971
  0
LINE
  8
1
 62
2
  6
CONTINUOUS
 10
270.773310
 20
144.337971
 11
270.728357
 21
144.419155
  0
LINE
  8
1
 62
2
  6
CONTINUOUS
 10
270.728357
 20
142.740234
 11
260.528357
 21
142.740234
  0
LINE
  8
1
 62
2
  6
CONTINUOUS
 10
260.228357
 20
143.461146
 11
260.233747
 21
143.348618
  0
LINE
  8
1
 62
2
  6
CONTINUOUS
 10
260.233747
 20
143.348618
 11
260.272812
 21
143.149996
  0
LINE
  8
1
 62
2
  6
CONTINUOUS
 10
260.272812
 20
143.149996
 11
260.276517
 21
143.138103
  0
LINE
  8
1
 62
2
  6
CONTINUOUS
 10
260.276517
 20
143.138103
 11
260.360663
 21
142.949267
  0
LINE
  8
1
 62
2
  6
CONTINUOUS
 10
260.360663
 20
142.949267
 11
260.361378
 21
142.948053
  0
LINE
  8
1
 62
2
  6
CONTINUOUS
 10
260.361378
 20
142.948053
 11
260.416363
 21
142.865417
  0
LINE
  8
1
 62
2
  6
CONTINUOUS
 10
260.416363
 20
142.865417
 11
260.472123
 21
142.797556
  0
LINE
  8
1
 62
2
  6
CONTINUOUS
 10
260.472123
 20
142.797556
 11
260.483403
 21
142.785276
  0
LINE
  8
1
 62
2
  6
CONTINUOUS
 10
260.483403
 20
142.785276
 11
260.528357
 21
142.740234
  0
LINE
  8
1
 62
2
  6
CONTINUOUS
 10
260.528357
 20
144.419155
 11
260.483403
 21
144.337968
  0
LINE
  8
1
 62
2
  6
CONTINUOUS
 10
260.483403
 20
144.337968
 11
260.472123
 21
144.316652
  0
LINE
  8
1
 62
2
  6
CONTINUOUS
 10
260.472123
 20
144.316652
 11
260.416362
 21
144.204326
  0
LINE
  8
1
 62
2
  6
CONTINUOUS
 10
260.416362
 20
144.204326
 11
260.361376
 21
144.078170
  0
LINE
  8
1
 62
2
  6
CONTINUOUS
 10
260.361376
 20
144.078170
 11
260.360661
 21
144.076393
  0
LINE
  8
1
 62
2
  6
CONTINUOUS
 10
260.360661
 20
144.076393
 11
260.276517
 21
143.821599
  0
LINE
  8
1
 62
2
  6
CONTINUOUS
 10
260.276517
 20
143.821599
 11
260.272812
 21
143.806820
  0
LINE
  8
1
 62
2
  6
CONTINUOUS
 10
260.272812
 20
143.806820
 11
260.233747
 21
143.577849
  0
LINE
  8
1
 62
2
  6
CONTINUOUS
 10
260.233747
 20
143.577849
 11
260.228357
 21
143.461146
  0
LINE
  8
1
 62
2
  6
CONTINUOUS
 10
270.728357
 20
136.982058
 11
260.528357
 21
136.982058
  0
LINE
  8
1
 62
2
  6
CONTINUOUS
 10
270.728357
 20
135.303137
 11
270.773310
 21
135.384321
  0
LINE
  8
1
 62
2
  6
CONTINUOUS
 10
270.773310
 20
135.384321
 11
270.795376
 21
135.426420
  0
LINE
  8
1
 62
2
  6
CONTINUOUS
 10
270.795376
 20
135.426420
 11
270.858607
 21
135.557802
  0
LINE
  8
1
 62
2
  6
CONTINUOUS
 10
270.858607
 20
135.557802
 11
270.896077
 21
135.645960
  0
LINE
  8
1
 62
2
  6
CONTINUOUS
 10
270.896077
 20
135.645960
 11
270.916442
 21
135.698517
  0
LINE
  8
1
 62
2
  6
CONTINUOUS
 10
270.916442
 20
135.698517
 11
270.966342
 21
135.849552
  0
LINE
  8
1
 62
2
  6
CONTINUOUS
 10
270.966342
 20
135.849552
 11
270.980197
 21
135.900693
  0
LINE
  8
1
 62
2
  6
CONTINUOUS
 10
270.980197
 20
135.900693
 11
271.022977
 21
136.144552
  0
LINE
  8
1
 62
2
  6
CONTINUOUS
 10
271.022977
 20
136.144552
 11
271.028357
 21
136.261151
  0
LINE
  8
1
 62
2
  6
CONTINUOUS
 10
271.028357
 20
136.261151
 11
271.022977
 21
136.373574
  0
LINE
  8
1
 62
2
  6
CONTINUOUS
 10
271.022977
 20
136.373574
 11
270.980197
 21
136.584189
  0
LINE
  8
1
 62
2
  6
CONTINUOUS
 10
270.980197
 20
136.584189
 11
270.966340
 21
136.624526
  0
LINE
  8
1
 62
2
  6
CONTINUOUS
 10
270.966340
 20
136.624526
 11
270.916442
 21
136.736458
  0
LINE
  8
1
 62
2
  6
CONTINUOUS
 10
270.916442
 20
136.736458
 11
270.896077
 21
136.772981
  0
LINE
  8
1
 62
2
  6
CONTINUOUS
 10
270.896077
 20
136.772981
 11
270.858608
 21
136.831521
  0
LINE
  8
1
 62
2
  6
CONTINUOUS
 10
270.858608
 20
136.831521
 11
270.795376
 21
136.912582
  0
LINE
  8
1
 62
2
  6
CONTINUOUS
 10
270.795376
 20
136.912582
 11
270.773310
 21
136.937018
  0
LINE
  8
1
 62
2
  6
CONTINUOUS
 10
270.773310
 20
136.937018
 11
270.728357
 21
136.982058
  0
LINE
  8
1
 62
2
  6
CONTINUOUS
 10
270.728357
 20
135.303137
 11
260.528357
 21
135.303137
  0
LINE
  8
1
 62
2
  6
CONTINUOUS
 10
260.228357
 20
136.261146
 11
260.233747
 21
136.144443
  0
LINE
  8
1
 62
2
  6
CONTINUOUS
 10
260.233747
 20
136.144443
 11
260.272812
 21
135.915473
  0
LINE
  8
1
 62
2
  6
CONTINUOUS
 10
260.272812
 20
135.915473
 11
260.276517
 21
135.900693
  0
LINE
  8
1
 62
2
  6
CONTINUOUS
 10
260.276517
 20
135.900693
 11
260.360663
 21
135.645896
  0
LINE
  8
1
 62
2
  6
CONTINUOUS
 10
260.360663
 20
135.645896
 11
260.361378
 21
135.644119
  0
LINE
  8
1
 62
2
  6
CONTINUOUS
 10
260.361378
 20
135.644119
 11
260.416363
 21
135.517964
  0
LINE
  8
1
 62
2
  6
CONTINUOUS
 10
260.416363
 20
135.517964
 11
260.472123
 21
135.405639
  0
LINE
  8
1
 62
2
  6
CONTINUOUS
 10
260.472123
 20
135.405639
 11
260.483403
 21
135.384324
  0
LINE
  8
1
 62
2
  6
CONTINUOUS
 10
260.483403
 20
135.384324
 11
260.528357
 21
135.303137
  0
LINE
  8
1
 62
2
  6
CONTINUOUS
 10
260.528357
 20
136.982058
 11
260.483403
 21
136.937016
  0
LINE
  8
1
 62
2
  6
CONTINUOUS
 10
260.483403
 20
136.937016
 11
260.472123
 21
136.924736
  0
LINE
  8
1
 62
2
  6
CONTINUOUS
 10
260.472123
 20
136.924736
 11
260.416362
 21
136.856873
  0
LINE
  8
1
 62
2
  6
CONTINUOUS
 10
260.416362
 20
136.856873
 11
260.361376
 21
136.774236
  0
LINE
  8
1
 62
2
  6
CONTINUOUS
 10
260.361376
 20
136.774236
 11
260.360661
 21
136.773023
  0
LINE
  8
1
 62
2
  6
CONTINUOUS
 10
260.360661
 20
136.773023
 11
260.276517
 21
136.584189
  0
LINE
  8
1
 62
2
  6
CONTINUOUS
 10
260.276517
 20
136.584189
 11
260.272812
 21
136.572296
  0
LINE
  8
1
 62
2
  6
CONTINUOUS
 10
260.272812
 20
136.572296
 11
260.233747
 21
136.373675
  0
LINE
  8
1
 62
2
  6
CONTINUOUS
 10
260.233747
 20
136.373675
 11
260.228357
 21
136.261146
  0
LINE
  8
1
 62
2
  6
CONTINUOUS
 10
270.728357
 20
132.935769
 11
260.528357
 21
132.935769
  0
LINE
  8
1
 62
2
  6
CONTINUOUS
 10
260.228357
 20
133.625763
 11
260.243705
 21
133.503862
  0
LINE
  8
1
 62
2
  6
CONTINUOUS
 10
260.243705
 20
133.503862
 11
260.300967
 21
133.334915
  0
LINE
  8
1
 62
2
  6
CONTINUOUS
 10
260.300967
 20
133.334915
 11
260.307877
 21
133.319090
  0
LINE
  8
1
 62
2
  6
CONTINUOUS
 10
260.307877
 20
133.319090
 11
260.361378
 21
133.209515
  0
LINE
  8
1
 62
2
  6
CONTINUOUS
 10
260.361378
 20
133.209515
 11
260.398805
 21
133.141700
  0
LINE
  8
1
 62
2
  6
CONTINUOUS
 10
260.398805
 20
133.141700
 11
260.415988
 21
133.112188
  0
LINE
  8
1
 62
2
  6
CONTINUOUS
 10
260.415988
 20
133.112188
 11
260.416363
 21
133.111555
  0
LINE
  8
1
 62
2
  6
CONTINUOUS
 10
260.416363
 20
133.111555
 11
260.472123
 21
133.021033
  0
LINE
  8
1
 62
2
  6
CONTINUOUS
 10
260.472123
 20
133.021033
 11
260.528357
 21
132.935769
  0
LINE
  8
1
 62
2
  6
CONTINUOUS
 10
260.528357
 20
133.905094
 11
260.436934
 21
133.890463
  0
LINE
  8
1
 62
2
  6
CONTINUOUS
 10
260.436934
 20
133.890463
 11
260.416362
 21
133.884575
  0
LINE
  8
1
 62
2
  6
CONTINUOUS
 10
260.416362
 20
133.884575
 11
260.361376
 21
133.861990
  0
LINE
  8
1
 62
2
  6
CONTINUOUS
 10
260.361376
 20
133.861990
 11
260.327099
 21
133.840774
  0
LINE
  8
1
 62
2
  6
CONTINUOUS
 10
260.327099
 20
133.840774
 11
260.272804
 21
133.785462
  0
LINE
  8
1
 62
2
  6
CONTINUOUS
 10
260.272804
 20
133.785462
 11
260.257004
 21
133.758866
  0
LINE
  8
1
 62
2
  6
CONTINUOUS
 10
260.257004
 20
133.758866
 11
260.228878
 21
133.645989
  0
LINE
  8
1
 62
2
  6
CONTINUOUS
 10
260.228878
 20
133.645989
 11
260.228357
 21
133.625763
  0
LINE
  8
1
 62
2
  6
CONTINUOUS
 10
270.728357
 20
133.905094
 11
260.528357
 21
133.905094
  0
LINE
  8
1
 62
2
  6
CONTINUOUS
 10
270.728357
 20
132.935769
 11
270.857918
 21
133.141715
  0
LINE
  8
1
 62
2
  6
CONTINUOUS
 10
270.857918
 20
133.141715
 11
270.858607
 21
133.142918
  0
LINE
  8
1
 62
2
  6
CONTINUOUS
 10
270.858607
 20
133.142918
 11
270.916442
 21
133.250516
  0
LINE
  8
1
 62
2
  6
CONTINUOUS
 10
270.916442
 20
133.250516
 11
270.955759
 21
133.334943
  0
LINE
  8
1
 62
2
  6
CONTINUOUS
 10
270.955759
 20
133.334943
 11
270.966342
 21
133.360290
  0
LINE
  8
1
 62
2
  6
CONTINUOUS
 10
270.966342
 20
133.360290
 11
271.004422
 21
133.470394
  0
LINE
  8
1
 62
2
  6
CONTINUOUS
 10
271.004422
 20
133.470394
 11
271.013016
 21
133.503891
  0
LINE
  8
1
 62
2
  6
CONTINUOUS
 10
271.013016
 20
133.503891
 11
271.028357
 21
133.625746
  0
LINE
  8
1
 62
2
  6
CONTINUOUS
 10
271.028357
 20
133.625746
 11
271.027838
 21
133.645954
  0
LINE
  8
1
 62
2
  6
CONTINUOUS
 10
271.027838
 20
133.645954
 11
271.025584
 21
133.671376
  0
LINE
  8
1
 62
2
  6
CONTINUOUS
 10
271.025584
 20
133.671376
 11
271.004420
 21
133.748988
  0
LINE
  8
1
 62
2
  6
CONTINUOUS
 10
271.004420
 20
133.748988
 11
270.999725
 21
133.758838
  0
LINE
  8
1
 62
2
  6
CONTINUOUS
 10
270.999725
 20
133.758838
 11
270.929602
 21
133.840783
  0
LINE
  8
1
 62
2
  6
CONTINUOUS
 10
270.929602
 20
133.840783
 11
270.916442
 21
133.849772
  0
LINE
  8
1
 62
2
  6
CONTINUOUS
 10
270.916442
 20
133.849772
 11
270.858608
 21
133.878300
  0
LINE
  8
1
 62
2
  6
CONTINUOUS
 10
270.858608
 20
133.878300
 11
270.819783
 21
133.890463
  0
LINE
  8
1
 62
2
  6
CONTINUOUS
 10
270.819783
 20
133.890463
 11
270.728357
 21
133.905094
  0
LINE
  8
1
 62
2
  6
CONTINUOUS
 10
260.228357
 20
132.661146
 11
260.228357
 21
133.625763
  0
LINE
  8
1
 62
2
  6
CONTINUOUS
 10
260.528357
 20
132.424049
 11
260.528357
 21
132.935769
  0
LINE
  8
1
 62
2
  6
CONTINUOUS
 10
260.528357
 20
132.424049
 11
260.417396
 21
132.512872
  0
LINE
  8
1
 62
2
  6
CONTINUOUS
 10
260.417396
 20
132.512872
 11
260.416362
 21
132.513694
  0
LINE
  8
1
 62
2
  6
CONTINUOUS
 10
260.416362
 20
132.513694
 11
260.361376
 21
132.557213
  0
LINE
  8
1
 62
2
  6
CONTINUOUS
 10
260.361376
 20
132.557213
 11
260.313547
 21
132.594803
  0
LINE
  8
1
 62
2
  6
CONTINUOUS
 10
260.313547
 20
132.594803
 11
260.307876
 21
132.599243
  0
LINE
  8
1
 62
2
  6
CONTINUOUS
 10
260.307876
 20
132.599243
 11
260.258223
 21
132.637976
  0
LINE
  8
1
 62
2
  6
CONTINUOUS
 10
260.258223
 20
132.637976
 11
260.249845
 21
132.644486
  0
LINE
  8
1
 62
2
  6
CONTINUOUS
 10
260.249845
 20
132.644486
 11
260.228357
 21
132.661146
  0
LINE
  8
1
 62
2
  6
CONTINUOUS
 10
270.728357
 20
132.424049
 11
270.728357
 21
132.935769
  0
LINE
  8
1
 62
2
  6
CONTINUOUS
 10
270.728357
 20
132.424049
 11
260.528357
 21
132.424049
  0
LINE
  8
1
 62
2
  6
CONTINUOUS
 10
260.228357
 20
143.461146
 11
260.228357
 21
146.096529
  0
LINE
  8
1
 62
2
  6
CONTINUOUS
 10
260.228357
 20
139.861146
 11
260.228357
 21
143.461146
  0
LINE
  8
1
 62
2
  6
CONTINUOUS
 10
260.228357
 20
136.261146
 11
260.228357
 21
139.861146
  0
LINE
  8
1
 62
2
  6
CONTINUOUS
 10
260.228357
 20
133.625763
 11
260.228357
 21
136.261146
  0
LINE
  8
1
 62
2
  6
CONTINUOUS
 10
260.228357
 20
146.096529
 11
260.228357
 21
147.061146
  0
LINE
  8
1
 62
2
  6
CONTINUOUS
 10
260.528357
 20
146.786524
 11
260.528357
 21
147.298243
  0
LINE
  8
1
 62
2
  6
CONTINUOUS
 10
260.228357
 20
147.061146
 11
260.249845
 21
147.077807
  0
LINE
  8
1
 62
2
  6
CONTINUOUS
 10
260.249845
 20
147.077807
 11
260.258223
 21
147.084316
  0
LINE
  8
1
 62
2
  6
CONTINUOUS
 10
260.258223
 20
147.084316
 11
260.307876
 21
147.123049
  0
LINE
  8
1
 62
2
  6
CONTINUOUS
 10
260.307876
 20
147.123049
 11
260.313547
 21
147.127489
  0
LINE
  8
1
 62
2
  6
CONTINUOUS
 10
260.313547
 20
147.127489
 11
260.361376
 21
147.165080
  0
LINE
  8
1
 62
2
  6
CONTINUOUS
 10
260.361376
 20
147.165080
 11
260.416362
 21
147.208598
  0
LINE
  8
1
 62
2
  6
CONTINUOUS
 10
260.416362
 20
147.208598
 11
260.417396
 21
147.209420
  0
LINE
  8
1
 62
2
  6
CONTINUOUS
 10
260.417396
 20
147.209420
 11
260.528357
 21
147.298243
  0
LINE
  8
1
 62
2
  6
CONTINUOUS
 10
270.728357
 20
146.786524
 11
270.728357
 21
147.298243
  0
LINE
  8
1
 62
2
  6
CONTINUOUS
 10
270.728357
 20
147.298243
 11
260.528357
 21
147.298243
  0
LINE
  8
1
 62
2
  6
CONTINUOUS
 10
270.728357
 20
147.298243
 11
270.839305
 21
147.209431
  0
LINE
  8
1
 62
2
  6
CONTINUOUS
 10
270.839305
 20
147.209431
 11
270.868677
 21
147.186140
  0
LINE
  8
1
 62
2
  6
CONTINUOUS
 10
270.868677
 20
147.186140
 11
270.929788
 21
147.137981
  0
LINE
  8
1
 62
2
  6
CONTINUOUS
 10
270.929788
 20
147.137981
 11
270.943157
 21
147.127498
  0
LINE
  8
1
 62
2
  6
CONTINUOUS
 10
270.943157
 20
147.127498
 11
271.006879
 21
147.077799
  0
LINE
  8
1
 62
2
  6
CONTINUOUS
 10
271.006879
 20
147.077799
 11
271.028357
 21
147.061146
  0
LINE
  8
1
 62
2
  6
CONTINUOUS
 10
271.028357
 20
132.661146
 11
271.006879
 21
132.644493
  0
LINE
  8
1
 62
2
  6
CONTINUOUS
 10
271.006879
 20
132.644493
 11
270.943156
 21
132.594794
  0
LINE
  8
1
 62
2
  6
CONTINUOUS
 10
270.943156
 20
132.594794
 11
270.929784
 21
132.584309
  0
LINE
  8
1
 62
2
  6
CONTINUOUS
 10
270.929784
 20
132.584309
 11
270.868674
 21
132.536150
  0
LINE
  8
1
 62
2
  6
CONTINUOUS
 10
270.868674
 20
132.536150
 11
270.839305
 21
132.512861
  0
LINE
  8
1
 62
2
  6
CONTINUOUS
 10
270.839305
 20
132.512861
 11
270.728357
 21
132.424049
  0
LINE
  8
1
 62
2
  6
CONTINUOUS
 10
270.728357
 20
132.424049
 11
260.528357
 21
132.424049
  0
LINE
  8
1
 62
2
  6
CONTINUOUS
 10
260.528357
 20
133.905094
 11
260.528357
 21
135.303137
  0
LINE
  8
1
 62
2
  6
CONTINUOUS
 10
270.728357
 20
133.905094
 11
270.728357
 21
135.303137
  0
LINE
  8
1
 62
2
  6
CONTINUOUS
 10
270.728357
 20
137.168564
 11
267.728357
 21
137.168564
  0
LINE
  8
1
 62
2
  6
CONTINUOUS
 10
267.728357
 20
142.553729
 11
267.728357
 21
137.168564
  0
LINE
  8
1
 62
2
  6
CONTINUOUS
 10
270.728357
 20
142.553729
 11
267.728357
 21
142.553729
  0
LINE
  8
1
 62
2
  6
CONTINUOUS
 10
270.728357
 20
137.168564
 11
270.981422
 21
137.985495
  0
LINE
  8
1
 62
2
  6
CONTINUOUS
 10
270.981422
 20
137.985495
 11
270.992902
 21
138.030353
  0
LINE
  8
1
 62
2
  6
CONTINUOUS
 10
270.992902
 20
138.030353
 11
271.167052
 21
138.932695
  0
LINE
  8
1
 62
2
  6
CONTINUOUS
 10
271.167052
 20
138.932695
 11
271.167953
 21
138.939575
  0
LINE
  8
1
 62
2
  6
CONTINUOUS
 10
271.167953
 20
138.939575
 11
271.228357
 21
139.861154
  0
LINE
  8
1
 62
2
  6
CONTINUOUS
 10
271.228357
 20
139.861154
 11
271.167954
 21
140.782718
  0
LINE
  8
1
 62
2
  6
CONTINUOUS
 10
271.167954
 20
140.782718
 11
271.167052
 21
140.789599
  0
LINE
  8
1
 62
2
  6
CONTINUOUS
 10
271.167052
 20
140.789599
 11
270.992902
 21
141.691939
  0
LINE
  8
1
 62
2
  6
CONTINUOUS
 10
270.992902
 20
141.691939
 11
270.981422
 21
141.736798
  0
LINE
  8
1
 62
2
  6
CONTINUOUS
 10
270.981422
 20
141.736798
 11
270.728357
 21
142.553729
  0
LINE
  8
1
 62
2
  6
CONTINUOUS
 10
260.528357
 20
136.982058
 11
260.528357
 21
138.891821
  0
LINE
  8
1
 62
2
  6
CONTINUOUS
 10
267.291260
 20
138.891821
 11
260.528357
 21
138.891821
  0
LINE
  8
1
 62
2
  6
CONTINUOUS
 10
267.291260
 20
138.891821
 11
267.314908
 21
138.725015
  0
LINE
  8
1
 62
2
  6
CONTINUOUS
 10
267.314908
 20
138.725015
 11
267.483915
 21
137.919997
  0
LINE
  8
1
 62
2
  6
CONTINUOUS
 10
267.483915
 20
137.919997
 11
267.728357
 21
137.168564
  0
LINE
  8
1
 62
2
  6
CONTINUOUS
 10
270.728357
 20
136.982058
 11
270.728357
 21
137.168564
  0
LINE
  8
1
 62
2
  6
CONTINUOUS
 10
267.291260
 20
140.830471
 11
260.528357
 21
140.830471
  0
LINE
  8
1
 62
2
  6
CONTINUOUS
 10
267.291260
 20
138.891821
 11
267.327595
 21
138.964700
  0
LINE
  8
1
 62
2
  6
CONTINUOUS
 10
267.327595
 20
138.964700
 11
267.425126
 21
139.210480
  0
LINE
  8
1
 62
2
  6
CONTINUOUS
 10
267.425126
 20
139.210480
 11
267.438744
 21
139.253991
  0
LINE
  8
1
 62
2
  6
CONTINUOUS
 10
267.438744
 20
139.253991
 11
267.487793
 21
139.450582
  0
LINE
  8
1
 62
2
  6
CONTINUOUS
 10
267.487793
 20
139.450582
 11
267.490912
 21
139.466573
  0
LINE
  8
1
 62
2
  6
CONTINUOUS
 10
267.490912
 20
139.466573
 11
267.524123
 21
139.728923
  0
LINE
  8
1
 62
2
  6
CONTINUOUS
 10
267.524123
 20
139.728923
 11
267.524123
 21
139.993370
  0
LINE
  8
1
 62
2
  6
CONTINUOUS
 10
267.524123
 20
139.993370
 11
267.490912
 21
140.255720
  0
LINE
  8
1
 62
2
  6
CONTINUOUS
 10
267.490912
 20
140.255720
 11
267.487793
 21
140.271710
  0
LINE
  8
1
 62
2
  6
CONTINUOUS
 10
267.487793
 20
140.271710
 11
267.438744
 21
140.468302
  0
LINE
  8
1
 62
2
  6
CONTINUOUS
 10
267.438744
 20
140.468302
 11
267.425126
 21
140.511812
  0
LINE
  8
1
 62
2
  6
CONTINUOUS
 10
267.425126
 20
140.511812
 11
267.327595
 21
140.757592
  0
LINE
  8
1
 62
2
  6
CONTINUOUS
 10
267.327595
 20
140.757592
 11
267.291260
 21
140.830471
  0
LINE
  8
1
 62
2
  6
CONTINUOUS
 10
260.228357
 20
139.861146
 11
260.233747
 21
139.728799
  0
LINE
  8
1
 62
2
  6
CONTINUOUS
 10
260.233747
 20
139.728799
 11
260.272813
 21
139.481928
  0
LINE
  8
1
 62
2
  6
CONTINUOUS
 10
260.272813
 20
139.481928
 11
260.276517
 21
139.466530
  0
LINE
  8
1
 62
2
  6
CONTINUOUS
 10
260.276517
 20
139.466530
 11
260.360673
 21
139.210372
  0
LINE
  8
1
 62
2
  6
CONTINUOUS
 10
260.360673
 20
139.210372
 11
260.361388
 21
139.208645
  0
LINE
  8
1
 62
2
  6
CONTINUOUS
 10
260.361388
 20
139.208645
 11
260.416371
 21
139.088110
  0
LINE
  8
1
 62
2
  6
CONTINUOUS
 10
260.416371
 20
139.088110
 11
260.472127
 21
138.984088
  0
LINE
  8
1
 62
2
  6
CONTINUOUS
 10
260.472127
 20
138.984088
 11
260.483402
 21
138.964700
  0
LINE
  8
1
 62
2
  6
CONTINUOUS
 10
260.483402
 20
138.964700
 11
260.528357
 21
138.891821
  0
LINE
  8
1
 62
2
  6
CONTINUOUS
 10
260.528357
 20
140.830471
 11
260.483402
 21
140.757592
  0
LINE
  8
1
 62
2
  6
CONTINUOUS
 10
260.483402
 20
140.757592
 11
260.472127
 21
140.738204
  0
LINE
  8
1
 62
2
  6
CONTINUOUS
 10
260.472127
 20
140.738204
 11
260.416370
 21
140.634180
  0
LINE
  8
1
 62
2
  6
CONTINUOUS
 10
260.416370
 20
140.634180
 11
260.361387
 21
140.513643
  0
LINE
  8
1
 62
2
  6
CONTINUOUS
 10
260.361387
 20
140.513643
 11
260.360672
 21
140.511917
  0
LINE
  8
1
 62
2
  6
CONTINUOUS
 10
260.360672
 20
140.511917
 11
260.276517
 21
140.255762
  0
LINE
  8
1
 62
2
  6
CONTINUOUS
 10
260.276517
 20
140.255762
 11
260.272813
 21
140.240364
  0
LINE
  8
1
 62
2
  6
CONTINUOUS
 10
260.272813
 20
140.240364
 11
260.233747
 21
139.993493
  0
LINE
  8
1
 62
2
  6
CONTINUOUS
 10
260.233747
 20
139.993493
 11
260.228357
 21
139.861146
  0
LINE
  8
1
 62
2
  6
CONTINUOUS
 10
267.728357
 20
142.553729
 11
267.483915
 21
141.802295
  0
LINE
  8
1
 62
2
  6
CONTINUOUS
 10
267.483915
 20
141.802295
 11
267.314908
 21
140.997278
  0
LINE
  8
1
 62
2
  6
CONTINUOUS
 10
267.314908
 20
140.997278
 11
267.291260
 21
140.830471
  0
LINE
  8
1
 62
2
  6
CONTINUOUS
 10
270.728357
 20
142.553729
 11
270.728357
 21
142.740234
  0
LINE
  8
1
 62
2
  6
CONTINUOUS
 10
260.528357
 20
140.830471
 11
260.528357
 21
142.740234
  0
LINE
  8
1
 62
2
  6
CONTINUOUS
 10
260.528357
 20
144.419155
 11
260.528357
 21
145.817198
  0
LINE
  8
1
 62
2
  6
CONTINUOUS
 10
270.728357
 20
144.419155
 11
270.728357
 21
145.817198
  0
LINE
  8
1
 62
2
  6
CONTINUOUS
 10
257.958357
 20
133.611146
 11
257.958357
 21
146.111146
  0
LINE
  8
1
 62
2
  6
CONTINUOUS
 10
242.458357
 20
137.545979
 11
242.458357
 21
132.961146
  0
LINE
  8
1
 62
2
  6
CONTINUOUS
 10
242.458357
 20
137.545979
 11
242.683778
 21
137.574306
  0
LINE
  8
1
 62
2
  6
CONTINUOUS
 10
242.683778
 20
137.574306
 11
242.909159
 21
137.602945
  0
LINE
  8
1
 62
2
  6
CONTINUOUS
 10
242.909159
 20
137.602945
 11
243.134499
 21
137.631905
  0
LINE
  8
1
 62
2
  6
CONTINUOUS
 10
243.134499
 20
137.631905
 11
243.359796
 21
137.661201
  0
LINE
  8
1
 62
2
  6
CONTINUOUS
 10
243.359796
 20
137.661201
 11
243.585048
 21
137.690845
  0
LINE
  8
1
 62
2
  6
CONTINUOUS
 10
243.585048
 20
137.690845
 11
243.810251
 21
137.720852
  0
LINE
  8
1
 62
2
  6
CONTINUOUS
 10
243.810251
 20
137.720852
 11
244.035404
 21
137.751236
  0
LINE
  8
1
 62
2
  6
CONTINUOUS
 10
244.035404
 20
137.751236
 11
244.260503
 21
137.782014
  0
LINE
  8
1
 62
2
  6
CONTINUOUS
 10
244.260503
 20
137.782014
 11
244.485546
 21
137.813203
  0
LINE
  8
1
 62
2
  6
CONTINUOUS
 10
244.485546
 20
137.813203
 11
244.710530
 21
137.844821
  0
LINE
  8
1
 62
2
  6
CONTINUOUS
 10
244.710530
 20
137.844821
 11
244.935449
 21
137.876890
  0
LINE
  8
1
 62
2
  6
CONTINUOUS
 10
244.935449
 20
137.876890
 11
245.160301
 21
137.909430
  0
LINE
  8
1
 62
2
  6
CONTINUOUS
 10
245.160301
 20
137.909430
 11
245.385081
 21
137.942464
  0
LINE
  8
1
 62
2
  6
CONTINUOUS
 10
245.385081
 20
137.942464
 11
245.609783
 21
137.976019
  0
LINE
  8
1
 62
2
  6
CONTINUOUS
 10
245.609783
 20
137.976019
 11
245.834404
 21
138.010121
  0
LINE
  8
1
 62
2
  6
CONTINUOUS
 10
245.834404
 20
138.010121
 11
246.058936
 21
138.044801
  0
LINE
  8
1
 62
2
  6
CONTINUOUS
 10
246.058936
 20
138.044801
 11
246.283373
 21
138.080091
  0
LINE
  8
1
 62
2
  6
CONTINUOUS
 10
246.283373
 20
138.080091
 11
246.507708
 21
138.116028
  0
LINE
  8
1
 62
2
  6
CONTINUOUS
 10
246.507708
 20
138.116028
 11
246.529214
 21
138.119509
  0
LINE
  8
1
 62
2
  6
CONTINUOUS
 10
246.529214
 20
138.119509
 11
246.731932
 21
138.152650
  0
LINE
  8
1
 62
2
  6
CONTINUOUS
 10
246.731932
 20
138.152650
 11
246.956036
 21
138.190001
  0
LINE
  8
1
 62
2
  6
CONTINUOUS
 10
246.956036
 20
138.190001
 11
247.180009
 21
138.228130
  0
LINE
  8
1
 62
2
  6
CONTINUOUS
 10
247.180009
 20
138.228130
 11
247.403839
 21
138.267090
  0
LINE
  8
1
 62
2
  6
CONTINUOUS
 10
247.403839
 20
138.267090
 11
247.627512
 21
138.306942
  0
LINE
  8
1
 62
2
  6
CONTINUOUS
 10
247.627512
 20
138.306942
 11
247.851012
 21
138.347753
  0
LINE
  8
1
 62
2
  6
CONTINUOUS
 10
247.851012
 20
138.347753
 11
248.074321
 21
138.389599
  0
LINE
  8
1
 62
2
  6
CONTINUOUS
 10
248.074321
 20
138.389599
 11
248.297417
 21
138.432567
  0
LINE
  8
1
 62
2
  6
CONTINUOUS
 10
248.297417
 20
138.432567
 11
248.520275
 21
138.476757
  0
LINE
  8
1
 62
2
  6
CONTINUOUS
 10
248.520275
 20
138.476757
 11
248.742863
 21
138.522284
  0
LINE
  8
1
 62
2
  6
CONTINUOUS
 10
248.742863
 20
138.522284
 11
248.965146
 21
138.569282
  0
LINE
  8
1
 62
2
  6
CONTINUOUS
 10
248.965146
 20
138.569282
 11
249.187079
 21
138.617907
  0
LINE
  8
1
 62
2
  6
CONTINUOUS
 10
249.187079
 20
138.617907
 11
249.408608
 21
138.668346
  0
LINE
  8
1
 62
2
  6
CONTINUOUS
 10
249.408608
 20
138.668346
 11
249.629662
 21
138.720823
  0
LINE
  8
1
 62
2
  6
CONTINUOUS
 10
249.629662
 20
138.720823
 11
249.850156
 21
138.775613
  0
LINE
  8
1
 62
2
  6
CONTINUOUS
 10
249.850156
 20
138.775613
 11
250.069973
 21
138.833055
  0
LINE
  8
1
 62
2
  6
CONTINUOUS
 10
250.069973
 20
138.833055
 11
250.288963
 21
138.893579
  0
LINE
  8
1
 62
2
  6
CONTINUOUS
 10
250.288963
 20
138.893579
 11
250.506915
 21
138.957741
  0
LINE
  8
1
 62
2
  6
CONTINUOUS
 10
250.506915
 20
138.957741
 11
250.659309
 21
139.005398
  0
LINE
  8
1
 62
2
  6
CONTINUOUS
 10
250.659309
 20
139.005398
 11
250.723530
 21
139.026281
  0
LINE
  8
1
 62
2
  6
CONTINUOUS
 10
250.723530
 20
139.026281
 11
250.938360
 21
139.100225
  0
LINE
  8
1
 62
2
  6
CONTINUOUS
 10
250.938360
 20
139.100225
 11
251.150695
 21
139.181048
  0
LINE
  8
1
 62
2
  6
CONTINUOUS
 10
251.150695
 20
139.181048
 11
251.359313
 21
139.271012
  0
LINE
  8
1
 62
2
  6
CONTINUOUS
 10
251.359313
 20
139.271012
 11
251.561866
 21
139.373855
  0
LINE
  8
1
 62
2
  6
CONTINUOUS
 10
251.561866
 20
139.373855
 11
251.753014
 21
139.496431
  0
LINE
  8
1
 62
2
  6
CONTINUOUS
 10
251.753014
 20
139.496431
 11
251.917101
 21
139.652651
  0
LINE
  8
1
 62
2
  6
CONTINUOUS
 10
251.917101
 20
139.652651
 11
251.996819
 21
139.861144
  0
LINE
  8
1
 62
2
  6
CONTINUOUS
 10
251.996819
 20
139.861144
 11
251.917102
 21
140.069640
  0
LINE
  8
1
 62
2
  6
CONTINUOUS
 10
251.917102
 20
140.069640
 11
251.753015
 21
140.225862
  0
LINE
  8
1
 62
2
  6
CONTINUOUS
 10
251.753015
 20
140.225862
 11
251.561866
 21
140.348437
  0
LINE
  8
1
 62
2
  6
CONTINUOUS
 10
251.561866
 20
140.348437
 11
251.359314
 21
140.451281
  0
LINE
  8
1
 62
2
  6
CONTINUOUS
 10
251.359314
 20
140.451281
 11
251.150695
 21
140.541244
  0
LINE
  8
1
 62
2
  6
CONTINUOUS
 10
251.150695
 20
140.541244
 11
250.938360
 21
140.622067
  0
LINE
  8
1
 62
2
  6
CONTINUOUS
 10
250.938360
 20
140.622067
 11
250.723530
 21
140.696011
  0
LINE
  8
1
 62
2
  6
CONTINUOUS
 10
250.723530
 20
140.696011
 11
250.659310
 21
140.716894
  0
LINE
  8
1
 62
2
  6
CONTINUOUS
 10
250.659310
 20
140.716894
 11
250.506915
 21
140.764552
  0
LINE
  8
1
 62
2
  6
CONTINUOUS
 10
250.506915
 20
140.764552
 11
250.288963
 21
140.828713
  0
LINE
  8
1
 62
2
  6
CONTINUOUS
 10
250.288963
 20
140.828713
 11
250.069973
 21
140.889237
  0
LINE
  8
1
 62
2
  6
CONTINUOUS
 10
250.069973
 20
140.889237
 11
249.850155
 21
140.946679
  0
LINE
  8
1
 62
2
  6
CONTINUOUS
 10
249.850155
 20
140.946679
 11
249.629662
 21
141.001469
  0
LINE
  8
1
 62
2
  6
CONTINUOUS
 10
249.629662
 20
141.001469
 11
249.408608
 21
141.053947
  0
LINE
  8
1
 62
2
  6
CONTINUOUS
 10
249.408608
 20
141.053947
 11
249.187079
 21
141.104386
  0
LINE
  8
1
 62
2
  6
CONTINUOUS
 10
249.187079
 20
141.104386
 11
248.965146
 21
141.153011
  0
LINE
  8
1
 62
2
  6
CONTINUOUS
 10
248.965146
 20
141.153011
 11
248.742863
 21
141.200008
  0
LINE
  8
1
 62
2
  6
CONTINUOUS
 10
248.742863
 20
141.200008
 11
248.520275
 21
141.245535
  0
LINE
  8
1
 62
2
  6
CONTINUOUS
 10
248.520275
 20
141.245535
 11
248.297417
 21
141.289725
  0
LINE
  8
1
 62
2
  6
CONTINUOUS
 10
248.297417
 20
141.289725
 11
248.074321
 21
141.332693
  0
LINE
  8
1
 62
2
  6
CONTINUOUS
 10
248.074321
 20
141.332693
 11
247.851012
 21
141.374540
  0
LINE
  8
1
 62
2
  6
CONTINUOUS
 10
247.851012
 20
141.374540
 11
247.627512
 21
141.415350
  0
LINE
  8
1
 62
2
  6
CONTINUOUS
 10
247.627512
 20
141.415350
 11
247.403839
 21
141.455202
  0
LINE
  8
1
 62
2
  6
CONTINUOUS
 10
247.403839
 20
141.455202
 11
247.180009
 21
141.494162
  0
LINE
  8
1
 62
2
  6
CONTINUOUS
 10
247.180009
 20
141.494162
 11
246.956036
 21
141.532291
  0
LINE
  8
1
 62
2
  6
CONTINUOUS
 10
246.956036
 20
141.532291
 11
246.731932
 21
141.569642
  0
LINE
  8
1
 62
2
  6
CONTINUOUS
 10
246.731932
 20
141.569642
 11
246.529214
 21
141.602783
  0
LINE
  8
1
 62
2
  6
CONTINUOUS
 10
246.529214
 20
141.602783
 11
246.507708
 21
141.606265
  0
LINE
  8
1
 62
2
  6
CONTINUOUS
 10
246.507708
 20
141.606265
 11
246.283373
 21
141.642201
  0
LINE
  8
1
 62
2
  6
CONTINUOUS
 10
246.283373
 20
141.642201
 11
246.058936
 21
141.677491
  0
LINE
  8
1
 62
2
  6
CONTINUOUS
 10
246.058936
 20
141.677491
 11
245.834404
 21
141.712171
  0
LINE
  8
1
 62
2
  6
CONTINUOUS
 10
245.834404
 20
141.712171
 11
245.609783
 21
141.746273
  0
LINE
  8
1
 62
2
  6
CONTINUOUS
 10
245.609783
 20
141.746273
 11
245.385081
 21
141.779828
  0
LINE
  8
1
 62
2
  6
CONTINUOUS
 10
245.385081
 20
141.779828
 11
245.160301
 21
141.812863
  0
LINE
  8
1
 62
2
  6
CONTINUOUS
 10
245.160301
 20
141.812863
 11
244.935449
 21
141.845403
  0
LINE
  8
1
 62
2
  6
CONTINUOUS
 10
244.935449
 20
141.845403
 11
244.710530
 21
141.877471
  0
LINE
  8
1
 62
2
  6
CONTINUOUS
 10
244.710530
 20
141.877471
 11
244.485546
 21
141.909090
  0
LINE
  8
1
 62
2
  6
CONTINUOUS
 10
244.485546
 20
141.909090
 11
244.260503
 21
141.940279
  0
LINE
  8
1
 62
2
  6
CONTINUOUS
 10
244.260503
 20
141.940279
 11
244.035404
 21
141.971056
  0
LINE
  8
1
 62
2
  6
CONTINUOUS
 10
244.035404
 20
141.971056
 11
243.810251
 21
142.001441
  0
LINE
  8
1
 62
2
  6
CONTINUOUS
 10
243.810251
 20
142.001441
 11
243.585048
 21
142.031447
  0
LINE
  8
1
 62
2
  6
CONTINUOUS
 10
243.585048
 20
142.031447
 11
243.359796
 21
142.061091
  0
LINE
  8
1
 62
2
  6
CONTINUOUS
 10
243.359796
 20
142.061091
 11
243.134499
 21
142.090387
  0
LINE
  8
1
 62
2
  6
CONTINUOUS
 10
243.134499
 20
142.090387
 11
242.909159
 21
142.119348
  0
LINE
  8
1
 62
2
  6
CONTINUOUS
 10
242.909159
 20
142.119348
 11
242.683778
 21
142.147986
  0
LINE
  8
1
 62
2
  6
CONTINUOUS
 10
242.683778
 20
142.147986
 11
242.458357
 21
142.176314
  0
LINE
  8
1
 62
2
  6
CONTINUOUS
 10
242.458357
 20
146.761146
 11
242.458357
 21
142.176314
  0
LINE
  8
1
 62
2
  6
CONTINUOUS
 10
238.958357
 20
142.176314
 11
242.458357
 21
142.176314
  0
LINE
  8
1
 62
2
  6
CONTINUOUS
 10
238.958357
 20
146.761146
 11
238.958357
 21
142.176314
  0
LINE
  8
1
 62
2
  6
CONTINUOUS
 10
238.958357
 20
137.545979
 11
242.458357
 21
137.545979
  0
LINE
  8
1
 62
2
  6
CONTINUOUS
 10
238.958357
 20
142.176314
 11
238.787682
 21
141.602930
  0
LINE
  8
1
 62
2
  6
CONTINUOUS
 10
238.787682
 20
141.602930
 11
238.614446
 21
140.716891
  0
LINE
  8
1
 62
2
  6
CONTINUOUS
 10
238.614446
 20
140.716891
 11
238.558357
 21
139.861181
  0
LINE
  8
1
 62
2
  6
CONTINUOUS
 10
238.558357
 20
139.861181
 11
238.614446
 21
139.005402
  0
LINE
  8
1
 62
2
  6
CONTINUOUS
 10
238.614446
 20
139.005402
 11
238.787682
 21
138.119362
  0
LINE
  8
1
 62
2
  6
CONTINUOUS
 10
238.787682
 20
138.119362
 11
238.958357
 21
137.545979
  0
LINE
  8
1
 62
2
  6
CONTINUOUS
 10
238.458357
 20
132.777304
 11
238.458357
 21
132.761146
  0
LINE
  8
1
 62
2
  6
CONTINUOUS
 10
238.458357
 20
132.894777
 11
238.458357
 21
132.777304
  0
LINE
  8
1
 62
2
  6
CONTINUOUS
 10
238.458357
 20
133.142582
 11
238.458357
 21
132.894777
  0
LINE
  8
1
 62
2
  6
CONTINUOUS
 10
238.458357
 20
133.486997
 11
238.458357
 21
133.142582
  0
LINE
  8
1
 62
2
  6
CONTINUOUS
 10
238.458357
 20
133.965720
 11
238.458357
 21
133.486997
  0
LINE
  8
1
 62
2
  6
CONTINUOUS
 10
238.458357
 20
134.513605
 11
238.458357
 21
133.965720
  0
LINE
  8
1
 62
2
  6
CONTINUOUS
 10
238.458357
 20
135.190621
 11
238.458357
 21
134.513605
  0
LINE
  8
1
 62
2
  6
CONTINUOUS
 10
238.458357
 20
135.904639
 11
238.458357
 21
135.190621
  0
LINE
  8
1
 62
2
  6
CONTINUOUS
 10
238.458357
 20
136.733811
 11
238.458357
 21
135.904639
  0
LINE
  8
1
 62
2
  6
CONTINUOUS
 10
238.458357
 20
137.565302
 11
238.458357
 21
136.733811
  0
LINE
  8
1
 62
2
  6
CONTINUOUS
 10
238.458357
 20
138.490123
 11
238.458357
 21
137.565302
  0
LINE
  8
1
 62
2
  6
CONTINUOUS
 10
238.458357
 20
139.382424
 11
238.458357
 21
138.490123
  0
LINE
  8
1
 62
2
  6
CONTINUOUS
 10
238.458357
 20
139.861146
 11
238.458357
 21
139.382424
  0
LINE
  8
1
 62
2
  6
CONTINUOUS
 10
238.458357
 20
140.339869
 11
238.458357
 21
139.861146
  0
LINE
  8
1
 62
2
  6
CONTINUOUS
 10
238.458357
 20
141.232169
 11
238.458357
 21
140.339869
  0
LINE
  8
1
 62
2
  6
CONTINUOUS
 10
238.458357
 20
142.156990
 11
238.458357
 21
141.232169
  0
LINE
  8
1
 62
2
  6
CONTINUOUS
 10
238.458357
 20
142.988482
 11
238.458357
 21
142.156990
  0
LINE
  8
1
 62
2
  6
CONTINUOUS
 10
238.458357
 20
143.817653
 11
238.458357
 21
142.988482
  0
LINE
  8
1
 62
2
  6
CONTINUOUS
 10
238.458357
 20
144.531671
 11
238.458357
 21
143.817653
  0
LINE
  8
1
 62
2
  6
CONTINUOUS
 10
238.458357
 20
145.208687
 11
238.458357
 21
144.531671
  0
LINE
  8
1
 62
2
  6
CONTINUOUS
 10
238.458357
 20
145.756572
 11
238.458357
 21
145.208687
  0
LINE
  8
1
 62
2
  6
CONTINUOUS
 10
238.458357
 20
146.248634
 11
238.458357
 21
145.756572
  0
LINE
  8
1
 62
2
  6
CONTINUOUS
 10
238.458357
 20
146.961146
 11
238.458357
 21
146.248634
  0
LINE
  8
1
 62
2
  6
CONTINUOUS
 10
230.708357
 20
145.756572
 11
230.708357
 21
146.248634
  0
LINE
  8
1
 62
2
  6
CONTINUOUS
 10
230.708357
 20
145.208687
 11
230.708357
 21
145.756572
  0
LINE
  8
1
 62
2
  6
CONTINUOUS
 10
230.708357
 20
144.531671
 11
230.708357
 21
145.208687
  0
LINE
  8
1
 62
2
  6
CONTINUOUS
 10
230.708357
 20
143.817653
 11
230.708357
 21
144.531671
  0
LINE
  8
1
 62
2
  6
CONTINUOUS
 10
230.708357
 20
142.988482
 11
230.708357
 21
143.817653
  0
LINE
  8
1
 62
2
  6
CONTINUOUS
 10
230.708357
 20
142.156990
 11
230.708357
 21
142.988482
  0
LINE
  8
1
 62
2
  6
CONTINUOUS
 10
230.708357
 20
141.232169
 11
230.708357
 21
142.156990
  0
LINE
  8
1
 62
2
  6
CONTINUOUS
 10
230.708357
 20
140.339869
 11
230.708357
 21
141.232169
  0
LINE
  8
1
 62
2
  6
CONTINUOUS
 10
230.708357
 20
139.861146
 11
230.708357
 21
140.339869
  0
LINE
  8
1
 62
2
  6
CONTINUOUS
 10
230.708357
 20
139.382424
 11
230.708357
 21
139.861146
  0
LINE
  8
1
 62
2
  6
CONTINUOUS
 10
230.708357
 20
138.490123
 11
230.708357
 21
139.382424
  0
LINE
  8
1
 62
2
  6
CONTINUOUS
 10
230.708357
 20
137.565302
 11
230.708357
 21
138.490123
  0
LINE
  8
1
 62
2
  6
CONTINUOUS
 10
230.708357
 20
136.733811
 11
230.708357
 21
137.565302
  0
LINE
  8
1
 62
2
  6
CONTINUOUS
 10
230.708357
 20
135.904639
 11
230.708357
 21
136.733811
  0
LINE
  8
1
 62
2
  6
CONTINUOUS
 10
230.708357
 20
135.190621
 11
230.708357
 21
135.904639
  0
LINE
  8
1
 62
2
  6
CONTINUOUS
 10
230.708357
 20
134.513605
 11
230.708357
 21
135.190621
  0
LINE
  8
1
 62
2
  6
CONTINUOUS
 10
230.708357
 20
133.965720
 11
230.708357
 21
134.513605
  0
LINE
  8
1
 62
2
  6
CONTINUOUS
 10
230.708357
 20
133.486997
 11
230.708357
 21
133.965720
  0
LINE
  8
1
 62
2
  6
CONTINUOUS
 10
230.708357
 20
133.142582
 11
230.708357
 21
133.486997
  0
LINE
  8
1
 62
2
  6
CONTINUOUS
 10
230.708357
 20
132.894777
 11
230.708357
 21
133.142582
  0
LINE
  8
1
 62
2
  6
CONTINUOUS
 10
230.708357
 20
132.777304
 11
230.708357
 21
132.894777
  0
LINE
  8
1
 62
2
  6
CONTINUOUS
 10
230.708357
 20
132.761146
 11
230.708357
 21
132.777304
  0
LINE
  8
1
 62
2
  6
CONTINUOUS
 10
230.708357
 20
146.248634
 11
230.708357
 21
146.961146
  0
LINE
  8
1
 62
2
  6
CONTINUOUS
 10
231.008357
 20
145.995038
 11
230.858356
 21
145.875810
  0
LINE
  8
1
 62
2
  6
CONTINUOUS
 10
230.858356
 20
145.875810
 11
230.708357
 21
145.756572
  0
LINE
  8
1
 62
2
  6
CONTINUOUS
 10
231.008357
 20
145.995038
 11
231.008357
 21
145.447153
  0
LINE
  8
1
 62
2
  6
CONTINUOUS
 10
230.708357
 20
145.208687
 11
230.858356
 21
145.327924
  0
LINE
  8
1
 62
2
  6
CONTINUOUS
 10
230.858356
 20
145.327924
 11
231.008357
 21
145.447153
  0
LINE
  8
1
 62
2
  6
CONTINUOUS
 10
238.158357
 20
145.995038
 11
231.008357
 21
145.995038
  0
LINE
  8
1
 62
2
  6
CONTINUOUS
 10
238.458357
 20
145.756572
 11
238.308358
 21
145.875810
  0
LINE
  8
1
 62
2
  6
CONTINUOUS
 10
238.308358
 20
145.875810
 11
238.158357
 21
145.995038
  0
LINE
  8
1
 62
2
  6
CONTINUOUS
 10
238.158357
 20
145.447153
 11
231.008357
 21
145.447153
  0
LINE
  8
1
 62
2
  6
CONTINUOUS
 10
238.158357
 20
145.447153
 11
238.158357
 21
145.995038
  0
LINE
  8
1
 62
2
  6
CONTINUOUS
 10
238.158357
 20
145.447153
 11
238.308358
 21
145.327924
  0
LINE
  8
1
 62
2
  6
CONTINUOUS
 10
238.308358
 20
145.327924
 11
238.458357
 21
145.208687
  0
LINE
  8
1
 62
2
  6
CONTINUOUS
 10
230.708357
 20
145.208687
 11
238.458357
 21
145.208687
  0
LINE
  8
1
 62
2
  6
CONTINUOUS
 10
231.008357
 20
144.714653
 11
230.858356
 21
144.623165
  0
LINE
  8
1
 62
2
  6
CONTINUOUS
 10
230.858356
 20
144.623165
 11
230.708357
 21
144.531671
  0
LINE
  8
1
 62
2
  6
CONTINUOUS
 10
231.008357
 20
144.714653
 11
231.008357
 21
144.000635
  0
LINE
  8
1
 62
2
  6
CONTINUOUS
 10
230.708357
 20
143.817653
 11
230.858356
 21
143.909147
  0
LINE
  8
1
 62
2
  6
CONTINUOUS
 10
230.858356
 20
143.909147
 11
231.008357
 21
144.000635
  0
LINE
  8
1
 62
2
  6
CONTINUOUS
 10
231.008357
 20
143.103508
 11
230.858356
 21
143.045997
  0
LINE
  8
1
 62
2
  6
CONTINUOUS
 10
230.858356
 20
143.045997
 11
230.708357
 21
142.988482
  0
LINE
  8
1
 62
2
  6
CONTINUOUS
 10
231.008357
 20
143.103508
 11
231.008357
 21
142.272017
  0
LINE
  8
1
 62
2
  6
CONTINUOUS
 10
230.708357
 20
142.156990
 11
230.858356
 21
142.214505
  0
LINE
  8
1
 62
2
  6
CONTINUOUS
 10
230.858356
 20
142.214505
 11
231.008357
 21
142.272017
  0
LINE
  8
1
 62
2
  6
CONTINUOUS
 10
231.008357
 20
141.271403
 11
230.858356
 21
141.251787
  0
LINE
  8
1
 62
2
  6
CONTINUOUS
 10
230.858356
 20
141.251787
 11
230.708357
 21
141.232169
  0
LINE
  8
1
 62
2
  6
CONTINUOUS
 10
231.008357
 20
141.271403
 11
231.008357
 21
140.379102
  0
LINE
  8
1
 62
2
  6
CONTINUOUS
 10
230.708357
 20
140.339869
 11
230.858356
 21
140.359486
  0
LINE
  8
1
 62
2
  6
CONTINUOUS
 10
230.858356
 20
140.359486
 11
231.008357
 21
140.379102
  0
LINE
  8
1
 62
2
  6
CONTINUOUS
 10
238.158357
 20
141.271403
 11
231.008357
 21
141.271403
  0
LINE
  8
1
 62
2
  6
CONTINUOUS
 10
238.458357
 20
141.232169
 11
238.308358
 21
141.251787
  0
LINE
  8
1
 62
2
  6
CONTINUOUS
 10
238.308358
 20
141.251787
 11
238.158357
 21
141.271403
  0
LINE
  8
1
 62
2
  6
CONTINUOUS
 10
238.158357
 20
140.379102
 11
231.008357
 21
140.379102
  0
LINE
  8
1
 62
2
  6
CONTINUOUS
 10
238.158357
 20
140.379102
 11
238.158357
 21
141.271403
  0
LINE
  8
1
 62
2
  6
CONTINUOUS
 10
238.158357
 20
140.379102
 11
238.308358
 21
140.359486
  0
LINE
  8
1
 62
2
  6
CONTINUOUS
 10
238.308358
 20
140.359486
 11
238.458357
 21
140.339869
  0
LINE
  8
1
 62
2
  6
CONTINUOUS
 10
230.708357
 20
140.339869
 11
238.458357
 21
140.339869
  0
LINE
  8
1
 62
2
  6
CONTINUOUS
 10
230.708357
 20
139.382424
 11
238.458357
 21
139.382424
  0
LINE
  8
1
 62
2
  6
CONTINUOUS
 10
231.008357
 20
139.343190
 11
230.858356
 21
139.362806
  0
LINE
  8
1
 62
2
  6
CONTINUOUS
 10
230.858356
 20
139.362806
 11
230.708357
 21
139.382424
  0
LINE
  8
1
 62
2
  6
CONTINUOUS
 10
231.008357
 20
139.343190
 11
231.008357
 21
138.450890
  0
LINE
  8
1
 62
2
  6
CONTINUOUS
 10
230.708357
 20
138.490123
 11
230.858356
 21
138.470506
  0
LINE
  8
1
 62
2
  6
CONTINUOUS
 10
230.858356
 20
138.470506
 11
231.008357
 21
138.450890
  0
LINE
  8
1
 62
2
  6
CONTINUOUS
 10
231.008357
 20
137.450275
 11
230.858356
 21
137.507787
  0
LINE
  8
1
 62
2
  6
CONTINUOUS
 10
230.858356
 20
137.507787
 11
230.708357
 21
137.565302
  0
LINE
  8
1
 62
2
  6
CONTINUOUS
 10
231.008357
 20
137.450275
 11
231.008357
 21
136.618784
  0
LINE
  8
1
 62
2
  6
CONTINUOUS
 10
230.708357
 20
136.733811
 11
230.858356
 21
136.676295
  0
LINE
  8
1
 62
2
  6
CONTINUOUS
 10
230.858356
 20
136.676295
 11
231.008357
 21
136.618784
  0
LINE
  8
1
 62
2
  6
CONTINUOUS
 10
238.158357
 20
137.450275
 11
231.008357
 21
137.450275
  0
LINE
  8
1
 62
2
  6
CONTINUOUS
 10
230.708357
 20
137.565302
 11
238.458357
 21
137.565302
  0
LINE
  8
1
 62
2
  6
CONTINUOUS
 10
238.458357
 20
137.565302
 11
238.308358
 21
137.507787
  0
LINE
  8
1
 62
2
  6
CONTINUOUS
 10
238.308358
 20
137.507787
 11
238.158357
 21
137.450275
  0
LINE
  8
1
 62
2
  6
CONTINUOUS
 10
238.158357
 20
136.618784
 11
231.008357
 21
136.618784
  0
LINE
  8
1
 62
2
  6
CONTINUOUS
 10
238.158357
 20
136.618784
 11
238.158357
 21
137.450275
  0
LINE
  8
1
 62
2
  6
CONTINUOUS
 10
238.158357
 20
136.618784
 11
238.308358
 21
136.676295
  0
LINE
  8
1
 62
2
  6
CONTINUOUS
 10
238.308358
 20
136.676295
 11
238.458357
 21
136.733811
  0
LINE
  8
1
 62
2
  6
CONTINUOUS
 10
230.708357
 20
135.904639
 11
238.458357
 21
135.904639
  0
LINE
  8
1
 62
2
  6
CONTINUOUS
 10
231.008357
 20
135.721658
 11
230.858356
 21
135.813145
  0
LINE
  8
1
 62
2
  6
CONTINUOUS
 10
230.858356
 20
135.813145
 11
230.708357
 21
135.904639
  0
LINE
  8
1
 62
2
  6
CONTINUOUS
 10
231.008357
 20
135.721658
 11
231.008357
 21
135.007640
  0
LINE
  8
1
 62
2
  6
CONTINUOUS
 10
230.708357
 20
135.190621
 11
230.858356
 21
135.099127
  0
LINE
  8
1
 62
2
  6
CONTINUOUS
 10
230.858356
 20
135.099127
 11
231.008357
 21
135.007640
  0
LINE
  8
1
 62
2
  6
CONTINUOUS
 10
231.008357
 20
134.275139
 11
230.858356
 21
134.394368
  0
LINE
  8
1
 62
2
  6
CONTINUOUS
 10
230.858356
 20
134.394368
 11
230.708357
 21
134.513605
  0
LINE
  8
1
 62
2
  6
CONTINUOUS
 10
231.008357
 20
134.275139
 11
231.008357
 21
133.727254
  0
LINE
  8
1
 62
2
  6
CONTINUOUS
 10
230.708357
 20
133.965720
 11
230.858356
 21
133.846483
  0
LINE
  8
1
 62
2
  6
CONTINUOUS
 10
230.858356
 20
133.846483
 11
231.008357
 21
133.727254
  0
LINE
  8
1
 62
2
  6
CONTINUOUS
 10
238.158357
 20
133.727254
 11
238.308358
 21
133.846483
  0
LINE
  8
1
 62
2
  6
CONTINUOUS
 10
238.308358
 20
133.846483
 11
238.458357
 21
133.965720
  0
LINE
  8
1
 62
2
  6
CONTINUOUS
 10
238.158357
 20
133.727254
 11
238.158357
 21
134.275139
  0
LINE
  8
1
 62
2
  6
CONTINUOUS
 10
238.458357
 20
134.513605
 11
238.308358
 21
134.394368
  0
LINE
  8
1
 62
2
  6
CONTINUOUS
 10
238.308358
 20
134.394368
 11
238.158357
 21
134.275139
  0
LINE
  8
1
 62
2
  6
CONTINUOUS
 10
238.158357
 20
134.275139
 11
231.008357
 21
134.275139
  0
LINE
  8
1
 62
2
  6
CONTINUOUS
 10
230.708357
 20
134.513605
 11
238.458357
 21
134.513605
  0
LINE
  8
1
 62
2
  6
CONTINUOUS
 10
238.158357
 20
133.727254
 11
231.008357
 21
133.727254
  0
LINE
  8
1
 62
2
  6
CONTINUOUS
 10
230.708357
 20
133.486997
 11
238.458357
 21
133.486997
  0
LINE
  8
1
 62
2
  6
CONTINUOUS
 10
238.158357
 20
133.209298
 11
231.008357
 21
133.209298
  0
LINE
  8
1
 62
2
  6
CONTINUOUS
 10
231.008357
 20
133.209298
 11
230.858356
 21
133.348143
  0
LINE
  8
1
 62
2
  6
CONTINUOUS
 10
230.858356
 20
133.348143
 11
230.708357
 21
133.486997
  0
LINE
  8
1
 62
2
  6
CONTINUOUS
 10
238.458357
 20
133.486997
 11
238.308358
 21
133.348143
  0
LINE
  8
1
 62
2
  6
CONTINUOUS
 10
238.308358
 20
133.348143
 11
238.158357
 21
133.209298
  0
LINE
  8
1
 62
2
  6
CONTINUOUS
 10
230.708357
 20
133.142582
 11
230.858356
 21
133.003728
  0
LINE
  8
1
 62
2
  6
CONTINUOUS
 10
230.858356
 20
133.003728
 11
231.008357
 21
132.864883
  0
LINE
  8
1
 62
2
  6
CONTINUOUS
 10
238.158357
 20
132.864883
 11
231.008357
 21
132.864883
  0
LINE
  8
1
 62
2
  6
CONTINUOUS
 10
238.158357
 20
132.864883
 11
238.308358
 21
133.003728
  0
LINE
  8
1
 62
2
  6
CONTINUOUS
 10
238.308358
 20
133.003728
 11
238.458357
 21
133.142582
  0
LINE
  8
1
 62
2
  6
CONTINUOUS
 10
231.008357
 20
133.209298
 11
231.008357
 21
132.864883
  0
LINE
  8
1
 62
2
  6
CONTINUOUS
 10
238.158357
 20
132.864883
 11
238.158357
 21
133.209298
  0
LINE
  8
1
 62
2
  6
CONTINUOUS
 10
238.158357
 20
135.007640
 11
238.308358
 21
135.099127
  0
LINE
  8
1
 62
2
  6
CONTINUOUS
 10
238.308358
 20
135.099127
 11
238.458357
 21
135.190621
  0
LINE
  8
1
 62
2
  6
CONTINUOUS
 10
238.158357
 20
135.007640
 11
238.158357
 21
135.721658
  0
LINE
  8
1
 62
2
  6
CONTINUOUS
 10
238.458357
 20
135.904639
 11
238.308358
 21
135.813145
  0
LINE
  8
1
 62
2
  6
CONTINUOUS
 10
238.308358
 20
135.813145
 11
238.158357
 21
135.721658
  0
LINE
  8
1
 62
2
  6
CONTINUOUS
 10
238.158357
 20
135.721658
 11
231.008357
 21
135.721658
  0
LINE
  8
1
 62
2
  6
CONTINUOUS
 10
238.158357
 20
135.007640
 11
231.008357
 21
135.007640
  0
LINE
  8
1
 62
2
  6
CONTINUOUS
 10
238.158357
 20
132.596769
 11
231.008357
 21
132.596769
  0
LINE
  8
1
 62
2
  6
CONTINUOUS
 10
231.008357
 20
132.596769
 11
230.858356
 21
132.745768
  0
LINE
  8
1
 62
2
  6
CONTINUOUS
 10
230.858356
 20
132.745768
 11
230.708357
 21
132.894777
  0
LINE
  8
1
 62
2
  6
CONTINUOUS
 10
238.190654
 20
132.894777
 11
238.458357
 21
132.894777
  0
LINE
  8
1
 62
2
  6
CONTINUOUS
 10
230.708357
 20
132.894777
 11
230.976061
 21
132.894777
  0
LINE
  8
1
 62
2
  6
CONTINUOUS
 10
238.458357
 20
132.894777
 11
238.308358
 21
132.745768
  0
LINE
  8
1
 62
2
  6
CONTINUOUS
 10
238.308358
 20
132.745768
 11
238.158357
 21
132.596769
  0
LINE
  8
1
 62
2
  6
CONTINUOUS
 10
231.008357
 20
132.596769
 11
231.008357
 21
132.479295
  0
LINE
  8
1
 62
2
  6
CONTINUOUS
 10
230.708357
 20
132.777304
 11
230.858356
 21
132.628294
  0
LINE
  8
1
 62
2
  6
CONTINUOUS
 10
230.858356
 20
132.628294
 11
231.008357
 21
132.479295
  0
LINE
  8
1
 62
2
  6
CONTINUOUS
 10
238.158357
 20
132.479295
 11
231.008357
 21
132.479295
  0
LINE
  8
1
 62
2
  6
CONTINUOUS
 10
238.158357
 20
132.479295
 11
238.158357
 21
132.596769
  0
LINE
  8
1
 62
2
  6
CONTINUOUS
 10
238.158357
 20
132.479295
 11
238.308358
 21
132.628294
  0
LINE
  8
1
 62
2
  6
CONTINUOUS
 10
238.308358
 20
132.628294
 11
238.458357
 21
132.777304
  0
LINE
  8
1
 62
2
  6
CONTINUOUS
 10
231.008357
 20
132.479295
 11
230.858356
 21
132.628294
  0
LINE
  8
1
 62
2
  6
CONTINUOUS
 10
230.858356
 20
132.628294
 11
230.724622
 21
132.761146
  0
LINE
  8
1
 62
2
  6
CONTINUOUS
 10
238.158357
 20
138.450890
 11
238.308358
 21
138.470506
  0
LINE
  8
1
 62
2
  6
CONTINUOUS
 10
238.308358
 20
138.470506
 11
238.458357
 21
138.490123
  0
LINE
  8
1
 62
2
  6
CONTINUOUS
 10
238.158357
 20
138.450890
 11
238.158357
 21
139.343190
  0
LINE
  8
1
 62
2
  6
CONTINUOUS
 10
238.458357
 20
139.382424
 11
238.308358
 21
139.362806
  0
LINE
  8
1
 62
2
  6
CONTINUOUS
 10
238.308358
 20
139.362806
 11
238.158357
 21
139.343190
  0
LINE
  8
1
 62
2
  6
CONTINUOUS
 10
238.158357
 20
139.343190
 11
231.008357
 21
139.343190
  0
LINE
  8
1
 62
2
  6
CONTINUOUS
 10
238.158357
 20
138.450890
 11
231.008357
 21
138.450890
  0
LINE
  8
1
 62
2
  6
CONTINUOUS
 10
230.708357
 20
142.156990
 11
238.458357
 21
142.156990
  0
LINE
  8
1
 62
2
  6
CONTINUOUS
 10
238.158357
 20
142.272017
 11
238.308358
 21
142.214505
  0
LINE
  8
1
 62
2
  6
CONTINUOUS
 10
238.308358
 20
142.214505
 11
238.458357
 21
142.156990
  0
LINE
  8
1
 62
2
  6
CONTINUOUS
 10
238.158357
 20
142.272017
 11
238.158357
 21
143.103508
  0
LINE
  8
1
 62
2
  6
CONTINUOUS
 10
238.458357
 20
142.988482
 11
238.308358
 21
143.045997
  0
LINE
  8
1
 62
2
  6
CONTINUOUS
 10
238.308358
 20
143.045997
 11
238.158357
 21
143.103508
  0
LINE
  8
1
 62
2
  6
CONTINUOUS
 10
238.158357
 20
143.103508
 11
231.008357
 21
143.103508
  0
LINE
  8
1
 62
2
  6
CONTINUOUS
 10
238.158357
 20
142.272017
 11
231.008357
 21
142.272017
  0
LINE
  8
1
 62
2
  6
CONTINUOUS
 10
230.708357
 20
143.817653
 11
238.458357
 21
143.817653
  0
LINE
  8
1
 62
2
  6
CONTINUOUS
 10
238.158357
 20
144.000635
 11
238.308358
 21
143.909147
  0
LINE
  8
1
 62
2
  6
CONTINUOUS
 10
238.308358
 20
143.909147
 11
238.458357
 21
143.817653
  0
LINE
  8
1
 62
2
  6
CONTINUOUS
 10
238.158357
 20
144.000635
 11
238.158357
 21
144.714653
  0
LINE
  8
1
 62
2
  6
CONTINUOUS
 10
238.458357
 20
144.531671
 11
238.308358
 21
144.623165
  0
LINE
  8
1
 62
2
  6
CONTINUOUS
 10
238.308358
 20
144.623165
 11
238.158357
 21
144.714653
  0
LINE
  8
1
 62
2
  6
CONTINUOUS
 10
238.158357
 20
144.714653
 11
231.008357
 21
144.714653
  0
LINE
  8
1
 62
2
  6
CONTINUOUS
 10
238.158357
 20
144.000635
 11
231.008357
 21
144.000635
  0
LINE
  8
1
 62
2
  6
CONTINUOUS
 10
230.708357
 20
146.248634
 11
238.458357
 21
146.248634
  0
LINE
  8
1
 62
2
  6
CONTINUOUS
 10
230.708357
 20
146.248634
 11
230.858319
 21
146.414919
  0
LINE
  8
1
 62
2
  6
CONTINUOUS
 10
230.858319
 20
146.414919
 11
231.008357
 21
146.580521
  0
LINE
  8
1
 62
2
  6
CONTINUOUS
 10
231.008357
 20
146.580521
 11
238.158357
 21
146.580521
  0
LINE
  8
1
 62
2
  6
CONTINUOUS
 10
238.158357
 20
146.580521
 11
238.308396
 21
146.414919
  0
LINE
  8
1
 62
2
  6
CONTINUOUS
 10
238.308396
 20
146.414919
 11
238.458357
 21
146.248634
  0
LINE
  8
1
 62
2
  6
CONTINUOUS
 10
238.158357
 20
146.580521
 11
238.158357
 21
147.261146
  0
LINE
  8
1
 62
2
  6
CONTINUOUS
 10
231.008357
 20
147.261146
 11
231.008357
 21
146.580521
  0
LINE
  8
1
 62
2
  6
CONTINUOUS
 10
235.808357
 20
147.107525
 11
235.808357
 21
147.244235
  0
LINE
  8
1
 62
2
  6
CONTINUOUS
 10
234.308357
 20
147.244235
 11
235.808357
 21
147.244235
  0
LINE
  8
1
 62
2
  6
CONTINUOUS
 10
234.308357
 20
147.244235
 11
234.308357
 21
147.261146
  0
LINE
  8
1
 62
2
  6
CONTINUOUS
 10
233.808357
 20
147.107525
 11
234.308357
 21
147.191809
  0
LINE
  8
1
 62
2
  6
CONTINUOUS
 10
233.308357
 20
147.191809
 11
233.808357
 21
147.107525
  0
LINE
  8
1
 62
2
  6
CONTINUOUS
 10
232.808357
 20
147.244235
 11
233.266771
 21
147.198819
  0
LINE
  8
1
 62
2
  6
CONTINUOUS
 10
233.308357
 20
147.261146
 11
233.308357
 21
147.107525
  0
LINE
  8
1
 62
2
  6
CONTINUOUS
 10
233.308357
 20
147.107525
 11
235.808357
 21
147.107525
  0
LINE
  8
1
 62
2
  6
CONTINUOUS
 10
234.308357
 20
147.244235
 11
234.308357
 21
147.107525
  0
LINE
  8
1
 62
2
  6
CONTINUOUS
 10
229.928357
 20
135.286146
 11
229.928357
 21
144.374252
  0
LINE
  8
1
 62
2
  6
CONTINUOUS
 10
230.128357
 20
144.604365
 11
230.028288
 21
144.490659
  0
LINE
  8
1
 62
2
  6
CONTINUOUS
 10
230.028288
 20
144.490659
 11
229.928357
 21
144.374252
  0
LINE
  8
1
 62
2
  6
CONTINUOUS
 10
230.708357
 20
144.604365
 11
230.128357
 21
144.604365
  0
LINE
  8
1
 62
2
  6
CONTINUOUS
 10
238.958357
 20
137.545979
 11
238.958357
 21
132.961146
  0
LINE
  8
1
 62
2
  6
CONTINUOUS
 10
230.128357
 20
144.604365
 11
230.128357
 21
135.086146
  0
LINE
  8
1
 62
132
  6
CONTINUOUS
 10
271.728357
 20
143.361146
 11
279.588818
 21
143.361146
  0
LINE
  8
1
 62
132
  6
CONTINUOUS
 10
271.728357
 20
136.361146
 11
279.513805
 21
136.361146
  0
LINE
  8
1
 62
132
  6
DASHDOT
 10
224.821216
 20
139.861146
 11
280.970942
 21
139.861146
  0
LINE
  8
1
 62
7
  6
CONTINUOUS
 10
126.041281
 20
72.346938
 11
122.089464
 21
60.491487
  0
LINE
  8
1
 62
7
  6
CONTINUOUS
 10
128.158326
 20
72.346938
 11
124.206509
 21
60.491487
  0
LINE
  8
1
 62
7
  6
CONTINUOUS
 10
165.863648
 20
66.263169
 11
164.395995
 21
66.263169
  0
LINE
  8
1
 62
7
  6
DASHDOT
 10
126.130403
 20
66.263169
 11
197.708581
 21
66.263169
  0
LINE
  8
1
 62
7
  6
CONTINUOUS
 10
207.420017
 20
56.313169
 11
213.420017
 21
56.313169
  0
LINE
  8
1
 62
7
  6
DASHDOT
 10
204.772071
 20
66.263169
 11
215.766652
 21
66.263169
  0
LINE
  8
1
 62
7
  6
CONTINUOUS
 10
212.120017
 20
74.863169
 11
212.120017
 21
57.663169
  0
LINE
  8
1
 62
7
  6
CONTINUOUS
 10
212.120017
 20
57.663169
 11
208.720017
 21
57.663169
  0
LINE
  8
1
 62
7
  6
CONTINUOUS
 10
208.720017
 20
57.663169
 11
208.720017
 21
74.863169
  0
LINE
  8
1
 62
7
  6
CONTINUOUS
 10
208.720017
 20
74.863169
 11
212.120017
 21
74.863169
  0
DIMENSION
  8
2
 62
134
  6
CONTINUOUS
  2
*D14
 10
213.420017
 20
48.764309
 11
210.420017
 21
48.764309
 70
     0
  1
6
 13
213.420017
 23
55.313169
 14
207.420017
 24
55.313169
 50
180.000000
  0
LINE
  8
1
 62
7
  6
CONTINUOUS
 10
127.347069
 20
69.763169
 11
164.395995
 21
69.763169
  0
LINE
  8
1
 62
7
  6
CONTINUOUS
 10
164.395995
 20
62.763169
 11
124.913736
 21
62.763169
  0
LINE
  8
1
 62
7
  6
CONTINUOUS
 10
164.395995
 20
69.763169
 11
164.395995
 21
62.763169
  0
DIMENSION
  8
2
 62
134
  6
CONTINUOUS
  2
*D15
 10
146.109133
 20
62.763169
 11
146.109133
 21
75.975197
 70
     0
  1
φ7
 13
146.109133
 23
62.763169
 14
146.109133
 24
69.763169
 50
90.000000
  0
LINE
  8
1
 62
7
  6
CONTINUOUS
 10
165.863648
 20
69.063169
 11
164.395995
 21
69.063169
  0
LINE
  8
1
 62
7
  6
CONTINUOUS
 10
165.863648
 20
67.863169
 11
164.395995
 21
67.863169
  0
LINE
  8
1
 62
7
  6
CONTINUOUS
 10
165.863648
 20
69.063169
 11
172.625957
 21
73.863169
  0
LINE
  8
1
 62
7
  6
CONTINUOUS
 10
165.863648
 20
67.863169
 11
172.650449
 21
72.663169
  0
LINE
  8
1
 62
7
  6
CONTINUOUS
 10
165.863648
 20
63.463169
 11
164.395995
 21
63.463169
  0
LINE
  8
1
 62
7
  6
CONTINUOUS
 10
165.863648
 20
64.663169
 11
164.395995
 21
64.663169
  0
LINE
  8
1
 62
7
  6
CONTINUOUS
 10
165.863648
 20
63.463169
 11
172.625957
 21
58.663169
  0
LINE
  8
1
 62
7
  6
CONTINUOUS
 10
165.863648
 20
64.663169
 11
172.650449
 21
59.863169
  0
LINE
  8
1
 62
7
  6
CONTINUOUS
 10
165.863648
 20
67.463169
 11
164.395995
 21
67.463169
  0
LINE
  8
1
 62
7
  6
CONTINUOUS
 10
165.863648
 20
67.463169
 11
172.625957
 21
67.863169
  0
LINE
  8
1
 62
7
  6
CONTINUOUS
 10
165.863648
 20
66.263169
 11
172.650449
 21
66.663169
  0
LINE
  8
1
 62
7
  6
CONTINUOUS
 10
168.912028
 20
69.995854
 11
172.625957
 21
71.863169
  0
LINE
  8
1
 62
7
  6
CONTINUOUS
 10
166.316320
 20
67.489945
 11
172.650449
 21
70.663169
  0
LINE
  8
1
 62
7
  6
CONTINUOUS
 10
169.225525
 20
68.907752
 11
172.625957
 21
69.863169
  0
LINE
  8
1
 62
7
  6
CONTINUOUS
 10
169.176663
 20
67.690665
 11
172.650449
 21
68.663169
  0
LINE
  8
1
 62
7
  6
CONTINUOUS
 10
165.863648
 20
65.063169
 11
164.395995
 21
65.063169
  0
LINE
  8
1
 62
7
  6
CONTINUOUS
 10
165.863648
 20
65.063169
 11
172.625957
 21
64.663169
  0
LINE
  8
1
 62
7
  6
CONTINUOUS
 10
165.863648
 20
66.263169
 11
172.650449
 21
65.863169
  0
LINE
  8
1
 62
7
  6
CONTINUOUS
 10
168.912028
 20
62.530483
 11
172.625957
 21
60.663169
  0
LINE
  8
1
 62
7
  6
CONTINUOUS
 10
166.316320
 20
65.036393
 11
172.650449
 21
61.863169
  0
LINE
  8
1
 62
7
  6
CONTINUOUS
 10
169.225525
 20
63.618585
 11
172.625957
 21
62.663169
  0
LINE
  8
1
 62
7
  6
CONTINUOUS
 10
169.176663
 20
64.835673
 11
172.650449
 21
63.863169
  0
LINE
  8
1
 62
7
  6
CONTINUOUS
 10
207.420017
 20
76.813169
 11
208.720017
 21
76.813169
  0
LINE
  8
1
 62
7
  6
CONTINUOUS
 10
213.420017
 20
76.813169
 11
212.120017
 21
76.813169
  0
LINE
  8
1
 62
7
  6
CONTINUOUS
 10
208.720017
 20
79.013169
 11
207.420017
 21
79.013169
  0
LINE
  8
1
 62
7
  6
CONTINUOUS
 10
212.120017
 20
79.013169
 11
213.420017
 21
79.013169
  0
LINE
  8
1
 62
7
  6
CONTINUOUS
 10
207.420017
 20
79.013169
 11
207.420017
 21
56.313169
  0
LINE
  8
1
 62
7
  6
CONTINUOUS
 10
213.420017
 20
56.313169
 11
213.420017
 21
79.013169
  0
LINE
  8
1
 62
7
  6
CONTINUOUS
 10
210.220017
 20
73.633169
 11
210.220017
 21
72.893169
  0
LINE
  8
1
 62
7
  6
CONTINUOUS
 10
210.220017
 20
72.893169
 11
210.620017
 21
72.893169
  0
LINE
  8
1
 62
7
  6
CONTINUOUS
 10
210.620017
 20
72.893169
 11
210.620017
 21
73.633169
  0
LINE
  8
1
 62
7
  6
CONTINUOUS
 10
210.620017
 20
73.633169
 11
210.220017
 21
73.633169
  0
LINE
  8
1
 62
7
  6
DASHDOT
 10
209.322757
 20
73.263169
 11
211.512387
 21
73.263169
  0
LINE
  8
1
 62
7
  6
CONTINUOUS
 10
210.220017
 20
71.633169
 11
210.220017
 21
70.893169
  0
LINE
  8
1
 62
7
  6
CONTINUOUS
 10
210.220017
 20
70.893169
 11
210.620017
 21
70.893169
  0
LINE
  8
1
 62
7
  6
CONTINUOUS
 10
210.620017
 20
70.893169
 11
210.620017
 21
71.633169
  0
LINE
  8
1
 62
7
  6
CONTINUOUS
 10
210.620017
 20
71.633169
 11
210.220017
 21
71.633169
  0
LINE
  8
1
 62
7
  6
DASHDOT
 10
209.322757
 20
71.263169
 11
211.512387
 21
71.263169
  0
LINE
  8
1
 62
7
  6
CONTINUOUS
 10
210.220017
 20
69.633169
 11
210.220017
 21
68.893169
  0
LINE
  8
1
 62
7
  6
CONTINUOUS
 10
210.220017
 20
68.893169
 11
210.620017
 21
68.893169
  0
LINE
  8
1
 62
7
  6
CONTINUOUS
 10
210.620017
 20
68.893169
 11
210.620017
 21
69.633169
  0
LINE
  8
1
 62
7
  6
CONTINUOUS
 10
210.620017
 20
69.633169
 11
210.220017
 21
69.633169
  0
LINE
  8
1
 62
7
  6
DASHDOT
 10
209.322757
 20
69.263169
 11
211.512387
 21
69.263169
  0
LINE
  8
1
 62
7
  6
CONTINUOUS
 10
210.220017
 20
67.633169
 11
210.220017
 21
66.893169
  0
LINE
  8
1
 62
7
  6
CONTINUOUS
 10
210.220017
 20
66.893169
 11
210.620017
 21
66.893169
  0
LINE
  8
1
 62
7
  6
CONTINUOUS
 10
210.620017
 20
66.893169
 11
210.620017
 21
67.633169
  0
LINE
  8
1
 62
7
  6
CONTINUOUS
 10
210.620017
 20
67.633169
 11
210.220017
 21
67.633169
  0
LINE
  8
1
 62
7
  6
DASHDOT
 10
209.322757
 20
67.263169
 11
211.512387
 21
67.263169
  0
LINE
  8
1
 62
7
  6
CONTINUOUS
 10
210.220017
 20
65.633169
 11
210.220017
 21
64.893169
  0
LINE
  8
1
 62
7
  6
CONTINUOUS
 10
210.220017
 20
64.893169
 11
210.620017
 21
64.893169
  0
LINE
  8
1
 62
7
  6
CONTINUOUS
 10
210.620017
 20
64.893169
 11
210.620017
 21
65.633169
  0
LINE
  8
1
 62
7
  6
CONTINUOUS
 10
210.620017
 20
65.633169
 11
210.220017
 21
65.633169
  0
LINE
  8
1
 62
7
  6
DASHDOT
 10
209.322757
 20
65.263169
 11
211.512387
 21
65.263169
  0
LINE
  8
1
 62
7
  6
CONTINUOUS
 10
210.220017
 20
63.633169
 11
210.220017
 21
62.893169
  0
LINE
  8
1
 62
7
  6
CONTINUOUS
 10
210.220017
 20
62.893169
 11
210.620017
 21
62.893169
  0
LINE
  8
1
 62
7
  6
CONTINUOUS
 10
210.620017
 20
62.893169
 11
210.620017
 21
63.633169
  0
LINE
  8
1
 62
7
  6
CONTINUOUS
 10
210.620017
 20
63.633169
 11
210.220017
 21
63.633169
  0
LINE
  8
1
 62
7
  6
DASHDOT
 10
209.322757
 20
63.263169
 11
211.512387
 21
63.263169
  0
LINE
  8
1
 62
7
  6
CONTINUOUS
 10
210.220017
 20
61.633169
 11
210.220017
 21
60.893169
  0
LINE
  8
1
 62
7
  6
CONTINUOUS
 10
210.220017
 20
60.893169
 11
210.620017
 21
60.893169
  0
LINE
  8
1
 62
7
  6
CONTINUOUS
 10
210.620017
 20
60.893169
 11
210.620017
 21
61.633169
  0
LINE
  8
1
 62
7
  6
CONTINUOUS
 10
210.620017
 20
61.633169
 11
210.220017
 21
61.633169
  0
LINE
  8
1
 62
7
  6
DASHDOT
 10
209.322757
 20
61.263169
 11
211.512387
 21
61.263169
  0
LINE
  8
1
 62
7
  6
CONTINUOUS
 10
210.220017
 20
59.633169
 11
210.220017
 21
58.893169
  0
LINE
  8
1
 62
7
  6
CONTINUOUS
 10
210.220017
 20
58.893169
 11
210.620017
 21
58.893169
  0
LINE
  8
1
 62
7
  6
CONTINUOUS
 10
210.620017
 20
58.893169
 11
210.620017
 21
59.633169
  0
LINE
  8
1
 62
7
  6
CONTINUOUS
 10
210.620017
 20
59.633169
 11
210.220017
 21
59.633169
  0
LINE
  8
1
 62
7
  6
DASHDOT
 10
209.322757
 20
59.263169
 11
211.512387
 21
59.263169
  0
LINE
  8
1
 62
7
  6
CONTINUOUS
 10
208.720017
 20
76.813169
 11
208.720017
 21
80.786261
  0
LINE
  8
1
 62
7
  6
CONTINUOUS
 10
212.120017
 20
76.813169
 11
212.120017
 21
80.786261
  0
LINE
  8
1
 62
7
  6
CONTINUOUS
 10
212.120017
 20
80.786261
 11
208.720017
 21
80.786261
  0
LINE
  8
1
 62
7
  6
DASHDOT
 10
61.595526
 20
66.263169
 11
73.384246
 21
66.263169
  0
LINE
  8
1
 62
4
  6
DASHDOT
 10
57.971573
 20
66.263169
 11
124.013358
 21
66.263169
  0
TEXT
  8
2
 62
7
  6
CONTINUOUS
 10
221.816885
 20
86.278166
 40
3.000000
 41
1.000000
  1
e-CON コネクタ　8ピン
  7
KANJI
 50
0.000000
 51
0.000000
  0
LINE
  8
1
 62
7
  6
DASHDOT
 10
210.420017
 20
83.788080
 11
210.420017
 21
52.466753
  0
LINE
  8
2
 62
134
  6
CONTINUOUS
 10
193.862166
 20
77.700130
 11
220.444256
 21
89.677481
  0
LINE
  8
2
 62
134
  6
CONTINUOUS
 10
220.444256
 20
89.677481
 11
243.558568
 21
89.677481
  0
TEXT
  8
2
 62
134
  6
CONTINUOUS
 10
223.558568
 20
89.677481
 40
4.000000
 41
1.000000
  1
　出力ｺﾈｸﾀ
  7
KANJI
 50
0.000000
 51
0.000000
  0
LINE
  8
2
 62
134
  6
CONTINUOUS
 10
193.862166
 20
77.700130
 11
195.410833
 21
78.965686
  0
LINE
  8
2
 62
134
  6
CONTINUOUS
 10
193.862166
 20
77.700130
 11
195.836128
 21
78.021800
  0
LINE
  8
2
 62
134
  6
CONTINUOUS
 10
195.410833
 20
78.965686
 11
195.836128
 21
78.021800
  0
LINE
  8
2
 62
134
  6
CONTINUOUS
 10
194.302494
 20
77.898534
 11
195.076828
 21
78.531311
  0
LINE
  8
2
 62
134
  6
CONTINUOUS
 10
194.302494
 20
77.898534
 11
195.289476
 21
78.059369
  0
LINE
  8
2
 62
134
  6
CONTINUOUS
 10
195.076828
 20
78.531311
 11
195.289476
 21
78.059369
  0
LINE
  8
1
 62
6
  6
CONTINUOUS
 10
69.390380
 20
43.563169
 11
70.890380
 21
45.063169
  0
LINE
  8
1
 62
6
  6
CONTINUOUS
 10
70.890380
 20
45.063169
 11
70.890380
 21
88.056518
  0
LINE
  8
1
 62
6
  6
CONTINUOUS
 10
70.890380
 20
88.056518
 11
69.390380
 21
89.556518
  0
LINE
  8
1
 62
3
  6
CONTINUOUS
 10
69.390380
 20
86.659844
 11
69.390380
 21
49.563168
  0
LINE
  8
1
 62
7
  6
CONTINUOUS
 10
69.390380
 20
88.059844
 11
69.390380
 21
45.063169
  0
LINE
  8
1
 62
7
  6
DASHDOT
 10
66.890380
 20
87.498374
 11
66.890380
 21
82.287580
  0
CIRCLE
  8
1
 62
7
  6
CONTINUOUS
 10
66.890380
 20
85.563169
 40
1.750000
  0
LINE
  8
1
 62
7
  6
DASHDOT
 10
63.895586
 20
85.563169
 11
70.561959
 21
85.563169
  0
CIRCLE
  8
1
 62
7
  6
DOT
 10
66.890380
 20
85.563169
 40
3.000000
  0
CIRCLE
  8
1
 62
7
  6
DOT
 10
66.890380
 20
85.563169
 40
3.000000
  0
LINE
  8
1
 62
6
  6
CONTINUOUS
 10
59.778819
 20
45.063169
 11
69.390380
 21
45.063169
  0
LINE
  8
1
 62
6
  6
CONTINUOUS
 10
60.081603
 20
43.563169
 11
69.390380
 21
43.563169
  0
LINE
  8
1
 62
6
  6
CONTINUOUS
 10
59.930211
 20
88.059844
 11
69.390380
 21
88.059844
  0
LINE
  8
1
 62
6
  6
CONTINUOUS
 10
59.703122
 20
89.556518
 11
69.390380
 21
89.556518
  0
ARC
  8
1
 62
2
  6
CONTINUOUS
 10
71.090380
 20
73.713169
 40
0.200000
 50
90.000000
 51
180.000000
  0
ARC
  8
1
 62
2
  6
CONTINUOUS
 10
72.290380
 20
73.713169
 40
0.200000
 50
-89.230975
 51
-89.187365
  0
ARC
  8
1
 62
2
  6
CONTINUOUS
 10
72.290380
 20
73.713169
 40
0.200000
 50
-89.143735
 51
-88.819498
  0
ARC
  8
1
 62
2
  6
CONTINUOUS
 10
72.290380
 20
73.713169
 40
0.200000
 50
-88.640266
 51
-84.763088
  0
LINE
  8
1
 62
2
  6
CONTINUOUS
 10
72.671786
 20
65.435445
 11
72.690380
 21
65.435445
  0
LINE
  8
1
 62
2
  6
CONTINUOUS
 10
72.488580
 20
63.876240
 11
72.490683
 21
63.876240
  0
LINE
  8
1
 62
2
  6
CONTINUOUS
 10
72.488580
 20
63.792028
 11
72.490499
 21
63.792028
  0
LINE
  8
1
 62
2
  6
CONTINUOUS
 10
72.290380
 20
73.913169
 11
71.090380
 21
73.913169
  0
LINE
  8
1
 62
2
  6
CONTINUOUS
 10
72.290380
 20
58.613169
 11
71.090380
 21
58.613169
  0
LINE
  8
1
 62
2
  6
CONTINUOUS
 10
72.488580
 20
63.870445
 11
72.490671
 21
63.870445
  0
LINE
  8
1
 62
2
  6
CONTINUOUS
 10
72.671735
 20
65.433169
 11
72.690380
 21
65.433169
  0
ARC
  8
1
 62
2
  6
CONTINUOUS
 10
72.690380
 20
59.663169
 40
0.200000
 50
90.000000
 51
180.000000
  0
ARC
  8
1
 62
2
  6
CONTINUOUS
 10
72.690380
 20
72.863169
 40
0.200000
 50
180.000000
 51
-90.000000
  0
ARC
  8
1
 62
2
  6
CONTINUOUS
 10
72.290380
 20
58.813169
 40
0.200000
 50
83.421437
 51
84.763088
  0
ARC
  8
1
 62
2
  6
CONTINUOUS
 10
72.290380
 20
58.813169
 40
0.200000
 50
-90.000000
 51
0.000000
  0
ARC
  8
1
 62
2
  6
CONTINUOUS
 10
72.290380
 20
73.713169
 40
0.200000
 50
7.692308
 51
90.000000
  0
LINE
  8
1
 62
2
  6
CONTINUOUS
 10
70.890380
 20
58.813169
 11
70.890380
 21
59.067021
  0
ARC
  8
1
 62
2
  6
CONTINUOUS
 10
71.090380
 20
58.813169
 40
0.200000
 50
180.000000
 51
-90.000000
  0
LINE
  8
1
 62
2
  6
CONTINUOUS
 10
72.290380
 20
58.613169
 11
71.090380
 21
58.613169
  0
LINE
  8
1
 62
2
  6
CONTINUOUS
 10
72.290380
 20
73.913169
 11
71.090380
 21
73.913169
  0
LINE
  8
1
 62
2
  6
CONTINUOUS
 10
70.890380
 20
61.660232
 11
70.890380
 21
61.727896
  0
LINE
  8
1
 62
2
  6
CONTINUOUS
 10
72.490380
 20
73.713169
 11
72.490380
 21
58.813169
  0
LINE
  8
1
 62
2
  6
CONTINUOUS
 10
72.490380
 20
60.547401
 11
72.490380
 21
60.995223
  0
LINE
  8
1
 62
2
  6
CONTINUOUS
 10
70.890380
 20
58.813169
 11
70.890380
 21
73.713169
  0
LINE
  8
1
 62
2
  6
CONTINUOUS
 10
70.890380
 20
59.067021
 11
70.890380
 21
58.813169
  0
LINE
  8
1
 62
2
  6
CONTINUOUS
 10
72.690380
 20
72.663169
 11
72.690380
 21
59.863169
  0
LINE
  8
1
 62
2
  6
CONTINUOUS
 10
71.090380
 20
73.913169
 11
71.090380
 21
58.613169
  0
LINE
  8
1
 62
2
  6
CONTINUOUS
 10
72.290380
 20
73.913169
 11
72.290380
 21
58.613169
  0
ARC
  8
1
 62
2
  6
CONTINUOUS
 10
72.290380
 20
73.713169
 40
0.200000
 50
-9.731036
 51
90.000000
  0
LINE
  8
1
 62
2
  6
CONTINUOUS
 10
73.470380
 20
72.663169
 11
72.690380
 21
72.663169
  0
LINE
  8
1
 62
2
  6
CONTINUOUS
 10
73.470380
 20
59.863169
 11
72.690380
 21
59.863169
  0
LINE
  8
1
 62
2
  6
CONTINUOUS
 10
73.470380
 20
59.863169
 11
72.690380
 21
59.863169
  0
LINE
  8
1
 62
2
  6
CONTINUOUS
 10
73.470380
 20
72.663169
 11
72.690380
 21
72.663169
  0
LINE
  8
1
 62
2
  6
CONTINUOUS
 10
81.720380
 20
73.163169
 11
81.220380
 21
72.663169
  0
LINE
  8
1
 62
2
  6
CONTINUOUS
 10
81.720380
 20
59.363169
 11
81.220380
 21
59.863169
  0
LINE
  8
1
 62
2
  6
CONTINUOUS
 10
72.890380
 20
61.488169
 11
73.470380
 21
61.488169
  0
LINE
  8
1
 62
2
  6
CONTINUOUS
 10
85.220380
 20
73.163169
 11
81.720380
 21
73.163169
  0
LINE
  8
1
 62
2
  6
CONTINUOUS
 10
72.890380
 20
61.488169
 11
72.690380
 21
61.688169
  0
LINE
  8
1
 62
2
  6
CONTINUOUS
 10
100.720380
 20
72.513169
 11
102.990380
 21
72.513169
  0
LINE
  8
1
 62
2
  6
CONTINUOUS
 10
100.720380
 20
60.013169
 11
102.990380
 21
60.013169
  0
LINE
  8
1
 62
2
  6
CONTINUOUS
 10
85.220380
 20
59.363169
 11
81.720380
 21
59.363169
  0
LINE
  8
1
 62
2
  6
CONTINUOUS
 10
85.220380
 20
73.163169
 11
100.720380
 21
72.513169
  0
LINE
  8
1
 62
2
  6
CONTINUOUS
 10
85.220380
 20
59.363169
 11
100.720380
 21
60.013169
  0
LINE
  8
1
 62
2
  6
CONTINUOUS
 10
113.790380
 20
59.063169
 11
114.490380
 21
59.763169
  0
LINE
  8
1
 62
2
  6
CONTINUOUS
 10
113.790380
 20
73.463169
 11
114.490380
 21
72.763169
  0
LINE
  8
1
 62
2
  6
CONTINUOUS
 10
72.890380
 20
61.488169
 11
73.470380
 21
61.488169
  0
LINE
  8
1
 62
2
  6
CONTINUOUS
 10
80.920380
 20
73.663169
 11
81.220380
 21
73.363169
  0
LINE
  8
1
 62
2
  6
CONTINUOUS
 10
72.890380
 20
61.488169
 11
72.690380
 21
61.688169
  0
LINE
  8
1
 62
2
  6
CONTINUOUS
 10
73.770380
 20
73.663169
 11
73.470380
 21
73.363169
  0
LINE
  8
1
 62
2
  6
CONTINUOUS
 10
80.920380
 20
73.663169
 11
77.070380
 21
73.663169
  0
LINE
  8
1
 62
2
  6
CONTINUOUS
 10
76.070380
 20
73.663169
 11
73.770380
 21
73.663169
  0
LINE
  8
1
 62
2
  6
CONTINUOUS
 10
73.486763
 20
59.163169
 11
73.470380
 21
59.163169
  0
LINE
  8
1
 62
2
  6
CONTINUOUS
 10
81.220380
 20
59.163169
 11
81.204115
 21
59.163169
  0
LINE
  8
1
 62
2
  6
CONTINUOUS
 10
85.220380
 20
59.363169
 11
81.720380
 21
59.363169
  0
LINE
  8
1
 62
2
  6
CONTINUOUS
 10
81.720380
 20
59.363169
 11
81.220380
 21
59.863169
  0
LINE
  8
1
 62
2
  6
CONTINUOUS
 10
81.720380
 20
73.163169
 11
81.220380
 21
72.663169
  0
LINE
  8
1
 62
2
  6
CONTINUOUS
 10
85.220380
 20
73.163169
 11
81.720380
 21
73.163169
  0
LINE
  8
1
 62
2
  6
CONTINUOUS
 10
85.220380
 20
59.363169
 11
100.720380
 21
60.013169
  0
LINE
  8
1
 62
2
  6
CONTINUOUS
 10
85.220380
 20
73.163169
 11
100.720380
 21
72.513169
  0
LINE
  8
1
 62
2
  6
CONTINUOUS
 10
100.720380
 20
60.013169
 11
102.990380
 21
60.013169
  0
LINE
  8
1
 62
2
  6
CONTINUOUS
 10
100.720380
 20
72.513169
 11
102.990380
 21
72.513169
  0
LINE
  8
1
 62
2
  6
CONTINUOUS
 10
113.790380
 20
73.463169
 11
114.490380
 21
72.763169
  0
LINE
  8
1
 62
2
  6
CONTINUOUS
 10
113.790380
 20
59.063169
 11
114.490380
 21
59.763169
  0
LINE
  8
1
 62
2
  6
CONTINUOUS
 10
114.490380
 20
72.763169
 11
114.490380
 21
59.763169
  0
LINE
  8
1
 62
2
  6
CONTINUOUS
 10
113.490380
 20
73.188546
 11
103.290380
 21
73.188546
  0
LINE
  8
1
 62
2
  6
CONTINUOUS
 10
113.490380
 20
72.219221
 11
113.581806
 21
72.233852
  0
LINE
  8
1
 62
2
  6
CONTINUOUS
 10
113.581806
 20
72.233852
 11
113.620630
 21
72.246015
  0
LINE
  8
1
 62
2
  6
CONTINUOUS
 10
113.620630
 20
72.246015
 11
113.678465
 21
72.274543
  0
LINE
  8
1
 62
2
  6
CONTINUOUS
 10
113.678465
 20
72.274543
 11
113.691625
 21
72.283532
  0
LINE
  8
1
 62
2
  6
CONTINUOUS
 10
113.691625
 20
72.283532
 11
113.761748
 21
72.365477
  0
LINE
  8
1
 62
2
  6
CONTINUOUS
 10
113.761748
 20
72.365477
 11
113.766445
 21
72.375331
  0
LINE
  8
1
 62
2
  6
CONTINUOUS
 10
113.766445
 20
72.375331
 11
113.787608
 21
72.452944
  0
LINE
  8
1
 62
2
  6
CONTINUOUS
 10
113.787608
 20
72.452944
 11
113.789861
 21
72.478365
  0
LINE
  8
1
 62
2
  6
CONTINUOUS
 10
113.789861
 20
72.478365
 11
113.790380
 21
72.498573
  0
LINE
  8
1
 62
2
  6
CONTINUOUS
 10
113.790380
 20
72.498573
 11
113.775039
 21
72.620424
  0
LINE
  8
1
 62
2
  6
CONTINUOUS
 10
113.775039
 20
72.620424
 11
113.766443
 21
72.653927
  0
LINE
  8
1
 62
2
  6
CONTINUOUS
 10
113.766443
 20
72.653927
 11
113.728363
 21
72.764029
  0
LINE
  8
1
 62
2
  6
CONTINUOUS
 10
113.728363
 20
72.764029
 11
113.717782
 21
72.789372
  0
LINE
  8
1
 62
2
  6
CONTINUOUS
 10
113.717782
 20
72.789372
 11
113.678465
 21
72.873798
  0
LINE
  8
1
 62
2
  6
CONTINUOUS
 10
113.678465
 20
72.873798
 11
113.620631
 21
72.981396
  0
LINE
  8
1
 62
2
  6
CONTINUOUS
 10
113.620631
 20
72.981396
 11
113.619942
 21
72.982599
  0
LINE
  8
1
 62
2
  6
CONTINUOUS
 10
113.619942
 20
72.982599
 11
113.490380
 21
73.188546
  0
LINE
  8
1
 62
2
  6
CONTINUOUS
 10
113.490380
 20
72.219221
 11
103.290380
 21
72.219221
  0
LINE
  8
1
 62
2
  6
CONTINUOUS
 10
102.990380
 20
72.498552
 11
102.990901
 21
72.478325
  0
LINE
  8
1
 62
2
  6
CONTINUOUS
 10
102.990901
 20
72.478325
 11
103.019023
 21
72.365456
  0
LINE
  8
1
 62
2
  6
CONTINUOUS
 10
103.019023
 20
72.365456
 11
103.034827
 21
72.338853
  0
LINE
  8
1
 62
2
  6
CONTINUOUS
 10
103.034827
 20
72.338853
 11
103.089122
 21
72.283541
  0
LINE
  8
1
 62
2
  6
CONTINUOUS
 10
103.089122
 20
72.283541
 11
103.123401
 21
72.262324
  0
LINE
  8
1
 62
2
  6
CONTINUOUS
 10
103.123401
 20
72.262324
 11
103.178386
 21
72.239740
  0
LINE
  8
1
 62
2
  6
CONTINUOUS
 10
103.178386
 20
72.239740
 11
103.198957
 21
72.233852
  0
LINE
  8
1
 62
2
  6
CONTINUOUS
 10
103.198957
 20
72.233852
 11
103.290380
 21
72.219221
  0
LINE
  8
1
 62
2
  6
CONTINUOUS
 10
103.290380
 20
73.188546
 11
103.234146
 21
73.103282
  0
LINE
  8
1
 62
2
  6
CONTINUOUS
 10
103.234146
 20
73.103282
 11
103.178385
 21
73.012758
  0
LINE
  8
1
 62
2
  6
CONTINUOUS
 10
103.178385
 20
73.012758
 11
103.178010
 21
73.012125
  0
LINE
  8
1
 62
2
  6
CONTINUOUS
 10
103.178010
 20
73.012125
 11
103.160828
 21
72.982615
  0
LINE
  8
1
 62
2
  6
CONTINUOUS
 10
103.160828
 20
72.982615
 11
103.123399
 21
72.914797
  0
LINE
  8
1
 62
2
  6
CONTINUOUS
 10
103.123399
 20
72.914797
 11
103.069899
 21
72.805223
  0
LINE
  8
1
 62
2
  6
CONTINUOUS
 10
103.069899
 20
72.805223
 11
103.062991
 21
72.789400
  0
LINE
  8
1
 62
2
  6
CONTINUOUS
 10
103.062991
 20
72.789400
 11
103.005728
 21
72.620453
  0
LINE
  8
1
 62
2
  6
CONTINUOUS
 10
103.005728
 20
72.620453
 11
102.990380
 21
72.498552
  0
LINE
  8
1
 62
2
  6
CONTINUOUS
 10
113.490380
 20
70.821178
 11
103.290380
 21
70.821178
  0
LINE
  8
1
 62
2
  6
CONTINUOUS
 10
113.490380
 20
69.142257
 11
113.535333
 21
69.187297
  0
LINE
  8
1
 62
2
  6
CONTINUOUS
 10
113.535333
 20
69.187297
 11
113.557399
 21
69.211733
  0
LINE
  8
1
 62
2
  6
CONTINUOUS
 10
113.557399
 20
69.211733
 11
113.620630
 21
69.292793
  0
LINE
  8
1
 62
2
  6
CONTINUOUS
 10
113.620630
 20
69.292793
 11
113.658100
 21
69.351334
  0
LINE
  8
1
 62
2
  6
CONTINUOUS
 10
113.658100
 20
69.351334
 11
113.678465
 21
69.387856
  0
LINE
  8
1
 62
2
  6
CONTINUOUS
 10
113.678465
 20
69.387856
 11
113.728365
 21
69.499793
  0
LINE
  8
1
 62
2
  6
CONTINUOUS
 10
113.728365
 20
69.499793
 11
113.742220
 21
69.540126
  0
LINE
  8
1
 62
2
  6
CONTINUOUS
 10
113.742220
 20
69.540126
 11
113.785000
 21
69.750741
  0
LINE
  8
1
 62
2
  6
CONTINUOUS
 10
113.785000
 20
69.750741
 11
113.790380
 21
69.863173
  0
LINE
  8
1
 62
2
  6
CONTINUOUS
 10
113.790380
 20
69.863173
 11
113.785000
 21
69.979763
  0
LINE
  8
1
 62
2
  6
CONTINUOUS
 10
113.785000
 20
69.979763
 11
113.742220
 21
70.223622
  0
LINE
  8
1
 62
2
  6
CONTINUOUS
 10
113.742220
 20
70.223622
 11
113.728363
 21
70.274768
  0
LINE
  8
1
 62
2
  6
CONTINUOUS
 10
113.728363
 20
70.274768
 11
113.678465
 21
70.425798
  0
LINE
  8
1
 62
2
  6
CONTINUOUS
 10
113.678465
 20
70.425798
 11
113.658100
 21
70.478355
  0
LINE
  8
1
 62
2
  6
CONTINUOUS
 10
113.658100
 20
70.478355
 11
113.620631
 21
70.566511
  0
LINE
  8
1
 62
2
  6
CONTINUOUS
 10
113.620631
 20
70.566511
 11
113.557399
 21
70.697895
  0
LINE
  8
1
 62
2
  6
CONTINUOUS
 10
113.557399
 20
70.697895
 11
113.535333
 21
70.739994
  0
LINE
  8
1
 62
2
  6
CONTINUOUS
 10
113.535333
 20
70.739994
 11
113.490380
 21
70.821178
  0
LINE
  8
1
 62
2
  6
CONTINUOUS
 10
113.490380
 20
69.142257
 11
103.290380
 21
69.142257
  0
LINE
  8
1
 62
2
  6
CONTINUOUS
 10
102.990380
 20
69.863169
 11
102.995770
 21
69.750640
  0
LINE
  8
1
 62
2
  6
CONTINUOUS
 10
102.995770
 20
69.750640
 11
103.034835
 21
69.552019
  0
LINE
  8
1
 62
2
  6
CONTINUOUS
 10
103.034835
 20
69.552019
 11
103.038540
 21
69.540126
  0
LINE
  8
1
 62
2
  6
CONTINUOUS
 10
103.038540
 20
69.540126
 11
103.122686
 21
69.351290
  0
LINE
  8
1
 62
2
  6
CONTINUOUS
 10
103.122686
 20
69.351290
 11
103.123401
 21
69.350076
  0
LINE
  8
1
 62
2
  6
CONTINUOUS
 10
103.123401
 20
69.350076
 11
103.178386
 21
69.267440
  0
LINE
  8
1
 62
2
  6
CONTINUOUS
 10
103.178386
 20
69.267440
 11
103.234146
 21
69.199579
  0
LINE
  8
1
 62
2
  6
CONTINUOUS
 10
103.234146
 20
69.199579
 11
103.245426
 21
69.187299
  0
LINE
  8
1
 62
2
  6
CONTINUOUS
 10
103.245426
 20
69.187299
 11
103.290380
 21
69.142257
  0
LINE
  8
1
 62
2
  6
CONTINUOUS
 10
103.290380
 20
70.821178
 11
103.245426
 21
70.739991
  0
LINE
  8
1
 62
2
  6
CONTINUOUS
 10
103.245426
 20
70.739991
 11
103.234146
 21
70.718675
  0
LINE
  8
1
 62
2
  6
CONTINUOUS
 10
103.234146
 20
70.718675
 11
103.178385
 21
70.606348
  0
LINE
  8
1
 62
2
  6
CONTINUOUS
 10
103.178385
 20
70.606348
 11
103.123399
 21
70.480193
  0
LINE
  8
1
 62
2
  6
CONTINUOUS
 10
103.123399
 20
70.480193
 11
103.122684
 21
70.478415
  0
LINE
  8
1
 62
2
  6
CONTINUOUS
 10
103.122684
 20
70.478415
 11
103.038540
 21
70.223622
  0
LINE
  8
1
 62
2
  6
CONTINUOUS
 10
103.038540
 20
70.223622
 11
103.034835
 21
70.208842
  0
LINE
  8
1
 62
2
  6
CONTINUOUS
 10
103.034835
 20
70.208842
 11
102.995770
 21
69.979872
  0
LINE
  8
1
 62
2
  6
CONTINUOUS
 10
102.995770
 20
69.979872
 11
102.990380
 21
69.863169
  0
LINE
  8
1
 62
2
  6
CONTINUOUS
 10
113.490380
 20
63.384081
 11
103.290380
 21
63.384081
  0
LINE
  8
1
 62
2
  6
CONTINUOUS
 10
113.490380
 20
61.705160
 11
113.535333
 21
61.786344
  0
LINE
  8
1
 62
2
  6
CONTINUOUS
 10
113.535333
 20
61.786344
 11
113.557399
 21
61.828442
  0
LINE
  8
1
 62
2
  6
CONTINUOUS
 10
113.557399
 20
61.828442
 11
113.620630
 21
61.959825
  0
LINE
  8
1
 62
2
  6
CONTINUOUS
 10
113.620630
 20
61.959825
 11
113.658100
 21
62.047983
  0
LINE
  8
1
 62
2
  6
CONTINUOUS
 10
113.658100
 20
62.047983
 11
113.678465
 21
62.100539
  0
LINE
  8
1
 62
2
  6
CONTINUOUS
 10
113.678465
 20
62.100539
 11
113.728365
 21
62.251574
  0
LINE
  8
1
 62
2
  6
CONTINUOUS
 10
113.728365
 20
62.251574
 11
113.742220
 21
62.302716
  0
LINE
  8
1
 62
2
  6
CONTINUOUS
 10
113.742220
 20
62.302716
 11
113.785000
 21
62.546574
  0
LINE
  8
1
 62
2
  6
CONTINUOUS
 10
113.785000
 20
62.546574
 11
113.790380
 21
62.663173
  0
LINE
  8
1
 62
2
  6
CONTINUOUS
 10
113.790380
 20
62.663173
 11
113.785000
 21
62.775596
  0
LINE
  8
1
 62
2
  6
CONTINUOUS
 10
113.785000
 20
62.775596
 11
113.742220
 21
62.986212
  0
LINE
  8
1
 62
2
  6
CONTINUOUS
 10
113.742220
 20
62.986212
 11
113.728363
 21
63.026549
  0
LINE
  8
1
 62
2
  6
CONTINUOUS
 10
113.728363
 20
63.026549
 11
113.678465
 21
63.138481
  0
LINE
  8
1
 62
2
  6
CONTINUOUS
 10
113.678465
 20
63.138481
 11
113.658100
 21
63.175004
  0
LINE
  8
1
 62
2
  6
CONTINUOUS
 10
113.658100
 20
63.175004
 11
113.620631
 21
63.233543
  0
LINE
  8
1
 62
2
  6
CONTINUOUS
 10
113.620631
 20
63.233543
 11
113.557399
 21
63.314604
  0
LINE
  8
1
 62
2
  6
CONTINUOUS
 10
113.557399
 20
63.314604
 11
113.535333
 21
63.339040
  0
LINE
  8
1
 62
2
  6
CONTINUOUS
 10
113.535333
 20
63.339040
 11
113.490380
 21
63.384081
  0
LINE
  8
1
 62
2
  6
CONTINUOUS
 10
113.490380
 20
61.705160
 11
103.290380
 21
61.705160
  0
LINE
  8
1
 62
2
  6
CONTINUOUS
 10
102.990380
 20
62.663169
 11
102.995770
 21
62.546466
  0
LINE
  8
1
 62
2
  6
CONTINUOUS
 10
102.995770
 20
62.546466
 11
103.034835
 21
62.317495
  0
LINE
  8
1
 62
2
  6
CONTINUOUS
 10
103.034835
 20
62.317495
 11
103.038540
 21
62.302716
  0
LINE
  8
1
 62
2
  6
CONTINUOUS
 10
103.038540
 20
62.302716
 11
103.122686
 21
62.047918
  0
LINE
  8
1
 62
2
  6
CONTINUOUS
 10
103.122686
 20
62.047918
 11
103.123401
 21
62.046141
  0
LINE
  8
1
 62
2
  6
CONTINUOUS
 10
103.123401
 20
62.046141
 11
103.178386
 21
61.919987
  0
LINE
  8
1
 62
2
  6
CONTINUOUS
 10
103.178386
 20
61.919987
 11
103.234146
 21
61.807662
  0
LINE
  8
1
 62
2
  6
CONTINUOUS
 10
103.234146
 20
61.807662
 11
103.245426
 21
61.786347
  0
LINE
  8
1
 62
2
  6
CONTINUOUS
 10
103.245426
 20
61.786347
 11
103.290380
 21
61.705160
  0
LINE
  8
1
 62
2
  6
CONTINUOUS
 10
103.290380
 20
63.384081
 11
103.245426
 21
63.339039
  0
LINE
  8
1
 62
2
  6
CONTINUOUS
 10
103.245426
 20
63.339039
 11
103.234146
 21
63.326759
  0
LINE
  8
1
 62
2
  6
CONTINUOUS
 10
103.234146
 20
63.326759
 11
103.178385
 21
63.258896
  0
LINE
  8
1
 62
2
  6
CONTINUOUS
 10
103.178385
 20
63.258896
 11
103.123399
 21
63.176259
  0
LINE
  8
1
 62
2
  6
CONTINUOUS
 10
103.123399
 20
63.176259
 11
103.122684
 21
63.175045
  0
LINE
  8
1
 62
2
  6
CONTINUOUS
 10
103.122684
 20
63.175045
 11
103.038540
 21
62.986212
  0
LINE
  8
1
 62
2
  6
CONTINUOUS
 10
103.038540
 20
62.986212
 11
103.034835
 21
62.974319
  0
LINE
  8
1
 62
2
  6
CONTINUOUS
 10
103.034835
 20
62.974319
 11
102.995770
 21
62.775697
  0
LINE
  8
1
 62
2
  6
CONTINUOUS
 10
102.995770
 20
62.775697
 11
102.990380
 21
62.663169
  0
LINE
  8
1
 62
2
  6
CONTINUOUS
 10
113.490380
 20
59.337791
 11
103.290380
 21
59.337791
  0
LINE
  8
1
 62
2
  6
CONTINUOUS
 10
102.990380
 20
60.027786
 11
103.005728
 21
59.905885
  0
LINE
  8
1
 62
2
  6
CONTINUOUS
 10
103.005728
 20
59.905885
 11
103.062990
 21
59.736938
  0
LINE
  8
1
 62
2
  6
CONTINUOUS
 10
103.062990
 20
59.736938
 11
103.069900
 21
59.721113
  0
LINE
  8
1
 62
2
  6
CONTINUOUS
 10
103.069900
 20
59.721113
 11
103.123401
 21
59.611538
  0
LINE
  8
1
 62
2
  6
CONTINUOUS
 10
103.123401
 20
59.611538
 11
103.160828
 21
59.543723
  0
LINE
  8
1
 62
2
  6
CONTINUOUS
 10
103.160828
 20
59.543723
 11
103.178011
 21
59.514211
  0
LINE
  8
1
 62
2
  6
CONTINUOUS
 10
103.178011
 20
59.514211
 11
103.178386
 21
59.513578
  0
LINE
  8
1
 62
2
  6
CONTINUOUS
 10
103.178386
 20
59.513578
 11
103.234146
 21
59.423055
  0
LINE
  8
1
 62
2
  6
CONTINUOUS
 10
103.234146
 20
59.423055
 11
103.290380
 21
59.337791
  0
LINE
  8
1
 62
2
  6
CONTINUOUS
 10
103.290380
 20
60.307117
 11
103.198957
 21
60.292486
  0
LINE
  8
1
 62
2
  6
CONTINUOUS
 10
103.198957
 20
60.292486
 11
103.178385
 21
60.286598
  0
LINE
  8
1
 62
2
  6
CONTINUOUS
 10
103.178385
 20
60.286598
 11
103.123399
 21
60.264013
  0
LINE
  8
1
 62
2
  6
CONTINUOUS
 10
103.123399
 20
60.264013
 11
103.089122
 21
60.242796
  0
LINE
  8
1
 62
2
  6
CONTINUOUS
 10
103.089122
 20
60.242796
 11
103.034827
 21
60.187485
  0
LINE
  8
1
 62
2
  6
CONTINUOUS
 10
103.034827
 20
60.187485
 11
103.019027
 21
60.160889
  0
LINE
  8
1
 62
2
  6
CONTINUOUS
 10
103.019027
 20
60.160889
 11
102.990901
 21
60.048011
  0
LINE
  8
1
 62
2
  6
CONTINUOUS
 10
102.990901
 20
60.048011
 11
102.990380
 21
60.027786
  0
LINE
  8
1
 62
2
  6
CONTINUOUS
 10
113.490380
 20
60.307117
 11
103.290380
 21
60.307117
  0
LINE
  8
1
 62
2
  6
CONTINUOUS
 10
113.490380
 20
59.337791
 11
113.619941
 21
59.543738
  0
LINE
  8
1
 62
2
  6
CONTINUOUS
 10
113.619941
 20
59.543738
 11
113.620630
 21
59.544941
  0
LINE
  8
1
 62
2
  6
CONTINUOUS
 10
113.620630
 20
59.544941
 11
113.678465
 21
59.652539
  0
LINE
  8
1
 62
2
  6
CONTINUOUS
 10
113.678465
 20
59.652539
 11
113.717782
 21
59.736966
  0
LINE
  8
1
 62
2
  6
CONTINUOUS
 10
113.717782
 20
59.736966
 11
113.728365
 21
59.762313
  0
LINE
  8
1
 62
2
  6
CONTINUOUS
 10
113.728365
 20
59.762313
 11
113.766445
 21
59.872416
  0
LINE
  8
1
 62
2
  6
CONTINUOUS
 10
113.766445
 20
59.872416
 11
113.775039
 21
59.905914
  0
LINE
  8
1
 62
2
  6
CONTINUOUS
 10
113.775039
 20
59.905914
 11
113.790380
 21
60.027769
  0
LINE
  8
1
 62
2
  6
CONTINUOUS
 10
113.790380
 20
60.027769
 11
113.789861
 21
60.047977
  0
LINE
  8
1
 62
2
  6
CONTINUOUS
 10
113.789861
 20
60.047977
 11
113.787607
 21
60.073398
  0
LINE
  8
1
 62
2
  6
CONTINUOUS
 10
113.787607
 20
60.073398
 11
113.766443
 21
60.151010
  0
LINE
  8
1
 62
2
  6
CONTINUOUS
 10
113.766443
 20
60.151010
 11
113.761748
 21
60.160861
  0
LINE
  8
1
 62
2
  6
CONTINUOUS
 10
113.761748
 20
60.160861
 11
113.691625
 21
60.242806
  0
LINE
  8
1
 62
2
  6
CONTINUOUS
 10
113.691625
 20
60.242806
 11
113.678465
 21
60.251795
  0
LINE
  8
1
 62
2
  6
CONTINUOUS
 10
113.678465
 20
60.251795
 11
113.620631
 21
60.280323
  0
LINE
  8
1
 62
2
  6
CONTINUOUS
 10
113.620631
 20
60.280323
 11
113.581806
 21
60.292485
  0
LINE
  8
1
 62
2
  6
CONTINUOUS
 10
113.581806
 20
60.292485
 11
113.490380
 21
60.307117
  0
LINE
  8
1
 62
2
  6
CONTINUOUS
 10
102.990380
 20
59.063169
 11
102.990380
 21
60.027786
  0
LINE
  8
1
 62
2
  6
CONTINUOUS
 10
103.290380
 20
58.826072
 11
103.290380
 21
59.337791
  0
LINE
  8
1
 62
2
  6
CONTINUOUS
 10
103.290380
 20
58.826072
 11
103.179419
 21
58.914895
  0
LINE
  8
1
 62
2
  6
CONTINUOUS
 10
103.179419
 20
58.914895
 11
103.178385
 21
58.915717
  0
LINE
  8
1
 62
2
  6
CONTINUOUS
 10
103.178385
 20
58.915717
 11
103.123399
 21
58.959235
  0
LINE
  8
1
 62
2
  6
CONTINUOUS
 10
103.123399
 20
58.959235
 11
103.075570
 21
58.996826
  0
LINE
  8
1
 62
2
  6
CONTINUOUS
 10
103.075570
 20
58.996826
 11
103.069899
 21
59.001266
  0
LINE
  8
1
 62
2
  6
CONTINUOUS
 10
103.069899
 20
59.001266
 11
103.020246
 21
59.039999
  0
LINE
  8
1
 62
2
  6
CONTINUOUS
 10
103.020246
 20
59.039999
 11
103.011868
 21
59.046508
  0
LINE
  8
1
 62
2
  6
CONTINUOUS
 10
103.011868
 20
59.046508
 11
102.990380
 21
59.063169
  0
LINE
  8
1
 62
2
  6
CONTINUOUS
 10
113.490380
 20
58.826072
 11
113.490380
 21
59.337791
  0
LINE
  8
1
 62
2
  6
CONTINUOUS
 10
113.490380
 20
58.826072
 11
103.290380
 21
58.826072
  0
LINE
  8
1
 62
2
  6
CONTINUOUS
 10
102.990380
 20
69.863169
 11
102.990380
 21
72.498552
  0
LINE
  8
1
 62
2
  6
CONTINUOUS
 10
102.990380
 20
66.263169
 11
102.990380
 21
69.863169
  0
LINE
  8
1
 62
2
  6
CONTINUOUS
 10
102.990380
 20
62.663169
 11
102.990380
 21
66.263169
  0
LINE
  8
1
 62
2
  6
CONTINUOUS
 10
102.990380
 20
60.027786
 11
102.990380
 21
62.663169
  0
LINE
  8
1
 62
2
  6
CONTINUOUS
 10
102.990380
 20
72.498552
 11
102.990380
 21
73.463169
  0
LINE
  8
1
 62
2
  6
CONTINUOUS
 10
103.290380
 20
73.188546
 11
103.290380
 21
73.700266
  0
LINE
  8
1
 62
2
  6
CONTINUOUS
 10
102.990380
 20
73.463169
 11
103.011868
 21
73.479829
  0
LINE
  8
1
 62
2
  6
CONTINUOUS
 10
103.011868
 20
73.479829
 11
103.020246
 21
73.486339
  0
LINE
  8
1
 62
2
  6
CONTINUOUS
 10
103.020246
 20
73.486339
 11
103.069899
 21
73.525072
  0
LINE
  8
1
 62
2
  6
CONTINUOUS
 10
103.069899
 20
73.525072
 11
103.075570
 21
73.529512
  0
LINE
  8
1
 62
2
  6
CONTINUOUS
 10
103.075570
 20
73.529512
 11
103.123399
 21
73.567103
  0
LINE
  8
1
 62
2
  6
CONTINUOUS
 10
103.123399
 20
73.567103
 11
103.178385
 21
73.610621
  0
LINE
  8
1
 62
2
  6
CONTINUOUS
 10
103.178385
 20
73.610621
 11
103.179419
 21
73.611443
  0
LINE
  8
1
 62
2
  6
CONTINUOUS
 10
103.179419
 20
73.611443
 11
103.290380
 21
73.700266
  0
LINE
  8
1
 62
2
  6
CONTINUOUS
 10
113.490380
 20
73.188546
 11
113.490380
 21
73.700266
  0
LINE
  8
1
 62
2
  6
CONTINUOUS
 10
113.490380
 20
73.700266
 11
103.290380
 21
73.700266
  0
LINE
  8
1
 62
2
  6
CONTINUOUS
 10
113.490380
 20
73.700266
 11
113.601328
 21
73.611454
  0
LINE
  8
1
 62
2
  6
CONTINUOUS
 10
113.601328
 20
73.611454
 11
113.630700
 21
73.588163
  0
LINE
  8
1
 62
2
  6
CONTINUOUS
 10
113.630700
 20
73.588163
 11
113.691811
 21
73.540003
  0
LINE
  8
1
 62
2
  6
CONTINUOUS
 10
113.691811
 20
73.540003
 11
113.705180
 21
73.529521
  0
LINE
  8
1
 62
2
  6
CONTINUOUS
 10
113.705180
 20
73.529521
 11
113.768902
 21
73.479822
  0
LINE
  8
1
 62
2
  6
CONTINUOUS
 10
113.768902
 20
73.479822
 11
113.790380
 21
73.463169
  0
LINE
  8
1
 62
2
  6
CONTINUOUS
 10
113.790380
 20
59.063169
 11
113.768902
 21
59.046516
  0
LINE
  8
1
 62
2
  6
CONTINUOUS
 10
113.768902
 20
59.046516
 11
113.705179
 21
58.996817
  0
LINE
  8
1
 62
2
  6
CONTINUOUS
 10
113.705179
 20
58.996817
 11
113.691807
 21
58.986332
  0
LINE
  8
1
 62
2
  6
CONTINUOUS
 10
113.691807
 20
58.986332
 11
113.630697
 21
58.938172
  0
LINE
  8
1
 62
2
  6
CONTINUOUS
 10
113.630697
 20
58.938172
 11
113.601328
 21
58.914884
  0
LINE
  8
1
 62
2
  6
CONTINUOUS
 10
113.601328
 20
58.914884
 11
113.490380
 21
58.826072
  0
LINE
  8
1
 62
2
  6
CONTINUOUS
 10
113.490380
 20
58.826072
 11
103.290380
 21
58.826072
  0
LINE
  8
1
 62
2
  6
CONTINUOUS
 10
103.290380
 20
60.307117
 11
103.290380
 21
61.705160
  0
LINE
  8
1
 62
2
  6
CONTINUOUS
 10
113.490380
 20
60.307117
 11
113.490380
 21
61.705160
  0
LINE
  8
1
 62
2
  6
CONTINUOUS
 10
113.490380
 20
63.570586
 11
110.490380
 21
63.570586
  0
LINE
  8
1
 62
2
  6
CONTINUOUS
 10
110.490380
 20
68.955751
 11
110.490380
 21
63.570586
  0
LINE
  8
1
 62
2
  6
CONTINUOUS
 10
113.490380
 20
68.955751
 11
110.490380
 21
68.955751
  0
LINE
  8
1
 62
2
  6
CONTINUOUS
 10
113.490380
 20
63.570586
 11
113.743445
 21
64.387517
  0
LINE
  8
1
 62
2
  6
CONTINUOUS
 10
113.743445
 20
64.387517
 11
113.754925
 21
64.432376
  0
LINE
  8
1
 62
2
  6
CONTINUOUS
 10
113.754925
 20
64.432376
 11
113.929075
 21
65.334718
  0
LINE
  8
1
 62
2
  6
CONTINUOUS
 10
113.929075
 20
65.334718
 11
113.929976
 21
65.341597
  0
LINE
  8
1
 62
2
  6
CONTINUOUS
 10
113.929976
 20
65.341597
 11
113.990380
 21
66.263176
  0
LINE
  8
1
 62
2
  6
CONTINUOUS
 10
113.990380
 20
66.263176
 11
113.929977
 21
67.184740
  0
LINE
  8
1
 62
2
  6
CONTINUOUS
 10
113.929977
 20
67.184740
 11
113.929075
 21
67.191622
  0
LINE
  8
1
 62
2
  6
CONTINUOUS
 10
113.929075
 20
67.191622
 11
113.754925
 21
68.093962
  0
LINE
  8
1
 62
2
  6
CONTINUOUS
 10
113.754925
 20
68.093962
 11
113.743445
 21
68.138821
  0
LINE
  8
1
 62
2
  6
CONTINUOUS
 10
113.743445
 20
68.138821
 11
113.490380
 21
68.955751
  0
LINE
  8
1
 62
2
  6
CONTINUOUS
 10
103.290380
 20
63.384081
 11
103.290380
 21
65.293844
  0
LINE
  8
1
 62
2
  6
CONTINUOUS
 10
110.053283
 20
65.293844
 11
103.290380
 21
65.293844
  0
LINE
  8
1
 62
2
  6
CONTINUOUS
 10
110.053283
 20
65.293844
 11
110.076931
 21
65.127038
  0
LINE
  8
1
 62
2
  6
CONTINUOUS
 10
110.076931
 20
65.127038
 11
110.245938
 21
64.322020
  0
LINE
  8
1
 62
2
  6
CONTINUOUS
 10
110.245938
 20
64.322020
 11
110.490380
 21
63.570586
  0
LINE
  8
1
 62
2
  6
CONTINUOUS
 10
113.490380
 20
63.384081
 11
113.490380
 21
63.570586
  0
LINE
  8
1
 62
2
  6
CONTINUOUS
 10
110.053283
 20
67.232494
 11
103.290380
 21
67.232494
  0
LINE
  8
1
 62
2
  6
CONTINUOUS
 10
110.053283
 20
65.293844
 11
110.089618
 21
65.366723
  0
LINE
  8
1
 62
2
  6
CONTINUOUS
 10
110.089618
 20
65.366723
 11
110.187149
 21
65.612503
  0
LINE
  8
1
 62
2
  6
CONTINUOUS
 10
110.187149
 20
65.612503
 11
110.200767
 21
65.656014
  0
LINE
  8
1
 62
2
  6
CONTINUOUS
 10
110.200767
 20
65.656014
 11
110.249816
 21
65.852605
  0
LINE
  8
1
 62
2
  6
CONTINUOUS
 10
110.249816
 20
65.852605
 11
110.252935
 21
65.868595
  0
LINE
  8
1
 62
2
  6
CONTINUOUS
 10
110.252935
 20
65.868595
 11
110.286146
 21
66.130946
  0
LINE
  8
1
 62
2
  6
CONTINUOUS
 10
110.286146
 20
66.130946
 11
110.286146
 21
66.395392
  0
LINE
  8
1
 62
2
  6
CONTINUOUS
 10
110.286146
 20
66.395392
 11
110.252935
 21
66.657742
  0
LINE
  8
1
 62
2
  6
CONTINUOUS
 10
110.252935
 20
66.657742
 11
110.249816
 21
66.673733
  0
LINE
  8
1
 62
2
  6
CONTINUOUS
 10
110.249816
 20
66.673733
 11
110.200767
 21
66.870324
  0
LINE
  8
1
 62
2
  6
CONTINUOUS
 10
110.200767
 20
66.870324
 11
110.187149
 21
66.913835
  0
LINE
  8
1
 62
2
  6
CONTINUOUS
 10
110.187149
 20
66.913835
 11
110.089618
 21
67.159615
  0
LINE
  8
1
 62
2
  6
CONTINUOUS
 10
110.089618
 20
67.159615
 11
110.053283
 21
67.232494
  0
LINE
  8
1
 62
2
  6
CONTINUOUS
 10
102.990380
 20
66.263169
 11
102.995770
 21
66.130822
  0
LINE
  8
1
 62
2
  6
CONTINUOUS
 10
102.995770
 20
66.130822
 11
103.034836
 21
65.883951
  0
LINE
  8
1
 62
2
  6
CONTINUOUS
 10
103.034836
 20
65.883951
 11
103.038540
 21
65.868553
  0
LINE
  8
1
 62
2
  6
CONTINUOUS
 10
103.038540
 20
65.868553
 11
103.122696
 21
65.612394
  0
LINE
  8
1
 62
2
  6
CONTINUOUS
 10
103.122696
 20
65.612394
 11
103.123411
 21
65.610668
  0
LINE
  8
1
 62
2
  6
CONTINUOUS
 10
103.123411
 20
65.610668
 11
103.178394
 21
65.490133
  0
LINE
  8
1
 62
2
  6
CONTINUOUS
 10
103.178394
 20
65.490133
 11
103.234150
 21
65.386110
  0
LINE
  8
1
 62
2
  6
CONTINUOUS
 10
103.234150
 20
65.386110
 11
103.245425
 21
65.366723
  0
LINE
  8
1
 62
2
  6
CONTINUOUS
 10
103.245425
 20
65.366723
 11
103.290380
 21
65.293844
  0
LINE
  8
1
 62
2
  6
CONTINUOUS
 10
103.290380
 20
67.232494
 11
103.245425
 21
67.159615
  0
LINE
  8
1
 62
2
  6
CONTINUOUS
 10
103.245425
 20
67.159615
 11
103.234150
 21
67.140227
  0
LINE
  8
1
 62
2
  6
CONTINUOUS
 10
103.234150
 20
67.140227
 11
103.178393
 21
67.036203
  0
LINE
  8
1
 62
2
  6
CONTINUOUS
 10
103.178393
 20
67.036203
 11
103.123410
 21
66.915666
  0
LINE
  8
1
 62
2
  6
CONTINUOUS
 10
103.123410
 20
66.915666
 11
103.122695
 21
66.913940
  0
LINE
  8
1
 62
2
  6
CONTINUOUS
 10
103.122695
 20
66.913940
 11
103.038540
 21
66.657785
  0
LINE
  8
1
 62
2
  6
CONTINUOUS
 10
103.038540
 20
66.657785
 11
103.034836
 21
66.642387
  0
LINE
  8
1
 62
2
  6
CONTINUOUS
 10
103.034836
 20
66.642387
 11
102.995770
 21
66.395516
  0
LINE
  8
1
 62
2
  6
CONTINUOUS
 10
102.995770
 20
66.395516
 11
102.990380
 21
66.263169
  0
LINE
  8
1
 62
2
  6
CONTINUOUS
 10
110.490380
 20
68.955751
 11
110.245938
 21
68.204318
  0
LINE
  8
1
 62
2
  6
CONTINUOUS
 10
110.245938
 20
68.204318
 11
110.076931
 21
67.399300
  0
LINE
  8
1
 62
2
  6
CONTINUOUS
 10
110.076931
 20
67.399300
 11
110.053283
 21
67.232494
  0
LINE
  8
1
 62
2
  6
CONTINUOUS
 10
113.490380
 20
68.955751
 11
113.490380
 21
69.142257
  0
LINE
  8
1
 62
2
  6
CONTINUOUS
 10
103.290380
 20
67.232494
 11
103.290380
 21
69.142257
  0
LINE
  8
1
 62
2
  6
CONTINUOUS
 10
103.290380
 20
70.821178
 11
103.290380
 21
72.219221
  0
LINE
  8
1
 62
2
  6
CONTINUOUS
 10
113.490380
 20
70.821178
 11
113.490380
 21
72.219221
  0
LINE
  8
1
 62
2
  6
CONTINUOUS
 10
100.720380
 20
60.013169
 11
100.720380
 21
72.513169
  0
LINE
  8
1
 62
2
  6
CONTINUOUS
 10
85.220380
 20
63.948001
 11
85.220380
 21
59.363169
  0
LINE
  8
1
 62
2
  6
CONTINUOUS
 10
85.220380
 20
63.948001
 11
85.445801
 21
63.976329
  0
LINE
  8
1
 62
2
  6
CONTINUOUS
 10
85.445801
 20
63.976329
 11
85.671182
 21
64.004967
  0
LINE
  8
1
 62
2
  6
CONTINUOUS
 10
85.671182
 20
64.004967
 11
85.896522
 21
64.033928
  0
LINE
  8
1
 62
2
  6
CONTINUOUS
 10
85.896522
 20
64.033928
 11
86.121819
 21
64.063224
  0
LINE
  8
1
 62
2
  6
CONTINUOUS
 10
86.121819
 20
64.063224
 11
86.347071
 21
64.092868
  0
LINE
  8
1
 62
2
  6
CONTINUOUS
 10
86.347071
 20
64.092868
 11
86.572274
 21
64.122874
  0
LINE
  8
1
 62
2
  6
CONTINUOUS
 10
86.572274
 20
64.122874
 11
86.797427
 21
64.153259
  0
LINE
  8
1
 62
2
  6
CONTINUOUS
 10
86.797427
 20
64.153259
 11
87.022526
 21
64.184036
  0
LINE
  8
1
 62
2
  6
CONTINUOUS
 10
87.022526
 20
64.184036
 11
87.247569
 21
64.215225
  0
LINE
  8
1
 62
2
  6
CONTINUOUS
 10
87.247569
 20
64.215225
 11
87.472553
 21
64.246844
  0
LINE
  8
1
 62
2
  6
CONTINUOUS
 10
87.472553
 20
64.246844
 11
87.697472
 21
64.278912
  0
LINE
  8
1
 62
2
  6
CONTINUOUS
 10
87.697472
 20
64.278912
 11
87.922324
 21
64.311452
  0
LINE
  8
1
 62
2
  6
CONTINUOUS
 10
87.922324
 20
64.311452
 11
88.147104
 21
64.344487
  0
LINE
  8
1
 62
2
  6
CONTINUOUS
 10
88.147104
 20
64.344487
 11
88.371806
 21
64.378042
  0
LINE
  8
1
 62
2
  6
CONTINUOUS
 10
88.371806
 20
64.378042
 11
88.596427
 21
64.412144
  0
LINE
  8
1
 62
2
  6
CONTINUOUS
 10
88.596427
 20
64.412144
 11
88.820959
 21
64.446824
  0
LINE
  8
1
 62
2
  6
CONTINUOUS
 10
88.820959
 20
64.446824
 11
89.045396
 21
64.482114
  0
LINE
  8
1
 62
2
  6
CONTINUOUS
 10
89.045396
 20
64.482114
 11
89.269731
 21
64.518051
  0
LINE
  8
1
 62
2
  6
CONTINUOUS
 10
89.269731
 20
64.518051
 11
89.291237
 21
64.521532
  0
LINE
  8
1
 62
2
  6
CONTINUOUS
 10
89.291237
 20
64.521532
 11
89.493955
 21
64.554673
  0
LINE
  8
1
 62
2
  6
CONTINUOUS
 10
89.493955
 20
64.554673
 11
89.718059
 21
64.592024
  0
LINE
  8
1
 62
2
  6
CONTINUOUS
 10
89.718059
 20
64.592024
 11
89.942032
 21
64.630153
  0
LINE
  8
1
 62
2
  6
CONTINUOUS
 10
89.942032
 20
64.630153
 11
90.165862
 21
64.669113
  0
LINE
  8
1
 62
2
  6
CONTINUOUS
 10
90.165862
 20
64.669113
 11
90.389535
 21
64.708965
  0
LINE
  8
1
 62
2
  6
CONTINUOUS
 10
90.389535
 20
64.708965
 11
90.613035
 21
64.749776
  0
LINE
  8
1
 62
2
  6
CONTINUOUS
 10
90.613035
 20
64.749776
 11
90.836344
 21
64.791622
  0
LINE
  8
1
 62
2
  6
CONTINUOUS
 10
90.836344
 20
64.791622
 11
91.059440
 21
64.834590
  0
LINE
  8
1
 62
2
  6
CONTINUOUS
 10
91.059440
 20
64.834590
 11
91.282298
 21
64.878780
  0
LINE
  8
1
 62
2
  6
CONTINUOUS
 10
91.282298
 20
64.878780
 11
91.504886
 21
64.924307
  0
LINE
  8
1
 62
2
  6
CONTINUOUS
 10
91.504886
 20
64.924307
 11
91.727169
 21
64.971304
  0
LINE
  8
1
 62
2
  6
CONTINUOUS
 10
91.727169
 20
64.971304
 11
91.949102
 21
65.019929
  0
LINE
  8
1
 62
2
  6
CONTINUOUS
 10
91.949102
 20
65.019929
 11
92.170631
 21
65.070368
  0
LINE
  8
1
 62
2
  6
CONTINUOUS
 10
92.170631
 20
65.070368
 11
92.391685
 21
65.122846
  0
LINE
  8
1
 62
2
  6
CONTINUOUS
 10
92.391685
 20
65.122846
 11
92.612179
 21
65.177636
  0
LINE
  8
1
 62
2
  6
CONTINUOUS
 10
92.612179
 20
65.177636
 11
92.831996
 21
65.235078
  0
LINE
  8
1
 62
2
  6
CONTINUOUS
 10
92.831996
 20
65.235078
 11
93.050986
 21
65.295602
  0
LINE
  8
1
 62
2
  6
CONTINUOUS
 10
93.050986
 20
65.295602
 11
93.268938
 21
65.359763
  0
LINE
  8
1
 62
2
  6
CONTINUOUS
 10
93.268938
 20
65.359763
 11
93.421332
 21
65.407421
  0
LINE
  8
1
 62
2
  6
CONTINUOUS
 10
93.421332
 20
65.407421
 11
93.485553
 21
65.428304
  0
LINE
  8
1
 62
2
  6
CONTINUOUS
 10
93.485553
 20
65.428304
 11
93.700383
 21
65.502247
  0
LINE
  8
1
 62
2
  6
CONTINUOUS
 10
93.700383
 20
65.502247
 11
93.912718
 21
65.583071
  0
LINE
  8
1
 62
2
  6
CONTINUOUS
 10
93.912718
 20
65.583071
 11
94.121336
 21
65.673035
  0
LINE
  8
1
 62
2
  6
CONTINUOUS
 10
94.121336
 20
65.673035
 11
94.323889
 21
65.775878
  0
LINE
  8
1
 62
2
  6
CONTINUOUS
 10
94.323889
 20
65.775878
 11
94.515037
 21
65.898453
  0
LINE
  8
1
 62
2
  6
CONTINUOUS
 10
94.515037
 20
65.898453
 11
94.679124
 21
66.054674
  0
LINE
  8
1
 62
2
  6
CONTINUOUS
 10
94.679124
 20
66.054674
 11
94.758842
 21
66.263167
  0
LINE
  8
1
 62
2
  6
CONTINUOUS
 10
94.758842
 20
66.263167
 11
94.679125
 21
66.471663
  0
LINE
  8
1
 62
2
  6
CONTINUOUS
 10
94.679125
 20
66.471663
 11
94.515038
 21
66.627884
  0
LINE
  8
1
 62
2
  6
CONTINUOUS
 10
94.515038
 20
66.627884
 11
94.323889
 21
66.750459
  0
LINE
  8
1
 62
2
  6
CONTINUOUS
 10
94.323889
 20
66.750459
 11
94.121337
 21
66.853303
  0
LINE
  8
1
 62
2
  6
CONTINUOUS
 10
94.121337
 20
66.853303
 11
93.912718
 21
66.943267
  0
LINE
  8
1
 62
2
  6
CONTINUOUS
 10
93.912718
 20
66.943267
 11
93.700383
 21
67.024090
  0
LINE
  8
1
 62
2
  6
CONTINUOUS
 10
93.700383
 20
67.024090
 11
93.485553
 21
67.098034
  0
LINE
  8
1
 62
2
  6
CONTINUOUS
 10
93.485553
 20
67.098034
 11
93.421333
 21
67.118917
  0
LINE
  8
1
 62
2
  6
CONTINUOUS
 10
93.421333
 20
67.118917
 11
93.268938
 21
67.166575
  0
LINE
  8
1
 62
2
  6
CONTINUOUS
 10
93.268938
 20
67.166575
 11
93.050986
 21
67.230736
  0
LINE
  8
1
 62
2
  6
CONTINUOUS
 10
93.050986
 20
67.230736
 11
92.831996
 21
67.291260
  0
LINE
  8
1
 62
2
  6
CONTINUOUS
 10
92.831996
 20
67.291260
 11
92.612178
 21
67.348702
  0
LINE
  8
1
 62
2
  6
CONTINUOUS
 10
92.612178
 20
67.348702
 11
92.391685
 21
67.403492
  0
LINE
  8
1
 62
2
  6
CONTINUOUS
 10
92.391685
 20
67.403492
 11
92.170631
 21
67.455970
  0
LINE
  8
1
 62
2
  6
CONTINUOUS
 10
92.170631
 20
67.455970
 11
91.949102
 21
67.506409
  0
LINE
  8
1
 62
2
  6
CONTINUOUS
 10
91.949102
 20
67.506409
 11
91.727169
 21
67.555033
  0
LINE
  8
1
 62
2
  6
CONTINUOUS
 10
91.727169
 20
67.555033
 11
91.504886
 21
67.602031
  0
LINE
  8
1
 62
2
  6
CONTINUOUS
 10
91.504886
 20
67.602031
 11
91.282298
 21
67.647558
  0
LINE
  8
1
 62
2
  6
CONTINUOUS
 10
91.282298
 20
67.647558
 11
91.059440
 21
67.691748
  0
LINE
  8
1
 62
2
  6
CONTINUOUS
 10
91.059440
 20
67.691748
 11
90.836344
 21
67.734716
  0
LINE
  8
1
 62
2
  6
CONTINUOUS
 10
90.836344
 20
67.734716
 11
90.613035
 21
67.776562
  0
LINE
  8
1
 62
2
  6
CONTINUOUS
 10
90.613035
 20
67.776562
 11
90.389535
 21
67.817373
  0
LINE
  8
1
 62
2
  6
CONTINUOUS
 10
90.389535
 20
67.817373
 11
90.165862
 21
67.857224
  0
LINE
  8
1
 62
2
  6
CONTINUOUS
 10
90.165862
 20
67.857224
 11
89.942032
 21
67.896185
  0
LINE
  8
1
 62
2
  6
CONTINUOUS
 10
89.942032
 20
67.896185
 11
89.718059
 21
67.934314
  0
LINE
  8
1
 62
2
  6
CONTINUOUS
 10
89.718059
 20
67.934314
 11
89.493955
 21
67.971665
  0
LINE
  8
1
 62
2
  6
CONTINUOUS
 10
89.493955
 20
67.971665
 11
89.291237
 21
68.004806
  0
LINE
  8
1
 62
2
  6
CONTINUOUS
 10
89.291237
 20
68.004806
 11
89.269731
 21
68.008287
  0
LINE
  8
1
 62
2
  6
CONTINUOUS
 10
89.269731
 20
68.008287
 11
89.045396
 21
68.044224
  0
LINE
  8
1
 62
2
  6
CONTINUOUS
 10
89.045396
 20
68.044224
 11
88.820959
 21
68.079514
  0
LINE
  8
1
 62
2
  6
CONTINUOUS
 10
88.820959
 20
68.079514
 11
88.596427
 21
68.114194
  0
LINE
  8
1
 62
2
  6
CONTINUOUS
 10
88.596427
 20
68.114194
 11
88.371806
 21
68.148296
  0
LINE
  8
1
 62
2
  6
CONTINUOUS
 10
88.371806
 20
68.148296
 11
88.147104
 21
68.181851
  0
LINE
  8
1
 62
2
  6
CONTINUOUS
 10
88.147104
 20
68.181851
 11
87.922324
 21
68.214885
  0
LINE
  8
1
 62
2
  6
CONTINUOUS
 10
87.922324
 20
68.214885
 11
87.697472
 21
68.247425
  0
LINE
  8
1
 62
2
  6
CONTINUOUS
 10
87.697472
 20
68.247425
 11
87.472553
 21
68.279494
  0
LINE
  8
1
 62
2
  6
CONTINUOUS
 10
87.472553
 20
68.279494
 11
87.247569
 21
68.311112
  0
LINE
  8
1
 62
2
  6
CONTINUOUS
 10
87.247569
 20
68.311112
 11
87.022526
 21
68.342301
  0
LINE
  8
1
 62
2
  6
CONTINUOUS
 10
87.022526
 20
68.342301
 11
86.797427
 21
68.373079
  0
LINE
  8
1
 62
2
  6
CONTINUOUS
 10
86.797427
 20
68.373079
 11
86.572274
 21
68.403463
  0
LINE
  8
1
 62
2
  6
CONTINUOUS
 10
86.572274
 20
68.403463
 11
86.347071
 21
68.433470
  0
LINE
  8
1
 62
2
  6
CONTINUOUS
 10
86.347071
 20
68.433470
 11
86.121819
 21
68.463114
  0
LINE
  8
1
 62
2
  6
CONTINUOUS
 10
86.121819
 20
68.463114
 11
85.896522
 21
68.492410
  0
LINE
  8
1
 62
2
  6
CONTINUOUS
 10
85.896522
 20
68.492410
 11
85.671182
 21
68.521370
  0
LINE
  8
1
 62
2
  6
CONTINUOUS
 10
85.671182
 20
68.521370
 11
85.445801
 21
68.550009
  0
LINE
  8
1
 62
2
  6
CONTINUOUS
 10
85.445801
 20
68.550009
 11
85.220380
 21
68.578336
  0
LINE
  8
1
 62
2
  6
CONTINUOUS
 10
85.220380
 20
73.163169
 11
85.220380
 21
68.578336
  0
LINE
  8
1
 62
2
  6
CONTINUOUS
 10
81.720380
 20
68.578336
 11
85.220380
 21
68.578336
  0
LINE
  8
1
 62
2
  6
CONTINUOUS
 10
81.720380
 20
73.163169
 11
81.720380
 21
68.578336
  0
LINE
  8
1
 62
2
  6
CONTINUOUS
 10
81.720380
 20
63.948001
 11
85.220380
 21
63.948001
  0
LINE
  8
1
 62
2
  6
CONTINUOUS
 10
81.720380
 20
68.578336
 11
81.549705
 21
68.004953
  0
LINE
  8
1
 62
2
  6
CONTINUOUS
 10
81.549705
 20
68.004953
 11
81.376469
 21
67.118913
  0
LINE
  8
1
 62
2
  6
CONTINUOUS
 10
81.376469
 20
67.118913
 11
81.320380
 21
66.263203
  0
LINE
  8
1
 62
2
  6
CONTINUOUS
 10
81.320380
 20
66.263203
 11
81.376469
 21
65.407424
  0
LINE
  8
1
 62
2
  6
CONTINUOUS
 10
81.376469
 20
65.407424
 11
81.549705
 21
64.521385
  0
LINE
  8
1
 62
2
  6
CONTINUOUS
 10
81.549705
 20
64.521385
 11
81.720380
 21
63.948001
  0
LINE
  8
1
 62
2
  6
CONTINUOUS
 10
81.220380
 20
59.179326
 11
81.220380
 21
59.163169
  0
LINE
  8
1
 62
2
  6
CONTINUOUS
 10
81.220380
 20
59.296800
 11
81.220380
 21
59.179326
  0
LINE
  8
1
 62
2
  6
CONTINUOUS
 10
81.220380
 20
59.544605
 11
81.220380
 21
59.296800
  0
LINE
  8
1
 62
2
  6
CONTINUOUS
 10
81.220380
 20
59.889020
 11
81.220380
 21
59.544605
  0
LINE
  8
1
 62
2
  6
CONTINUOUS
 10
81.220380
 20
60.367743
 11
81.220380
 21
59.889020
  0
LINE
  8
1
 62
2
  6
CONTINUOUS
 10
81.220380
 20
60.915628
 11
81.220380
 21
60.367743
  0
LINE
  8
1
 62
2
  6
CONTINUOUS
 10
81.220380
 20
61.592644
 11
81.220380
 21
60.915628
  0
LINE
  8
1
 62
2
  6
CONTINUOUS
 10
81.220380
 20
62.306662
 11
81.220380
 21
61.592644
  0
LINE
  8
1
 62
2
  6
CONTINUOUS
 10
81.220380
 20
63.135833
 11
81.220380
 21
62.306662
  0
LINE
  8
1
 62
2
  6
CONTINUOUS
 10
81.220380
 20
63.967325
 11
81.220380
 21
63.135833
  0
LINE
  8
1
 62
2
  6
CONTINUOUS
 10
81.220380
 20
64.892146
 11
81.220380
 21
63.967325
  0
LINE
  8
1
 62
2
  6
CONTINUOUS
 10
81.220380
 20
65.784446
 11
81.220380
 21
64.892146
  0
LINE
  8
1
 62
2
  6
CONTINUOUS
 10
81.220380
 20
66.263169
 11
81.220380
 21
65.784446
  0
LINE
  8
1
 62
2
  6
CONTINUOUS
 10
81.220380
 20
66.741891
 11
81.220380
 21
66.263169
  0
LINE
  8
1
 62
2
  6
CONTINUOUS
 10
81.220380
 20
67.634192
 11
81.220380
 21
66.741891
  0
LINE
  8
1
 62
2
  6
CONTINUOUS
 10
81.220380
 20
68.559013
 11
81.220380
 21
67.634192
  0
LINE
  8
1
 62
2
  6
CONTINUOUS
 10
81.220380
 20
69.390504
 11
81.220380
 21
68.559013
  0
LINE
  8
1
 62
2
  6
CONTINUOUS
 10
81.220380
 20
70.219676
 11
81.220380
 21
69.390504
  0
LINE
  8
1
 62
2
  6
CONTINUOUS
 10
81.220380
 20
70.933694
 11
81.220380
 21
70.219676
  0
LINE
  8
1
 62
2
  6
CONTINUOUS
 10
81.220380
 20
71.610710
 11
81.220380
 21
70.933694
  0
LINE
  8
1
 62
2
  6
CONTINUOUS
 10
81.220380
 20
72.158595
 11
81.220380
 21
71.610710
  0
LINE
  8
1
 62
2
  6
CONTINUOUS
 10
81.220380
 20
72.650657
 11
81.220380
 21
72.158595
  0
LINE
  8
1
 62
2
  6
CONTINUOUS
 10
81.220380
 20
73.363169
 11
81.220380
 21
72.650657
  0
LINE
  8
1
 62
2
  6
CONTINUOUS
 10
73.470380
 20
72.158595
 11
73.470380
 21
72.650657
  0
LINE
  8
1
 62
2
  6
CONTINUOUS
 10
73.470380
 20
71.610710
 11
73.470380
 21
72.158595
  0
LINE
  8
1
 62
2
  6
CONTINUOUS
 10
73.470380
 20
70.933694
 11
73.470380
 21
71.610710
  0
LINE
  8
1
 62
2
  6
CONTINUOUS
 10
73.470380
 20
70.219676
 11
73.470380
 21
70.933694
  0
LINE
  8
1
 62
2
  6
CONTINUOUS
 10
73.470380
 20
69.390504
 11
73.470380
 21
70.219676
  0
LINE
  8
1
 62
2
  6
CONTINUOUS
 10
73.470380
 20
68.559013
 11
73.470380
 21
69.390504
  0
LINE
  8
1
 62
2
  6
CONTINUOUS
 10
73.470380
 20
67.634192
 11
73.470380
 21
68.559013
  0
LINE
  8
1
 62
2
  6
CONTINUOUS
 10
73.470380
 20
66.741891
 11
73.470380
 21
67.634192
  0
LINE
  8
1
 62
2
  6
CONTINUOUS
 10
73.470380
 20
66.263169
 11
73.470380
 21
66.741891
  0
LINE
  8
1
 62
2
  6
CONTINUOUS
 10
73.470380
 20
65.784446
 11
73.470380
 21
66.263169
  0
LINE
  8
1
 62
2
  6
CONTINUOUS
 10
73.470380
 20
64.892146
 11
73.470380
 21
65.784446
  0
LINE
  8
1
 62
2
  6
CONTINUOUS
 10
73.470380
 20
63.967325
 11
73.470380
 21
64.892146
  0
LINE
  8
1
 62
2
  6
CONTINUOUS
 10
73.470380
 20
63.135833
 11
73.470380
 21
63.967325
  0
LINE
  8
1
 62
2
  6
CONTINUOUS
 10
73.470380
 20
62.306662
 11
73.470380
 21
63.135833
  0
LINE
  8
1
 62
2
  6
CONTINUOUS
 10
73.470380
 20
61.592644
 11
73.470380
 21
62.306662
  0
LINE
  8
1
 62
2
  6
CONTINUOUS
 10
73.470380
 20
60.915628
 11
73.470380
 21
61.592644
  0
LINE
  8
1
 62
2
  6
CONTINUOUS
 10
73.470380
 20
60.367743
 11
73.470380
 21
60.915628
  0
LINE
  8
1
 62
2
  6
CONTINUOUS
 10
73.470380
 20
59.889020
 11
73.470380
 21
60.367743
  0
LINE
  8
1
 62
2
  6
CONTINUOUS
 10
73.470380
 20
59.544605
 11
73.470380
 21
59.889020
  0
LINE
  8
1
 62
2
  6
CONTINUOUS
 10
73.470380
 20
59.296800
 11
73.470380
 21
59.544605
  0
LINE
  8
1
 62
2
  6
CONTINUOUS
 10
73.470380
 20
59.179326
 11
73.470380
 21
59.296800
  0
LINE
  8
1
 62
2
  6
CONTINUOUS
 10
73.470380
 20
59.163169
 11
73.470380
 21
59.179326
  0
LINE
  8
1
 62
2
  6
CONTINUOUS
 10
73.470380
 20
72.650657
 11
73.470380
 21
73.363169
  0
LINE
  8
1
 62
2
  6
CONTINUOUS
 10
73.770380
 20
72.397061
 11
73.620379
 21
72.277832
  0
LINE
  8
1
 62
2
  6
CONTINUOUS
 10
73.620379
 20
72.277832
 11
73.470380
 21
72.158595
  0
LINE
  8
1
 62
2
  6
CONTINUOUS
 10
73.770380
 20
72.397061
 11
73.770380
 21
71.849176
  0
LINE
  8
1
 62
2
  6
CONTINUOUS
 10
73.470380
 20
71.610710
 11
73.620379
 21
71.729947
  0
LINE
  8
1
 62
2
  6
CONTINUOUS
 10
73.620379
 20
71.729947
 11
73.770380
 21
71.849176
  0
LINE
  8
1
 62
2
  6
CONTINUOUS
 10
80.920380
 20
72.397061
 11
73.770380
 21
72.397061
  0
LINE
  8
1
 62
2
  6
CONTINUOUS
 10
81.220380
 20
72.158595
 11
81.070381
 21
72.277832
  0
LINE
  8
1
 62
2
  6
CONTINUOUS
 10
81.070381
 20
72.277832
 11
80.920380
 21
72.397061
  0
LINE
  8
1
 62
2
  6
CONTINUOUS
 10
80.920380
 20
71.849176
 11
73.770380
 21
71.849176
  0
LINE
  8
1
 62
2
  6
CONTINUOUS
 10
80.920380
 20
71.849176
 11
80.920380
 21
72.397061
  0
LINE
  8
1
 62
2
  6
CONTINUOUS
 10
80.920380
 20
71.849176
 11
81.070381
 21
71.729947
  0
LINE
  8
1
 62
2
  6
CONTINUOUS
 10
81.070381
 20
71.729947
 11
81.220380
 21
71.610710
  0
LINE
  8
1
 62
2
  6
CONTINUOUS
 10
73.470380
 20
71.610710
 11
81.220380
 21
71.610710
  0
LINE
  8
1
 62
2
  6
CONTINUOUS
 10
73.770380
 20
71.116675
 11
73.620379
 21
71.025188
  0
LINE
  8
1
 62
2
  6
CONTINUOUS
 10
73.620379
 20
71.025188
 11
73.470380
 21
70.933694
  0
LINE
  8
1
 62
2
  6
CONTINUOUS
 10
73.770380
 20
71.116675
 11
73.770380
 21
70.402657
  0
LINE
  8
1
 62
2
  6
CONTINUOUS
 10
73.470380
 20
70.219676
 11
73.620379
 21
70.311170
  0
LINE
  8
1
 62
2
  6
CONTINUOUS
 10
73.620379
 20
70.311170
 11
73.770380
 21
70.402657
  0
LINE
  8
1
 62
2
  6
CONTINUOUS
 10
73.770380
 20
69.505531
 11
73.620379
 21
69.448020
  0
LINE
  8
1
 62
2
  6
CONTINUOUS
 10
73.620379
 20
69.448020
 11
73.470380
 21
69.390504
  0
LINE
  8
1
 62
2
  6
CONTINUOUS
 10
73.770380
 20
69.505531
 11
73.770380
 21
68.674040
  0
LINE
  8
1
 62
2
  6
CONTINUOUS
 10
73.470380
 20
68.559013
 11
73.620379
 21
68.616528
  0
LINE
  8
1
 62
2
  6
CONTINUOUS
 10
73.620379
 20
68.616528
 11
73.770380
 21
68.674040
  0
LINE
  8
1
 62
2
  6
CONTINUOUS
 10
73.770380
 20
67.673425
 11
73.620379
 21
67.653809
  0
LINE
  8
1
 62
2
  6
CONTINUOUS
 10
73.620379
 20
67.653809
 11
73.470380
 21
67.634192
  0
LINE
  8
1
 62
2
  6
CONTINUOUS
 10
73.770380
 20
67.673425
 11
73.770380
 21
66.781125
  0
LINE
  8
1
 62
2
  6
CONTINUOUS
 10
73.470380
 20
66.741891
 11
73.620379
 21
66.761509
  0
LINE
  8
1
 62
2
  6
CONTINUOUS
 10
73.620379
 20
66.761509
 11
73.770380
 21
66.781125
  0
LINE
  8
1
 62
2
  6
CONTINUOUS
 10
80.920380
 20
67.673425
 11
73.770380
 21
67.673425
  0
LINE
  8
1
 62
2
  6
CONTINUOUS
 10
81.220380
 20
67.634192
 11
81.070381
 21
67.653809
  0
LINE
  8
1
 62
2
  6
CONTINUOUS
 10
81.070381
 20
67.653809
 11
80.920380
 21
67.673425
  0
LINE
  8
1
 62
2
  6
CONTINUOUS
 10
80.920380
 20
66.781125
 11
73.770380
 21
66.781125
  0
LINE
  8
1
 62
2
  6
CONTINUOUS
 10
80.920380
 20
66.781125
 11
80.920380
 21
67.673425
  0
LINE
  8
1
 62
2
  6
CONTINUOUS
 10
80.920380
 20
66.781125
 11
81.070381
 21
66.761509
  0
LINE
  8
1
 62
2
  6
CONTINUOUS
 10
81.070381
 20
66.761509
 11
81.220380
 21
66.741891
  0
LINE
  8
1
 62
2
  6
CONTINUOUS
 10
73.470380
 20
66.741891
 11
81.220380
 21
66.741891
  0
LINE
  8
1
 62
2
  6
CONTINUOUS
 10
73.470380
 20
65.784446
 11
81.220380
 21
65.784446
  0
LINE
  8
1
 62
2
  6
CONTINUOUS
 10
73.770380
 20
65.745213
 11
73.620379
 21
65.764829
  0
LINE
  8
1
 62
2
  6
CONTINUOUS
 10
73.620379
 20
65.764829
 11
73.470380
 21
65.784446
  0
LINE
  8
1
 62
2
  6
CONTINUOUS
 10
73.770380
 20
65.745213
 11
73.770380
 21
64.852912
  0
LINE
  8
1
 62
2
  6
CONTINUOUS
 10
73.470380
 20
64.892146
 11
73.620379
 21
64.872528
  0
LINE
  8
1
 62
2
  6
CONTINUOUS
 10
73.620379
 20
64.872528
 11
73.770380
 21
64.852912
  0
LINE
  8
1
 62
2
  6
CONTINUOUS
 10
73.770380
 20
63.852298
 11
73.620379
 21
63.909810
  0
LINE
  8
1
 62
2
  6
CONTINUOUS
 10
73.620379
 20
63.909810
 11
73.470380
 21
63.967325
  0
LINE
  8
1
 62
2
  6
CONTINUOUS
 10
73.770380
 20
63.852298
 11
73.770380
 21
63.020807
  0
LINE
  8
1
 62
2
  6
CONTINUOUS
 10
73.470380
 20
63.135833
 11
73.620379
 21
63.078318
  0
LINE
  8
1
 62
2
  6
CONTINUOUS
 10
73.620379
 20
63.078318
 11
73.770380
 21
63.020807
  0
LINE
  8
1
 62
2
  6
CONTINUOUS
 10
80.920380
 20
63.852298
 11
73.770380
 21
63.852298
  0
LINE
  8
1
 62
2
  6
CONTINUOUS
 10
73.470380
 20
63.967325
 11
81.220380
 21
63.967325
  0
LINE
  8
1
 62
2
  6
CONTINUOUS
 10
81.220380
 20
63.967325
 11
81.070381
 21
63.909810
  0
LINE
  8
1
 62
2
  6
CONTINUOUS
 10
81.070381
 20
63.909810
 11
80.920380
 21
63.852298
  0
LINE
  8
1
 62
2
  6
CONTINUOUS
 10
80.920380
 20
63.020807
 11
73.770380
 21
63.020807
  0
LINE
  8
1
 62
2
  6
CONTINUOUS
 10
80.920380
 20
63.020807
 11
80.920380
 21
63.852298
  0
LINE
  8
1
 62
2
  6
CONTINUOUS
 10
80.920380
 20
63.020807
 11
81.070381
 21
63.078318
  0
LINE
  8
1
 62
2
  6
CONTINUOUS
 10
81.070381
 20
63.078318
 11
81.220380
 21
63.135833
  0
LINE
  8
1
 62
2
  6
CONTINUOUS
 10
73.470380
 20
62.306662
 11
81.220380
 21
62.306662
  0
LINE
  8
1
 62
2
  6
CONTINUOUS
 10
73.770380
 20
62.123680
 11
73.620379
 21
62.215168
  0
LINE
  8
1
 62
2
  6
CONTINUOUS
 10
73.620379
 20
62.215168
 11
73.470380
 21
62.306662
  0
LINE
  8
1
 62
2
  6
CONTINUOUS
 10
73.770380
 20
62.123680
 11
73.770380
 21
61.409662
  0
LINE
  8
1
 62
2
  6
CONTINUOUS
 10
73.470380
 20
61.592644
 11
73.620379
 21
61.501150
  0
LINE
  8
1
 62
2
  6
CONTINUOUS
 10
73.620379
 20
61.501150
 11
73.770380
 21
61.409662
  0
LINE
  8
1
 62
2
  6
CONTINUOUS
 10
73.770380
 20
60.677162
 11
73.620379
 21
60.796391
  0
LINE
  8
1
 62
2
  6
CONTINUOUS
 10
73.620379
 20
60.796391
 11
73.470380
 21
60.915628
  0
LINE
  8
1
 62
2
  6
CONTINUOUS
 10
73.770380
 20
60.677162
 11
73.770380
 21
60.129277
  0
LINE
  8
1
 62
2
  6
CONTINUOUS
 10
73.470380
 20
60.367743
 11
73.620379
 21
60.248505
  0
LINE
  8
1
 62
2
  6
CONTINUOUS
 10
73.620379
 20
60.248505
 11
73.770380
 21
60.129277
  0
LINE
  8
1
 62
2
  6
CONTINUOUS
 10
80.920380
 20
60.129277
 11
81.070381
 21
60.248505
  0
LINE
  8
1
 62
2
  6
CONTINUOUS
 10
81.070381
 20
60.248505
 11
81.220380
 21
60.367743
  0
LINE
  8
1
 62
2
  6
CONTINUOUS
 10
80.920380
 20
60.129277
 11
80.920380
 21
60.677162
  0
LINE
  8
1
 62
2
  6
CONTINUOUS
 10
81.220380
 20
60.915628
 11
81.070381
 21
60.796391
  0
LINE
  8
1
 62
2
  6
CONTINUOUS
 10
81.070381
 20
60.796391
 11
80.920380
 21
60.677162
  0
LINE
  8
1
 62
2
  6
CONTINUOUS
 10
80.920380
 20
60.677162
 11
73.770380
 21
60.677162
  0
LINE
  8
1
 62
2
  6
CONTINUOUS
 10
73.470380
 20
60.915628
 11
81.220380
 21
60.915628
  0
LINE
  8
1
 62
2
  6
CONTINUOUS
 10
80.920380
 20
60.129277
 11
73.770380
 21
60.129277
  0
LINE
  8
1
 62
2
  6
CONTINUOUS
 10
73.470380
 20
59.889020
 11
81.220380
 21
59.889020
  0
LINE
  8
1
 62
2
  6
CONTINUOUS
 10
80.920380
 20
59.611320
 11
73.770380
 21
59.611320
  0
LINE
  8
1
 62
2
  6
CONTINUOUS
 10
73.770380
 20
59.611320
 11
73.620379
 21
59.750165
  0
LINE
  8
1
 62
2
  6
CONTINUOUS
 10
73.620379
 20
59.750165
 11
73.470380
 21
59.889020
  0
LINE
  8
1
 62
2
  6
CONTINUOUS
 10
81.220380
 20
59.889020
 11
81.070381
 21
59.750165
  0
LINE
  8
1
 62
2
  6
CONTINUOUS
 10
81.070381
 20
59.750165
 11
80.920380
 21
59.611320
  0
LINE
  8
1
 62
2
  6
CONTINUOUS
 10
73.470380
 20
59.544605
 11
73.620379
 21
59.405750
  0
LINE
  8
1
 62
2
  6
CONTINUOUS
 10
73.620379
 20
59.405750
 11
73.770380
 21
59.266905
  0
LINE
  8
1
 62
2
  6
CONTINUOUS
 10
80.920380
 20
59.266905
 11
73.770380
 21
59.266905
  0
LINE
  8
1
 62
2
  6
CONTINUOUS
 10
80.920380
 20
59.266905
 11
81.070381
 21
59.405750
  0
LINE
  8
1
 62
2
  6
CONTINUOUS
 10
81.070381
 20
59.405750
 11
81.220380
 21
59.544605
  0
LINE
  8
1
 62
2
  6
CONTINUOUS
 10
73.770380
 20
59.611320
 11
73.770380
 21
59.266905
  0
LINE
  8
1
 62
2
  6
CONTINUOUS
 10
80.920380
 20
59.266905
 11
80.920380
 21
59.611320
  0
LINE
  8
1
 62
2
  6
CONTINUOUS
 10
80.920380
 20
61.409662
 11
81.070381
 21
61.501150
  0
LINE
  8
1
 62
2
  6
CONTINUOUS
 10
81.070381
 20
61.501150
 11
81.220380
 21
61.592644
  0
LINE
  8
1
 62
2
  6
CONTINUOUS
 10
80.920380
 20
61.409662
 11
80.920380
 21
62.123680
  0
LINE
  8
1
 62
2
  6
CONTINUOUS
 10
81.220380
 20
62.306662
 11
81.070381
 21
62.215168
  0
LINE
  8
1
 62
2
  6
CONTINUOUS
 10
81.070381
 20
62.215168
 11
80.920380
 21
62.123680
  0
LINE
  8
1
 62
2
  6
CONTINUOUS
 10
80.920380
 20
62.123680
 11
73.770380
 21
62.123680
  0
LINE
  8
1
 62
2
  6
CONTINUOUS
 10
80.920380
 20
61.409662
 11
73.770380
 21
61.409662
  0
LINE
  8
1
 62
2
  6
CONTINUOUS
 10
80.920380
 20
58.998792
 11
73.770380
 21
58.998792
  0
LINE
  8
1
 62
2
  6
CONTINUOUS
 10
73.770380
 20
58.998792
 11
73.620379
 21
59.147791
  0
LINE
  8
1
 62
2
  6
CONTINUOUS
 10
73.620379
 20
59.147791
 11
73.470380
 21
59.296800
  0
LINE
  8
1
 62
2
  6
CONTINUOUS
 10
80.952677
 20
59.296800
 11
81.220380
 21
59.296800
  0
LINE
  8
1
 62
2
  6
CONTINUOUS
 10
73.470380
 20
59.296800
 11
73.738084
 21
59.296800
  0
LINE
  8
1
 62
2
  6
CONTINUOUS
 10
81.220380
 20
59.296800
 11
81.070381
 21
59.147791
  0
LINE
  8
1
 62
2
  6
CONTINUOUS
 10
81.070381
 20
59.147791
 11
80.920380
 21
58.998792
  0
LINE
  8
1
 62
2
  6
CONTINUOUS
 10
73.770380
 20
58.998792
 11
73.770380
 21
58.881318
  0
LINE
  8
1
 62
2
  6
CONTINUOUS
 10
73.470380
 20
59.179326
 11
73.620379
 21
59.030317
  0
LINE
  8
1
 62
2
  6
CONTINUOUS
 10
73.620379
 20
59.030317
 11
73.770380
 21
58.881318
  0
LINE
  8
1
 62
2
  6
CONTINUOUS
 10
80.920380
 20
58.881318
 11
73.770380
 21
58.881318
  0
LINE
  8
1
 62
2
  6
CONTINUOUS
 10
80.920380
 20
58.881318
 11
80.920380
 21
58.998792
  0
LINE
  8
1
 62
2
  6
CONTINUOUS
 10
80.920380
 20
58.881318
 11
81.070381
 21
59.030317
  0
LINE
  8
1
 62
2
  6
CONTINUOUS
 10
81.070381
 20
59.030317
 11
81.220380
 21
59.179326
  0
LINE
  8
1
 62
2
  6
CONTINUOUS
 10
73.770380
 20
58.881318
 11
73.620379
 21
59.030317
  0
LINE
  8
1
 62
2
  6
CONTINUOUS
 10
73.620379
 20
59.030317
 11
73.486645
 21
59.163169
  0
LINE
  8
1
 62
2
  6
CONTINUOUS
 10
80.920380
 20
64.852912
 11
81.070381
 21
64.872528
  0
LINE
  8
1
 62
2
  6
CONTINUOUS
 10
81.070381
 20
64.872528
 11
81.220380
 21
64.892146
  0
LINE
  8
1
 62
2
  6
CONTINUOUS
 10
80.920380
 20
64.852912
 11
80.920380
 21
65.745213
  0
LINE
  8
1
 62
2
  6
CONTINUOUS
 10
81.220380
 20
65.784446
 11
81.070381
 21
65.764829
  0
LINE
  8
1
 62
2
  6
CONTINUOUS
 10
81.070381
 20
65.764829
 11
80.920380
 21
65.745213
  0
LINE
  8
1
 62
2
  6
CONTINUOUS
 10
80.920380
 20
65.745213
 11
73.770380
 21
65.745213
  0
LINE
  8
1
 62
2
  6
CONTINUOUS
 10
80.920380
 20
64.852912
 11
73.770380
 21
64.852912
  0
LINE
  8
1
 62
2
  6
CONTINUOUS
 10
73.470380
 20
68.559013
 11
81.220380
 21
68.559013
  0
LINE
  8
1
 62
2
  6
CONTINUOUS
 10
80.920380
 20
68.674040
 11
81.070381
 21
68.616528
  0
LINE
  8
1
 62
2
  6
CONTINUOUS
 10
81.070381
 20
68.616528
 11
81.220380
 21
68.559013
  0
LINE
  8
1
 62
2
  6
CONTINUOUS
 10
80.920380
 20
68.674040
 11
80.920380
 21
69.505531
  0
LINE
  8
1
 62
2
  6
CONTINUOUS
 10
81.220380
 20
69.390504
 11
81.070381
 21
69.448020
  0
LINE
  8
1
 62
2
  6
CONTINUOUS
 10
81.070381
 20
69.448020
 11
80.920380
 21
69.505531
  0
LINE
  8
1
 62
2
  6
CONTINUOUS
 10
80.920380
 20
69.505531
 11
73.770380
 21
69.505531
  0
LINE
  8
1
 62
2
  6
CONTINUOUS
 10
80.920380
 20
68.674040
 11
73.770380
 21
68.674040
  0
LINE
  8
1
 62
2
  6
CONTINUOUS
 10
73.470380
 20
70.219676
 11
81.220380
 21
70.219676
  0
LINE
  8
1
 62
2
  6
CONTINUOUS
 10
80.920380
 20
70.402657
 11
81.070381
 21
70.311170
  0
LINE
  8
1
 62
2
  6
CONTINUOUS
 10
81.070381
 20
70.311170
 11
81.220380
 21
70.219676
  0
LINE
  8
1
 62
2
  6
CONTINUOUS
 10
80.920380
 20
70.402657
 11
80.920380
 21
71.116675
  0
LINE
  8
1
 62
2
  6
CONTINUOUS
 10
81.220380
 20
70.933694
 11
81.070381
 21
71.025188
  0
LINE
  8
1
 62
2
  6
CONTINUOUS
 10
81.070381
 20
71.025188
 11
80.920380
 21
71.116675
  0
LINE
  8
1
 62
2
  6
CONTINUOUS
 10
80.920380
 20
71.116675
 11
73.770380
 21
71.116675
  0
LINE
  8
1
 62
2
  6
CONTINUOUS
 10
80.920380
 20
70.402657
 11
73.770380
 21
70.402657
  0
LINE
  8
1
 62
2
  6
CONTINUOUS
 10
73.470380
 20
72.650657
 11
81.220380
 21
72.650657
  0
LINE
  8
1
 62
2
  6
CONTINUOUS
 10
73.470380
 20
72.650657
 11
73.620342
 21
72.816942
  0
LINE
  8
1
 62
2
  6
CONTINUOUS
 10
73.620342
 20
72.816942
 11
73.770380
 21
72.982544
  0
LINE
  8
1
 62
2
  6
CONTINUOUS
 10
73.770380
 20
72.982544
 11
80.920380
 21
72.982544
  0
LINE
  8
1
 62
2
  6
CONTINUOUS
 10
80.920380
 20
72.982544
 11
81.070419
 21
72.816942
  0
LINE
  8
1
 62
2
  6
CONTINUOUS
 10
81.070419
 20
72.816942
 11
81.220380
 21
72.650657
  0
LINE
  8
1
 62
2
  6
CONTINUOUS
 10
80.920380
 20
72.982544
 11
80.920380
 21
73.663169
  0
LINE
  8
1
 62
2
  6
CONTINUOUS
 10
73.770380
 20
73.663169
 11
73.770380
 21
72.982544
  0
LINE
  8
1
 62
2
  6
CONTINUOUS
 10
78.570380
 20
73.509547
 11
78.570380
 21
73.646258
  0
LINE
  8
1
 62
2
  6
CONTINUOUS
 10
77.070380
 20
73.646258
 11
78.570380
 21
73.646258
  0
LINE
  8
1
 62
2
  6
CONTINUOUS
 10
77.070380
 20
73.646258
 11
77.070380
 21
73.663169
  0
LINE
  8
1
 62
2
  6
CONTINUOUS
 10
76.570380
 20
73.509547
 11
77.070380
 21
73.593832
  0
LINE
  8
1
 62
2
  6
CONTINUOUS
 10
76.070380
 20
73.593832
 11
76.570380
 21
73.509547
  0
LINE
  8
1
 62
2
  6
CONTINUOUS
 10
75.570380
 20
73.646258
 11
76.028794
 21
73.600842
  0
LINE
  8
1
 62
2
  6
CONTINUOUS
 10
76.070380
 20
73.663169
 11
76.070380
 21
73.509547
  0
LINE
  8
1
 62
2
  6
CONTINUOUS
 10
76.070380
 20
73.509547
 11
78.570380
 21
73.509547
  0
LINE
  8
1
 62
2
  6
CONTINUOUS
 10
77.070380
 20
73.646258
 11
77.070380
 21
73.509547
  0
LINE
  8
1
 62
2
  6
CONTINUOUS
 10
72.690380
 20
61.688169
 11
72.690380
 21
70.776275
  0
LINE
  8
1
 62
2
  6
CONTINUOUS
 10
72.890380
 20
71.006388
 11
72.790311
 21
70.892682
  0
LINE
  8
1
 62
2
  6
CONTINUOUS
 10
72.790311
 20
70.892682
 11
72.690380
 21
70.776275
  0
LINE
  8
1
 62
2
  6
CONTINUOUS
 10
73.470380
 20
71.006388
 11
72.890380
 21
71.006388
  0
LINE
  8
1
 62
2
  6
CONTINUOUS
 10
81.720380
 20
63.948001
 11
81.720380
 21
59.363169
  0
LINE
  8
1
 62
2
  6
CONTINUOUS
 10
72.890380
 20
71.006388
 11
72.890380
 21
61.488169
  0
LINE
  8
1
 62
132
  6
DASHDOT
 10
67.583239
 20
66.263169
 11
118.006035
 21
66.263169
  0
LINE
  8
1
 62
132
  6
CONTINUOUS
 10
114.490380
 20
69.763169
 11
125.180025
 21
69.763169
  0
LINE
  8
1
 62
132
  6
CONTINUOUS
 10
114.490380
 20
62.763169
 11
122.846691
 21
62.763169
  0
DIMENSION
  8
2
 62
134
  6
CONTINUOUS
  2
*D16
 10
114.490380
 20
87.722933
 11
145.974536
 21
87.722933
 70
     0
  1
ｹｰﾌﾞﾙ長(標準2m)
 13
114.490380
 23
73.013169
 14
175.862166
 24
78.700130
 50
0.000000
  0
LINE
  8
2
 62
134
  6
CONTINUOUS
 10
85.283984
 20
59.331078
 11
91.155029
 21
50.656088
  0
LINE
  8
2
 62
134
  6
CONTINUOUS
 10
91.155029
 20
50.656088
 11
111.784092
 21
50.656088
  0
TEXT
  8
2
 62
134
  6
CONTINUOUS
 10
95.784092
 20
50.442036
 40
4.000000
 41
1.000000
  1
ﾍｯﾄﾞｺﾈｸﾀ
  7
KANJI
 50
0.000000
 51
0.000000
  0
LINE
  8
2
 62
134
  6
CONTINUOUS
 10
85.283984
 20
59.331078
 11
86.795446
 21
58.021314
  0
LINE
  8
2
 62
134
  6
CONTINUOUS
 10
85.283984
 20
59.331078
 11
85.938066
 21
57.441058
  0
LINE
  8
2
 62
134
  6
CONTINUOUS
 10
86.795446
 20
58.021314
 11
85.938066
 21
57.441058
  0
LINE
  8
2
 62
134
  6
CONTINUOUS
 10
85.554677
 20
58.931105
 11
86.310408
 21
58.276223
  0
LINE
  8
2
 62
134
  6
CONTINUOUS
 10
85.554677
 20
58.931105
 11
85.881718
 21
57.986095
  0
LINE
  8
2
 62
134
  6
CONTINUOUS
 10
86.310408
 20
58.276223
 11
85.881718
 21
57.986095
  0
LINE
  8
2
 62
134
  6
CONTINUOUS
 10
135.027849
 20
62.714159
 11
141.406103
 21
50.966225
  0
LINE
  8
2
 62
134
  6
CONTINUOUS
 10
141.406103
 20
50.966225
 11
164.888511
 21
50.966225
  0
TEXT
  8
2
 62
134
  6
CONTINUOUS
 10
142.888511
 20
50.966225
 40
4.000000
 41
1.000000
  1
　接続ｹｰﾌﾞﾙ
  7
KANJI
 50
0.000000
 51
0.000000
  0
LINE
  8
2
 62
134
  6
CONTINUOUS
 10
135.027849
 20
62.714159
 11
136.404524
 21
61.263378
  0
LINE
  8
2
 62
134
  6
CONTINUOUS
 10
135.027849
 20
62.714159
 11
135.494694
 21
60.769408
  0
LINE
  8
2
 62
134
  6
CONTINUOUS
 10
136.404524
 20
61.263378
 11
135.494694
 21
60.769408
  0
LINE
  8
2
 62
134
  6
CONTINUOUS
 10
135.258289
 20
62.289717
 11
135.946626
 21
61.564327
  0
LINE
  8
2
 62
134
  6
CONTINUOUS
 10
135.258289
 20
62.289717
 11
135.491711
 21
61.317342
  0
LINE
  8
2
 62
134
  6
CONTINUOUS
 10
135.946626
 20
61.564327
 11
135.491711
 21
61.317342
  0
TEXT
  8
2
 62
134
  6
CONTINUOUS
 10
78.511856
 20
108.106078
 40
4.000000
 41
1.000000
  1
100(TMFX-25-100)
  7
KANJI
 50
0.000000
 51
0.000000
  0
DIMENSION
  8
2
 62
134
  6
CONTINUOUS
  2
*D17
 10
74.128357
 20
112.563635
 11
94.989128
 21
112.563635
 70
     0
  1
50(TMFX-25-50)
 13
74.128357
 23
124.761146
 14
124.128357
 24
124.761146
 50
0.000000
  0
DIMENSION
  8
2
 62
7
  6
CONTINUOUS
  2
*D18
 10
66.257019
 20
125.261146
 11
66.257019
 21
140.161146
 70
     0
  1
φ29.8
 13
73.628357
 23
125.261146
 14
73.628357
 24
155.061146
 50
90.000000
  0
LINE
  8
1
 62
136
  6
CONTINUOUS
 10
120.128357
 20
152.711146
 11
120.128357
 21
140.161146
  0
LINE
  8
1
 62
250
  6
CONTINUOUS
 10
124.128357
 20
152.711146
 11
124.128357
 21
154.561146
  0
LINE
  8
1
 62
7
  6
CONTINUOUS
 10
83.128357
 20
152.711146
 11
120.128357
 21
152.711146
  0
LINE
  8
1
 62
7
  6
CONTINUOUS
 10
74.628357
 20
125.261146
 11
123.628357
 21
125.261146
  0
LINE
  8
1
 62
7
  6
CONTINUOUS
 10
74.628357
 20
155.061146
 11
123.628357
 21
155.061146
  0
LINE
  8
1
 62
7
  6
CONTINUOUS
 10
74.128357
 20
152.711146
 11
82.128357
 21
152.711146
  0
LINE
  8
1
 62
7
  6
CONTINUOUS
 10
74.128357
 20
153.169221
 11
82.128357
 21
153.169221
  0
LINE
  8
1
 62
7
  6
CONTINUOUS
 10
83.128357
 20
140.177296
 11
83.128357
 21
153.169221
  0
LINE
  8
1
 62
7
  6
CONTINUOUS
 10
82.128357
 20
140.177296
 11
82.128357
 21
153.169221
  0
LINE
  8
1
 62
7
  6
CONTINUOUS
 10
83.128357
 20
153.169221
 11
82.128357
 21
153.169221
  0
LINE
  8
1
 62
7
  6
CONTINUOUS
 10
74.628357
 20
125.261146
 11
74.628357
 21
140.161146
  0
LINE
  8
1
 62
7
  6
CONTINUOUS
 10
74.128357
 20
125.761146
 11
74.628357
 21
125.261146
  0
LINE
  8
1
 62
7
  6
CONTINUOUS
 10
74.128357
 20
154.561146
 11
74.128357
 21
125.761146
  0
LINE
  8
1
 62
7
  6
CONTINUOUS
 10
74.128357
 20
154.561146
 11
74.628357
 21
155.061146
  0
LINE
  8
1
 62
7
  6
CONTINUOUS
 10
123.628357
 20
125.261146
 11
123.628357
 21
140.161146
  0
LINE
  8
1
 62
7
  6
CONTINUOUS
 10
123.628357
 20
125.261146
 11
124.128357
 21
125.761146
  0
LINE
  8
1
 62
250
  6
CONTINUOUS
 10
124.128357
 20
129.661146
 11
124.128357
 21
125.761146
  0
LINE
  8
1
 62
7
  6
CONTINUOUS
 10
123.628357
 20
155.061146
 11
124.128357
 21
154.561146
  0
LINE
  8
1
 62
250
  6
CONTINUOUS
 10
124.128357
 20
140.161146
 11
124.128357
 21
129.561146
  0
LINE
  8
1
 62
7
  6
DOT
 10
125.128357
 20
152.711146
 11
129.128357
 21
152.711146
  0
LINE
  8
1
 62
7
  6
DOT
 10
125.128357
 20
152.711146
 11
125.128357
 21
153.169221
  0
LINE
  8
1
 62
7
  6
DOT
 10
124.128357
 20
152.711146
 11
125.128357
 21
152.711146
  0
LINE
  8
1
 62
7
  6
DOT
 10
120.128357
 20
151.361150
 11
129.128357
 21
151.361150
  0
LINE
  8
1
 62
7
  6
DOT
 10
125.128357
 20
153.169221
 11
128.828357
 21
153.169221
  0
LINE
  8
1
 62
7
  6
DOT
 10
128.828357
 20
153.169221
 11
129.128357
 21
152.869221
  0
LINE
  8
1
 62
7
  6
DOT
 10
125.128357
 20
127.611146
 11
129.128357
 21
127.611146
  0
LINE
  8
1
 62
7
  6
DOT
 10
124.128357
 20
127.611146
 11
125.128357
 21
127.611146
  0
LINE
  8
1
 62
7
  6
DOT
 10
125.128357
 20
127.153071
 11
128.828357
 21
127.153071
  0
LINE
  8
1
 62
7
  6
DOT
 10
128.828357
 20
127.153071
 11
129.128357
 21
127.453071
  0
LINE
  8
1
 62
7
  6
DOT
 10
129.128357
 20
127.453071
 11
129.128357
 21
152.869221
  0
LINE
  8
1
 62
7
  6
DOT
 10
125.128357
 20
127.153071
 11
125.128357
 21
140.161146
  0
LINE
  8
1
 62
7
  6
CONTINUOUS
 10
120.128357
 20
151.361150
 11
124.128357
 21
151.361150
  0
LINE
  8
1
 62
7
  6
DASHDOT
 10
133.906851
 20
140.161146
 11
71.421069
 21
140.161146
  0
LINE
  8
1
 62
7
  6
DASHDOT
 10
45.596506
 20
162.927387
 11
45.596506
 21
157.536256
  0
LINE
  8
1
 62
7
  6
DASHDOT
 10
48.198423
 20
160.357821
 11
42.674029
 21
160.357821
  0
LINE
  8
1
 62
7
  6
DASHDOT
 10
21.196507
 20
162.927387
 11
21.196507
 21
157.536256
  0
LINE
  8
1
 62
7
  6
DASHDOT
 10
23.798424
 20
160.357821
 11
18.274030
 21
160.357821
  0
LINE
  8
1
 62
7
  6
DASHDOT
 10
45.596506
 20
122.532542
 11
45.596506
 21
117.141412
  0
LINE
  8
1
 62
7
  6
DASHDOT
 10
48.198423
 20
119.962977
 11
42.674029
 21
119.962977
  0
LINE
  8
1
 62
7
  6
DASHDOT
 10
21.196507
 20
122.532542
 11
21.196507
 21
117.141412
  0
LINE
  8
1
 62
7
  6
DASHDOT
 10
23.798424
 20
119.962977
 11
18.274030
 21
119.962977
  0
LINE
  8
1
 62
6
  6
CONTINUOUS
 10
48.396507
 20
161.657822
 11
46.896507
 21
163.157822
  0
LINE
  8
1
 62
6
  6
CONTINUOUS
 10
46.896507
 20
163.157822
 11
19.896507
 21
163.157822
  0
LINE
  8
1
 62
6
  6
CONTINUOUS
 10
19.896507
 20
163.157822
 11
18.396507
 21
161.657822
  0
LINE
  8
1
 62
6
  6
CONTINUOUS
 10
48.396507
 20
161.657822
 11
48.396507
 21
118.661146
  0
LINE
  8
1
 62
6
  6
CONTINUOUS
 10
48.396507
 20
118.661146
 11
46.896507
 21
117.161146
  0
LINE
  8
1
 62
6
  6
CONTINUOUS
 10
46.896507
 20
117.161146
 11
19.896507
 21
117.161146
  0
LINE
  8
1
 62
6
  6
CONTINUOUS
 10
18.396507
 20
161.657822
 11
18.396507
 21
118.661146
  0
LINE
  8
1
 62
6
  6
CONTINUOUS
 10
19.896507
 20
117.161146
 11
18.396507
 21
118.661146
  0
LINE
  8
1
 62
6
  6
DASHDOT
 10
33.396507
 20
167.486265
 11
33.396507
 21
115.835951
  0
LINE
  8
1
 62
7
  6
DASHDOT
 10
16.583872
 20
140.161147
 11
52.456052
 21
140.161147
  0
LINE
  8
1
 62
7
  6
DOT
 10
18.396507
 20
160.161147
 11
21.896507
 21
160.161147
  0
LINE
  8
1
 62
7
  6
DOT
 10
21.896507
 20
160.161147
 11
21.896507
 21
154.161147
  0
LINE
  8
1
 62
7
  6
DOT
 10
21.896507
 20
154.161147
 11
18.396507
 21
154.161147
  0
LINE
  8
1
 62
7
  6
DOT
 10
48.396507
 20
158.911147
 11
21.896507
 21
158.911147
  0
LINE
  8
1
 62
7
  6
DOT
 10
48.396507
 20
155.411147
 11
21.896507
 21
155.411147
  0
LINE
  8
1
 62
6
  6
DASHDOT
 10
16.689099
 20
123.161147
 11
49.656040
 21
123.161147
  0
LINE
  8
1
 62
7
  6
DOT
 10
18.396507
 20
126.161147
 11
21.896507
 21
126.161147
  0
LINE
  8
1
 62
7
  6
DOT
 10
21.896507
 20
126.161147
 11
21.896507
 21
120.161147
  0
LINE
  8
1
 62
7
  6
DOT
 10
21.896507
 20
120.161147
 11
18.396507
 21
120.161147
  0
LINE
  8
1
 62
7
  6
DOT
 10
48.396507
 20
121.411147
 11
21.896507
 21
121.411147
  0
LINE
  8
1
 62
7
  6
DOT
 10
48.396507
 20
124.911147
 11
21.896507
 21
124.911147
  0
LINE
  8
1
 62
6
  6
DASHDOT
 10
16.689099
 20
157.161147
 11
49.656040
 21
157.161147
  0
CIRCLE
  8
1
 62
7
  6
CONTINUOUS
 10
21.196507
 20
119.962977
 40
2.000000
  0
CIRCLE
  8
1
 62
7
  6
CONTINUOUS
 10
45.596506
 20
119.962977
 40
2.000000
  0
CIRCLE
  8
1
 62
7
  6
CONTINUOUS
 10
21.196507
 20
160.357821
 40
2.000000
  0
CIRCLE
  8
1
 62
7
  6
CONTINUOUS
 10
45.596506
 20
160.357821
 40
2.000000
  0
CIRCLE
  8
1
 62
7
  6
CONTINUOUS
 10
21.196507
 20
160.357821
 40
1.999980
  0
LINE
  8
1
 62
7
  6
CONTINUOUS
 10
20.196517
 20
160.557819
 11
20.196517
 21
160.157823
  0
LINE
  8
1
 62
7
  6
CONTINUOUS
 10
20.996509
 20
161.357811
 11
21.396505
 21
161.357811
  0
LINE
  8
1
 62
7
  6
CONTINUOUS
 10
22.196497
 20
160.557819
 11
22.196497
 21
160.157823
  0
LINE
  8
1
 62
7
  6
CONTINUOUS
 10
21.396505
 20
159.357831
 11
20.996509
 21
159.357831
  0
LINE
  8
1
 62
7
  6
CONTINUOUS
 10
21.396505
 20
159.557829
 11
21.396505
 21
159.357831
  0
LINE
  8
1
 62
7
  6
CONTINUOUS
 10
22.196497
 20
160.157823
 11
21.996499
 21
160.157823
  0
ARC
  8
1
 62
7
  6
CONTINUOUS
 10
21.996499
 20
159.557829
 40
0.599994
 50
90.000000
 51
180.000000
  0
LINE
  8
1
 62
7
  6
CONTINUOUS
 10
21.996499
 20
160.557819
 11
22.196497
 21
160.557819
  0
LINE
  8
1
 62
7
  6
CONTINUOUS
 10
21.396505
 20
161.357811
 11
21.396505
 21
161.157813
  0
ARC
  8
1
 62
7
  6
CONTINUOUS
 10
21.996499
 20
161.157813
 40
0.599994
 50
180.000000
 51
-90.000000
  0
LINE
  8
1
 62
7
  6
CONTINUOUS
 10
20.196517
 20
160.557819
 11
20.396515
 21
160.557819
  0
LINE
  8
1
 62
7
  6
CONTINUOUS
 10
20.996509
 20
161.157813
 11
20.996509
 21
161.357811
  0
ARC
  8
1
 62
7
  6
CONTINUOUS
 10
20.396515
 20
161.157813
 40
0.599994
 50
-90.000000
 51
0.000000
  0
LINE
  8
1
 62
7
  6
CONTINUOUS
 10
20.396515
 20
160.157823
 11
20.196517
 21
160.157823
  0
LINE
  8
1
 62
7
  6
CONTINUOUS
 10
20.996509
 20
159.357831
 11
20.996509
 21
159.557829
  0
ARC
  8
1
 62
7
  6
CONTINUOUS
 10
20.396515
 20
159.557829
 40
0.599994
 50
0.000000
 51
90.000000
  0
CIRCLE
  8
1
 62
7
  6
CONTINUOUS
 10
45.596506
 20
160.357821
 40
1.999980
  0
LINE
  8
1
 62
7
  6
CONTINUOUS
 10
44.596516
 20
160.557819
 11
44.596516
 21
160.157823
  0
LINE
  8
1
 62
7
  6
CONTINUOUS
 10
45.396508
 20
161.357811
 11
45.796504
 21
161.357811
  0
LINE
  8
1
 62
7
  6
CONTINUOUS
 10
46.596496
 20
160.557819
 11
46.596496
 21
160.157823
  0
LINE
  8
1
 62
7
  6
CONTINUOUS
 10
45.796504
 20
159.357831
 11
45.396508
 21
159.357831
  0
LINE
  8
1
 62
7
  6
CONTINUOUS
 10
45.796504
 20
159.557829
 11
45.796504
 21
159.357831
  0
LINE
  8
1
 62
7
  6
CONTINUOUS
 10
46.596496
 20
160.157823
 11
46.396498
 21
160.157823
  0
ARC
  8
1
 62
7
  6
CONTINUOUS
 10
46.396498
 20
159.557829
 40
0.599994
 50
90.000000
 51
180.000000
  0
LINE
  8
1
 62
7
  6
CONTINUOUS
 10
46.396498
 20
160.557819
 11
46.596496
 21
160.557819
  0
LINE
  8
1
 62
7
  6
CONTINUOUS
 10
45.796504
 20
161.357811
 11
45.796504
 21
161.157813
  0
ARC
  8
1
 62
7
  6
CONTINUOUS
 10
46.396498
 20
161.157813
 40
0.599994
 50
180.000000
 51
-90.000000
  0
LINE
  8
1
 62
7
  6
CONTINUOUS
 10
44.596516
 20
160.557819
 11
44.796514
 21
160.557819
  0
LINE
  8
1
 62
7
  6
CONTINUOUS
 10
45.396508
 20
161.157813
 11
45.396508
 21
161.357811
  0
ARC
  8
1
 62
7
  6
CONTINUOUS
 10
44.796514
 20
161.157813
 40
0.599994
 50
-90.000000
 51
0.000000
  0
LINE
  8
1
 62
7
  6
CONTINUOUS
 10
44.796514
 20
160.157823
 11
44.596516
 21
160.157823
  0
LINE
  8
1
 62
7
  6
CONTINUOUS
 10
45.396508
 20
159.357831
 11
45.396508
 21
159.557829
  0
ARC
  8
1
 62
7
  6
CONTINUOUS
 10
44.796514
 20
159.557829
 40
0.599994
 50
0.000000
 51
90.000000
  0
CIRCLE
  8
1
 62
7
  6
CONTINUOUS
 10
21.196507
 20
119.962977
 40
1.999980
  0
LINE
  8
1
 62
7
  6
CONTINUOUS
 10
20.196517
 20
120.162975
 11
20.196517
 21
119.762979
  0
LINE
  8
1
 62
7
  6
CONTINUOUS
 10
20.996509
 20
120.962967
 11
21.396505
 21
120.962967
  0
LINE
  8
1
 62
7
  6
CONTINUOUS
 10
22.196497
 20
120.162975
 11
22.196497
 21
119.762979
  0
LINE
  8
1
 62
7
  6
CONTINUOUS
 10
21.396505
 20
118.962987
 11
20.996509
 21
118.962987
  0
LINE
  8
1
 62
7
  6
CONTINUOUS
 10
21.396505
 20
119.162985
 11
21.396505
 21
118.962987
  0
LINE
  8
1
 62
7
  6
CONTINUOUS
 10
22.196497
 20
119.762979
 11
21.996499
 21
119.762979
  0
ARC
  8
1
 62
7
  6
CONTINUOUS
 10
21.996499
 20
119.162985
 40
0.599994
 50
90.000000
 51
180.000000
  0
LINE
  8
1
 62
7
  6
CONTINUOUS
 10
21.996499
 20
120.162975
 11
22.196497
 21
120.162975
  0
LINE
  8
1
 62
7
  6
CONTINUOUS
 10
21.396505
 20
120.962967
 11
21.396505
 21
120.762969
  0
ARC
  8
1
 62
7
  6
CONTINUOUS
 10
21.996499
 20
120.762969
 40
0.599994
 50
180.000000
 51
-90.000000
  0
LINE
  8
1
 62
7
  6
CONTINUOUS
 10
20.196517
 20
120.162975
 11
20.396515
 21
120.162975
  0
LINE
  8
1
 62
7
  6
CONTINUOUS
 10
20.996509
 20
120.762969
 11
20.996509
 21
120.962967
  0
ARC
  8
1
 62
7
  6
CONTINUOUS
 10
20.396515
 20
120.762969
 40
0.599994
 50
-90.000000
 51
0.000000
  0
LINE
  8
1
 62
7
  6
CONTINUOUS
 10
20.396515
 20
119.762979
 11
20.196517
 21
119.762979
  0
LINE
  8
1
 62
7
  6
CONTINUOUS
 10
20.996509
 20
118.962987
 11
20.996509
 21
119.162985
  0
ARC
  8
1
 62
7
  6
CONTINUOUS
 10
20.396515
 20
119.162985
 40
0.599994
 50
0.000000
 51
90.000000
  0
CIRCLE
  8
1
 62
7
  6
CONTINUOUS
 10
45.596506
 20
119.962977
 40
1.999980
  0
LINE
  8
1
 62
7
  6
CONTINUOUS
 10
44.596516
 20
120.162975
 11
44.596516
 21
119.762979
  0
LINE
  8
1
 62
7
  6
CONTINUOUS
 10
45.396508
 20
120.962967
 11
45.796504
 21
120.962967
  0
LINE
  8
1
 62
7
  6
CONTINUOUS
 10
46.596496
 20
120.162975
 11
46.596496
 21
119.762979
  0
LINE
  8
1
 62
7
  6
CONTINUOUS
 10
45.796504
 20
118.962987
 11
45.396508
 21
118.962987
  0
LINE
  8
1
 62
7
  6
CONTINUOUS
 10
45.796504
 20
119.162985
 11
45.796504
 21
118.962987
  0
LINE
  8
1
 62
7
  6
CONTINUOUS
 10
46.596496
 20
119.762979
 11
46.396498
 21
119.762979
  0
ARC
  8
1
 62
7
  6
CONTINUOUS
 10
46.396498
 20
119.162985
 40
0.599994
 50
90.000000
 51
180.000000
  0
LINE
  8
1
 62
7
  6
CONTINUOUS
 10
46.396498
 20
120.162975
 11
46.596496
 21
120.162975
  0
LINE
  8
1
 62
7
  6
CONTINUOUS
 10
45.796504
 20
120.962967
 11
45.796504
 21
120.762969
  0
ARC
  8
1
 62
7
  6
CONTINUOUS
 10
46.396498
 20
120.762969
 40
0.599994
 50
180.000000
 51
-90.000000
  0
LINE
  8
1
 62
7
  6
CONTINUOUS
 10
44.596516
 20
120.162975
 11
44.796514
 21
120.162975
  0
LINE
  8
1
 62
7
  6
CONTINUOUS
 10
45.396508
 20
120.762969
 11
45.396508
 21
120.962967
  0
ARC
  8
1
 62
7
  6
CONTINUOUS
 10
44.796514
 20
120.762969
 40
0.599994
 50
-90.000000
 51
0.000000
  0
LINE
  8
1
 62
7
  6
CONTINUOUS
 10
44.796514
 20
119.762979
 11
44.596516
 21
119.762979
  0
LINE
  8
1
 62
7
  6
CONTINUOUS
 10
45.396508
 20
118.962987
 11
45.396508
 21
119.162985
  0
ARC
  8
1
 62
7
  6
CONTINUOUS
 10
44.796514
 20
119.162985
 40
0.599994
 50
0.000000
 51
90.000000
  0
CIRCLE
  8
1
 62
7
  6
CONTINUOUS
 10
33.396507
 20
140.161147
 40
14.899999
  0
LINE
  8
1
 62
7
  6
CONTINUOUS
 10
22.716375
 20
161.657822
 11
44.076638
 21
161.657822
  0
LINE
  8
1
 62
7
  6
CONTINUOUS
 10
22.714808
 20
118.661146
 11
44.078206
 21
118.661146
  0
DIMENSION
  8
2
 62
134
  6
CONTINUOUS
  2
*D19
 10
55.010945
 20
117.161146
 11
55.010945
 21
140.161146
 70
     0
  1
46
 13
47.896507
 23
117.161146
 14
47.896507
 24
163.157822
 50
90.000000
  0
DIMENSION
  8
2
 62
134
  6
CONTINUOUS
  2
*D20
 10
18.396507
 20
111.274231
 11
26.213587
 21
111.274231
 70
     0
  1
15
 13
18.396507
 23
117.661146
 14
33.396507
 24
114.835951
 50
0.000000
  0
DIMENSION
  8
2
 62
134
  6
CONTINUOUS
  2
*D21
 10
33.396507
 20
111.274231
 11
41.226651
 21
111.274231
 70
     0
  1
15
 13
33.396507
 23
114.835951
 14
48.396507
 24
117.661146
 50
0.000000
  0
DIMENSION
  8
2
 62
134
  6
CONTINUOUS
  2
*D22
 10
18.396507
 20
106.120493
 11
33.720119
 21
106.120493
 70
     0
  1
30
 13
18.396507
 23
117.661146
 14
48.396507
 24
117.661146
 50
0.000000
  0
CIRCLE
  8
1
 62
7
  6
CONTINUOUS
 10
33.396507
 20
140.161147
 40
12.549999
  0
CIRCLE
  8
1
 62
7
  6
CONTINUOUS
 10
33.396507
 20
140.161147
 40
14.399999
  0
LINE
  8
1
 62
3
  6
CONTINUOUS
 10
19.896507
 20
158.837980
 11
19.896507
 21
146.466698
  0
LINE
  8
1
 62
3
  6
CONTINUOUS
 10
19.896507
 20
133.855596
 11
19.896507
 21
121.482845
  0
LINE
  8
1
 62
7
  6
CONTINUOUS
 10
46.896507
 20
158.837953
 11
46.896507
 21
146.466698
  0
LINE
  8
1
 62
7
  6
CONTINUOUS
 10
46.896507
 20
133.855596
 11
46.896507
 21
121.482819
  0
LINE
  8
1
 62
7
  6
CONTINUOUS
 10
124.128357
 20
154.561146
 11
124.628357
 21
155.061146
  0
LINE
  8
1
 62
7
  6
CONTINUOUS
 10
124.128357
 20
154.561146
 11
124.128357
 21
125.761146
  0
LINE
  8
1
 62
7
  6
CONTINUOUS
 10
124.128357
 20
125.761146
 11
124.628357
 21
125.261146
  0
LINE
  8
1
 62
7
  6
DASHDOT
 10
186.906851
 20
140.161146
 11
121.991421
 21
140.161146
  0
LINE
  8
1
 62
7
  6
CONTINUOUS
 10
124.628357
 20
155.061146
 11
176.628357
 21
155.061146
  0
LINE
  8
1
 62
7
  6
CONTINUOUS
 10
176.628357
 20
155.061146
 11
177.128357
 21
154.561146
  0
LINE
  8
1
 62
7
  6
CONTINUOUS
 10
124.628357
 20
125.261146
 11
176.628357
 21
125.261146
  0
LINE
  8
1
 62
250
  6
CONTINUOUS
 10
177.128357
 20
129.661146
 11
177.128357
 21
125.761146
  0
LINE
  8
1
 62
7
  6
CONTINUOUS
 10
176.628357
 20
125.261146
 11
177.128357
 21
125.761146
  0
LINE
  8
1
 62
7
  6
CONTINUOUS
 10
124.628357
 20
125.261146
 11
124.628357
 21
155.061146
  0
LINE
  8
1
 62
7
  6
CONTINUOUS
 10
176.628357
 20
125.261146
 11
176.628357
 21
155.061146
  0
LINE
  8
1
 62
250
  6
CONTINUOUS
 10
177.128357
 20
154.561146
 11
177.128357
 21
129.561146
  0
LINE
  8
2
 62
134
  6
CONTINUOUS
 10
108.650170
 20
125.261146
 11
117.735308
 21
98.932905
  0
LINE
  8
2
 62
134
  6
CONTINUOUS
 10
117.735308
 20
98.932905
 11
138.234882
 21
98.932905
  0
TEXT
  8
2
 62
134
  6
CONTINUOUS
 10
118.234882
 20
99.115507
 40
4.000000
 41
1.000000
  1
遮光フード
  7
KANJI
 50
0.000000
 51
0.000000
  0
LINE
  8
2
 62
134
  6
CONTINUOUS
 10
108.650170
 20
125.261146
 11
109.769659
 21
123.603815
  0
LINE
  8
2
 62
134
  6
CONTINUOUS
 10
108.650170
 20
125.261146
 11
108.791011
 21
123.266111
  0
LINE
  8
2
 62
134
  6
CONTINUOUS
 10
109.769659
 20
123.603815
 11
108.791011
 21
123.266111
  0
LINE
  8
2
 62
134
  6
CONTINUOUS
 10
108.807711
 20
124.804600
 11
109.367456
 21
123.975935
  0
LINE
  8
2
 62
134
  6
CONTINUOUS
 10
108.807711
 20
124.804600
 11
108.878132
 21
123.807083
  0
LINE
  8
2
 62
134
  6
CONTINUOUS
 10
109.367456
 20
123.975935
 11
108.878132
 21
123.807083
  0
TEXT
  8
2
 62
134
  6
CONTINUOUS
 10
118.826491
 20
94.784889
 40
4.000000
 41
1.000000
  1
別売
  7
KANJI
 50
0.000000
 51
0.000000
  0
TEXT
  8
5
 62
7
  6
CONTINUOUS
 10
239.974338
 20
28.437914
 40
4.000000
 41
1.000000
  1
ＨＸ－Ｄ６
  7
KANJI
 50
0.000000
 51
0.000000
  0
TEXT
  8
5
 62
7
  6
CONTINUOUS
 10
172.772351
 20
27.782285
 40
4.000000
 41
1.000000
  1
2016/3/11
  7
KANJI
 50
0.000000
 51
0.000000
  0
TEXT
  8
5
 62
7
  6
CONTINUOUS
 10
196.211093
 20
19.750828
 40
4.000000
 41
1.000000
  1
保田
  7
KANJI
 50
0.810149
 51
0.000000
  0
TEXT
  8
5
 62
7
  6
CONTINUOUS
 10
216.207781
 20
19.914735
 40
4.000000
 41
1.000000
  1
保田
  7
KANJI
 50
-0.112820
 51
0.000000
  0
TEXT
  8
5
 62
7
  6
CONTINUOUS
 10
236.256363
 20
20.406457
 40
4.000000
 41
1.000000
  1
００５－０６８－Ａ００７
  7
KANJI
 50
0.000000
 51
0.000000
  0
LINE
  8
10
 62
7
  6
CONTINUOUS
 10
82.569594
 20
30.113227
 11
15.070283
 21
30.113227
  0
LINE
  8
10
 62
7
  6
CONTINUOUS
 10
15.070283
 20
34.779777
 11
82.569594
 21
34.779777
  0
LINE
  8
10
 62
7
  6
CONTINUOUS
 10
15.070283
 20
39.446327
 11
82.569594
 21
39.446327
  0
TEXT
  8
10
 62
7
  6
CONTINUOUS
 10
15.355555
 20
40.177176
 40
3.999900
 41
1.000000
  1
該当機種
  7
KANJI
 50
0.000000
 51
0.000000
  0
LINE
  8
10
 62
7
  6
CONTINUOUS
 10
15.070283
 20
39.446327
 11
15.070283
 21
25.446677
  0
LINE
  8
10
 62
7
  6
CONTINUOUS
 10
15.070283
 20
25.446677
 11
82.569594
 21
25.446677
  0
LINE
  8
10
 62
134
  6
CONTINUOUS
 10
82.569594
 20
39.446327
 11
82.569594
 21
25.446677
  0
TEXT
  8
10
 62
7
  6
CONTINUOUS
 10
17.338639
 20
34.767844
 40
3.999900
 41
1.000000
  1
TMHX-TME0050-0050H001
  7
KANJI
 50
0.000000
 51
0.000000
  0
TEXT
  8
10
 62
7
  6
CONTINUOUS
 10
17.338639
 20
30.101294
 40
3.999900
 41
1.000000
  1
TMHX-TME0050-0100H002
  7
KANJI
 50
0.000000
 51
0.000000
  0
TEXT
  8
10
 62
7
  6
CONTINUOUS
 10
17.338639
 20
25.434744
 40
3.999900
 41
1.000000
  1
TMHX-TME0050-0200H3.5
  7
KANJI
 50
0.000000
 51
0.000000
  0
ARC
  8
1
 62
7
  6
CONTINUOUS
 10
192.162166
 20
76.713656
 40
0.200000
 50
49.347308
 51
86.000000
  0
ARC
  8
1
 62
7
  6
CONTINUOUS
 10
178.562166
 20
78.363169
 40
0.200000
 50
-90.000000
 51
0.000000
  0
ARC
  8
1
 62
7
  6
CONTINUOUS
 10
176.262166
 20
77.763169
 40
0.400000
 50
90.000000
 51
180.000000
  0
ARC
  8
1
 62
7
  6
CONTINUOUS
 10
177.459849
 20
79.863169
 40
0.500000
 50
90.000000
 51
162.817149
  0
ARC
  8
1
 62
7
  6
CONTINUOUS
 10
177.662166
 20
79.863169
 40
0.500000
 50
33.507719
 51
90.000000
  0
ARC
  8
1
 62
7
  6
CONTINUOUS
 10
178.762166
 20
80.013169
 40
0.500000
 50
-146.492281
 51
-90.000000
  0
ARC
  8
1
 62
7
  6
CONTINUOUS
 10
176.362166
 20
76.963169
 40
0.500000
 50
180.000000
 51
-109.144553
  0
ARC
  8
1
 62
7
  6
CONTINUOUS
 10
183.762166
 20
77.363169
 40
0.500000
 50
180.000000
 51
-90.000000
  0
ARC
  8
1
 62
7
  6
CONTINUOUS
 10
193.762166
 20
57.113169
 40
0.600000
 50
-90.000000
 51
0.000000
  0
ARC
  8
1
 62
7
  6
CONTINUOUS
 10
193.762166
 20
76.263169
 40
0.600000
 50
0.000000
 51
90.000000
  0
ARC
  8
1
 62
7
  6
CONTINUOUS
 10
179.662166
 20
78.613169
 40
0.900000
 50
90.000000
 51
180.000000
  0
ARC
  8
1
 62
7
  6
CONTINUOUS
 10
193.362166
 20
77.063169
 40
1.000000
 50
0.000000
 51
90.000000
  0
ARC
  8
1
 62
7
  6
CONTINUOUS
 10
182.262166
 20
78.513169
 40
1.000000
 50
0.000000
 51
90.000000
  0
ARC
  8
1
 62
7
  6
CONTINUOUS
 10
190.233434
 20
82.743169
 40
4.680000
 50
-109.747638
 51
-90.000000
  0
LINE
  8
1
 62
7
  6
CONTINUOUS
 10
180.162166
 20
56.313169
 11
178.762166
 21
56.313169
  0
LINE
  8
1
 62
7
  6
CONTINUOUS
 10
193.762166
 20
56.513169
 11
180.162166
 21
56.513169
  0
LINE
  8
1
 62
7
  6
CONTINUOUS
 10
194.362166
 20
57.213169
 11
178.762166
 21
57.213169
  0
LINE
  8
1
 62
7
  6
CONTINUOUS
 10
178.762166
 20
57.563169
 11
188.762166
 21
57.563169
  0
LINE
  8
1
 62
7
  6
CONTINUOUS
 10
175.862166
 20
76.963169
 11
175.862166
 21
77.763169
  0
LINE
  8
1
 62
7
  6
CONTINUOUS
 10
177.862166
 20
75.513169
 11
177.862166
 21
75.913169
  0
LINE
  8
1
 62
7
  6
CONTINUOUS
 10
178.762166
 20
75.013169
 11
178.762166
 21
56.313169
  0
LINE
  8
1
 62
7
  6
CONTINUOUS
 10
178.762166
 20
78.363169
 11
178.762166
 21
78.613169
  0
LINE
  8
1
 62
7
  6
CONTINUOUS
 10
180.162166
 20
56.513169
 11
180.162166
 21
56.313169
  0
LINE
  8
1
 62
7
  6
CONTINUOUS
 10
183.262166
 20
78.513169
 11
183.262166
 21
77.363169
  0
LINE
  8
1
 62
7
  6
CONTINUOUS
 10
178.079071
 20
80.139194
 11
178.345260
 21
79.737144
  0
LINE
  8
1
 62
7
  6
CONTINUOUS
 10
185.212166
 20
76.863169
 11
185.212166
 21
74.963169
  0
LINE
  8
1
 62
7
  6
CONTINUOUS
 10
186.192166
 20
78.584841
 11
186.192166
 21
79.034841
  0
LINE
  8
1
 62
7
  6
CONTINUOUS
 10
178.762166
 20
75.013169
 11
177.862166
 21
75.513169
  0
LINE
  8
1
 62
7
  6
CONTINUOUS
 10
188.762166
 20
58.823746
 11
188.762166
 21
57.563169
  0
LINE
  8
1
 62
7
  6
CONTINUOUS
 10
188.762166
 20
59.685284
 11
188.762166
 21
58.841053
  0
LINE
  8
1
 62
7
  6
CONTINUOUS
 10
188.762166
 20
60.823746
 11
188.762166
 21
59.702592
  0
LINE
  8
1
 62
7
  6
CONTINUOUS
 10
188.762166
 20
61.685284
 11
188.762166
 21
60.841053
  0
LINE
  8
1
 62
7
  6
CONTINUOUS
 10
188.762166
 20
62.823746
 11
188.762166
 21
61.702592
  0
LINE
  8
1
 62
7
  6
CONTINUOUS
 10
188.762166
 20
63.685284
 11
188.762166
 21
62.841053
  0
LINE
  8
1
 62
7
  6
CONTINUOUS
 10
188.762166
 20
64.823746
 11
188.762166
 21
63.702592
  0
LINE
  8
1
 62
7
  6
CONTINUOUS
 10
188.762166
 20
65.685284
 11
188.762166
 21
64.841053
  0
LINE
  8
1
 62
7
  6
CONTINUOUS
 10
188.762166
 20
66.823746
 11
188.762166
 21
65.702592
  0
LINE
  8
1
 62
7
  6
CONTINUOUS
 10
188.762166
 20
67.685284
 11
188.762166
 21
66.841053
  0
LINE
  8
1
 62
7
  6
CONTINUOUS
 10
188.762166
 20
68.823746
 11
188.762166
 21
67.702592
  0
LINE
  8
1
 62
7
  6
CONTINUOUS
 10
188.762166
 20
69.685284
 11
188.762166
 21
68.841053
  0
LINE
  8
1
 62
7
  6
CONTINUOUS
 10
188.762166
 20
70.823746
 11
188.762166
 21
69.702592
  0
LINE
  8
1
 62
7
  6
CONTINUOUS
 10
188.762166
 20
71.685284
 11
188.762166
 21
70.841053
  0
LINE
  8
1
 62
7
  6
CONTINUOUS
 10
188.762166
 20
72.823746
 11
188.762166
 21
71.702592
  0
LINE
  8
1
 62
7
  6
CONTINUOUS
 10
188.762166
 20
73.685284
 11
188.762166
 21
72.841053
  0
LINE
  8
1
 62
7
  6
CONTINUOUS
 10
188.762166
 20
74.963169
 11
188.762166
 21
73.702592
  0
LINE
  8
1
 62
7
  6
CONTINUOUS
 10
177.862166
 20
75.913169
 11
176.198189
 21
76.490822
  0
LINE
  8
1
 62
7
  6
CONTINUOUS
 10
178.762166
 20
74.963169
 11
188.762166
 21
74.963169
  0
LINE
  8
1
 62
7
  6
CONTINUOUS
 10
185.212166
 20
75.313169
 11
178.222166
 21
75.313169
  0
LINE
  8
1
 62
7
  6
CONTINUOUS
 10
194.362166
 20
75.563169
 11
185.212166
 21
75.563169
  0
LINE
  8
1
 62
7
  6
CONTINUOUS
 10
193.762166
 20
76.863169
 11
183.762166
 21
76.863169
  0
LINE
  8
1
 62
7
  6
CONTINUOUS
 10
183.208396
 20
78.819538
 11
183.862166
 21
78.584841
  0
LINE
  8
1
 62
7
  6
CONTINUOUS
 10
194.362166
 20
77.063169
 11
194.362166
 21
57.113169
  0
LINE
  8
1
 62
7
  6
CONTINUOUS
 10
190.233434
 20
78.063169
 11
193.362166
 21
78.063169
  0
LINE
  8
1
 62
7
  6
CONTINUOUS
 10
176.262166
 20
78.163169
 11
178.562166
 21
78.163169
  0
LINE
  8
1
 62
7
  6
CONTINUOUS
 10
192.176117
 20
76.913169
 11
183.262166
 21
77.536493
  0
LINE
  8
1
 62
7
  6
CONTINUOUS
 10
186.712166
 20
79.034841
 11
188.652166
 21
78.338400
  0
LINE
  8
1
 62
7
  6
CONTINUOUS
 10
183.862166
 20
78.584841
 11
186.192166
 21
78.584841
  0
LINE
  8
1
 62
7
  6
CONTINUOUS
 10
186.192166
 20
79.034841
 11
186.712166
 21
79.034841
  0
LINE
  8
1
 62
7
  6
CONTINUOUS
 10
176.410810
 20
78.163169
 11
176.982166
 21
80.010880
  0
LINE
  8
1
 62
7
  6
CONTINUOUS
 10
178.762166
 20
79.513169
 11
182.262166
 21
79.513169
  0
LINE
  8
1
 62
7
  6
CONTINUOUS
 10
177.459849
 20
80.363169
 11
177.662166
 21
80.363169
  0
LINE
  8
1
 62
7
  6
CONTINUOUS
 10
178.762166
 20
73.863169
 11
172.625957
 21
73.863169
  0
LINE
  8
1
 62
7
  6
CONTINUOUS
 10
178.762166
 20
72.663169
 11
172.650449
 21
72.663169
  0
LINE
  8
1
 62
7
  6
CONTINUOUS
 10
178.762166
 20
58.663169
 11
172.625957
 21
58.663169
  0
LINE
  8
1
 62
7
  6
CONTINUOUS
 10
178.762166
 20
59.863169
 11
172.650449
 21
59.863169
  0
LINE
  8
1
 62
7
  6
CONTINUOUS
 10
178.762166
 20
67.863169
 11
172.625957
 21
67.863169
  0
LINE
  8
1
 62
7
  6
CONTINUOUS
 10
178.762166
 20
66.663169
 11
172.650449
 21
66.663169
  0
LINE
  8
1
 62
7
  6
CONTINUOUS
 10
178.762166
 20
69.863169
 11
172.625957
 21
69.863169
  0
LINE
  8
1
 62
7
  6
CONTINUOUS
 10
178.762166
 20
68.663169
 11
172.650449
 21
68.663169
  0
LINE
  8
1
 62
7
  6
CONTINUOUS
 10
178.762166
 20
71.863169
 11
172.625957
 21
71.863169
  0
LINE
  8
1
 62
7
  6
CONTINUOUS
 10
178.762166
 20
70.663169
 11
172.650449
 21
70.663169
  0
LINE
  8
1
 62
7
  6
CONTINUOUS
 10
178.762166
 20
64.663169
 11
172.625957
 21
64.663169
  0
LINE
  8
1
 62
7
  6
CONTINUOUS
 10
178.762166
 20
65.863169
 11
172.650449
 21
65.863169
  0
LINE
  8
1
 62
7
  6
CONTINUOUS
 10
178.762166
 20
62.663169
 11
172.625957
 21
62.663169
  0
LINE
  8
1
 62
7
  6
CONTINUOUS
 10
178.762166
 20
63.863169
 11
172.650449
 21
63.863169
  0
LINE
  8
1
 62
7
  6
CONTINUOUS
 10
178.762166
 20
60.663169
 11
172.625957
 21
60.663169
  0
LINE
  8
1
 62
7
  6
CONTINUOUS
 10
178.762166
 20
61.863169
 11
172.650449
 21
61.863169
  0
TEXT
  8
2
 62
7
  6
DOT
 10
62.856879
 20
10.324950
 40
5.000000
 41
1.000000
  1
1
  7
KANJI
 50
0.000000
 51
0.000000
  0
LINE
  8
2
 62
134
  6
CONTINUOUS
 10
64.057381
 20
15.110132
 11
61.661530
 21
10.960396
  0
LINE
  8
2
 62
134
  6
CONTINUOUS
 10
61.661530
 20
10.960396
 11
66.453232
 21
10.960396
  0
LINE
  8
2
 62
134
  6
CONTINUOUS
 10
66.453232
 20
10.960396
 11
64.057381
 21
15.110132
  0
TEXT
  8
2
 62
134
  6
CONTINUOUS
 10
69.977140
 20
11.627753
 40
4.000000
 41
1.000000
  1
XN2A-1870（オムロン）表記削除　2021/7/7　保田
  7
KANJI
 50
0.000000
 51
30.000000
  0
TEXT
  8
2
 62
7
  6
DOT
 10
221.475804
 20
79.787865
 40
5.000000
 41
1.000000
  1
1
  7
KANJI
 50
0.000000
 51
0.000000
  0
LINE
  8
2
 62
134
  6
CONTINUOUS
 10
222.676306
 20
84.573048
 11
220.280455
 21
80.423312
  0
LINE
  8
2
 62
134
  6
CONTINUOUS
 10
220.280455
 20
80.423312
 11
225.072157
 21
80.423312
  0
LINE
  8
2
 62
134
  6
CONTINUOUS
 10
225.072157
 20
80.423312
 11
222.676306
 21
84.573048
  0
TEXT
  8
2
 62
134
  6
CONTINUOUS
 10
209.551273
 20
103.720366
 40
4.000000
 41
1.000000
  1
ｻﾞｸﾞﾘφ6深さ3.5
  7
KANJI
 50
0.000000
 51
0.000000
  0
LINE
  8
2
 62
134
  6
CONTINUOUS
 10
83.002734
 20
20.698227
 11
80.606883
 21
16.548491
  0
LINE
  8
2
 62
134
  6
CONTINUOUS
 10
80.606883
 20
16.548491
 11
85.398585
 21
16.548491
  0
LINE
  8
2
 62
134
  6
CONTINUOUS
 10
85.398585
 20
16.548491
 11
83.002734
 21
20.698227
  0
TEXT
  8
2
 62
7
  6
DOT
 10
81.802232
 20
15.913044
 40
5.000000
 41
1.000000
  1
2
  7
KANJI
 50
0.000000
 51
0.000000
  0
TEXT
  8
2
 62
134
  6
CONTINUOUS
 10
86.411248
 20
16.511474
 40
4.000000
 41
1.000000
  1
訂正 ｻﾞｸﾞﾘ深さ3→3.5　2023/10/3　保田
  7
KANJI
 50
0.000000
 51
30.000000
  0
LINE
  8
2
 62
134
  6
CONTINUOUS
 10
242.526185
 20
113.387812
 11
240.130334
 21
109.238076
  0
LINE
  8
2
 62
134
  6
CONTINUOUS
 10
240.130334
 20
109.238076
 11
244.922036
 21
109.238076
  0
LINE
  8
2
 62
134
  6
CONTINUOUS
 10
244.922036
 20
109.238076
 11
242.526185
 21
113.387812
  0
TEXT
  8
2
 62
7
  6
DOT
 10
241.325683
 20
108.602629
 40
5.000000
 41
1.000000
  1
2
  7
KANJI
 50
0.000000
 51
0.000000
  0
LINE
  8
2
 62
134
  6
CONTINUOUS
 10
183.370227
 20
121.928158
 11
190.250419
 21
107.861763
  0
LINE
  8
2
 62
134
  6
CONTINUOUS
 10
190.250419
 20
107.861763
 11
206.585534
 21
107.861763
  0
TEXT
  8
2
 62
134
  6
CONTINUOUS
 10
190.585534
 20
107.715533
 40
4.000000
 41
1.000000
  1
　取付穴
  7
KANJI
 50
0.000000
 51
0.000000
  0
LINE
  8
2
 62
134
  6
CONTINUOUS
 10
183.370227
 20
121.928158
 11
184.684038
 21
120.420212
  0
LINE
  8
2
 62
134
  6
CONTINUOUS
 10
183.370227
 20
121.928158
 11
183.754048
 21
119.965333
  0
LINE
  8
2
 62
134
  6
CONTINUOUS
 10
184.684038
 20
120.420212
 11
183.754048
 21
119.965333
  0
LINE
  8
2
 62
134
  6
CONTINUOUS
 10
183.582431
 20
121.494311
 11
184.239336
 21
120.740339
  0
LINE
  8
2
 62
134
  6
CONTINUOUS
 10
183.582431
 20
121.494311
 11
183.774341
 21
120.512899
  0
LINE
  8
2
 62
134
  6
CONTINUOUS
 10
184.239336
 20
120.740339
 11
183.774341
 21
120.512899
  0
LINE
  8
2
 62
134
  6
CONTINUOUS
 10
130.749071
 20
128.813903
 11
140.785289
 21
107.157560
  0
LINE
  8
2
 62
134
  6
CONTINUOUS
 10
140.785289
 20
107.157560
 11
154.478633
 21
107.157560
  0
TEXT
  8
2
 62
134
  6
CONTINUOUS
 10
146.478633
 20
107.337662
 40
4.000000
 41
1.000000
  1
ﾚﾝｽﾞ
  7
KANJI
 50
0.000000
 51
0.000000
  0
LINE
  8
2
 62
134
  6
CONTINUOUS
 10
130.749071
 20
128.813903
 11
132.671992
 21
126.511215
  0
LINE
  8
2
 62
134
  6
CONTINUOUS
 10
130.749071
 20
128.813903
 11
131.263025
 21
125.858256
  0
LINE
  8
2
 62
134
  6
CONTINUOUS
 10
132.671992
 20
126.511215
 11
131.263025
 21
125.858256
  0
LINE
  8
2
 62
134
  6
CONTINUOUS
 10
131.053680
 20
128.156611
 11
132.015140
 21
127.005267
  0
LINE
  8
2
 62
134
  6
CONTINUOUS
 10
131.053680
 20
128.156611
 11
131.310657
 21
126.678788
  0
LINE
  8
2
 62
134
  6
CONTINUOUS
 10
132.015140
 20
127.005267
 11
131.310657
 21
126.678788
  0
LINE
  8
2
 62
134
  6
CONTINUOUS
 10
156.690034
 20
125.261146
 11
162.766785
 21
107.407861
  0
LINE
  8
2
 62
134
  6
CONTINUOUS
 10
162.766785
 20
107.407861
 11
177.136437
 21
107.407861
  0
TEXT
  8
2
 62
134
  6
CONTINUOUS
 10
169.136437
 20
107.587964
 40
4.000000
 41
1.000000
  1
鏡筒
  7
KANJI
 50
0.000000
 51
0.000000
  0
LINE
  8
2
 62
134
  6
CONTINUOUS
 10
156.690034
 20
125.261146
 11
158.358795
 21
122.768109
  0
LINE
  8
2
 62
134
  6
CONTINUOUS
 10
156.690034
 20
125.261146
 11
156.888705
 21
122.267732
  0
LINE
  8
2
 62
134
  6
CONTINUOUS
 10
158.358795
 20
122.768109
 11
156.888705
 21
122.267732
  0
LINE
  8
2
 62
134
  6
CONTINUOUS
 10
156.923463
 20
124.575340
 11
157.757844
 21
123.328821
  0
LINE
  8
2
 62
134
  6
CONTINUOUS
 10
156.923463
 20
124.575340
 11
157.022799
 21
123.078632
  0
LINE
  8
2
 62
134
  6
CONTINUOUS
 10
157.757844
 20
123.328821
 11
157.022799
 21
123.078632
  0
TEXT
  8
2
 62
134
  6
CONTINUOUS
 10
193.036756
 20
103.662485
 40
4.000000
 41
1.000000
  1
3-φ3.5
  7
KANJI
 50
0.000000
 51
0.000000
  0
ENDSEC
  0
EOF
