  0
SECTION
  2
HEADER
  9
$ACADVER
  1
AC1009
  9
$INSBASE
 10
0.000000
 20
0.000000
  9
$EXTMIN
 10
0.000000
 20
0.000000
  9
$EXTMAX
 10
297.000000
 20
210.000000
  9
$LIMMIN
 10
0.000000
 20
0.000000
  9
$LIMMAX
 10
297.000000
 20
210.000000
  9
$VIEWCTR
 10
148.500000
 20
105.000000
  9
$VIEWSIZE
 40
210.000000
  9
$PEXTMIN
 10
0.000000
 20
0.000000
 30
0.000000
  9
$PEXTMAX
 10
297.000000
 20
210.000000
 30
0.000000
  9
$SNAPMODE
 70
     0
  9
$SNAPUNIT
 10
1.000000
 20
1.000000
  9
$SNAPBASE
 10
0.000000
 20
0.000000
  9
$SNAPANG
 50
0.000000
  9
$SNAPISOPAIR
 70
     0
  9
$SNAPSTYLE
 70
     0
  9
$GRIDMODE
 70
     0
  9
$GRIDUNIT
 10
0.000000
 20
0.000000
  9
$ORTHOMODE
 70
     0
  9
$REGENMODE
 70
     1
  9
$FILLMODE
 70
     1
  9
$QTEXTMODE
 70
     0
  9
$DRAGMODE
 70
     2
  9
$LTSCALE
 40
0.250000
  9
$OSMODE
 70
     0
  9
$ATTMODE
 70
     1
  9
$TEXTSIZE
 40
4.000000
  9
$TRACEWID
 40
0.050000
  9
$TEXTSTYLE
  7
STANDARD
  9
$CLAYER
  8
0
  9
$CELTYPE
  6
BYLAYER
  9
$CECOLOR
 62
   256
  9
$DIMSCALE
 40
1.000000
  9
$DIMASZ
 40
1.000000
  9
$DIMEXO
 40
0.000000
  9
$DIMDLI
 40
0.500000
  9
$DIMRND
 40
0.000000
  9
$DIMDLE
 40
0.000000
  9
$DIMEXE
 40
0.000000
  9
$DIMTP
 40
0.000000
  9
$DIMTM
 40
0.000000
  9
$DIMTXT
 40
4.000000
  9
$DIMCEN
 40
0.000000
  9
$DIMTSZ
 40
0.000000
  9
$DIMTOL
 70
     0
  9
$DIMLIM
 70
     0
  9
$DIMTIH
 70
     1
  9
$DIMTOH
 70
     1
  9
$DIMSE1
 70
     0
  9
$DIMSE2
 70
     0
  9
$DIMTAD
 70
     0
  9
$DIMZIN
 70
     0
  9
$DIMBLK
  1

  9
$DIMASO
 70
     0
  9
$DIMSHO
 70
     0
  9
$DIMPOST
  1

  9
$DIMAPOST
  1

  9
$DIMALT
 70
     0
  9
$DIMALTD
 70
     0
  9
$DIMALTF
 40
25.400000
  9
$DIMLFAC
 40
1.000000
  9
$DIMTOFL
 70
     0
  9
$DIMTVP
 40
0.000000
  9
$DIMTIX
 70
     0
  9
$DIMSOXD
 70
     0
  9
$DIMSAH
 70
     0
  9
$DIMBLKL
  1

  9
$DIMBLKR
  1

  9
$LUNITS
 70
     2
  9
$LUPREC
 70
     2
  9
$AXISMODE
 70
     0
  9
$AXISUNIT
 10
1.000000
 20
1.000000
  9
$SKETCHINC
 40
0.000000
  9
$FILLETRAD
 40
0.000000
  9
$AUNITS
 70
     1
  9
$AUPREC
 70
     2
  9
$MENU
  1
ACAD
  9
$ELEVATION
 40
0.000000
  9
$THICKNESS
 40
0.000000
  9
$VIEWDIR
 10
0.000000
 20
0.000000
 30
1.000000
  9
$LIMCHECK
 70
     1
  9
$BLIPMODE
 70
     1
  9
$CHAMFERA
 40
0.000000
  9
$CHAMFERB
 40
0.000000
  9
$FASTZOOM
 70
     1
  9
$SKPOLY
 70
     0
  9
$TDCREATE
 40
0.000000
  9
$TDUPDATE
 40
0.000000
  9
$TDINDWG
 40
0.000000
  9
$TDUSRTIMER
 40
0.000000
  9
$USRTIMER
 70
     1
  9
$ANGBASE
 50
0.000000
  9
$ANGDIR
 70
     0
  9
$PDMODE
 70
     0
  9
$PDSIZE
 40
0.000000
  9
$PLINEWID
 40
0.000000
  9
$COORDS
 70
     2
  9
$USERI1
 70
     0
  9
$USERI2
 70
     0
  9
$USERI3
 70
     0
  9
$USERI4
 70
     0
  9
$USERI5
 70
     0
  9
$USERR1
 40
0.000000
  9
$USERR2
 40
0.000000
  9
$USERR3
 40
0.000000
  9
$USERR4
 40
0.000000
  9
$USERR5
 40
0.000000
  0
ENDSEC
  0
SECTION
  2
TABLES
  0
TABLE
  2
LTYPE
 70
     5
  0
LTYPE
  2
CONTINUOUS
 70
    64
  3
Solid line
 72
    65
 73
     0
 40
0.0
  0
LTYPE
  2
HIDDEN
 70
    64
  3
------------------------
 72
    65
 73
     2
 40
12.6
 49
8.4
 49
-4.2
  0
LTYPE
  2
DOT
 70
    64
  3
････････････････････････
 72
    65
 73
     2
 40
8.0
 49
6.0
 49
-2.0
  0
LTYPE
  2
DASHDOT
 70
    64
  3
--･--･--･--･--･--･--･--
 72
    65
 73
     4
 40
50.5
 49
30.0
 49
-9.0
 49
2.5
 49
-9.0
  0
LTYPE
  2
DIVIDE
 70
    64
  3
--･･--･･--･･--･･--･･--
 72
    65
 73
     6
 40
58.0
 49
30.0
 49
-9.0
 49
2.5
 49
-5.0
 49
2.5
 49
-9.0
  0
LTYPE
  2
ACAD_ISO06W100
 70
    64
  3
____ ... ____ ... ____
 72
    65
 73
     8
 40
37.5
 49
24.0
 49
-3.0
 49
0.5
 49
-3.0
 49
0.5
 49
-3.0
 49
0.5
 49
-3.0
  0
LTYPE
  2
ACAD_ISO14W100
 70
    64
  3
__ . . . __ . . . __ . . . 
 72
    65
 73
     8
 40
25.5
 49
12.0
 49
-3.0
 49
0.5
 49
-3.0
 49
0.5
 49
-3.0
 49
0.5
 49
-3.0
  0
ENDTAB
  0
TABLE
  2
LAYER
 70
4
  0
LAYER
  2
1
 70
64
 62
7
  6
CONTINUOUS
  0
LAYER
  2
2
 70
64
 62
134
  6
CONTINUOUS
  0
LAYER
  2
5
 70
64
 62
94
  6
CONTINUOUS
  0
LAYER
  2
10
 70
64
 62
3
  6
CONTINUOUS
  0
ENDTAB
  0
TABLE
  2
STYLE
 70
     2
  0
STYLE
  2
STANDARD
 70
    64
 40
0.0
 41
1.0
 50
0.0
 71
     0
 42
0.2
  3
TXT
  4

  0
STYLE
  2
KANJI
 70
    64
 40
0.0
 41
1.0
 50
0.0
 71
     0
 42
0.2
  3
TXT
  4
BIGFONT
  0
ENDTAB
  0
TABLE
  2
VIEW
 70
     0
  0
ENDTAB
  0
ENDSEC
  0
SECTION
  2
BLOCKS
  0
BLOCK
  8
2
 62
134
  6
CONTINUOUS
  2
*D1
 70
    65
 10
0.0
 20
0.0
  0
LINE
  8
2
 62
134
  6
CONTINUOUS
 10
55.010945
 20
116.394723
 11
55.010945
 21
162.391398
  0
LINE
  8
2
 62
134
  6
CONTINUOUS
 10
56.010945
 20
116.394723
 11
47.896507
 21
116.394723
  0
LINE
  8
2
 62
134
  6
CONTINUOUS
 10
56.010945
 20
162.391398
 11
47.896507
 21
162.391398
  0
LINE
  8
2
 62
134
  6
CONTINUOUS
 10
55.010945
 20
116.394723
 11
54.493307
 21
118.326574
  0
LINE
  8
2
 62
134
  6
CONTINUOUS
 10
55.010945
 20
116.394723
 11
55.528583
 21
118.326574
  0
LINE
  8
2
 62
134
  6
CONTINUOUS
 10
54.493307
 20
118.326574
 11
55.528583
 21
118.326574
  0
LINE
  8
2
 62
134
  6
CONTINUOUS
 10
55.010945
 20
116.877686
 11
54.752126
 21
117.843612
  0
LINE
  8
2
 62
134
  6
CONTINUOUS
 10
55.010945
 20
116.877686
 11
55.269764
 21
117.843612
  0
LINE
  8
2
 62
134
  6
CONTINUOUS
 10
54.752126
 20
117.843612
 11
55.269764
 21
117.843612
  0
LINE
  8
2
 62
134
  6
CONTINUOUS
 10
55.010945
 20
162.391398
 11
55.528583
 21
160.459547
  0
LINE
  8
2
 62
134
  6
CONTINUOUS
 10
55.010945
 20
162.391398
 11
54.493307
 21
160.459547
  0
LINE
  8
2
 62
134
  6
CONTINUOUS
 10
55.528583
 20
160.459547
 11
54.493307
 21
160.459547
  0
LINE
  8
2
 62
134
  6
CONTINUOUS
 10
55.010945
 20
161.908435
 11
55.269764
 21
160.942510
  0
LINE
  8
2
 62
134
  6
CONTINUOUS
 10
55.010945
 20
161.908435
 11
54.752126
 21
160.942510
  0
LINE
  8
2
 62
134
  6
CONTINUOUS
 10
55.269764
 20
160.942510
 11
54.752126
 21
160.942510
  0
TEXT
  8
2
 62
134
  6
CONTINUOUS
 10
55.010945
 20
137.394723
 40
4.000000
 41
1.000000
  1
46
  7
KANJI
 50
90.000000
 51
0.000000
  0
ENDBLK
  0
BLOCK
  8
2
 62
134
  6
CONTINUOUS
  2
*D2
 70
    65
 10
0.0
 20
0.0
  0
LINE
  8
2
 62
134
  6
CONTINUOUS
 10
151.299490
 20
117.161146
 11
151.299490
 21
123.161146
  0
LINE
  8
2
 62
134
  6
CONTINUOUS
 10
152.299490
 20
117.161146
 11
142.637876
 21
117.161146
  0
LINE
  8
2
 62
134
  6
CONTINUOUS
 10
152.299490
 20
123.161146
 11
142.024733
 21
123.161146
  0
LINE
  8
2
 62
134
  6
CONTINUOUS
 10
151.299490
 20
117.161146
 11
150.781851
 21
119.092998
  0
LINE
  8
2
 62
134
  6
CONTINUOUS
 10
151.299490
 20
117.161146
 11
151.817128
 21
119.092998
  0
LINE
  8
2
 62
134
  6
CONTINUOUS
 10
150.781851
 20
119.092998
 11
151.817128
 21
119.092998
  0
LINE
  8
2
 62
134
  6
CONTINUOUS
 10
151.299490
 20
117.644109
 11
151.040670
 21
118.610035
  0
LINE
  8
2
 62
134
  6
CONTINUOUS
 10
151.299490
 20
117.644109
 11
151.558309
 21
118.610035
  0
LINE
  8
2
 62
134
  6
CONTINUOUS
 10
151.040670
 20
118.610035
 11
151.558309
 21
118.610035
  0
LINE
  8
2
 62
134
  6
CONTINUOUS
 10
151.299490
 20
123.161146
 11
151.817128
 21
121.229295
  0
LINE
  8
2
 62
134
  6
CONTINUOUS
 10
151.299490
 20
123.161146
 11
150.781851
 21
121.229295
  0
LINE
  8
2
 62
134
  6
CONTINUOUS
 10
151.817128
 20
121.229295
 11
150.781851
 21
121.229295
  0
LINE
  8
2
 62
134
  6
CONTINUOUS
 10
151.299490
 20
122.678183
 11
151.558309
 21
121.712257
  0
LINE
  8
2
 62
134
  6
CONTINUOUS
 10
151.299490
 20
122.678183
 11
151.040670
 21
121.712257
  0
LINE
  8
2
 62
134
  6
CONTINUOUS
 10
151.558309
 20
121.712257
 11
151.040670
 21
121.712257
  0
TEXT
  8
2
 62
134
  6
CONTINUOUS
 10
151.299490
 20
119.470128
 40
4.000000
 41
1.000000
  1
6
  7
KANJI
 50
90.000000
 51
0.000000
  0
ENDBLK
  0
BLOCK
  8
2
 62
134
  6
CONTINUOUS
  2
*D3
 70
    65
 10
0.0
 20
0.0
  0
LINE
  8
2
 62
134
  6
CONTINUOUS
 10
172.038756
 20
117.161146
 11
172.038756
 21
159.161146
  0
LINE
  8
2
 62
134
  6
CONTINUOUS
 10
171.038756
 20
159.161146
 11
175.143082
 21
159.161146
  0
LINE
  8
2
 62
134
  6
CONTINUOUS
 10
172.038756
 20
117.161146
 11
171.521118
 21
119.092998
  0
LINE
  8
2
 62
134
  6
CONTINUOUS
 10
172.038756
 20
117.161146
 11
172.556394
 21
119.092998
  0
LINE
  8
2
 62
134
  6
CONTINUOUS
 10
171.521118
 20
119.092998
 11
172.556394
 21
119.092998
  0
LINE
  8
2
 62
134
  6
CONTINUOUS
 10
172.038756
 20
117.644109
 11
171.779937
 21
118.610035
  0
LINE
  8
2
 62
134
  6
CONTINUOUS
 10
172.038756
 20
117.644109
 11
172.297575
 21
118.610035
  0
LINE
  8
2
 62
134
  6
CONTINUOUS
 10
171.779937
 20
118.610035
 11
172.297575
 21
118.610035
  0
LINE
  8
2
 62
134
  6
CONTINUOUS
 10
172.038756
 20
159.161146
 11
172.556394
 21
157.229295
  0
LINE
  8
2
 62
134
  6
CONTINUOUS
 10
172.038756
 20
159.161146
 11
171.521118
 21
157.229295
  0
LINE
  8
2
 62
134
  6
CONTINUOUS
 10
172.556394
 20
157.229295
 11
171.521118
 21
157.229295
  0
LINE
  8
2
 62
134
  6
CONTINUOUS
 10
172.038756
 20
158.678183
 11
172.297575
 21
157.712257
  0
LINE
  8
2
 62
134
  6
CONTINUOUS
 10
172.038756
 20
158.678183
 11
171.779937
 21
157.712257
  0
LINE
  8
2
 62
134
  6
CONTINUOUS
 10
172.297575
 20
157.712257
 11
171.779937
 21
157.712257
  0
TEXT
  8
2
 62
134
  6
CONTINUOUS
 10
172.038756
 20
135.877102
 40
4.000000
 41
1.000000
  1
42
  7
KANJI
 50
90.000000
 51
0.000000
  0
ENDBLK
  0
BLOCK
  8
2
 62
134
  6
CONTINUOUS
  2
*D4
 70
    65
 10
0.0
 20
0.0
  0
LINE
  8
2
 62
134
  6
CONTINUOUS
 10
132.137876
 20
176.080241
 11
183.137876
 21
176.080241
  0
LINE
  8
2
 62
134
  6
CONTINUOUS
 10
132.137876
 20
177.080241
 11
132.137876
 21
162.657821
  0
LINE
  8
2
 62
134
  6
CONTINUOUS
 10
183.137876
 20
177.080241
 11
183.137876
 21
162.654496
  0
LINE
  8
2
 62
134
  6
CONTINUOUS
 10
132.137876
 20
176.080241
 11
134.069728
 21
176.597880
  0
LINE
  8
2
 62
134
  6
CONTINUOUS
 10
132.137876
 20
176.080241
 11
134.069728
 21
175.562603
  0
LINE
  8
2
 62
134
  6
CONTINUOUS
 10
134.069728
 20
176.597880
 11
134.069728
 21
175.562603
  0
LINE
  8
2
 62
134
  6
CONTINUOUS
 10
132.620839
 20
176.080241
 11
133.586765
 21
176.339061
  0
LINE
  8
2
 62
134
  6
CONTINUOUS
 10
132.620839
 20
176.080241
 11
133.586765
 21
175.821422
  0
LINE
  8
2
 62
134
  6
CONTINUOUS
 10
133.586765
 20
176.339061
 11
133.586765
 21
175.821422
  0
LINE
  8
2
 62
134
  6
CONTINUOUS
 10
183.137876
 20
176.080241
 11
181.206025
 21
175.562603
  0
LINE
  8
2
 62
134
  6
CONTINUOUS
 10
183.137876
 20
176.080241
 11
181.206025
 21
176.597880
  0
LINE
  8
2
 62
134
  6
CONTINUOUS
 10
181.206025
 20
175.562603
 11
181.206025
 21
176.597880
  0
LINE
  8
2
 62
134
  6
CONTINUOUS
 10
182.654913
 20
176.080241
 11
181.688988
 21
175.821422
  0
LINE
  8
2
 62
134
  6
CONTINUOUS
 10
182.654913
 20
176.080241
 11
181.688988
 21
176.339061
  0
LINE
  8
2
 62
134
  6
CONTINUOUS
 10
181.688988
 20
175.821422
 11
181.688988
 21
176.339061
  0
TEXT
  8
2
 62
134
  6
CONTINUOUS
 10
157.199858
 20
176.080241
 40
4.000000
 41
1.000000
  1
51
  7
KANJI
 50
0.000000
 51
0.000000
  0
ENDBLK
  0
BLOCK
  8
2
 62
134
  6
CONTINUOUS
  2
*D5
 70
    65
 10
0.0
 20
0.0
  0
LINE
  8
2
 62
134
  6
CONTINUOUS
 10
151.299490
 20
123.161146
 11
151.299490
 21
156.161146
  0
LINE
  8
2
 62
134
  6
CONTINUOUS
 10
152.299490
 20
123.161146
 11
142.024733
 21
123.161146
  0
LINE
  8
2
 62
134
  6
CONTINUOUS
 10
152.299490
 20
156.161146
 11
142.024733
 21
156.161146
  0
LINE
  8
2
 62
134
  6
CONTINUOUS
 10
151.299490
 20
123.161146
 11
150.781851
 21
125.092998
  0
LINE
  8
2
 62
134
  6
CONTINUOUS
 10
151.299490
 20
123.161146
 11
151.817128
 21
125.092998
  0
LINE
  8
2
 62
134
  6
CONTINUOUS
 10
150.781851
 20
125.092998
 11
151.817128
 21
125.092998
  0
LINE
  8
2
 62
134
  6
CONTINUOUS
 10
151.299490
 20
123.644109
 11
151.040670
 21
124.610035
  0
LINE
  8
2
 62
134
  6
CONTINUOUS
 10
151.299490
 20
123.644109
 11
151.558309
 21
124.610035
  0
LINE
  8
2
 62
134
  6
CONTINUOUS
 10
151.040670
 20
124.610035
 11
151.558309
 21
124.610035
  0
LINE
  8
2
 62
134
  6
CONTINUOUS
 10
151.299490
 20
156.161146
 11
151.817128
 21
154.229295
  0
LINE
  8
2
 62
134
  6
CONTINUOUS
 10
151.299490
 20
156.161146
 11
150.781851
 21
154.229295
  0
LINE
  8
2
 62
134
  6
CONTINUOUS
 10
151.817128
 20
154.229295
 11
150.781851
 21
154.229295
  0
LINE
  8
2
 62
134
  6
CONTINUOUS
 10
151.299490
 20
155.678183
 11
151.558309
 21
154.712257
  0
LINE
  8
2
 62
134
  6
CONTINUOUS
 10
151.299490
 20
155.678183
 11
151.040670
 21
154.712257
  0
LINE
  8
2
 62
134
  6
CONTINUOUS
 10
151.558309
 20
154.712257
 11
151.040670
 21
154.712257
  0
TEXT
  8
2
 62
134
  6
CONTINUOUS
 10
151.299490
 20
137.786925
 40
4.000000
 41
1.000000
  1
33
  7
KANJI
 50
90.000000
 51
0.000000
  0
ENDBLK
  0
BLOCK
  8
2
 62
134
  6
CONTINUOUS
  2
*D6
 70
    65
 10
0.0
 20
0.0
  0
LINE
  8
2
 62
134
  6
CONTINUOUS
 10
132.137876
 20
168.096716
 11
137.137876
 21
168.096716
  0
LINE
  8
2
 62
134
  6
CONTINUOUS
 10
132.137876
 20
169.096716
 11
132.137876
 21
162.657821
  0
LINE
  8
2
 62
134
  6
CONTINUOUS
 10
137.137876
 20
169.096716
 11
137.137876
 21
159.758854
  0
LINE
  8
2
 62
134
  6
CONTINUOUS
 10
132.137876
 20
168.096716
 11
134.069728
 21
168.614354
  0
LINE
  8
2
 62
134
  6
CONTINUOUS
 10
132.137876
 20
168.096716
 11
134.069728
 21
167.579078
  0
LINE
  8
2
 62
134
  6
CONTINUOUS
 10
134.069728
 20
168.614354
 11
134.069728
 21
167.579078
  0
LINE
  8
2
 62
134
  6
CONTINUOUS
 10
132.620839
 20
168.096716
 11
133.586765
 21
168.355535
  0
LINE
  8
2
 62
134
  6
CONTINUOUS
 10
132.620839
 20
168.096716
 11
133.586765
 21
167.837897
  0
LINE
  8
2
 62
134
  6
CONTINUOUS
 10
133.586765
 20
168.355535
 11
133.586765
 21
167.837897
  0
LINE
  8
2
 62
134
  6
CONTINUOUS
 10
137.137876
 20
168.096716
 11
135.206025
 21
167.579078
  0
LINE
  8
2
 62
134
  6
CONTINUOUS
 10
137.137876
 20
168.096716
 11
135.206025
 21
168.614354
  0
LINE
  8
2
 62
134
  6
CONTINUOUS
 10
135.206025
 20
167.579078
 11
135.206025
 21
168.614354
  0
LINE
  8
2
 62
134
  6
CONTINUOUS
 10
136.654913
 20
168.096716
 11
135.688988
 21
167.837897
  0
LINE
  8
2
 62
134
  6
CONTINUOUS
 10
136.654913
 20
168.096716
 11
135.688988
 21
168.355535
  0
LINE
  8
2
 62
134
  6
CONTINUOUS
 10
135.688988
 20
167.837897
 11
135.688988
 21
168.355535
  0
TEXT
  8
2
 62
134
  6
CONTINUOUS
 10
133.679029
 20
168.096716
 40
4.000000
 41
1.000000
  1
5
  7
KANJI
 50
0.000000
 51
0.000000
  0
ENDBLK
  0
BLOCK
  8
2
 62
134
  6
CONTINUOUS
  2
*D7
 70
    65
 10
0.0
 20
0.0
  0
LINE
  8
2
 62
134
  6
CONTINUOUS
 10
137.137876
 20
168.096716
 11
179.137876
 21
168.096716
  0
LINE
  8
2
 62
134
  6
CONTINUOUS
 10
137.137876
 20
169.096716
 11
137.137876
 21
159.758854
  0
LINE
  8
2
 62
134
  6
CONTINUOUS
 10
179.137876
 20
169.096716
 11
179.137876
 21
162.096351
  0
LINE
  8
2
 62
134
  6
CONTINUOUS
 10
137.137876
 20
168.096716
 11
139.069728
 21
168.614354
  0
LINE
  8
2
 62
134
  6
CONTINUOUS
 10
137.137876
 20
168.096716
 11
139.069728
 21
167.579078
  0
LINE
  8
2
 62
134
  6
CONTINUOUS
 10
139.069728
 20
168.614354
 11
139.069728
 21
167.579078
  0
LINE
  8
2
 62
134
  6
CONTINUOUS
 10
137.620839
 20
168.096716
 11
138.586765
 21
168.355535
  0
LINE
  8
2
 62
134
  6
CONTINUOUS
 10
137.620839
 20
168.096716
 11
138.586765
 21
167.837897
  0
LINE
  8
2
 62
134
  6
CONTINUOUS
 10
138.586765
 20
168.355535
 11
138.586765
 21
167.837897
  0
LINE
  8
2
 62
134
  6
CONTINUOUS
 10
179.137876
 20
168.096716
 11
177.206025
 21
167.579078
  0
LINE
  8
2
 62
134
  6
CONTINUOUS
 10
179.137876
 20
168.096716
 11
177.206025
 21
168.614354
  0
LINE
  8
2
 62
134
  6
CONTINUOUS
 10
177.206025
 20
167.579078
 11
177.206025
 21
168.614354
  0
LINE
  8
2
 62
134
  6
CONTINUOUS
 10
178.654913
 20
168.096716
 11
177.688988
 21
167.837897
  0
LINE
  8
2
 62
134
  6
CONTINUOUS
 10
178.654913
 20
168.096716
 11
177.688988
 21
168.355535
  0
LINE
  8
2
 62
134
  6
CONTINUOUS
 10
177.688988
 20
167.837897
 11
177.688988
 21
168.355535
  0
TEXT
  8
2
 62
134
  6
CONTINUOUS
 10
154.633725
 20
168.096716
 40
4.000000
 41
1.000000
  1
42
  7
KANJI
 50
0.000000
 51
0.000000
  0
ENDBLK
  0
BLOCK
  8
2
 62
134
  6
CONTINUOUS
  2
*D8
 70
    65
 10
0.0
 20
0.0
  0
LINE
  8
2
 62
134
  6
CONTINUOUS
 10
79.137876
 20
176.080241
 11
132.137876
 21
176.080241
  0
LINE
  8
2
 62
134
  6
CONTINUOUS
 10
79.137876
 20
177.080241
 11
79.137876
 21
155.361146
  0
LINE
  8
2
 62
134
  6
CONTINUOUS
 10
132.137876
 20
177.080241
 11
132.137876
 21
162.657821
  0
LINE
  8
2
 62
134
  6
CONTINUOUS
 10
79.137876
 20
176.080241
 11
81.069728
 21
176.597880
  0
LINE
  8
2
 62
134
  6
CONTINUOUS
 10
79.137876
 20
176.080241
 11
81.069728
 21
175.562603
  0
LINE
  8
2
 62
134
  6
CONTINUOUS
 10
81.069728
 20
176.597880
 11
81.069728
 21
175.562603
  0
LINE
  8
2
 62
134
  6
CONTINUOUS
 10
79.620839
 20
176.080241
 11
80.586765
 21
176.339061
  0
LINE
  8
2
 62
134
  6
CONTINUOUS
 10
79.620839
 20
176.080241
 11
80.586765
 21
175.821422
  0
LINE
  8
2
 62
134
  6
CONTINUOUS
 10
80.586765
 20
176.339061
 11
80.586765
 21
175.821422
  0
LINE
  8
2
 62
134
  6
CONTINUOUS
 10
132.137876
 20
176.080241
 11
130.206025
 21
175.562603
  0
LINE
  8
2
 62
134
  6
CONTINUOUS
 10
132.137876
 20
176.080241
 11
130.206025
 21
176.597880
  0
LINE
  8
2
 62
134
  6
CONTINUOUS
 10
130.206025
 20
175.562603
 11
130.206025
 21
176.597880
  0
LINE
  8
2
 62
134
  6
CONTINUOUS
 10
131.654913
 20
176.080241
 11
130.688988
 21
175.821422
  0
LINE
  8
2
 62
134
  6
CONTINUOUS
 10
131.654913
 20
176.080241
 11
130.688988
 21
176.339061
  0
LINE
  8
2
 62
134
  6
CONTINUOUS
 10
130.688988
 20
175.821422
 11
130.688988
 21
176.339061
  0
TEXT
  8
2
 62
134
  6
CONTINUOUS
 10
105.889208
 20
176.080241
 40
4.000000
 41
1.000000
  1
53
  7
KANJI
 50
0.000000
 51
0.000000
  0
ENDBLK
  0
BLOCK
  8
2
 62
134
  6
CONTINUOUS
  2
*D9
 70
    65
 10
0.0
 20
0.0
  0
LINE
  8
2
 62
134
  6
CONTINUOUS
 10
79.137876
 20
182.638138
 11
183.137876
 21
182.638138
  0
LINE
  8
2
 62
134
  6
CONTINUOUS
 10
79.137876
 20
183.638138
 11
79.137876
 21
155.361146
  0
LINE
  8
2
 62
134
  6
CONTINUOUS
 10
183.137876
 20
183.638138
 11
183.137876
 21
162.654496
  0
LINE
  8
2
 62
134
  6
CONTINUOUS
 10
79.137876
 20
182.638138
 11
81.069728
 21
183.155776
  0
LINE
  8
2
 62
134
  6
CONTINUOUS
 10
79.137876
 20
182.638138
 11
81.069728
 21
182.120499
  0
LINE
  8
2
 62
134
  6
CONTINUOUS
 10
81.069728
 20
183.155776
 11
81.069728
 21
182.120499
  0
LINE
  8
2
 62
134
  6
CONTINUOUS
 10
79.620839
 20
182.638138
 11
80.586765
 21
182.896957
  0
LINE
  8
2
 62
134
  6
CONTINUOUS
 10
79.620839
 20
182.638138
 11
80.586765
 21
182.379318
  0
LINE
  8
2
 62
134
  6
CONTINUOUS
 10
80.586765
 20
182.896957
 11
80.586765
 21
182.379318
  0
LINE
  8
2
 62
134
  6
CONTINUOUS
 10
183.137876
 20
182.638138
 11
181.206025
 21
182.120499
  0
LINE
  8
2
 62
134
  6
CONTINUOUS
 10
183.137876
 20
182.638138
 11
181.206025
 21
183.155776
  0
LINE
  8
2
 62
134
  6
CONTINUOUS
 10
181.206025
 20
182.120499
 11
181.206025
 21
183.155776
  0
LINE
  8
2
 62
134
  6
CONTINUOUS
 10
182.654913
 20
182.638138
 11
181.688988
 21
182.379318
  0
LINE
  8
2
 62
134
  6
CONTINUOUS
 10
182.654913
 20
182.638138
 11
181.688988
 21
182.896957
  0
LINE
  8
2
 62
134
  6
CONTINUOUS
 10
181.688988
 20
182.379318
 11
181.688988
 21
182.896957
  0
TEXT
  8
2
 62
134
  6
CONTINUOUS
 10
129.124911
 20
182.638138
 40
4.000000
 41
1.000000
  1
104
  7
KANJI
 50
0.000000
 51
0.000000
  0
ENDBLK
  0
BLOCK
  8
2
 62
134
  6
CONTINUOUS
  2
*D10
 70
    65
 10
0.0
 20
0.0
  0
LINE
  8
2
 62
134
  6
CONTINUOUS
 10
183.137876
 20
182.638138
 11
226.737876
 21
182.638138
  0
LINE
  8
2
 62
134
  6
CONTINUOUS
 10
183.137876
 20
183.638138
 11
183.137876
 21
162.654496
  0
LINE
  8
2
 62
134
  6
CONTINUOUS
 10
226.737876
 20
183.638138
 11
226.737876
 21
147.361146
  0
LINE
  8
2
 62
134
  6
CONTINUOUS
 10
183.137876
 20
182.638138
 11
185.069728
 21
183.155776
  0
LINE
  8
2
 62
134
  6
CONTINUOUS
 10
183.137876
 20
182.638138
 11
185.069728
 21
182.120499
  0
LINE
  8
2
 62
134
  6
CONTINUOUS
 10
185.069728
 20
183.155776
 11
185.069728
 21
182.120499
  0
LINE
  8
2
 62
134
  6
CONTINUOUS
 10
183.620839
 20
182.638138
 11
184.586765
 21
182.896957
  0
LINE
  8
2
 62
134
  6
CONTINUOUS
 10
183.620839
 20
182.638138
 11
184.586765
 21
182.379318
  0
LINE
  8
2
 62
134
  6
CONTINUOUS
 10
184.586765
 20
182.896957
 11
184.586765
 21
182.379318
  0
LINE
  8
2
 62
134
  6
CONTINUOUS
 10
226.737876
 20
182.638138
 11
224.806025
 21
182.120499
  0
LINE
  8
2
 62
134
  6
CONTINUOUS
 10
226.737876
 20
182.638138
 11
224.806025
 21
183.155776
  0
LINE
  8
2
 62
134
  6
CONTINUOUS
 10
224.806025
 20
182.120499
 11
224.806025
 21
183.155776
  0
LINE
  8
2
 62
134
  6
CONTINUOUS
 10
226.254913
 20
182.638138
 11
225.288988
 21
182.379318
  0
LINE
  8
2
 62
134
  6
CONTINUOUS
 10
226.254913
 20
182.638138
 11
225.288988
 21
182.896957
  0
LINE
  8
2
 62
134
  6
CONTINUOUS
 10
225.288988
 20
182.379318
 11
225.288988
 21
182.896957
  0
TEXT
  8
2
 62
134
  6
CONTINUOUS
 10
203.581310
 20
182.638138
 40
4.000000
 41
1.000000
  1
44
  7
KANJI
 50
0.000000
 51
0.000000
  0
ENDBLK
  0
BLOCK
  8
2
 62
134
  6
CONTINUOUS
  2
*D11
 70
    65
 10
0.0
 20
0.0
  0
LINE
  8
2
 62
134
  6
CONTINUOUS
 10
191.672078
 20
124.479295
 11
191.672078
 21
160.874492
  0
LINE
  8
2
 62
134
  6
CONTINUOUS
 10
192.672078
 20
147.261146
 11
189.317876
 21
147.261146
  0
LINE
  8
2
 62
134
  6
CONTINUOUS
 10
191.672078
 20
132.479295
 11
192.189717
 21
130.547444
  0
LINE
  8
2
 62
134
  6
CONTINUOUS
 10
191.672078
 20
132.479295
 11
191.154440
 21
130.547444
  0
LINE
  8
2
 62
134
  6
CONTINUOUS
 10
192.189717
 20
130.547444
 11
191.154440
 21
130.547444
  0
LINE
  8
2
 62
134
  6
CONTINUOUS
 10
191.672078
 20
131.996332
 11
191.930897
 21
131.030407
  0
LINE
  8
2
 62
134
  6
CONTINUOUS
 10
191.672078
 20
131.996332
 11
191.413259
 21
131.030407
  0
LINE
  8
2
 62
134
  6
CONTINUOUS
 10
191.930897
 20
131.030407
 11
191.413259
 21
131.030407
  0
LINE
  8
2
 62
134
  6
CONTINUOUS
 10
191.672078
 20
147.261146
 11
191.154440
 21
149.192998
  0
LINE
  8
2
 62
134
  6
CONTINUOUS
 10
191.672078
 20
147.261146
 11
192.189717
 21
149.192998
  0
LINE
  8
2
 62
134
  6
CONTINUOUS
 10
191.154440
 20
149.192998
 11
192.189717
 21
149.192998
  0
LINE
  8
2
 62
134
  6
CONTINUOUS
 10
191.672078
 20
147.744109
 11
191.413259
 21
148.710035
  0
LINE
  8
2
 62
134
  6
CONTINUOUS
 10
191.672078
 20
147.744109
 11
191.930897
 21
148.710035
  0
LINE
  8
2
 62
134
  6
CONTINUOUS
 10
191.413259
 20
148.710035
 11
191.930897
 21
148.710035
  0
TEXT
  8
2
 62
134
  6
CONTINUOUS
 10
191.672078
 20
152.874492
 40
4.000000
 41
1.000000
  1
φ15
  7
KANJI
 50
90.000000
 51
0.000000
  0
ENDBLK
  0
BLOCK
  8
2
 62
134
  6
CONTINUOUS
  2
*D12
 70
    65
 10
0.0
 20
0.0
  0
LINE
  8
2
 62
134
  6
CONTINUOUS
 10
234.305194
 20
117.161146
 11
234.305194
 21
139.861146
  0
LINE
  8
2
 62
134
  6
CONTINUOUS
 10
235.305194
 20
117.161146
 11
182.637876
 21
117.161146
  0
LINE
  8
2
 62
134
  6
CONTINUOUS
 10
234.305194
 20
117.161146
 11
233.787556
 21
119.092998
  0
LINE
  8
2
 62
134
  6
CONTINUOUS
 10
234.305194
 20
117.161146
 11
234.822832
 21
119.092998
  0
LINE
  8
2
 62
134
  6
CONTINUOUS
 10
233.787556
 20
119.092998
 11
234.822832
 21
119.092998
  0
LINE
  8
2
 62
134
  6
CONTINUOUS
 10
234.305194
 20
117.644109
 11
234.046375
 21
118.610035
  0
LINE
  8
2
 62
134
  6
CONTINUOUS
 10
234.305194
 20
117.644109
 11
234.564013
 21
118.610035
  0
LINE
  8
2
 62
134
  6
CONTINUOUS
 10
234.046375
 20
118.610035
 11
234.564013
 21
118.610035
  0
LINE
  8
2
 62
134
  6
CONTINUOUS
 10
234.305194
 20
139.861146
 11
234.822832
 21
137.929295
  0
LINE
  8
2
 62
134
  6
CONTINUOUS
 10
234.305194
 20
139.861146
 11
233.787556
 21
137.929295
  0
LINE
  8
2
 62
134
  6
CONTINUOUS
 10
234.822832
 20
137.929295
 11
233.787556
 21
137.929295
  0
LINE
  8
2
 62
134
  6
CONTINUOUS
 10
234.305194
 20
139.378183
 11
234.564013
 21
138.412257
  0
LINE
  8
2
 62
134
  6
CONTINUOUS
 10
234.305194
 20
139.378183
 11
234.046375
 21
138.412257
  0
LINE
  8
2
 62
134
  6
CONTINUOUS
 10
234.564013
 20
138.412257
 11
234.046375
 21
138.412257
  0
TEXT
  8
2
 62
134
  6
CONTINUOUS
 10
234.305194
 20
122.545733
 40
4.000000
 41
1.000000
  1
22.7
  7
KANJI
 50
90.000000
 51
0.000000
  0
ENDBLK
  0
BLOCK
  8
2
 62
134
  6
CONTINUOUS
  2
*D13
 70
    65
 10
0.0
 20
0.0
  0
LINE
  8
2
 62
134
  6
CONTINUOUS
 10
18.396507
 20
110.507808
 11
33.396507
 21
110.507808
  0
LINE
  8
2
 62
134
  6
CONTINUOUS
 10
18.396507
 20
109.507808
 11
18.396507
 21
116.894723
  0
LINE
  8
2
 62
134
  6
CONTINUOUS
 10
33.396507
 20
109.507808
 11
33.396507
 21
114.069528
  0
LINE
  8
2
 62
134
  6
CONTINUOUS
 10
18.396507
 20
110.507808
 11
20.328358
 21
111.025446
  0
LINE
  8
2
 62
134
  6
CONTINUOUS
 10
18.396507
 20
110.507808
 11
20.328358
 21
109.990169
  0
LINE
  8
2
 62
134
  6
CONTINUOUS
 10
20.328358
 20
111.025446
 11
20.328358
 21
109.990169
  0
LINE
  8
2
 62
134
  6
CONTINUOUS
 10
18.879470
 20
110.507808
 11
19.845395
 21
110.766627
  0
LINE
  8
2
 62
134
  6
CONTINUOUS
 10
18.879470
 20
110.507808
 11
19.845395
 21
110.248988
  0
LINE
  8
2
 62
134
  6
CONTINUOUS
 10
19.845395
 20
110.766627
 11
19.845395
 21
110.248988
  0
LINE
  8
2
 62
134
  6
CONTINUOUS
 10
33.396507
 20
110.507808
 11
31.464655
 21
109.990169
  0
LINE
  8
2
 62
134
  6
CONTINUOUS
 10
33.396507
 20
110.507808
 11
31.464655
 21
111.025446
  0
LINE
  8
2
 62
134
  6
CONTINUOUS
 10
31.464655
 20
109.990169
 11
31.464655
 21
111.025446
  0
LINE
  8
2
 62
134
  6
CONTINUOUS
 10
32.913544
 20
110.507808
 11
31.947618
 21
110.248988
  0
LINE
  8
2
 62
134
  6
CONTINUOUS
 10
32.913544
 20
110.507808
 11
31.947618
 21
110.766627
  0
LINE
  8
2
 62
134
  6
CONTINUOUS
 10
31.947618
 20
110.248988
 11
31.947618
 21
110.766627
  0
TEXT
  8
2
 62
134
  6
CONTINUOUS
 10
24.213587
 20
110.507808
 40
4.000000
 41
1.000000
  1
15
  7
KANJI
 50
0.000000
 51
0.000000
  0
ENDBLK
  0
BLOCK
  8
2
 62
134
  6
CONTINUOUS
  2
*D14
 70
    65
 10
0.0
 20
0.0
  0
LINE
  8
2
 62
134
  6
CONTINUOUS
 10
33.396507
 20
110.507808
 11
48.396507
 21
110.507808
  0
LINE
  8
2
 62
134
  6
CONTINUOUS
 10
33.396507
 20
109.507808
 11
33.396507
 21
114.069528
  0
LINE
  8
2
 62
134
  6
CONTINUOUS
 10
48.396507
 20
109.507808
 11
48.396507
 21
116.894723
  0
LINE
  8
2
 62
134
  6
CONTINUOUS
 10
33.396507
 20
110.507808
 11
35.328358
 21
111.025446
  0
LINE
  8
2
 62
134
  6
CONTINUOUS
 10
33.396507
 20
110.507808
 11
35.328358
 21
109.990169
  0
LINE
  8
2
 62
134
  6
CONTINUOUS
 10
35.328358
 20
111.025446
 11
35.328358
 21
109.990169
  0
LINE
  8
2
 62
134
  6
CONTINUOUS
 10
33.879470
 20
110.507808
 11
34.845395
 21
110.766627
  0
LINE
  8
2
 62
134
  6
CONTINUOUS
 10
33.879470
 20
110.507808
 11
34.845395
 21
110.248988
  0
LINE
  8
2
 62
134
  6
CONTINUOUS
 10
34.845395
 20
110.766627
 11
34.845395
 21
110.248988
  0
LINE
  8
2
 62
134
  6
CONTINUOUS
 10
48.396507
 20
110.507808
 11
46.464655
 21
109.990169
  0
LINE
  8
2
 62
134
  6
CONTINUOUS
 10
48.396507
 20
110.507808
 11
46.464655
 21
111.025446
  0
LINE
  8
2
 62
134
  6
CONTINUOUS
 10
46.464655
 20
109.990169
 11
46.464655
 21
111.025446
  0
LINE
  8
2
 62
134
  6
CONTINUOUS
 10
47.913544
 20
110.507808
 11
46.947618
 21
110.248988
  0
LINE
  8
2
 62
134
  6
CONTINUOUS
 10
47.913544
 20
110.507808
 11
46.947618
 21
110.766627
  0
LINE
  8
2
 62
134
  6
CONTINUOUS
 10
46.947618
 20
110.248988
 11
46.947618
 21
110.766627
  0
TEXT
  8
2
 62
134
  6
CONTINUOUS
 10
39.226651
 20
110.507808
 40
4.000000
 41
1.000000
  1
15
  7
KANJI
 50
0.000000
 51
0.000000
  0
ENDBLK
  0
BLOCK
  8
2
 62
134
  6
CONTINUOUS
  2
*D15
 70
    65
 10
0.0
 20
0.0
  0
LINE
  8
2
 62
134
  6
CONTINUOUS
 10
18.396507
 20
105.354069
 11
48.396507
 21
105.354069
  0
LINE
  8
2
 62
134
  6
CONTINUOUS
 10
18.396507
 20
104.354069
 11
18.396507
 21
116.894723
  0
LINE
  8
2
 62
134
  6
CONTINUOUS
 10
48.396507
 20
104.354069
 11
48.396507
 21
116.894723
  0
LINE
  8
2
 62
134
  6
CONTINUOUS
 10
18.396507
 20
105.354069
 11
20.328358
 21
105.871707
  0
LINE
  8
2
 62
134
  6
CONTINUOUS
 10
18.396507
 20
105.354069
 11
20.328358
 21
104.836431
  0
LINE
  8
2
 62
134
  6
CONTINUOUS
 10
20.328358
 20
105.871707
 11
20.328358
 21
104.836431
  0
LINE
  8
2
 62
134
  6
CONTINUOUS
 10
18.879470
 20
105.354069
 11
19.845395
 21
105.612888
  0
LINE
  8
2
 62
134
  6
CONTINUOUS
 10
18.879470
 20
105.354069
 11
19.845395
 21
105.095250
  0
LINE
  8
2
 62
134
  6
CONTINUOUS
 10
19.845395
 20
105.612888
 11
19.845395
 21
105.095250
  0
LINE
  8
2
 62
134
  6
CONTINUOUS
 10
48.396507
 20
105.354069
 11
46.464655
 21
104.836431
  0
LINE
  8
2
 62
134
  6
CONTINUOUS
 10
48.396507
 20
105.354069
 11
46.464655
 21
105.871707
  0
LINE
  8
2
 62
134
  6
CONTINUOUS
 10
46.464655
 20
104.836431
 11
46.464655
 21
105.871707
  0
LINE
  8
2
 62
134
  6
CONTINUOUS
 10
47.913544
 20
105.354069
 11
46.947618
 21
105.095250
  0
LINE
  8
2
 62
134
  6
CONTINUOUS
 10
47.913544
 20
105.354069
 11
46.947618
 21
105.612888
  0
LINE
  8
2
 62
134
  6
CONTINUOUS
 10
46.947618
 20
105.095250
 11
46.947618
 21
105.612888
  0
TEXT
  8
2
 62
134
  6
CONTINUOUS
 10
31.720119
 20
105.354069
 40
4.000000
 41
1.000000
  1
30
  7
KANJI
 50
0.000000
 51
0.000000
  0
ENDBLK
  0
BLOCK
  8
2
 62
134
  6
CONTINUOUS
  2
*D16
 70
    65
 10
0.0
 20
0.0
  0
LINE
  8
2
 62
134
  6
CONTINUOUS
 10
213.420017
 20
45.637175
 11
207.420017
 21
45.637175
  0
LINE
  8
2
 62
134
  6
CONTINUOUS
 10
213.420017
 20
44.637175
 11
213.420017
 21
52.186035
  0
LINE
  8
2
 62
134
  6
CONTINUOUS
 10
207.420017
 20
44.637175
 11
207.420017
 21
52.186035
  0
LINE
  8
2
 62
134
  6
CONTINUOUS
 10
213.420017
 20
45.637175
 11
211.488165
 21
45.119537
  0
LINE
  8
2
 62
134
  6
CONTINUOUS
 10
213.420017
 20
45.637175
 11
211.488165
 21
46.154813
  0
LINE
  8
2
 62
134
  6
CONTINUOUS
 10
211.488165
 20
45.119537
 11
211.488165
 21
46.154813
  0
LINE
  8
2
 62
134
  6
CONTINUOUS
 10
212.937054
 20
45.637175
 11
211.971128
 21
45.378356
  0
LINE
  8
2
 62
134
  6
CONTINUOUS
 10
212.937054
 20
45.637175
 11
211.971128
 21
45.895994
  0
LINE
  8
2
 62
134
  6
CONTINUOUS
 10
211.971128
 20
45.378356
 11
211.971128
 21
45.895994
  0
LINE
  8
2
 62
134
  6
CONTINUOUS
 10
207.420017
 20
45.637175
 11
209.351869
 21
46.154813
  0
LINE
  8
2
 62
134
  6
CONTINUOUS
 10
207.420017
 20
45.637175
 11
209.351869
 21
45.119537
  0
LINE
  8
2
 62
134
  6
CONTINUOUS
 10
209.351869
 20
46.154813
 11
209.351869
 21
45.119537
  0
LINE
  8
2
 62
134
  6
CONTINUOUS
 10
207.902980
 20
45.637175
 11
208.868906
 21
45.895994
  0
LINE
  8
2
 62
134
  6
CONTINUOUS
 10
207.902980
 20
45.637175
 11
208.868906
 21
45.378356
  0
LINE
  8
2
 62
134
  6
CONTINUOUS
 10
208.868906
 20
45.895994
 11
208.868906
 21
45.378356
  0
TEXT
  8
2
 62
134
  6
CONTINUOUS
 10
209.420017
 20
45.637175
 40
4.000000
 41
1.000000
  1
6
  7
KANJI
 50
0.000000
 51
0.000000
  0
ENDBLK
  0
BLOCK
  8
2
 62
134
  6
CONTINUOUS
  2
*D17
 70
    65
 10
0.0
 20
0.0
  0
LINE
  8
2
 62
134
  6
CONTINUOUS
 10
146.109133
 20
51.636035
 11
146.109133
 21
75.848063
  0
LINE
  8
2
 62
134
  6
CONTINUOUS
 10
146.109133
 20
59.636035
 11
146.626771
 21
57.704183
  0
LINE
  8
2
 62
134
  6
CONTINUOUS
 10
146.109133
 20
59.636035
 11
145.591495
 21
57.704183
  0
LINE
  8
2
 62
134
  6
CONTINUOUS
 10
146.626771
 20
57.704183
 11
145.591495
 21
57.704183
  0
LINE
  8
2
 62
134
  6
CONTINUOUS
 10
146.109133
 20
59.153072
 11
146.367952
 21
58.187146
  0
LINE
  8
2
 62
134
  6
CONTINUOUS
 10
146.109133
 20
59.153072
 11
145.850314
 21
58.187146
  0
LINE
  8
2
 62
134
  6
CONTINUOUS
 10
146.367952
 20
58.187146
 11
145.850314
 21
58.187146
  0
LINE
  8
2
 62
134
  6
CONTINUOUS
 10
146.109133
 20
66.636035
 11
145.591495
 21
68.567887
  0
LINE
  8
2
 62
134
  6
CONTINUOUS
 10
146.109133
 20
66.636035
 11
146.626771
 21
68.567887
  0
LINE
  8
2
 62
134
  6
CONTINUOUS
 10
145.591495
 20
68.567887
 11
146.626771
 21
68.567887
  0
LINE
  8
2
 62
134
  6
CONTINUOUS
 10
146.109133
 20
67.118998
 11
145.850314
 21
68.084924
  0
LINE
  8
2
 62
134
  6
CONTINUOUS
 10
146.109133
 20
67.118998
 11
146.367952
 21
68.084924
  0
LINE
  8
2
 62
134
  6
CONTINUOUS
 10
145.850314
 20
68.084924
 11
146.367952
 21
68.084924
  0
TEXT
  8
2
 62
134
  6
CONTINUOUS
 10
146.109133
 20
69.848063
 40
4.000000
 41
1.000000
  1
φ7
  7
KANJI
 50
90.000000
 51
0.000000
  0
ENDBLK
  0
BLOCK
  8
2
 62
134
  6
CONTINUOUS
  2
*D18
 70
    65
 10
0.0
 20
0.0
  0
LINE
  8
2
 62
134
  6
CONTINUOUS
 10
114.490380
 20
84.595800
 11
175.862166
 21
84.595800
  0
LINE
  8
2
 62
134
  6
CONTINUOUS
 10
114.490380
 20
85.595800
 11
114.490380
 21
69.886035
  0
LINE
  8
2
 62
134
  6
CONTINUOUS
 10
175.862166
 20
85.595800
 11
175.862166
 21
75.572997
  0
LINE
  8
2
 62
134
  6
CONTINUOUS
 10
114.490380
 20
84.595800
 11
116.422232
 21
85.113438
  0
LINE
  8
2
 62
134
  6
CONTINUOUS
 10
114.490380
 20
84.595800
 11
116.422232
 21
84.078162
  0
LINE
  8
2
 62
134
  6
CONTINUOUS
 10
116.422232
 20
85.113438
 11
116.422232
 21
84.078162
  0
LINE
  8
2
 62
134
  6
CONTINUOUS
 10
114.973343
 20
84.595800
 11
115.939269
 21
84.854619
  0
LINE
  8
2
 62
134
  6
CONTINUOUS
 10
114.973343
 20
84.595800
 11
115.939269
 21
84.336981
  0
LINE
  8
2
 62
134
  6
CONTINUOUS
 10
115.939269
 20
84.854619
 11
115.939269
 21
84.336981
  0
LINE
  8
2
 62
134
  6
CONTINUOUS
 10
175.862166
 20
84.595800
 11
173.930314
 21
84.078162
  0
LINE
  8
2
 62
134
  6
CONTINUOUS
 10
175.862166
 20
84.595800
 11
173.930314
 21
85.113438
  0
LINE
  8
2
 62
134
  6
CONTINUOUS
 10
173.930314
 20
84.078162
 11
173.930314
 21
85.113438
  0
LINE
  8
2
 62
134
  6
CONTINUOUS
 10
175.379203
 20
84.595800
 11
174.413277
 21
84.336981
  0
LINE
  8
2
 62
134
  6
CONTINUOUS
 10
175.379203
 20
84.595800
 11
174.413277
 21
84.854619
  0
LINE
  8
2
 62
134
  6
CONTINUOUS
 10
174.413277
 20
84.336981
 11
174.413277
 21
84.854619
  0
TEXT
  8
2
 62
134
  6
CONTINUOUS
 10
130.974536
 20
84.595800
 40
4.000000
 41
1.000000
  1
ｹｰﾌﾞﾙ長(標準2m)
  7
KANJI
 50
0.000000
 51
0.000000
  0
ENDBLK
  0
BLOCK
  8
2
 62
134
  6
CONTINUOUS
  2
*D19
 70
    65
 10
0.0
 20
0.0
  0
LINE
  8
2
 62
134
  6
CONTINUOUS
 10
70.481417
 20
117.161146
 11
70.481417
 21
140.161146
  0
LINE
  8
2
 62
134
  6
CONTINUOUS
 10
69.481417
 20
117.161146
 11
132.637876
 21
117.161146
  0
LINE
  8
2
 62
134
  6
CONTINUOUS
 10
69.481417
 20
140.161146
 11
73.428886
 21
140.161146
  0
LINE
  8
2
 62
134
  6
CONTINUOUS
 10
70.481417
 20
117.161146
 11
69.963779
 21
119.092998
  0
LINE
  8
2
 62
134
  6
CONTINUOUS
 10
70.481417
 20
117.161146
 11
70.999056
 21
119.092998
  0
LINE
  8
2
 62
134
  6
CONTINUOUS
 10
69.963779
 20
119.092998
 11
70.999056
 21
119.092998
  0
LINE
  8
2
 62
134
  6
CONTINUOUS
 10
70.481417
 20
117.644109
 11
70.222598
 21
118.610035
  0
LINE
  8
2
 62
134
  6
CONTINUOUS
 10
70.481417
 20
117.644109
 11
70.740237
 21
118.610035
  0
LINE
  8
2
 62
134
  6
CONTINUOUS
 10
70.222598
 20
118.610035
 11
70.740237
 21
118.610035
  0
LINE
  8
2
 62
134
  6
CONTINUOUS
 10
70.481417
 20
140.161146
 11
70.999056
 21
138.229295
  0
LINE
  8
2
 62
134
  6
CONTINUOUS
 10
70.481417
 20
140.161146
 11
69.963779
 21
138.229295
  0
LINE
  8
2
 62
134
  6
CONTINUOUS
 10
70.999056
 20
138.229295
 11
69.963779
 21
138.229295
  0
LINE
  8
2
 62
134
  6
CONTINUOUS
 10
70.481417
 20
139.678183
 11
70.740237
 21
138.712257
  0
LINE
  8
2
 62
134
  6
CONTINUOUS
 10
70.481417
 20
139.678183
 11
70.222598
 21
138.712257
  0
LINE
  8
2
 62
134
  6
CONTINUOUS
 10
70.740237
 20
138.712257
 11
70.222598
 21
138.712257
  0
TEXT
  8
2
 62
134
  6
CONTINUOUS
 10
70.481417
 20
127.613214
 40
4.000000
 41
1.000000
  1
23
  7
KANJI
 50
90.000000
 51
0.000000
  0
ENDBLK
  0
BLOCK
  8
2
 62
7
  6
CONTINUOUS
  2
*D20
 70
    65
 10
0.0
 20
0.0
  0
LINE
  8
2
 62
7
  6
CONTINUOUS
 10
79.137876
 20
188.255420
 11
51.964888
 21
188.255420
  0
LINE
  8
2
 62
7
  6
CONTINUOUS
 10
79.137876
 20
189.255420
 11
79.137876
 21
183.661146
  0
LINE
  8
2
 62
7
  6
CONTINUOUS
 10
79.137876
 20
188.255420
 11
77.206025
 21
187.737782
  0
LINE
  8
2
 62
7
  6
CONTINUOUS
 10
79.137876
 20
188.255420
 11
77.206025
 21
188.773058
  0
LINE
  8
2
 62
7
  6
CONTINUOUS
 10
77.206025
 20
187.737782
 11
77.206025
 21
188.773058
  0
LINE
  8
2
 62
7
  6
CONTINUOUS
 10
78.654913
 20
188.255420
 11
77.688988
 21
187.996601
  0
LINE
  8
2
 62
7
  6
CONTINUOUS
 10
78.654913
 20
188.255420
 11
77.688988
 21
188.514239
  0
LINE
  8
2
 62
7
  6
CONTINUOUS
 10
77.688988
 20
187.996601
 11
77.688988
 21
188.514239
  0
TEXT
  8
2
 62
7
  6
CONTINUOUS
 10
57.509431
 20
188.255420
 40
4.000000
 41
1.000000
  1
測定距離
  7
KANJI
 50
0.000000
 51
0.000000
  0
ENDBLK
  0
BLOCK
  8
2
 62
134
  6
CONTINUOUS
  2
*D21
 70
    65
 10
0.0
 20
0.0
  0
LINE
  8
2
 62
134
  6
CONTINUOUS
 10
65.555259
 20
183.161146
 11
65.555259
 21
97.161146
  0
LINE
  8
2
 62
134
  6
CONTINUOUS
 10
64.555259
 20
183.161146
 11
76.637876
 21
183.161146
  0
LINE
  8
2
 62
134
  6
CONTINUOUS
 10
64.555259
 20
97.161146
 11
76.637876
 21
97.161146
  0
LINE
  8
2
 62
134
  6
CONTINUOUS
 10
65.555259
 20
183.161146
 11
66.072897
 21
181.229295
  0
LINE
  8
2
 62
134
  6
CONTINUOUS
 10
65.555259
 20
183.161146
 11
65.037621
 21
181.229295
  0
LINE
  8
2
 62
134
  6
CONTINUOUS
 10
66.072897
 20
181.229295
 11
65.037621
 21
181.229295
  0
LINE
  8
2
 62
134
  6
CONTINUOUS
 10
65.555259
 20
182.678183
 11
65.814078
 21
181.712257
  0
LINE
  8
2
 62
134
  6
CONTINUOUS
 10
65.555259
 20
182.678183
 11
65.296440
 21
181.712257
  0
LINE
  8
2
 62
134
  6
CONTINUOUS
 10
65.814078
 20
181.712257
 11
65.296440
 21
181.712257
  0
LINE
  8
2
 62
134
  6
CONTINUOUS
 10
65.555259
 20
97.161146
 11
65.037621
 21
99.092998
  0
LINE
  8
2
 62
134
  6
CONTINUOUS
 10
65.555259
 20
97.161146
 11
66.072897
 21
99.092998
  0
LINE
  8
2
 62
134
  6
CONTINUOUS
 10
65.037621
 20
99.092998
 11
66.072897
 21
99.092998
  0
LINE
  8
2
 62
134
  6
CONTINUOUS
 10
65.555259
 20
97.644109
 11
65.296440
 21
98.610035
  0
LINE
  8
2
 62
134
  6
CONTINUOUS
 10
65.555259
 20
97.644109
 11
65.814078
 21
98.610035
  0
LINE
  8
2
 62
134
  6
CONTINUOUS
 10
65.296440
 20
98.610035
 11
65.814078
 21
98.610035
  0
TEXT
  8
2
 62
134
  6
CONTINUOUS
 10
65.555259
 20
136.161146
 40
4.000000
 41
1.000000
  1
φ86
  7
KANJI
 50
90.000000
 51
0.000000
  0
ENDBLK
  0
BLOCK
  8
2
 62
134
  6
CONTINUOUS
  2
*D22
 70
    65
 10
0.0
 20
0.0
  0
LINE
  8
2
 62
134
  6
CONTINUOUS
 10
70.137876
 20
167.243681
 11
87.137876
 21
167.243681
  0
LINE
  8
2
 62
134
  6
CONTINUOUS
 10
78.137876
 20
167.243681
 11
76.206025
 21
166.726043
  0
LINE
  8
2
 62
134
  6
CONTINUOUS
 10
78.137876
 20
167.243681
 11
76.206025
 21
167.761320
  0
LINE
  8
2
 62
134
  6
CONTINUOUS
 10
76.206025
 20
166.726043
 11
76.206025
 21
167.761320
  0
LINE
  8
2
 62
134
  6
CONTINUOUS
 10
77.654913
 20
167.243681
 11
76.688988
 21
166.984862
  0
LINE
  8
2
 62
134
  6
CONTINUOUS
 10
77.654913
 20
167.243681
 11
76.688988
 21
167.502500
  0
LINE
  8
2
 62
134
  6
CONTINUOUS
 10
76.688988
 20
166.984862
 11
76.688988
 21
167.502500
  0
LINE
  8
2
 62
134
  6
CONTINUOUS
 10
79.137876
 20
167.243681
 11
81.069728
 21
167.761320
  0
LINE
  8
2
 62
134
  6
CONTINUOUS
 10
79.137876
 20
167.243681
 11
81.069728
 21
166.726043
  0
LINE
  8
2
 62
134
  6
CONTINUOUS
 10
81.069728
 20
167.761320
 11
81.069728
 21
166.726043
  0
LINE
  8
2
 62
134
  6
CONTINUOUS
 10
79.620839
 20
167.243681
 11
80.586765
 21
167.502500
  0
LINE
  8
2
 62
134
  6
CONTINUOUS
 10
79.620839
 20
167.243681
 11
80.586765
 21
166.984862
  0
LINE
  8
2
 62
134
  6
CONTINUOUS
 10
80.586765
 20
167.502500
 11
80.586765
 21
166.984862
  0
TEXT
  8
2
 62
134
  6
CONTINUOUS
 10
81.137876
 20
167.243681
 40
4.000000
 41
1.000000
  1
1
  7
KANJI
 50
0.000000
 51
0.000000
  0
ENDBLK
  0
BLOCK
  8
2
 62
134
  6
CONTINUOUS
  2
*D23
 70
    65
 10
0.0
 20
0.0
  0
LINE
  8
2
 62
134
  6
CONTINUOUS
 10
68.137876
 20
160.667350
 11
86.137876
 21
160.667350
  0
LINE
  8
2
 62
134
  6
CONTINUOUS
 10
76.137876
 20
161.667350
 11
76.137876
 21
155.661145
  0
LINE
  8
2
 62
134
  6
CONTINUOUS
 10
76.137876
 20
160.667350
 11
74.206025
 21
160.149712
  0
LINE
  8
2
 62
134
  6
CONTINUOUS
 10
76.137876
 20
160.667350
 11
74.206025
 21
161.184988
  0
LINE
  8
2
 62
134
  6
CONTINUOUS
 10
74.206025
 20
160.149712
 11
74.206025
 21
161.184988
  0
LINE
  8
2
 62
134
  6
CONTINUOUS
 10
75.654913
 20
160.667350
 11
74.688988
 21
160.408531
  0
LINE
  8
2
 62
134
  6
CONTINUOUS
 10
75.654913
 20
160.667350
 11
74.688988
 21
160.926169
  0
LINE
  8
2
 62
134
  6
CONTINUOUS
 10
74.688988
 20
160.408531
 11
74.688988
 21
160.926169
  0
LINE
  8
2
 62
134
  6
CONTINUOUS
 10
78.137876
 20
160.667350
 11
80.069728
 21
161.184988
  0
LINE
  8
2
 62
134
  6
CONTINUOUS
 10
78.137876
 20
160.667350
 11
80.069728
 21
160.149712
  0
LINE
  8
2
 62
134
  6
CONTINUOUS
 10
80.069728
 20
161.184988
 11
80.069728
 21
160.149712
  0
LINE
  8
2
 62
134
  6
CONTINUOUS
 10
78.620839
 20
160.667350
 11
79.586765
 21
160.926169
  0
LINE
  8
2
 62
134
  6
CONTINUOUS
 10
78.620839
 20
160.667350
 11
79.586765
 21
160.408531
  0
LINE
  8
2
 62
134
  6
CONTINUOUS
 10
79.586765
 20
160.926169
 11
79.586765
 21
160.408531
  0
TEXT
  8
2
 62
134
  6
CONTINUOUS
 10
71.195377
 20
160.667350
 40
4.000000
 41
1.000000
  1
2
  7
KANJI
 50
0.000000
 51
0.000000
  0
ENDBLK
  0
BLOCK
  8
2
 62
134
  6
CONTINUOUS
  2
*D24
 70
    65
 10
0.0
 20
0.0
  0
LINE
  8
2
 62
134
  6
CONTINUOUS
 10
104.264321
 20
125.261146
 11
104.264321
 21
155.061146
  0
LINE
  8
2
 62
134
  6
CONTINUOUS
 10
105.264321
 20
125.261146
 11
86.837876
 21
125.261146
  0
LINE
  8
2
 62
134
  6
CONTINUOUS
 10
105.264321
 20
155.061146
 11
80.837876
 21
155.061146
  0
LINE
  8
2
 62
134
  6
CONTINUOUS
 10
104.264321
 20
125.261146
 11
103.746683
 21
127.192998
  0
LINE
  8
2
 62
134
  6
CONTINUOUS
 10
104.264321
 20
125.261146
 11
104.781960
 21
127.192998
  0
LINE
  8
2
 62
134
  6
CONTINUOUS
 10
103.746683
 20
127.192998
 11
104.781960
 21
127.192998
  0
LINE
  8
2
 62
134
  6
CONTINUOUS
 10
104.264321
 20
125.744109
 11
104.005502
 21
126.710035
  0
LINE
  8
2
 62
134
  6
CONTINUOUS
 10
104.264321
 20
125.744109
 11
104.523141
 21
126.710035
  0
LINE
  8
2
 62
134
  6
CONTINUOUS
 10
104.005502
 20
126.710035
 11
104.523141
 21
126.710035
  0
LINE
  8
2
 62
134
  6
CONTINUOUS
 10
104.264321
 20
155.061146
 11
104.781960
 21
153.129295
  0
LINE
  8
2
 62
134
  6
CONTINUOUS
 10
104.264321
 20
155.061146
 11
103.746683
 21
153.129295
  0
LINE
  8
2
 62
134
  6
CONTINUOUS
 10
104.781960
 20
153.129295
 11
103.746683
 21
153.129295
  0
LINE
  8
2
 62
134
  6
CONTINUOUS
 10
104.264321
 20
154.578183
 11
104.523141
 21
153.612257
  0
LINE
  8
2
 62
134
  6
CONTINUOUS
 10
104.264321
 20
154.578183
 11
104.005502
 21
153.612257
  0
LINE
  8
2
 62
134
  6
CONTINUOUS
 10
104.523141
 20
153.612257
 11
104.005502
 21
153.612257
  0
TEXT
  8
2
 62
134
  6
CONTINUOUS
 10
104.264321
 20
140.165542
 40
4.000000
 41
1.000000
  1
φ29.8
  7
KANJI
 50
90.000000
 51
0.000000
  0
ENDBLK
  0
ENDSEC
  0
SECTION
  2
ENTITIES
  0
LINE
  8
5
 62
7
  6
CONTINUOUS
 10
285.000000
 20
195.000000
 11
10.000000
 21
195.000000
  0
LINE
  8
5
 62
7
  6
CONTINUOUS
 10
10.000000
 20
195.000000
 11
10.000000
 21
10.000000
  0
LINE
  8
5
 62
7
  6
CONTINUOUS
 10
10.000000
 20
10.000000
 11
285.000000
 21
10.000000
  0
LINE
  8
5
 62
7
  6
CONTINUOUS
 10
285.000000
 20
10.000000
 11
285.000000
 21
195.000000
  0
TEXT
  8
5
 62
7
  6
CONTINUOUS
 10
210.962748
 20
25.651490
 40
1.750000
 41
4.000000
  1
製図
  7
KANJI
 50
-90.000000
 51
0.000000
  0
TEXT
  8
5
 62
7
  6
CONTINUOUS
 10
230.795530
 20
25.487583
 40
1.750000
 41
4.000000
  1
図番
  7
KANJI
 50
-90.000000
 51
0.000000
  0
TEXT
  8
5
 62
7
  6
CONTINUOUS
 10
230.795530
 20
38.764073
 40
1.750000
 41
4.000000
  1
図　名
  7
KANJI
 50
-90.000000
 51
0.000000
  0
TEXT
  8
5
 62
7
  6
CONTINUOUS
 10
165.888245
 20
33.355132
 40
1.750000
 41
4.000000
  1
日付
  7
KANJI
 50
-90.000000
 51
0.000000
  0
TEXT
  8
5
 62
7
  6
CONTINUOUS
 10
200.964404
 20
33.519040
 40
1.750000
 41
4.000000
  1
図法
  7
KANJI
 50
-90.000000
 51
0.000000
  0
TEXT
  8
5
 62
7
  6
CONTINUOUS
 10
200.800497
 20
41.550497
 40
1.750000
 41
4.000000
  1
尺度
  7
KANJI
 50
-90.000000
 51
0.000000
  0
TEXT
  8
5
 62
7
  6
CONTINUOUS
 10
165.888245
 20
41.386589
 40
1.750000
 41
4.000000
  1
公差
  7
KANJI
 50
-90.000000
 51
0.000000
  0
TEXT
  8
5
 62
7
  6
CONTINUOUS
 10
165.888245
 20
25.487583
 40
1.750000
 41
4.000000
  1
承認
  7
KANJI
 50
-90.000000
 51
0.000000
  0
TEXT
  8
5
 62
7
  6
CONTINUOUS
 10
190.966060
 20
25.487583
 40
1.750000
 41
4.000000
  1
設計
  7
KANJI
 50
-90.000000
 51
0.000000
  0
TEXT
  8
5
 62
7
  6
CONTINUOUS
 10
184.409768
 20
11.555464
 40
4.500000
 41
1.888889
  1
ジャパンセンサー株式会社
  7
KANJI
 50
0.000000
 51
0.000000
  0
LINE
  8
5
 62
7
  6
CONTINUOUS
 10
165.000000
 20
42.000000
 11
285.000000
 21
42.000000
  0
LINE
  8
5
 62
7
  6
CONTINUOUS
 10
165.000000
 20
10.000000
 11
165.000000
 21
42.000000
  0
LINE
  8
5
 62
7
  6
CONTINUOUS
 10
285.000000
 20
18.000000
 11
165.000000
 21
18.000000
  0
LINE
  8
5
 62
7
  6
CONTINUOUS
 10
230.000000
 20
42.000000
 11
230.000000
 21
18.000000
  0
LINE
  8
5
 62
7
  6
CONTINUOUS
 10
285.000000
 20
26.000000
 11
165.000000
 21
26.000000
  0
LINE
  8
5
 62
7
  6
CONTINUOUS
 10
235.000000
 20
18.000000
 11
235.000000
 21
42.000000
  0
LINE
  8
5
 62
7
  6
CONTINUOUS
 10
205.000000
 20
42.000000
 11
205.000000
 21
26.000000
  0
LINE
  8
5
 62
7
  6
CONTINUOUS
 10
170.000000
 20
18.000000
 11
170.000000
 21
42.000000
  0
LINE
  8
5
 62
7
  6
CONTINUOUS
 10
165.000000
 20
34.000000
 11
230.000000
 21
34.000000
  0
LINE
  8
5
 62
7
  6
CONTINUOUS
 10
200.000000
 20
42.000000
 11
200.000000
 21
26.000000
  0
LINE
  8
5
 62
7
  6
CONTINUOUS
 10
190.000000
 20
18.000000
 11
190.000000
 21
26.000000
  0
LINE
  8
5
 62
7
  6
CONTINUOUS
 10
210.000000
 20
18.000000
 11
210.000000
 21
26.000000
  0
LINE
  8
5
 62
7
  6
CONTINUOUS
 10
195.000000
 20
26.000000
 11
195.000000
 21
18.000000
  0
LINE
  8
5
 62
7
  6
CONTINUOUS
 10
215.000000
 20
26.000000
 11
215.000000
 21
18.000000
  0
TEXT
  8
5
 62
7
  6
CONTINUOUS
 10
209.979305
 20
35.649834
 40
4.000000
 41
1.000000
  1
１／１
  7
KANJI
 50
0.000000
 51
0.000000
  0
TEXT
  8
5
 62
7
  6
CONTINUOUS
 10
208.995861
 20
27.290563
 40
4.000000
 41
1.000000
  1
三角法
  7
KANJI
 50
0.000000
 51
0.000000
  0
LINE
  8
1
 62
7
  6
DASHDOT
 10
45.596506
 20
162.160963
 11
45.596506
 21
156.769833
  0
LINE
  8
1
 62
7
  6
DASHDOT
 10
48.198423
 20
159.591398
 11
42.674029
 21
159.591398
  0
LINE
  8
1
 62
7
  6
DASHDOT
 10
21.196507
 20
162.160963
 11
21.196507
 21
156.769833
  0
LINE
  8
1
 62
7
  6
DASHDOT
 10
23.798424
 20
159.591398
 11
18.274030
 21
159.591398
  0
LINE
  8
1
 62
7
  6
DASHDOT
 10
45.596506
 20
121.766119
 11
45.596506
 21
116.374988
  0
LINE
  8
1
 62
7
  6
DASHDOT
 10
48.198423
 20
119.196554
 11
42.674029
 21
119.196554
  0
LINE
  8
1
 62
7
  6
DASHDOT
 10
21.196507
 20
121.766119
 11
21.196507
 21
116.374988
  0
LINE
  8
1
 62
7
  6
DASHDOT
 10
23.798424
 20
119.196554
 11
18.274030
 21
119.196554
  0
LINE
  8
1
 62
6
  6
CONTINUOUS
 10
48.396507
 20
160.891398
 11
46.896507
 21
162.391398
  0
LINE
  8
1
 62
6
  6
CONTINUOUS
 10
46.896507
 20
162.391398
 11
19.896507
 21
162.391398
  0
LINE
  8
1
 62
6
  6
CONTINUOUS
 10
19.896507
 20
162.391398
 11
18.396507
 21
160.891398
  0
LINE
  8
1
 62
6
  6
CONTINUOUS
 10
48.396507
 20
160.891398
 11
48.396507
 21
117.894723
  0
LINE
  8
1
 62
6
  6
CONTINUOUS
 10
48.396507
 20
117.894723
 11
46.896507
 21
116.394723
  0
LINE
  8
1
 62
6
  6
CONTINUOUS
 10
46.896507
 20
116.394723
 11
19.896507
 21
116.394723
  0
LINE
  8
1
 62
6
  6
CONTINUOUS
 10
18.396507
 20
160.891398
 11
18.396507
 21
117.894723
  0
LINE
  8
1
 62
6
  6
CONTINUOUS
 10
19.896507
 20
116.394723
 11
18.396507
 21
117.894723
  0
LINE
  8
1
 62
6
  6
DASHDOT
 10
33.396507
 20
166.719841
 11
33.396507
 21
115.069528
  0
LINE
  8
1
 62
7
  6
DASHDOT
 10
16.583872
 20
139.394724
 11
52.456052
 21
139.394724
  0
LINE
  8
1
 62
7
  6
DOT
 10
18.396507
 20
159.394724
 11
21.896507
 21
159.394724
  0
LINE
  8
1
 62
7
  6
DOT
 10
21.896507
 20
159.394724
 11
21.896507
 21
153.394724
  0
LINE
  8
1
 62
7
  6
DOT
 10
21.896507
 20
153.394724
 11
18.396507
 21
153.394724
  0
LINE
  8
1
 62
7
  6
DOT
 10
48.396507
 20
158.144724
 11
21.896507
 21
158.144724
  0
LINE
  8
1
 62
7
  6
DOT
 10
48.396507
 20
154.644724
 11
21.896507
 21
154.644724
  0
LINE
  8
1
 62
6
  6
DASHDOT
 10
16.689099
 20
122.394724
 11
49.656040
 21
122.394724
  0
LINE
  8
1
 62
7
  6
DOT
 10
18.396507
 20
125.394724
 11
21.896507
 21
125.394724
  0
LINE
  8
1
 62
7
  6
DOT
 10
21.896507
 20
125.394724
 11
21.896507
 21
119.394724
  0
LINE
  8
1
 62
7
  6
DOT
 10
21.896507
 20
119.394724
 11
18.396507
 21
119.394724
  0
LINE
  8
1
 62
7
  6
DOT
 10
48.396507
 20
120.644724
 11
21.896507
 21
120.644724
  0
LINE
  8
1
 62
7
  6
DOT
 10
48.396507
 20
124.144723
 11
21.896507
 21
124.144723
  0
LINE
  8
1
 62
6
  6
DASHDOT
 10
16.689099
 20
156.394724
 11
49.656040
 21
156.394724
  0
CIRCLE
  8
1
 62
7
  6
CONTINUOUS
 10
21.196507
 20
119.196554
 40
2.000000
  0
CIRCLE
  8
1
 62
7
  6
CONTINUOUS
 10
45.596506
 20
119.196554
 40
2.000000
  0
CIRCLE
  8
1
 62
7
  6
CONTINUOUS
 10
21.196507
 20
159.591398
 40
2.000000
  0
CIRCLE
  8
1
 62
7
  6
CONTINUOUS
 10
45.596506
 20
159.591398
 40
2.000000
  0
CIRCLE
  8
1
 62
7
  6
CONTINUOUS
 10
21.196507
 20
159.591398
 40
1.999980
  0
LINE
  8
1
 62
7
  6
CONTINUOUS
 10
20.196517
 20
159.791396
 11
20.196517
 21
159.391400
  0
LINE
  8
1
 62
7
  6
CONTINUOUS
 10
20.996509
 20
160.591388
 11
21.396505
 21
160.591388
  0
LINE
  8
1
 62
7
  6
CONTINUOUS
 10
22.196497
 20
159.791396
 11
22.196497
 21
159.391400
  0
LINE
  8
1
 62
7
  6
CONTINUOUS
 10
21.396505
 20
158.591408
 11
20.996509
 21
158.591408
  0
LINE
  8
1
 62
7
  6
CONTINUOUS
 10
21.396505
 20
158.791406
 11
21.396505
 21
158.591408
  0
LINE
  8
1
 62
7
  6
CONTINUOUS
 10
22.196497
 20
159.391400
 11
21.996499
 21
159.391400
  0
ARC
  8
1
 62
7
  6
CONTINUOUS
 10
21.996499
 20
158.791406
 40
0.599994
 50
90.000000
 51
180.000000
  0
LINE
  8
1
 62
7
  6
CONTINUOUS
 10
21.996499
 20
159.791396
 11
22.196497
 21
159.791396
  0
LINE
  8
1
 62
7
  6
CONTINUOUS
 10
21.396505
 20
160.591388
 11
21.396505
 21
160.391390
  0
ARC
  8
1
 62
7
  6
CONTINUOUS
 10
21.996499
 20
160.391390
 40
0.599994
 50
180.000000
 51
-90.000000
  0
LINE
  8
1
 62
7
  6
CONTINUOUS
 10
20.196517
 20
159.791396
 11
20.396515
 21
159.791396
  0
LINE
  8
1
 62
7
  6
CONTINUOUS
 10
20.996509
 20
160.391390
 11
20.996509
 21
160.591388
  0
ARC
  8
1
 62
7
  6
CONTINUOUS
 10
20.396515
 20
160.391390
 40
0.599994
 50
-90.000000
 51
0.000000
  0
LINE
  8
1
 62
7
  6
CONTINUOUS
 10
20.396515
 20
159.391400
 11
20.196517
 21
159.391400
  0
LINE
  8
1
 62
7
  6
CONTINUOUS
 10
20.996509
 20
158.591408
 11
20.996509
 21
158.791406
  0
ARC
  8
1
 62
7
  6
CONTINUOUS
 10
20.396515
 20
158.791406
 40
0.599994
 50
0.000000
 51
90.000000
  0
CIRCLE
  8
1
 62
7
  6
CONTINUOUS
 10
45.596506
 20
159.591398
 40
1.999980
  0
LINE
  8
1
 62
7
  6
CONTINUOUS
 10
44.596516
 20
159.791396
 11
44.596516
 21
159.391400
  0
LINE
  8
1
 62
7
  6
CONTINUOUS
 10
45.396508
 20
160.591388
 11
45.796504
 21
160.591388
  0
LINE
  8
1
 62
7
  6
CONTINUOUS
 10
46.596496
 20
159.791396
 11
46.596496
 21
159.391400
  0
LINE
  8
1
 62
7
  6
CONTINUOUS
 10
45.796504
 20
158.591408
 11
45.396508
 21
158.591408
  0
LINE
  8
1
 62
7
  6
CONTINUOUS
 10
45.796504
 20
158.791406
 11
45.796504
 21
158.591408
  0
LINE
  8
1
 62
7
  6
CONTINUOUS
 10
46.596496
 20
159.391400
 11
46.396498
 21
159.391400
  0
ARC
  8
1
 62
7
  6
CONTINUOUS
 10
46.396498
 20
158.791406
 40
0.599994
 50
90.000000
 51
180.000000
  0
LINE
  8
1
 62
7
  6
CONTINUOUS
 10
46.396498
 20
159.791396
 11
46.596496
 21
159.791396
  0
LINE
  8
1
 62
7
  6
CONTINUOUS
 10
45.796504
 20
160.591388
 11
45.796504
 21
160.391390
  0
ARC
  8
1
 62
7
  6
CONTINUOUS
 10
46.396498
 20
160.391390
 40
0.599994
 50
180.000000
 51
-90.000000
  0
LINE
  8
1
 62
7
  6
CONTINUOUS
 10
44.596516
 20
159.791396
 11
44.796514
 21
159.791396
  0
LINE
  8
1
 62
7
  6
CONTINUOUS
 10
45.396508
 20
160.391390
 11
45.396508
 21
160.591388
  0
ARC
  8
1
 62
7
  6
CONTINUOUS
 10
44.796514
 20
160.391390
 40
0.599994
 50
-90.000000
 51
0.000000
  0
LINE
  8
1
 62
7
  6
CONTINUOUS
 10
44.796514
 20
159.391400
 11
44.596516
 21
159.391400
  0
LINE
  8
1
 62
7
  6
CONTINUOUS
 10
45.396508
 20
158.591408
 11
45.396508
 21
158.791406
  0
ARC
  8
1
 62
7
  6
CONTINUOUS
 10
44.796514
 20
158.791406
 40
0.599994
 50
0.000000
 51
90.000000
  0
CIRCLE
  8
1
 62
7
  6
CONTINUOUS
 10
21.196507
 20
119.196554
 40
1.999980
  0
LINE
  8
1
 62
7
  6
CONTINUOUS
 10
20.196517
 20
119.396552
 11
20.196517
 21
118.996556
  0
LINE
  8
1
 62
7
  6
CONTINUOUS
 10
20.996509
 20
120.196544
 11
21.396505
 21
120.196544
  0
LINE
  8
1
 62
7
  6
CONTINUOUS
 10
22.196497
 20
119.396552
 11
22.196497
 21
118.996556
  0
LINE
  8
1
 62
7
  6
CONTINUOUS
 10
21.396505
 20
118.196564
 11
20.996509
 21
118.196564
  0
LINE
  8
1
 62
7
  6
CONTINUOUS
 10
21.396505
 20
118.396562
 11
21.396505
 21
118.196564
  0
LINE
  8
1
 62
7
  6
CONTINUOUS
 10
22.196497
 20
118.996556
 11
21.996499
 21
118.996556
  0
ARC
  8
1
 62
7
  6
CONTINUOUS
 10
21.996499
 20
118.396562
 40
0.599994
 50
90.000000
 51
180.000000
  0
LINE
  8
1
 62
7
  6
CONTINUOUS
 10
21.996499
 20
119.396552
 11
22.196497
 21
119.396552
  0
LINE
  8
1
 62
7
  6
CONTINUOUS
 10
21.396505
 20
120.196544
 11
21.396505
 21
119.996546
  0
ARC
  8
1
 62
7
  6
CONTINUOUS
 10
21.996499
 20
119.996546
 40
0.599994
 50
180.000000
 51
-90.000000
  0
LINE
  8
1
 62
7
  6
CONTINUOUS
 10
20.196517
 20
119.396552
 11
20.396515
 21
119.396552
  0
LINE
  8
1
 62
7
  6
CONTINUOUS
 10
20.996509
 20
119.996546
 11
20.996509
 21
120.196544
  0
ARC
  8
1
 62
7
  6
CONTINUOUS
 10
20.396515
 20
119.996546
 40
0.599994
 50
-90.000000
 51
0.000000
  0
LINE
  8
1
 62
7
  6
CONTINUOUS
 10
20.396515
 20
118.996556
 11
20.196517
 21
118.996556
  0
LINE
  8
1
 62
7
  6
CONTINUOUS
 10
20.996509
 20
118.196564
 11
20.996509
 21
118.396562
  0
ARC
  8
1
 62
7
  6
CONTINUOUS
 10
20.396515
 20
118.396562
 40
0.599994
 50
0.000000
 51
90.000000
  0
CIRCLE
  8
1
 62
7
  6
CONTINUOUS
 10
45.596506
 20
119.196554
 40
1.999980
  0
LINE
  8
1
 62
7
  6
CONTINUOUS
 10
44.596516
 20
119.396552
 11
44.596516
 21
118.996556
  0
LINE
  8
1
 62
7
  6
CONTINUOUS
 10
45.396508
 20
120.196544
 11
45.796504
 21
120.196544
  0
LINE
  8
1
 62
7
  6
CONTINUOUS
 10
46.596496
 20
119.396552
 11
46.596496
 21
118.996556
  0
LINE
  8
1
 62
7
  6
CONTINUOUS
 10
45.796504
 20
118.196564
 11
45.396508
 21
118.196564
  0
LINE
  8
1
 62
7
  6
CONTINUOUS
 10
45.796504
 20
118.396562
 11
45.796504
 21
118.196564
  0
LINE
  8
1
 62
7
  6
CONTINUOUS
 10
46.596496
 20
118.996556
 11
46.396498
 21
118.996556
  0
ARC
  8
1
 62
7
  6
CONTINUOUS
 10
46.396498
 20
118.396562
 40
0.599994
 50
90.000000
 51
180.000000
  0
LINE
  8
1
 62
7
  6
CONTINUOUS
 10
46.396498
 20
119.396552
 11
46.596496
 21
119.396552
  0
LINE
  8
1
 62
7
  6
CONTINUOUS
 10
45.796504
 20
120.196544
 11
45.796504
 21
119.996546
  0
ARC
  8
1
 62
7
  6
CONTINUOUS
 10
46.396498
 20
119.996546
 40
0.599994
 50
180.000000
 51
-90.000000
  0
LINE
  8
1
 62
7
  6
CONTINUOUS
 10
44.596516
 20
119.396552
 11
44.796514
 21
119.396552
  0
LINE
  8
1
 62
7
  6
CONTINUOUS
 10
45.396508
 20
119.996546
 11
45.396508
 21
120.196544
  0
ARC
  8
1
 62
7
  6
CONTINUOUS
 10
44.796514
 20
119.996546
 40
0.599994
 50
-90.000000
 51
0.000000
  0
LINE
  8
1
 62
7
  6
CONTINUOUS
 10
44.796514
 20
118.996556
 11
44.596516
 21
118.996556
  0
LINE
  8
1
 62
7
  6
CONTINUOUS
 10
45.396508
 20
118.196564
 11
45.396508
 21
118.396562
  0
ARC
  8
1
 62
7
  6
CONTINUOUS
 10
44.796514
 20
118.396562
 40
0.599994
 50
0.000000
 51
90.000000
  0
CIRCLE
  8
1
 62
7
  6
CONTINUOUS
 10
33.396507
 20
139.394724
 40
14.899999
  0
CIRCLE
  8
1
 62
7
  6
CONTINUOUS
 10
33.396507
 20
139.394723
 40
11.200000
  0
CIRCLE
  8
1
 62
7
  6
CONTINUOUS
 10
33.396507
 20
139.394724
 40
11.899999
  0
CIRCLE
  8
1
 62
7
  6
CONTINUOUS
 10
33.396507
 20
139.394724
 40
14.199999
  0
LINE
  8
1
 62
7
  6
CONTINUOUS
 10
22.716375
 20
160.891398
 11
44.076638
 21
160.891398
  0
LINE
  8
1
 62
3
  6
CONTINUOUS
 10
19.896507
 20
158.071556
 11
19.896507
 21
120.716422
  0
LINE
  8
1
 62
7
  6
CONTINUOUS
 10
22.714808
 20
117.894723
 11
44.078206
 21
117.894723
  0
LINE
  8
1
 62
7
  6
CONTINUOUS
 10
46.896507
 20
158.071530
 11
46.896507
 21
120.716395
  0
LINE
  8
1
 62
6
  6
CONTINUOUS
 10
241.514361
 20
160.891398
 11
243.014361
 21
162.391398
  0
LINE
  8
1
 62
6
  6
CONTINUOUS
 10
243.014361
 20
162.391398
 11
270.014361
 21
162.391398
  0
LINE
  8
1
 62
6
  6
CONTINUOUS
 10
270.014361
 20
162.391398
 11
271.514361
 21
160.891398
  0
LINE
  8
1
 62
6
  6
CONTINUOUS
 10
241.514361
 20
160.891398
 11
241.514361
 21
117.894723
  0
LINE
  8
1
 62
6
  6
CONTINUOUS
 10
241.514361
 20
117.894723
 11
243.014361
 21
116.394723
  0
LINE
  8
1
 62
6
  6
CONTINUOUS
 10
243.014361
 20
116.394723
 11
270.014361
 21
116.394723
  0
LINE
  8
1
 62
6
  6
CONTINUOUS
 10
271.514361
 20
160.891398
 11
271.514361
 21
117.894723
  0
LINE
  8
1
 62
6
  6
CONTINUOUS
 10
270.014361
 20
116.394723
 11
271.514361
 21
117.894723
  0
LINE
  8
1
 62
7
  6
DOT
 10
271.514361
 20
159.394724
 11
268.014361
 21
159.394724
  0
LINE
  8
1
 62
7
  6
DOT
 10
268.014361
 20
159.394724
 11
268.014361
 21
153.394724
  0
LINE
  8
1
 62
7
  6
DOT
 10
268.014361
 20
153.394724
 11
271.514361
 21
153.394724
  0
LINE
  8
1
 62
7
  6
DOT
 10
241.514361
 20
158.144724
 11
268.014361
 21
158.144724
  0
LINE
  8
1
 62
7
  6
DOT
 10
241.514361
 20
154.644724
 11
268.014361
 21
154.644724
  0
LINE
  8
1
 62
6
  6
DASHDOT
 10
273.221769
 20
122.394724
 11
240.254828
 21
122.394724
  0
LINE
  8
1
 62
7
  6
DOT
 10
271.514361
 20
125.394724
 11
268.014361
 21
125.394724
  0
LINE
  8
1
 62
7
  6
DOT
 10
268.014361
 20
125.394724
 11
268.014361
 21
119.394724
  0
LINE
  8
1
 62
7
  6
DOT
 10
268.014361
 20
119.394724
 11
271.514361
 21
119.394724
  0
LINE
  8
1
 62
7
  6
DOT
 10
241.514361
 20
120.644724
 11
268.014361
 21
120.644724
  0
LINE
  8
1
 62
7
  6
DOT
 10
241.514361
 20
124.144723
 11
268.014361
 21
124.144723
  0
LINE
  8
1
 62
6
  6
DASHDOT
 10
273.221769
 20
156.394724
 11
240.254828
 21
156.394724
  0
LINE
  8
1
 62
7
  6
CONTINUOUS
 10
270.014361
 20
160.891398
 11
243.014361
 21
160.891398
  0
LINE
  8
1
 62
3
  6
CONTINUOUS
 10
270.014361
 20
160.891398
 11
270.014361
 21
117.894723
  0
LINE
  8
1
 62
7
  6
CONTINUOUS
 10
270.014361
 20
117.894723
 11
243.014361
 21
117.894723
  0
LINE
  8
1
 62
7
  6
CONTINUOUS
 10
243.014361
 20
160.891398
 11
243.014361
 21
117.894723
  0
DIMENSION
  8
2
 62
134
  6
CONTINUOUS
  2
*D1
 10
55.010945
 20
116.394723
 11
55.010945
 21
139.394723
 70
     0
  1
46
 13
47.896507
 23
116.394723
 14
47.896507
 24
162.391398
 50
90.000000
  0
TEXT
  8
5
 62
7
  6
CONTINUOUS
 10
239.646523
 20
35.322020
 40
4.000000
 41
1.000000
  1
ＴＭＨＸ外形図
  7
KANJI
 50
0.000000
 51
0.000000
  0
LINE
  8
1
 62
6
  6
CONTINUOUS
 10
181.637876
 20
117.161146
 11
183.137876
 21
118.661146
  0
LINE
  8
1
 62
6
  6
CONTINUOUS
 10
183.137876
 20
118.661146
 11
183.137876
 21
161.654496
  0
LINE
  8
1
 62
6
  6
CONTINUOUS
 10
183.137876
 20
161.654496
 11
181.637876
 21
163.154496
  0
LINE
  8
1
 62
214
  6
CONTINUOUS
 10
141.637876
 20
162.454496
 11
141.637876
 21
163.154496
  0
LINE
  8
1
 62
214
  6
CONTINUOUS
 10
141.637876
 20
117.861145
 11
141.637876
 21
117.161146
  0
LINE
  8
1
 62
7
  6
CONTINUOUS
 10
141.637876
 20
162.454496
 11
141.637876
 21
117.861145
  0
LINE
  8
1
 62
6
  6
CONTINUOUS
 10
141.637876
 20
117.161146
 11
181.637876
 21
117.161146
  0
LINE
  8
1
 62
6
  6
CONTINUOUS
 10
141.637876
 20
163.154496
 11
181.637876
 21
163.154496
  0
LINE
  8
1
 62
7
  6
DASHDOT
 10
147.301488
 20
140.161146
 11
128.107510
 21
140.161146
  0
LINE
  8
1
 62
7
  6
CONTINUOUS
 10
132.137876
 20
161.657821
 11
133.637876
 21
163.157821
  0
LINE
  8
1
 62
7
  6
CONTINUOUS
 10
132.137876
 20
118.661146
 11
133.637876
 21
117.161146
  0
LINE
  8
1
 62
7
  6
CONTINUOUS
 10
132.137876
 20
161.657821
 11
132.137876
 21
118.661146
  0
LINE
  8
1
 62
6
  6
DASHDOT
 10
143.589179
 20
157.657822
 11
135.075221
 21
157.657822
  0
LINE
  8
1
 62
7
  6
CONTINUOUS
 10
141.637876
 20
160.957822
 11
141.637876
 21
160.257822
  0
LINE
  8
1
 62
7
  6
CONTINUOUS
 10
141.637876
 20
163.157821
 11
141.637876
 21
160.257822
  0
LINE
  8
1
 62
6
  6
CONTINUOUS
 10
141.637876
 20
163.157821
 11
133.637876
 21
163.157821
  0
LINE
  8
1
 62
3
  6
CONTINUOUS
 10
141.637876
 20
160.257822
 11
141.637876
 21
123.161145
  0
LINE
  8
1
 62
6
  6
CONTINUOUS
 10
141.637876
 20
117.161146
 11
133.637876
 21
117.161146
  0
LINE
  8
1
 62
7
  6
CONTINUOUS
 10
141.637876
 20
117.161146
 11
141.637876
 21
123.161145
  0
LINE
  8
1
 62
214
  6
DASHDOT
 10
137.137876
 20
120.563438
 11
137.137876
 21
127.152339
  0
CIRCLE
  8
1
 62
7
  6
CONTINUOUS
 10
137.137876
 20
123.161146
 40
1.750000
  0
LINE
  8
1
 62
214
  6
DASHDOT
 10
132.258228
 20
123.161146
 11
141.024733
 21
123.161146
  0
CIRCLE
  8
1
 62
7
  6
DOT
 10
137.137876
 20
123.154495
 40
3.000000
  0
LINE
  8
1
 62
250
  6
CONTINUOUS
 10
132.137876
 20
152.361146
 11
132.137876
 21
154.061146
  0
LINE
  8
1
 62
250
  6
CONTINUOUS
 10
132.137876
 20
140.161146
 11
132.137876
 21
129.561146
  0
LINE
  8
1
 62
250
  6
CONTINUOUS
 10
132.137876
 20
129.661146
 11
132.137876
 21
126.261146
  0
LINE
  8
1
 62
250
  6
CONTINUOUS
 10
132.137876
 20
149.349146
 11
132.137876
 21
151.161146
  0
LINE
  8
1
 62
3
  6
CONTINUOUS
 10
133.637876
 20
160.261147
 11
133.637876
 21
123.164471
  0
LINE
  8
1
 62
3
  6
CONTINUOUS
 10
181.637876
 20
160.257822
 11
181.637876
 21
123.161145
  0
LINE
  8
1
 62
6
  6
CONTINUOUS
 10
133.637876
 20
161.657821
 11
181.637876
 21
161.657821
  0
LINE
  8
1
 62
7
  6
CONTINUOUS
 10
133.637876
 20
161.657821
 11
133.637876
 21
118.661146
  0
LINE
  8
1
 62
6
  6
CONTINUOUS
 10
133.637876
 20
118.661146
 11
181.637876
 21
118.661146
  0
LINE
  8
1
 62
7
  6
CONTINUOUS
 10
181.637876
 20
161.657821
 11
181.637876
 21
118.661146
  0
DIMENSION
  8
2
 62
134
  6
CONTINUOUS
  2
*D2
 10
151.299490
 20
117.161146
 11
151.299490
 21
120.470128
 70
     0
  1
6
 13
142.637876
 23
117.161146
 14
142.024733
 24
123.161146
 50
90.000000
  0
LINE
  8
1
 62
7
  6
DASHDOT
 10
179.137876
 20
161.096351
 11
179.137876
 21
155.885558
  0
CIRCLE
  8
1
 62
7
  6
CONTINUOUS
 10
179.137876
 20
159.161146
 40
1.750000
  0
LINE
  8
1
 62
7
  6
DASHDOT
 10
176.143082
 20
159.161146
 11
182.809455
 21
159.161146
  0
CIRCLE
  8
1
 62
7
  6
DOT
 10
179.137876
 20
159.161146
 40
3.000000
  0
CIRCLE
  8
1
 62
7
  6
DOT
 10
179.137876
 20
159.161146
 40
3.000000
  0
DIMENSION
  8
2
 62
134
  6
CONTINUOUS
  2
*D3
 10
172.038756
 20
117.161146
 11
172.038756
 21
137.877102
 70
     0
  1
42
 13
172.038756
 23
117.161146
 14
175.143082
 24
159.161146
 50
90.000000
  0
DIMENSION
  8
2
 62
134
  6
CONTINUOUS
  2
*D4
 10
132.137876
 20
176.080241
 11
159.199858
 21
176.080241
 70
     0
  1
51
 13
132.137876
 23
162.657821
 14
183.137876
 24
162.654496
 50
0.000000
  0
LINE
  8
1
 62
214
  6
DASHDOT
 10
137.137876
 20
158.758854
 11
137.137876
 21
152.169953
  0
CIRCLE
  8
1
 62
7
  6
CONTINUOUS
 10
137.137876
 20
156.161146
 40
1.750000
  0
LINE
  8
1
 62
214
  6
DASHDOT
 10
132.258228
 20
156.161146
 11
141.024733
 21
156.161146
  0
CIRCLE
  8
1
 62
7
  6
DOT
 10
137.137876
 20
156.167797
 40
3.000000
  0
DIMENSION
  8
2
 62
134
  6
CONTINUOUS
  2
*D5
 10
151.299490
 20
123.161146
 11
151.299490
 21
139.786925
 70
     0
  1
33
 13
142.024733
 23
123.161146
 14
142.024733
 24
156.161146
 50
90.000000
  0
DIMENSION
  8
2
 62
134
  6
CONTINUOUS
  2
*D6
 10
132.137876
 20
168.096716
 11
134.679029
 21
168.096716
 70
     0
  1
5
 13
132.137876
 23
162.657821
 14
137.137876
 24
159.758854
 50
0.000000
  0
DIMENSION
  8
2
 62
134
  6
CONTINUOUS
  2
*D7
 10
137.137876
 20
168.096716
 11
156.633725
 21
168.096716
 70
     0
  1
42
 13
137.137876
 23
159.758854
 14
179.137876
 24
162.096351
 50
0.000000
  0
DIMENSION
  8
2
 62
134
  6
CONTINUOUS
  2
*D8
 10
79.137876
 20
176.080241
 11
107.889208
 21
176.080241
 70
     0
  1
53
 13
79.137876
 23
155.361146
 14
132.137876
 24
162.657821
 50
0.000000
  0
DIMENSION
  8
2
 62
134
  6
CONTINUOUS
  2
*D9
 10
79.137876
 20
182.638138
 11
132.124911
 21
182.638138
 70
     0
  1
104
 13
79.137876
 23
155.361146
 14
183.137876
 24
162.654496
 50
0.000000
  0
LINE
  8
1
 62
7
  6
DASHDOT
 10
177.113228
 20
139.861146
 11
221.413283
 21
139.861146
  0
LINE
  8
1
 62
4
  6
DASHDOT
 10
256.514361
 20
149.861146
 11
256.514361
 21
131.160634
  0
LINE
  8
1
 62
4
  6
DASHDOT
 10
249.143491
 20
139.861146
 11
264.489842
 21
139.861146
  0
CIRCLE
  8
1
 62
7
  6
CONTINUOUS
 10
256.514361
 20
139.861146
 40
3.500000
  0
LINE
  8
1
 62
4
  6
DASHDOT
 10
273.915441
 20
139.861146
 11
238.997446
 21
139.861146
  0
CIRCLE
  8
1
 62
7
  6
CONTINUOUS
 10
256.514361
 20
139.861146
 40
7.437097
  0
CIRCLE
  8
1
 62
7
  6
CONTINUOUS
 10
256.514361
 20
139.861146
 40
7.650000
  0
DIMENSION
  8
2
 62
134
  6
CONTINUOUS
  2
*D10
 10
183.137876
 20
182.638138
 11
205.581310
 21
182.638138
 70
     0
  1
44
 13
183.137876
 23
162.654496
 14
226.737876
 24
147.361146
 50
0.000000
  0
DIMENSION
  8
2
 62
134
  6
CONTINUOUS
  2
*D11
 10
191.672078
 20
132.479295
 11
191.672078
 21
156.874492
 70
     0
  1
φ15
 13
191.672078
 23
132.479295
 14
189.317876
 24
147.261146
 50
90.000000
  0
DIMENSION
  8
2
 62
134
  6
CONTINUOUS
  2
*D12
 10
234.305194
 20
117.161146
 11
234.305194
 21
126.545733
 70
     0
  1
22.7
 13
182.637876
 23
117.161146
 14
234.305194
 24
139.861146
 50
90.000000
  0
DIMENSION
  8
2
 62
134
  6
CONTINUOUS
  2
*D13
 10
18.396507
 20
110.507808
 11
26.213587
 21
110.507808
 70
     0
  1
15
 13
18.396507
 23
116.894723
 14
33.396507
 24
114.069528
 50
0.000000
  0
DIMENSION
  8
2
 62
134
  6
CONTINUOUS
  2
*D14
 10
33.396507
 20
110.507808
 11
41.226651
 21
110.507808
 70
     0
  1
15
 13
33.396507
 23
114.069528
 14
48.396507
 24
116.894723
 50
0.000000
  0
DIMENSION
  8
2
 62
134
  6
CONTINUOUS
  2
*D15
 10
18.396507
 20
105.354069
 11
33.720119
 21
105.354069
 70
     0
  1
30
 13
18.396507
 23
116.894723
 14
48.396507
 24
116.894723
 50
0.000000
  0
LINE
  8
1
 62
7
  6
CONTINUOUS
 10
126.041281
 20
69.219804
 11
122.089464
 21
57.364353
  0
LINE
  8
1
 62
7
  6
CONTINUOUS
 10
128.158326
 20
69.219804
 11
124.206509
 21
57.364353
  0
LINE
  8
1
 62
7
  6
CONTINUOUS
 10
165.863648
 20
63.136035
 11
164.395995
 21
63.136035
  0
LINE
  8
1
 62
7
  6
DASHDOT
 10
126.130403
 20
63.136035
 11
197.708581
 21
63.136035
  0
LINE
  8
1
 62
7
  6
CONTINUOUS
 10
207.420017
 20
53.186035
 11
213.420017
 21
53.186035
  0
LINE
  8
1
 62
7
  6
DASHDOT
 10
204.772071
 20
63.136035
 11
215.766652
 21
63.136035
  0
LINE
  8
1
 62
7
  6
CONTINUOUS
 10
212.120017
 20
71.736035
 11
212.120017
 21
54.536035
  0
LINE
  8
1
 62
7
  6
CONTINUOUS
 10
212.120017
 20
54.536035
 11
208.720017
 21
54.536035
  0
LINE
  8
1
 62
7
  6
CONTINUOUS
 10
208.720017
 20
54.536035
 11
208.720017
 21
71.736035
  0
LINE
  8
1
 62
7
  6
CONTINUOUS
 10
208.720017
 20
71.736035
 11
212.120017
 21
71.736035
  0
DIMENSION
  8
2
 62
134
  6
CONTINUOUS
  2
*D16
 10
213.420017
 20
45.637175
 11
210.420017
 21
45.637175
 70
     0
  1
6
 13
213.420017
 23
52.186035
 14
207.420017
 24
52.186035
 50
180.000000
  0
LINE
  8
1
 62
7
  6
CONTINUOUS
 10
127.347069
 20
66.636035
 11
164.395995
 21
66.636035
  0
LINE
  8
1
 62
7
  6
CONTINUOUS
 10
164.395995
 20
59.636035
 11
124.913736
 21
59.636035
  0
LINE
  8
1
 62
7
  6
CONTINUOUS
 10
164.395995
 20
66.636035
 11
164.395995
 21
59.636035
  0
DIMENSION
  8
2
 62
134
  6
CONTINUOUS
  2
*D17
 10
146.109133
 20
59.636035
 11
146.109133
 21
72.848063
 70
     0
  1
φ7
 13
146.109133
 23
59.636035
 14
146.109133
 24
66.636035
 50
90.000000
  0
LINE
  8
1
 62
7
  6
CONTINUOUS
 10
165.863648
 20
65.936035
 11
164.395995
 21
65.936035
  0
LINE
  8
1
 62
7
  6
CONTINUOUS
 10
165.863648
 20
64.736035
 11
164.395995
 21
64.736035
  0
LINE
  8
1
 62
7
  6
CONTINUOUS
 10
165.863648
 20
65.936035
 11
172.625957
 21
70.736035
  0
LINE
  8
1
 62
7
  6
CONTINUOUS
 10
165.863648
 20
64.736035
 11
172.650449
 21
69.536035
  0
LINE
  8
1
 62
7
  6
CONTINUOUS
 10
165.863648
 20
60.336035
 11
164.395995
 21
60.336035
  0
LINE
  8
1
 62
7
  6
CONTINUOUS
 10
165.863648
 20
61.536035
 11
164.395995
 21
61.536035
  0
LINE
  8
1
 62
7
  6
CONTINUOUS
 10
165.863648
 20
60.336035
 11
172.625957
 21
55.536035
  0
LINE
  8
1
 62
7
  6
CONTINUOUS
 10
165.863648
 20
61.536035
 11
172.650449
 21
56.736035
  0
LINE
  8
1
 62
7
  6
CONTINUOUS
 10
165.863648
 20
64.336035
 11
164.395995
 21
64.336035
  0
LINE
  8
1
 62
7
  6
CONTINUOUS
 10
165.863648
 20
64.336035
 11
172.625957
 21
64.736035
  0
LINE
  8
1
 62
7
  6
CONTINUOUS
 10
165.863648
 20
63.136035
 11
172.650449
 21
63.536035
  0
LINE
  8
1
 62
7
  6
CONTINUOUS
 10
168.912028
 20
66.868721
 11
172.625957
 21
68.736035
  0
LINE
  8
1
 62
7
  6
CONTINUOUS
 10
166.316320
 20
64.362811
 11
172.650449
 21
67.536035
  0
LINE
  8
1
 62
7
  6
CONTINUOUS
 10
169.225525
 20
65.780619
 11
172.625957
 21
66.736035
  0
LINE
  8
1
 62
7
  6
CONTINUOUS
 10
169.176663
 20
64.563531
 11
172.650449
 21
65.536035
  0
LINE
  8
1
 62
7
  6
CONTINUOUS
 10
165.863648
 20
61.936035
 11
164.395995
 21
61.936035
  0
LINE
  8
1
 62
7
  6
CONTINUOUS
 10
165.863648
 20
61.936035
 11
172.625957
 21
61.536035
  0
LINE
  8
1
 62
7
  6
CONTINUOUS
 10
165.863648
 20
63.136035
 11
172.650449
 21
62.736035
  0
LINE
  8
1
 62
7
  6
CONTINUOUS
 10
168.912028
 20
59.403349
 11
172.625957
 21
57.536035
  0
LINE
  8
1
 62
7
  6
CONTINUOUS
 10
166.316320
 20
61.909259
 11
172.650449
 21
58.736035
  0
LINE
  8
1
 62
7
  6
CONTINUOUS
 10
169.225525
 20
60.491451
 11
172.625957
 21
59.536035
  0
LINE
  8
1
 62
7
  6
CONTINUOUS
 10
169.176663
 20
61.708539
 11
172.650449
 21
60.736035
  0
LINE
  8
1
 62
7
  6
CONTINUOUS
 10
207.420017
 20
73.686035
 11
208.720017
 21
73.686035
  0
LINE
  8
1
 62
7
  6
CONTINUOUS
 10
213.420017
 20
73.686035
 11
212.120017
 21
73.686035
  0
LINE
  8
1
 62
7
  6
CONTINUOUS
 10
208.720017
 20
75.886035
 11
207.420017
 21
75.886035
  0
LINE
  8
1
 62
7
  6
CONTINUOUS
 10
212.120017
 20
75.886035
 11
213.420017
 21
75.886035
  0
LINE
  8
1
 62
7
  6
CONTINUOUS
 10
207.420017
 20
75.886035
 11
207.420017
 21
53.186035
  0
LINE
  8
1
 62
7
  6
CONTINUOUS
 10
213.420017
 20
53.186035
 11
213.420017
 21
75.886035
  0
LINE
  8
1
 62
7
  6
CONTINUOUS
 10
210.220017
 20
70.506035
 11
210.220017
 21
69.766035
  0
LINE
  8
1
 62
7
  6
CONTINUOUS
 10
210.220017
 20
69.766035
 11
210.620017
 21
69.766035
  0
LINE
  8
1
 62
7
  6
CONTINUOUS
 10
210.620017
 20
69.766035
 11
210.620017
 21
70.506035
  0
LINE
  8
1
 62
7
  6
CONTINUOUS
 10
210.620017
 20
70.506035
 11
210.220017
 21
70.506035
  0
LINE
  8
1
 62
7
  6
DASHDOT
 10
209.322757
 20
70.136035
 11
211.512387
 21
70.136035
  0
LINE
  8
1
 62
7
  6
CONTINUOUS
 10
210.220017
 20
68.506035
 11
210.220017
 21
67.766035
  0
LINE
  8
1
 62
7
  6
CONTINUOUS
 10
210.220017
 20
67.766035
 11
210.620017
 21
67.766035
  0
LINE
  8
1
 62
7
  6
CONTINUOUS
 10
210.620017
 20
67.766035
 11
210.620017
 21
68.506035
  0
LINE
  8
1
 62
7
  6
CONTINUOUS
 10
210.620017
 20
68.506035
 11
210.220017
 21
68.506035
  0
LINE
  8
1
 62
7
  6
DASHDOT
 10
209.322757
 20
68.136035
 11
211.512387
 21
68.136035
  0
LINE
  8
1
 62
7
  6
CONTINUOUS
 10
210.220017
 20
66.506035
 11
210.220017
 21
65.766035
  0
LINE
  8
1
 62
7
  6
CONTINUOUS
 10
210.220017
 20
65.766035
 11
210.620017
 21
65.766035
  0
LINE
  8
1
 62
7
  6
CONTINUOUS
 10
210.620017
 20
65.766035
 11
210.620017
 21
66.506035
  0
LINE
  8
1
 62
7
  6
CONTINUOUS
 10
210.620017
 20
66.506035
 11
210.220017
 21
66.506035
  0
LINE
  8
1
 62
7
  6
DASHDOT
 10
209.322757
 20
66.136035
 11
211.512387
 21
66.136035
  0
LINE
  8
1
 62
7
  6
CONTINUOUS
 10
210.220017
 20
64.506035
 11
210.220017
 21
63.766035
  0
LINE
  8
1
 62
7
  6
CONTINUOUS
 10
210.220017
 20
63.766035
 11
210.620017
 21
63.766035
  0
LINE
  8
1
 62
7
  6
CONTINUOUS
 10
210.620017
 20
63.766035
 11
210.620017
 21
64.506035
  0
LINE
  8
1
 62
7
  6
CONTINUOUS
 10
210.620017
 20
64.506035
 11
210.220017
 21
64.506035
  0
LINE
  8
1
 62
7
  6
DASHDOT
 10
209.322757
 20
64.136035
 11
211.512387
 21
64.136035
  0
LINE
  8
1
 62
7
  6
CONTINUOUS
 10
210.220017
 20
62.506035
 11
210.220017
 21
61.766035
  0
LINE
  8
1
 62
7
  6
CONTINUOUS
 10
210.220017
 20
61.766035
 11
210.620017
 21
61.766035
  0
LINE
  8
1
 62
7
  6
CONTINUOUS
 10
210.620017
 20
61.766035
 11
210.620017
 21
62.506035
  0
LINE
  8
1
 62
7
  6
CONTINUOUS
 10
210.620017
 20
62.506035
 11
210.220017
 21
62.506035
  0
LINE
  8
1
 62
7
  6
DASHDOT
 10
209.322757
 20
62.136035
 11
211.512387
 21
62.136035
  0
LINE
  8
1
 62
7
  6
CONTINUOUS
 10
210.220017
 20
60.506035
 11
210.220017
 21
59.766035
  0
LINE
  8
1
 62
7
  6
CONTINUOUS
 10
210.220017
 20
59.766035
 11
210.620017
 21
59.766035
  0
LINE
  8
1
 62
7
  6
CONTINUOUS
 10
210.620017
 20
59.766035
 11
210.620017
 21
60.506035
  0
LINE
  8
1
 62
7
  6
CONTINUOUS
 10
210.620017
 20
60.506035
 11
210.220017
 21
60.506035
  0
LINE
  8
1
 62
7
  6
DASHDOT
 10
209.322757
 20
60.136035
 11
211.512387
 21
60.136035
  0
LINE
  8
1
 62
7
  6
CONTINUOUS
 10
210.220017
 20
58.506035
 11
210.220017
 21
57.766035
  0
LINE
  8
1
 62
7
  6
CONTINUOUS
 10
210.220017
 20
57.766035
 11
210.620017
 21
57.766035
  0
LINE
  8
1
 62
7
  6
CONTINUOUS
 10
210.620017
 20
57.766035
 11
210.620017
 21
58.506035
  0
LINE
  8
1
 62
7
  6
CONTINUOUS
 10
210.620017
 20
58.506035
 11
210.220017
 21
58.506035
  0
LINE
  8
1
 62
7
  6
DASHDOT
 10
209.322757
 20
58.136035
 11
211.512387
 21
58.136035
  0
LINE
  8
1
 62
7
  6
CONTINUOUS
 10
210.220017
 20
56.506035
 11
210.220017
 21
55.766035
  0
LINE
  8
1
 62
7
  6
CONTINUOUS
 10
210.220017
 20
55.766035
 11
210.620017
 21
55.766035
  0
LINE
  8
1
 62
7
  6
CONTINUOUS
 10
210.620017
 20
55.766035
 11
210.620017
 21
56.506035
  0
LINE
  8
1
 62
7
  6
CONTINUOUS
 10
210.620017
 20
56.506035
 11
210.220017
 21
56.506035
  0
LINE
  8
1
 62
7
  6
DASHDOT
 10
209.322757
 20
56.136035
 11
211.512387
 21
56.136035
  0
LINE
  8
1
 62
7
  6
CONTINUOUS
 10
208.720017
 20
73.686035
 11
208.720017
 21
77.659127
  0
LINE
  8
1
 62
7
  6
CONTINUOUS
 10
212.120017
 20
73.686035
 11
212.120017
 21
77.659127
  0
LINE
  8
1
 62
7
  6
CONTINUOUS
 10
212.120017
 20
77.659127
 11
208.720017
 21
77.659127
  0
LINE
  8
1
 62
7
  6
DASHDOT
 10
61.595526
 20
63.136035
 11
73.384246
 21
63.136035
  0
LINE
  8
1
 62
4
  6
DASHDOT
 10
57.971573
 20
63.136035
 11
124.013358
 21
63.136035
  0
TEXT
  8
2
 62
7
  6
CONTINUOUS
 10
221.816885
 20
83.151032
 40
3.000000
 41
1.000000
  1
e-CON コネクタ　8ピン
  7
KANJI
 50
0.000000
 51
0.000000
  0
LINE
  8
1
 62
7
  6
DASHDOT
 10
210.420017
 20
80.660946
 11
210.420017
 21
49.339620
  0
LINE
  8
2
 62
134
  6
CONTINUOUS
 10
193.862166
 20
74.572997
 11
220.444256
 21
86.550347
  0
LINE
  8
2
 62
134
  6
CONTINUOUS
 10
220.444256
 20
86.550347
 11
243.558568
 21
86.550347
  0
TEXT
  8
2
 62
134
  6
CONTINUOUS
 10
223.558568
 20
86.550347
 40
4.000000
 41
1.000000
  1
　出力ｺﾈｸﾀ
  7
KANJI
 50
0.000000
 51
0.000000
  0
LINE
  8
2
 62
134
  6
CONTINUOUS
 10
193.862166
 20
74.572997
 11
195.410833
 21
75.838552
  0
LINE
  8
2
 62
134
  6
CONTINUOUS
 10
193.862166
 20
74.572997
 11
195.836128
 21
74.894667
  0
LINE
  8
2
 62
134
  6
CONTINUOUS
 10
195.410833
 20
75.838552
 11
195.836128
 21
74.894667
  0
LINE
  8
2
 62
134
  6
CONTINUOUS
 10
194.302494
 20
74.771400
 11
195.076828
 21
75.404178
  0
LINE
  8
2
 62
134
  6
CONTINUOUS
 10
194.302494
 20
74.771400
 11
195.289476
 21
74.932235
  0
LINE
  8
2
 62
134
  6
CONTINUOUS
 10
195.076828
 20
75.404178
 11
195.289476
 21
74.932235
  0
LINE
  8
1
 62
6
  6
CONTINUOUS
 10
69.390380
 20
40.436035
 11
70.890380
 21
41.936035
  0
LINE
  8
1
 62
6
  6
CONTINUOUS
 10
70.890380
 20
41.936035
 11
70.890380
 21
84.929385
  0
LINE
  8
1
 62
6
  6
CONTINUOUS
 10
70.890380
 20
84.929385
 11
69.390380
 21
86.429385
  0
LINE
  8
1
 62
3
  6
CONTINUOUS
 10
69.390380
 20
83.532711
 11
69.390380
 21
46.436034
  0
LINE
  8
1
 62
7
  6
CONTINUOUS
 10
69.390380
 20
84.932710
 11
69.390380
 21
41.936035
  0
LINE
  8
1
 62
7
  6
DASHDOT
 10
66.890380
 20
84.371240
 11
66.890380
 21
79.160446
  0
CIRCLE
  8
1
 62
7
  6
CONTINUOUS
 10
66.890380
 20
82.436035
 40
1.750000
  0
LINE
  8
1
 62
7
  6
DASHDOT
 10
63.895586
 20
82.436035
 11
70.561959
 21
82.436035
  0
CIRCLE
  8
1
 62
7
  6
DOT
 10
66.890380
 20
82.436035
 40
3.000000
  0
CIRCLE
  8
1
 62
7
  6
DOT
 10
66.890380
 20
82.436035
 40
3.000000
  0
LINE
  8
1
 62
6
  6
CONTINUOUS
 10
59.778819
 20
41.936035
 11
69.390380
 21
41.936035
  0
LINE
  8
1
 62
6
  6
CONTINUOUS
 10
60.081603
 20
40.436035
 11
69.390380
 21
40.436035
  0
LINE
  8
1
 62
6
  6
CONTINUOUS
 10
59.930211
 20
84.932710
 11
69.390380
 21
84.932710
  0
LINE
  8
1
 62
6
  6
CONTINUOUS
 10
59.703122
 20
86.429385
 11
69.390380
 21
86.429385
  0
ARC
  8
1
 62
2
  6
CONTINUOUS
 10
71.090380
 20
70.586035
 40
0.200000
 50
90.000000
 51
180.000000
  0
ARC
  8
1
 62
2
  6
CONTINUOUS
 10
72.290380
 20
70.586035
 40
0.200000
 50
-89.230975
 51
-89.187365
  0
ARC
  8
1
 62
2
  6
CONTINUOUS
 10
72.290380
 20
70.586035
 40
0.200000
 50
-89.143735
 51
-88.819498
  0
ARC
  8
1
 62
2
  6
CONTINUOUS
 10
72.290380
 20
70.586035
 40
0.200000
 50
-88.640266
 51
-84.763088
  0
LINE
  8
1
 62
2
  6
CONTINUOUS
 10
72.671786
 20
62.308311
 11
72.690380
 21
62.308311
  0
LINE
  8
1
 62
2
  6
CONTINUOUS
 10
72.488580
 20
60.749106
 11
72.490683
 21
60.749106
  0
LINE
  8
1
 62
2
  6
CONTINUOUS
 10
72.488580
 20
60.664895
 11
72.490499
 21
60.664895
  0
LINE
  8
1
 62
2
  6
CONTINUOUS
 10
72.290380
 20
70.786035
 11
71.090380
 21
70.786035
  0
LINE
  8
1
 62
2
  6
CONTINUOUS
 10
72.290380
 20
55.486035
 11
71.090380
 21
55.486035
  0
LINE
  8
1
 62
2
  6
CONTINUOUS
 10
72.488580
 20
60.743311
 11
72.490671
 21
60.743311
  0
LINE
  8
1
 62
2
  6
CONTINUOUS
 10
72.671735
 20
62.306035
 11
72.690380
 21
62.306035
  0
ARC
  8
1
 62
2
  6
CONTINUOUS
 10
72.690380
 20
56.536035
 40
0.200000
 50
90.000000
 51
180.000000
  0
ARC
  8
1
 62
2
  6
CONTINUOUS
 10
72.690380
 20
69.736035
 40
0.200000
 50
180.000000
 51
-90.000000
  0
ARC
  8
1
 62
2
  6
CONTINUOUS
 10
72.290380
 20
55.686035
 40
0.200000
 50
83.421437
 51
84.763088
  0
ARC
  8
1
 62
2
  6
CONTINUOUS
 10
72.290380
 20
55.686035
 40
0.200000
 50
-90.000000
 51
0.000000
  0
ARC
  8
1
 62
2
  6
CONTINUOUS
 10
72.290380
 20
70.586035
 40
0.200000
 50
7.692308
 51
90.000000
  0
LINE
  8
1
 62
2
  6
CONTINUOUS
 10
70.890380
 20
55.686035
 11
70.890380
 21
55.939888
  0
ARC
  8
1
 62
2
  6
CONTINUOUS
 10
71.090380
 20
55.686035
 40
0.200000
 50
180.000000
 51
-90.000000
  0
LINE
  8
1
 62
2
  6
CONTINUOUS
 10
72.290380
 20
55.486035
 11
71.090380
 21
55.486035
  0
LINE
  8
1
 62
2
  6
CONTINUOUS
 10
72.290380
 20
70.786035
 11
71.090380
 21
70.786035
  0
LINE
  8
1
 62
2
  6
CONTINUOUS
 10
70.890380
 20
58.533098
 11
70.890380
 21
58.600762
  0
LINE
  8
1
 62
2
  6
CONTINUOUS
 10
72.490380
 20
70.586035
 11
72.490380
 21
55.686035
  0
LINE
  8
1
 62
2
  6
CONTINUOUS
 10
72.490380
 20
57.420267
 11
72.490380
 21
57.868090
  0
LINE
  8
1
 62
2
  6
CONTINUOUS
 10
70.890380
 20
55.686035
 11
70.890380
 21
70.586035
  0
LINE
  8
1
 62
2
  6
CONTINUOUS
 10
70.890380
 20
55.939888
 11
70.890380
 21
55.686035
  0
LINE
  8
1
 62
2
  6
CONTINUOUS
 10
72.690380
 20
69.536035
 11
72.690380
 21
56.736035
  0
LINE
  8
1
 62
2
  6
CONTINUOUS
 10
71.090380
 20
70.786035
 11
71.090380
 21
55.486035
  0
LINE
  8
1
 62
2
  6
CONTINUOUS
 10
72.290380
 20
70.786035
 11
72.290380
 21
55.486035
  0
ARC
  8
1
 62
2
  6
CONTINUOUS
 10
72.290380
 20
70.586035
 40
0.200000
 50
-9.731036
 51
90.000000
  0
LINE
  8
1
 62
2
  6
CONTINUOUS
 10
73.470380
 20
69.536035
 11
72.690380
 21
69.536035
  0
LINE
  8
1
 62
2
  6
CONTINUOUS
 10
73.470380
 20
56.736035
 11
72.690380
 21
56.736035
  0
LINE
  8
1
 62
2
  6
CONTINUOUS
 10
73.470380
 20
56.736035
 11
72.690380
 21
56.736035
  0
LINE
  8
1
 62
2
  6
CONTINUOUS
 10
73.470380
 20
69.536035
 11
72.690380
 21
69.536035
  0
LINE
  8
1
 62
2
  6
CONTINUOUS
 10
81.720380
 20
70.036035
 11
81.220380
 21
69.536035
  0
LINE
  8
1
 62
2
  6
CONTINUOUS
 10
81.720380
 20
56.236035
 11
81.220380
 21
56.736035
  0
LINE
  8
1
 62
2
  6
CONTINUOUS
 10
72.890380
 20
58.361035
 11
73.470380
 21
58.361035
  0
LINE
  8
1
 62
2
  6
CONTINUOUS
 10
85.220380
 20
70.036035
 11
81.720380
 21
70.036035
  0
LINE
  8
1
 62
2
  6
CONTINUOUS
 10
72.890380
 20
58.361035
 11
72.690380
 21
58.561035
  0
LINE
  8
1
 62
2
  6
CONTINUOUS
 10
100.720380
 20
69.386035
 11
102.990380
 21
69.386035
  0
LINE
  8
1
 62
2
  6
CONTINUOUS
 10
100.720380
 20
56.886035
 11
102.990380
 21
56.886035
  0
LINE
  8
1
 62
2
  6
CONTINUOUS
 10
85.220380
 20
56.236035
 11
81.720380
 21
56.236035
  0
LINE
  8
1
 62
2
  6
CONTINUOUS
 10
85.220380
 20
70.036035
 11
100.720380
 21
69.386035
  0
LINE
  8
1
 62
2
  6
CONTINUOUS
 10
85.220380
 20
56.236035
 11
100.720380
 21
56.886035
  0
LINE
  8
1
 62
2
  6
CONTINUOUS
 10
113.790380
 20
55.936035
 11
114.490380
 21
56.636035
  0
LINE
  8
1
 62
2
  6
CONTINUOUS
 10
113.790380
 20
70.336035
 11
114.490380
 21
69.636035
  0
LINE
  8
1
 62
2
  6
CONTINUOUS
 10
72.890380
 20
58.361035
 11
73.470380
 21
58.361035
  0
LINE
  8
1
 62
2
  6
CONTINUOUS
 10
80.920380
 20
70.536035
 11
81.220380
 21
70.236035
  0
LINE
  8
1
 62
2
  6
CONTINUOUS
 10
72.890380
 20
58.361035
 11
72.690380
 21
58.561035
  0
LINE
  8
1
 62
2
  6
CONTINUOUS
 10
73.770380
 20
70.536035
 11
73.470380
 21
70.236035
  0
LINE
  8
1
 62
2
  6
CONTINUOUS
 10
80.920380
 20
70.536035
 11
77.070380
 21
70.536035
  0
LINE
  8
1
 62
2
  6
CONTINUOUS
 10
76.070380
 20
70.536035
 11
73.770380
 21
70.536035
  0
LINE
  8
1
 62
2
  6
CONTINUOUS
 10
73.486763
 20
56.036035
 11
73.470380
 21
56.036035
  0
LINE
  8
1
 62
2
  6
CONTINUOUS
 10
81.220380
 20
56.036035
 11
81.204115
 21
56.036035
  0
LINE
  8
1
 62
2
  6
CONTINUOUS
 10
85.220380
 20
56.236035
 11
81.720380
 21
56.236035
  0
LINE
  8
1
 62
2
  6
CONTINUOUS
 10
81.720380
 20
56.236035
 11
81.220380
 21
56.736035
  0
LINE
  8
1
 62
2
  6
CONTINUOUS
 10
81.720380
 20
70.036035
 11
81.220380
 21
69.536035
  0
LINE
  8
1
 62
2
  6
CONTINUOUS
 10
85.220380
 20
70.036035
 11
81.720380
 21
70.036035
  0
LINE
  8
1
 62
2
  6
CONTINUOUS
 10
85.220380
 20
56.236035
 11
100.720380
 21
56.886035
  0
LINE
  8
1
 62
2
  6
CONTINUOUS
 10
85.220380
 20
70.036035
 11
100.720380
 21
69.386035
  0
LINE
  8
1
 62
2
  6
CONTINUOUS
 10
100.720380
 20
56.886035
 11
102.990380
 21
56.886035
  0
LINE
  8
1
 62
2
  6
CONTINUOUS
 10
100.720380
 20
69.386035
 11
102.990380
 21
69.386035
  0
LINE
  8
1
 62
2
  6
CONTINUOUS
 10
113.790380
 20
70.336035
 11
114.490380
 21
69.636035
  0
LINE
  8
1
 62
2
  6
CONTINUOUS
 10
113.790380
 20
55.936035
 11
114.490380
 21
56.636035
  0
LINE
  8
1
 62
2
  6
CONTINUOUS
 10
114.490380
 20
69.636035
 11
114.490380
 21
56.636035
  0
LINE
  8
1
 62
2
  6
CONTINUOUS
 10
113.490380
 20
70.061412
 11
103.290380
 21
70.061412
  0
LINE
  8
1
 62
2
  6
CONTINUOUS
 10
113.490380
 20
69.092087
 11
113.581806
 21
69.106719
  0
LINE
  8
1
 62
2
  6
CONTINUOUS
 10
113.581806
 20
69.106719
 11
113.620630
 21
69.118881
  0
LINE
  8
1
 62
2
  6
CONTINUOUS
 10
113.620630
 20
69.118881
 11
113.678465
 21
69.147409
  0
LINE
  8
1
 62
2
  6
CONTINUOUS
 10
113.678465
 20
69.147409
 11
113.691625
 21
69.156398
  0
LINE
  8
1
 62
2
  6
CONTINUOUS
 10
113.691625
 20
69.156398
 11
113.761748
 21
69.238343
  0
LINE
  8
1
 62
2
  6
CONTINUOUS
 10
113.761748
 20
69.238343
 11
113.766445
 21
69.248197
  0
LINE
  8
1
 62
2
  6
CONTINUOUS
 10
113.766445
 20
69.248197
 11
113.787608
 21
69.325810
  0
LINE
  8
1
 62
2
  6
CONTINUOUS
 10
113.787608
 20
69.325810
 11
113.789861
 21
69.351231
  0
LINE
  8
1
 62
2
  6
CONTINUOUS
 10
113.789861
 20
69.351231
 11
113.790380
 21
69.371440
  0
LINE
  8
1
 62
2
  6
CONTINUOUS
 10
113.790380
 20
69.371440
 11
113.775039
 21
69.493290
  0
LINE
  8
1
 62
2
  6
CONTINUOUS
 10
113.775039
 20
69.493290
 11
113.766443
 21
69.526793
  0
LINE
  8
1
 62
2
  6
CONTINUOUS
 10
113.766443
 20
69.526793
 11
113.728363
 21
69.636895
  0
LINE
  8
1
 62
2
  6
CONTINUOUS
 10
113.728363
 20
69.636895
 11
113.717782
 21
69.662238
  0
LINE
  8
1
 62
2
  6
CONTINUOUS
 10
113.717782
 20
69.662238
 11
113.678465
 21
69.746665
  0
LINE
  8
1
 62
2
  6
CONTINUOUS
 10
113.678465
 20
69.746665
 11
113.620631
 21
69.854262
  0
LINE
  8
1
 62
2
  6
CONTINUOUS
 10
113.620631
 20
69.854262
 11
113.619942
 21
69.855465
  0
LINE
  8
1
 62
2
  6
CONTINUOUS
 10
113.619942
 20
69.855465
 11
113.490380
 21
70.061412
  0
LINE
  8
1
 62
2
  6
CONTINUOUS
 10
113.490380
 20
69.092087
 11
103.290380
 21
69.092087
  0
LINE
  8
1
 62
2
  6
CONTINUOUS
 10
102.990380
 20
69.371418
 11
102.990901
 21
69.351191
  0
LINE
  8
1
 62
2
  6
CONTINUOUS
 10
102.990901
 20
69.351191
 11
103.019023
 21
69.238322
  0
LINE
  8
1
 62
2
  6
CONTINUOUS
 10
103.019023
 20
69.238322
 11
103.034827
 21
69.211719
  0
LINE
  8
1
 62
2
  6
CONTINUOUS
 10
103.034827
 20
69.211719
 11
103.089122
 21
69.156407
  0
LINE
  8
1
 62
2
  6
CONTINUOUS
 10
103.089122
 20
69.156407
 11
103.123401
 21
69.135191
  0
LINE
  8
1
 62
2
  6
CONTINUOUS
 10
103.123401
 20
69.135191
 11
103.178386
 21
69.112606
  0
LINE
  8
1
 62
2
  6
CONTINUOUS
 10
103.178386
 20
69.112606
 11
103.198957
 21
69.106718
  0
LINE
  8
1
 62
2
  6
CONTINUOUS
 10
103.198957
 20
69.106718
 11
103.290380
 21
69.092087
  0
LINE
  8
1
 62
2
  6
CONTINUOUS
 10
103.290380
 20
70.061412
 11
103.234146
 21
69.976148
  0
LINE
  8
1
 62
2
  6
CONTINUOUS
 10
103.234146
 20
69.976148
 11
103.178385
 21
69.885624
  0
LINE
  8
1
 62
2
  6
CONTINUOUS
 10
103.178385
 20
69.885624
 11
103.178010
 21
69.884991
  0
LINE
  8
1
 62
2
  6
CONTINUOUS
 10
103.178010
 20
69.884991
 11
103.160828
 21
69.855481
  0
LINE
  8
1
 62
2
  6
CONTINUOUS
 10
103.160828
 20
69.855481
 11
103.123399
 21
69.787663
  0
LINE
  8
1
 62
2
  6
CONTINUOUS
 10
103.123399
 20
69.787663
 11
103.069899
 21
69.678089
  0
LINE
  8
1
 62
2
  6
CONTINUOUS
 10
103.069899
 20
69.678089
 11
103.062991
 21
69.662266
  0
LINE
  8
1
 62
2
  6
CONTINUOUS
 10
103.062991
 20
69.662266
 11
103.005728
 21
69.493319
  0
LINE
  8
1
 62
2
  6
CONTINUOUS
 10
103.005728
 20
69.493319
 11
102.990380
 21
69.371418
  0
LINE
  8
1
 62
2
  6
CONTINUOUS
 10
113.490380
 20
67.694044
 11
103.290380
 21
67.694044
  0
LINE
  8
1
 62
2
  6
CONTINUOUS
 10
113.490380
 20
66.015123
 11
113.535333
 21
66.060164
  0
LINE
  8
1
 62
2
  6
CONTINUOUS
 10
113.535333
 20
66.060164
 11
113.557399
 21
66.084599
  0
LINE
  8
1
 62
2
  6
CONTINUOUS
 10
113.557399
 20
66.084599
 11
113.620630
 21
66.165659
  0
LINE
  8
1
 62
2
  6
CONTINUOUS
 10
113.620630
 20
66.165659
 11
113.658100
 21
66.224200
  0
LINE
  8
1
 62
2
  6
CONTINUOUS
 10
113.658100
 20
66.224200
 11
113.678465
 21
66.260723
  0
LINE
  8
1
 62
2
  6
CONTINUOUS
 10
113.678465
 20
66.260723
 11
113.728365
 21
66.372659
  0
LINE
  8
1
 62
2
  6
CONTINUOUS
 10
113.728365
 20
66.372659
 11
113.742220
 21
66.412992
  0
LINE
  8
1
 62
2
  6
CONTINUOUS
 10
113.742220
 20
66.412992
 11
113.785000
 21
66.623608
  0
LINE
  8
1
 62
2
  6
CONTINUOUS
 10
113.785000
 20
66.623608
 11
113.790380
 21
66.736039
  0
LINE
  8
1
 62
2
  6
CONTINUOUS
 10
113.790380
 20
66.736039
 11
113.785000
 21
66.852630
  0
LINE
  8
1
 62
2
  6
CONTINUOUS
 10
113.785000
 20
66.852630
 11
113.742220
 21
67.096488
  0
LINE
  8
1
 62
2
  6
CONTINUOUS
 10
113.742220
 20
67.096488
 11
113.728363
 21
67.147635
  0
LINE
  8
1
 62
2
  6
CONTINUOUS
 10
113.728363
 20
67.147635
 11
113.678465
 21
67.298664
  0
LINE
  8
1
 62
2
  6
CONTINUOUS
 10
113.678465
 20
67.298664
 11
113.658100
 21
67.351221
  0
LINE
  8
1
 62
2
  6
CONTINUOUS
 10
113.658100
 20
67.351221
 11
113.620631
 21
67.439377
  0
LINE
  8
1
 62
2
  6
CONTINUOUS
 10
113.620631
 20
67.439377
 11
113.557399
 21
67.570762
  0
LINE
  8
1
 62
2
  6
CONTINUOUS
 10
113.557399
 20
67.570762
 11
113.535333
 21
67.612860
  0
LINE
  8
1
 62
2
  6
CONTINUOUS
 10
113.535333
 20
67.612860
 11
113.490380
 21
67.694044
  0
LINE
  8
1
 62
2
  6
CONTINUOUS
 10
113.490380
 20
66.015123
 11
103.290380
 21
66.015123
  0
LINE
  8
1
 62
2
  6
CONTINUOUS
 10
102.990380
 20
66.736035
 11
102.995770
 21
66.623506
  0
LINE
  8
1
 62
2
  6
CONTINUOUS
 10
102.995770
 20
66.623506
 11
103.034835
 21
66.424885
  0
LINE
  8
1
 62
2
  6
CONTINUOUS
 10
103.034835
 20
66.424885
 11
103.038540
 21
66.412992
  0
LINE
  8
1
 62
2
  6
CONTINUOUS
 10
103.038540
 20
66.412992
 11
103.122686
 21
66.224156
  0
LINE
  8
1
 62
2
  6
CONTINUOUS
 10
103.122686
 20
66.224156
 11
103.123401
 21
66.222942
  0
LINE
  8
1
 62
2
  6
CONTINUOUS
 10
103.123401
 20
66.222942
 11
103.178386
 21
66.140306
  0
LINE
  8
1
 62
2
  6
CONTINUOUS
 10
103.178386
 20
66.140306
 11
103.234146
 21
66.072445
  0
LINE
  8
1
 62
2
  6
CONTINUOUS
 10
103.234146
 20
66.072445
 11
103.245426
 21
66.060165
  0
LINE
  8
1
 62
2
  6
CONTINUOUS
 10
103.245426
 20
66.060165
 11
103.290380
 21
66.015123
  0
LINE
  8
1
 62
2
  6
CONTINUOUS
 10
103.290380
 20
67.694044
 11
103.245426
 21
67.612857
  0
LINE
  8
1
 62
2
  6
CONTINUOUS
 10
103.245426
 20
67.612857
 11
103.234146
 21
67.591541
  0
LINE
  8
1
 62
2
  6
CONTINUOUS
 10
103.234146
 20
67.591541
 11
103.178385
 21
67.479215
  0
LINE
  8
1
 62
2
  6
CONTINUOUS
 10
103.178385
 20
67.479215
 11
103.123399
 21
67.353059
  0
LINE
  8
1
 62
2
  6
CONTINUOUS
 10
103.123399
 20
67.353059
 11
103.122684
 21
67.351282
  0
LINE
  8
1
 62
2
  6
CONTINUOUS
 10
103.122684
 20
67.351282
 11
103.038540
 21
67.096488
  0
LINE
  8
1
 62
2
  6
CONTINUOUS
 10
103.038540
 20
67.096488
 11
103.034835
 21
67.081709
  0
LINE
  8
1
 62
2
  6
CONTINUOUS
 10
103.034835
 20
67.081709
 11
102.995770
 21
66.852738
  0
LINE
  8
1
 62
2
  6
CONTINUOUS
 10
102.995770
 20
66.852738
 11
102.990380
 21
66.736035
  0
LINE
  8
1
 62
2
  6
CONTINUOUS
 10
113.490380
 20
60.256947
 11
103.290380
 21
60.256947
  0
LINE
  8
1
 62
2
  6
CONTINUOUS
 10
113.490380
 20
58.578026
 11
113.535333
 21
58.659210
  0
LINE
  8
1
 62
2
  6
CONTINUOUS
 10
113.535333
 20
58.659210
 11
113.557399
 21
58.701309
  0
LINE
  8
1
 62
2
  6
CONTINUOUS
 10
113.557399
 20
58.701309
 11
113.620630
 21
58.832691
  0
LINE
  8
1
 62
2
  6
CONTINUOUS
 10
113.620630
 20
58.832691
 11
113.658100
 21
58.920849
  0
LINE
  8
1
 62
2
  6
CONTINUOUS
 10
113.658100
 20
58.920849
 11
113.678465
 21
58.973406
  0
LINE
  8
1
 62
2
  6
CONTINUOUS
 10
113.678465
 20
58.973406
 11
113.728365
 21
59.124440
  0
LINE
  8
1
 62
2
  6
CONTINUOUS
 10
113.728365
 20
59.124440
 11
113.742220
 21
59.175582
  0
LINE
  8
1
 62
2
  6
CONTINUOUS
 10
113.742220
 20
59.175582
 11
113.785000
 21
59.419441
  0
LINE
  8
1
 62
2
  6
CONTINUOUS
 10
113.785000
 20
59.419441
 11
113.790380
 21
59.536039
  0
LINE
  8
1
 62
2
  6
CONTINUOUS
 10
113.790380
 20
59.536039
 11
113.785000
 21
59.648463
  0
LINE
  8
1
 62
2
  6
CONTINUOUS
 10
113.785000
 20
59.648463
 11
113.742220
 21
59.859078
  0
LINE
  8
1
 62
2
  6
CONTINUOUS
 10
113.742220
 20
59.859078
 11
113.728363
 21
59.899415
  0
LINE
  8
1
 62
2
  6
CONTINUOUS
 10
113.728363
 20
59.899415
 11
113.678465
 21
60.011347
  0
LINE
  8
1
 62
2
  6
CONTINUOUS
 10
113.678465
 20
60.011347
 11
113.658100
 21
60.047870
  0
LINE
  8
1
 62
2
  6
CONTINUOUS
 10
113.658100
 20
60.047870
 11
113.620631
 21
60.106410
  0
LINE
  8
1
 62
2
  6
CONTINUOUS
 10
113.620631
 20
60.106410
 11
113.557399
 21
60.187471
  0
LINE
  8
1
 62
2
  6
CONTINUOUS
 10
113.557399
 20
60.187471
 11
113.535333
 21
60.211907
  0
LINE
  8
1
 62
2
  6
CONTINUOUS
 10
113.535333
 20
60.211907
 11
113.490380
 21
60.256947
  0
LINE
  8
1
 62
2
  6
CONTINUOUS
 10
113.490380
 20
58.578026
 11
103.290380
 21
58.578026
  0
LINE
  8
1
 62
2
  6
CONTINUOUS
 10
102.990380
 20
59.536035
 11
102.995770
 21
59.419332
  0
LINE
  8
1
 62
2
  6
CONTINUOUS
 10
102.995770
 20
59.419332
 11
103.034835
 21
59.190362
  0
LINE
  8
1
 62
2
  6
CONTINUOUS
 10
103.034835
 20
59.190362
 11
103.038540
 21
59.175582
  0
LINE
  8
1
 62
2
  6
CONTINUOUS
 10
103.038540
 20
59.175582
 11
103.122686
 21
58.920785
  0
LINE
  8
1
 62
2
  6
CONTINUOUS
 10
103.122686
 20
58.920785
 11
103.123401
 21
58.919007
  0
LINE
  8
1
 62
2
  6
CONTINUOUS
 10
103.123401
 20
58.919007
 11
103.178386
 21
58.792853
  0
LINE
  8
1
 62
2
  6
CONTINUOUS
 10
103.178386
 20
58.792853
 11
103.234146
 21
58.680528
  0
LINE
  8
1
 62
2
  6
CONTINUOUS
 10
103.234146
 20
58.680528
 11
103.245426
 21
58.659213
  0
LINE
  8
1
 62
2
  6
CONTINUOUS
 10
103.245426
 20
58.659213
 11
103.290380
 21
58.578026
  0
LINE
  8
1
 62
2
  6
CONTINUOUS
 10
103.290380
 20
60.256947
 11
103.245426
 21
60.211905
  0
LINE
  8
1
 62
2
  6
CONTINUOUS
 10
103.245426
 20
60.211905
 11
103.234146
 21
60.199625
  0
LINE
  8
1
 62
2
  6
CONTINUOUS
 10
103.234146
 20
60.199625
 11
103.178385
 21
60.131762
  0
LINE
  8
1
 62
2
  6
CONTINUOUS
 10
103.178385
 20
60.131762
 11
103.123399
 21
60.049125
  0
LINE
  8
1
 62
2
  6
CONTINUOUS
 10
103.123399
 20
60.049125
 11
103.122684
 21
60.047912
  0
LINE
  8
1
 62
2
  6
CONTINUOUS
 10
103.122684
 20
60.047912
 11
103.038540
 21
59.859078
  0
LINE
  8
1
 62
2
  6
CONTINUOUS
 10
103.038540
 20
59.859078
 11
103.034835
 21
59.847185
  0
LINE
  8
1
 62
2
  6
CONTINUOUS
 10
103.034835
 20
59.847185
 11
102.995770
 21
59.648564
  0
LINE
  8
1
 62
2
  6
CONTINUOUS
 10
102.995770
 20
59.648564
 11
102.990380
 21
59.536035
  0
LINE
  8
1
 62
2
  6
CONTINUOUS
 10
113.490380
 20
56.210658
 11
103.290380
 21
56.210658
  0
LINE
  8
1
 62
2
  6
CONTINUOUS
 10
102.990380
 20
56.900652
 11
103.005728
 21
56.778751
  0
LINE
  8
1
 62
2
  6
CONTINUOUS
 10
103.005728
 20
56.778751
 11
103.062990
 21
56.609804
  0
LINE
  8
1
 62
2
  6
CONTINUOUS
 10
103.062990
 20
56.609804
 11
103.069900
 21
56.593979
  0
LINE
  8
1
 62
2
  6
CONTINUOUS
 10
103.069900
 20
56.593979
 11
103.123401
 21
56.484404
  0
LINE
  8
1
 62
2
  6
CONTINUOUS
 10
103.123401
 20
56.484404
 11
103.160828
 21
56.416589
  0
LINE
  8
1
 62
2
  6
CONTINUOUS
 10
103.160828
 20
56.416589
 11
103.178011
 21
56.387077
  0
LINE
  8
1
 62
2
  6
CONTINUOUS
 10
103.178011
 20
56.387077
 11
103.178386
 21
56.386444
  0
LINE
  8
1
 62
2
  6
CONTINUOUS
 10
103.178386
 20
56.386444
 11
103.234146
 21
56.295922
  0
LINE
  8
1
 62
2
  6
CONTINUOUS
 10
103.234146
 20
56.295922
 11
103.290380
 21
56.210658
  0
LINE
  8
1
 62
2
  6
CONTINUOUS
 10
103.290380
 20
57.179983
 11
103.198957
 21
57.165352
  0
LINE
  8
1
 62
2
  6
CONTINUOUS
 10
103.198957
 20
57.165352
 11
103.178385
 21
57.159464
  0
LINE
  8
1
 62
2
  6
CONTINUOUS
 10
103.178385
 20
57.159464
 11
103.123399
 21
57.136879
  0
LINE
  8
1
 62
2
  6
CONTINUOUS
 10
103.123399
 20
57.136879
 11
103.089122
 21
57.115663
  0
LINE
  8
1
 62
2
  6
CONTINUOUS
 10
103.089122
 20
57.115663
 11
103.034827
 21
57.060351
  0
LINE
  8
1
 62
2
  6
CONTINUOUS
 10
103.034827
 20
57.060351
 11
103.019027
 21
57.033755
  0
LINE
  8
1
 62
2
  6
CONTINUOUS
 10
103.019027
 20
57.033755
 11
102.990901
 21
56.920878
  0
LINE
  8
1
 62
2
  6
CONTINUOUS
 10
102.990901
 20
56.920878
 11
102.990380
 21
56.900652
  0
LINE
  8
1
 62
2
  6
CONTINUOUS
 10
113.490380
 20
57.179983
 11
103.290380
 21
57.179983
  0
LINE
  8
1
 62
2
  6
CONTINUOUS
 10
113.490380
 20
56.210658
 11
113.619941
 21
56.416604
  0
LINE
  8
1
 62
2
  6
CONTINUOUS
 10
113.619941
 20
56.416604
 11
113.620630
 21
56.417807
  0
LINE
  8
1
 62
2
  6
CONTINUOUS
 10
113.620630
 20
56.417807
 11
113.678465
 21
56.525405
  0
LINE
  8
1
 62
2
  6
CONTINUOUS
 10
113.678465
 20
56.525405
 11
113.717782
 21
56.609832
  0
LINE
  8
1
 62
2
  6
CONTINUOUS
 10
113.717782
 20
56.609832
 11
113.728365
 21
56.635179
  0
LINE
  8
1
 62
2
  6
CONTINUOUS
 10
113.728365
 20
56.635179
 11
113.766445
 21
56.745282
  0
LINE
  8
1
 62
2
  6
CONTINUOUS
 10
113.766445
 20
56.745282
 11
113.775039
 21
56.778780
  0
LINE
  8
1
 62
2
  6
CONTINUOUS
 10
113.775039
 20
56.778780
 11
113.790380
 21
56.900635
  0
LINE
  8
1
 62
2
  6
CONTINUOUS
 10
113.790380
 20
56.900635
 11
113.789861
 21
56.920843
  0
LINE
  8
1
 62
2
  6
CONTINUOUS
 10
113.789861
 20
56.920843
 11
113.787607
 21
56.946265
  0
LINE
  8
1
 62
2
  6
CONTINUOUS
 10
113.787607
 20
56.946265
 11
113.766443
 21
57.023876
  0
LINE
  8
1
 62
2
  6
CONTINUOUS
 10
113.766443
 20
57.023876
 11
113.761748
 21
57.033727
  0
LINE
  8
1
 62
2
  6
CONTINUOUS
 10
113.761748
 20
57.033727
 11
113.691625
 21
57.115672
  0
LINE
  8
1
 62
2
  6
CONTINUOUS
 10
113.691625
 20
57.115672
 11
113.678465
 21
57.124661
  0
LINE
  8
1
 62
2
  6
CONTINUOUS
 10
113.678465
 20
57.124661
 11
113.620631
 21
57.153189
  0
LINE
  8
1
 62
2
  6
CONTINUOUS
 10
113.620631
 20
57.153189
 11
113.581806
 21
57.165352
  0
LINE
  8
1
 62
2
  6
CONTINUOUS
 10
113.581806
 20
57.165352
 11
113.490380
 21
57.179983
  0
LINE
  8
1
 62
2
  6
CONTINUOUS
 10
102.990380
 20
55.936035
 11
102.990380
 21
56.900652
  0
LINE
  8
1
 62
2
  6
CONTINUOUS
 10
103.290380
 20
55.698938
 11
103.290380
 21
56.210658
  0
LINE
  8
1
 62
2
  6
CONTINUOUS
 10
103.290380
 20
55.698938
 11
103.179419
 21
55.787761
  0
LINE
  8
1
 62
2
  6
CONTINUOUS
 10
103.179419
 20
55.787761
 11
103.178385
 21
55.788583
  0
LINE
  8
1
 62
2
  6
CONTINUOUS
 10
103.178385
 20
55.788583
 11
103.123399
 21
55.832101
  0
LINE
  8
1
 62
2
  6
CONTINUOUS
 10
103.123399
 20
55.832101
 11
103.075570
 21
55.869692
  0
LINE
  8
1
 62
2
  6
CONTINUOUS
 10
103.075570
 20
55.869692
 11
103.069899
 21
55.874132
  0
LINE
  8
1
 62
2
  6
CONTINUOUS
 10
103.069899
 20
55.874132
 11
103.020246
 21
55.912865
  0
LINE
  8
1
 62
2
  6
CONTINUOUS
 10
103.020246
 20
55.912865
 11
103.011868
 21
55.919375
  0
LINE
  8
1
 62
2
  6
CONTINUOUS
 10
103.011868
 20
55.919375
 11
102.990380
 21
55.936035
  0
LINE
  8
1
 62
2
  6
CONTINUOUS
 10
113.490380
 20
55.698938
 11
113.490380
 21
56.210658
  0
LINE
  8
1
 62
2
  6
CONTINUOUS
 10
113.490380
 20
55.698938
 11
103.290380
 21
55.698938
  0
LINE
  8
1
 62
2
  6
CONTINUOUS
 10
102.990380
 20
66.736035
 11
102.990380
 21
69.371418
  0
LINE
  8
1
 62
2
  6
CONTINUOUS
 10
102.990380
 20
63.136035
 11
102.990380
 21
66.736035
  0
LINE
  8
1
 62
2
  6
CONTINUOUS
 10
102.990380
 20
59.536035
 11
102.990380
 21
63.136035
  0
LINE
  8
1
 62
2
  6
CONTINUOUS
 10
102.990380
 20
56.900652
 11
102.990380
 21
59.536035
  0
LINE
  8
1
 62
2
  6
CONTINUOUS
 10
102.990380
 20
69.371418
 11
102.990380
 21
70.336035
  0
LINE
  8
1
 62
2
  6
CONTINUOUS
 10
103.290380
 20
70.061412
 11
103.290380
 21
70.573132
  0
LINE
  8
1
 62
2
  6
CONTINUOUS
 10
102.990380
 20
70.336035
 11
103.011868
 21
70.352696
  0
LINE
  8
1
 62
2
  6
CONTINUOUS
 10
103.011868
 20
70.352696
 11
103.020246
 21
70.359205
  0
LINE
  8
1
 62
2
  6
CONTINUOUS
 10
103.020246
 20
70.359205
 11
103.069899
 21
70.397938
  0
LINE
  8
1
 62
2
  6
CONTINUOUS
 10
103.069899
 20
70.397938
 11
103.075570
 21
70.402378
  0
LINE
  8
1
 62
2
  6
CONTINUOUS
 10
103.075570
 20
70.402378
 11
103.123399
 21
70.439969
  0
LINE
  8
1
 62
2
  6
CONTINUOUS
 10
103.123399
 20
70.439969
 11
103.178385
 21
70.483487
  0
LINE
  8
1
 62
2
  6
CONTINUOUS
 10
103.178385
 20
70.483487
 11
103.179419
 21
70.484309
  0
LINE
  8
1
 62
2
  6
CONTINUOUS
 10
103.179419
 20
70.484309
 11
103.290380
 21
70.573132
  0
LINE
  8
1
 62
2
  6
CONTINUOUS
 10
113.490380
 20
70.061412
 11
113.490380
 21
70.573132
  0
LINE
  8
1
 62
2
  6
CONTINUOUS
 10
113.490380
 20
70.573132
 11
103.290380
 21
70.573132
  0
LINE
  8
1
 62
2
  6
CONTINUOUS
 10
113.490380
 20
70.573132
 11
113.601328
 21
70.484320
  0
LINE
  8
1
 62
2
  6
CONTINUOUS
 10
113.601328
 20
70.484320
 11
113.630700
 21
70.461029
  0
LINE
  8
1
 62
2
  6
CONTINUOUS
 10
113.630700
 20
70.461029
 11
113.691811
 21
70.412869
  0
LINE
  8
1
 62
2
  6
CONTINUOUS
 10
113.691811
 20
70.412869
 11
113.705180
 21
70.402387
  0
LINE
  8
1
 62
2
  6
CONTINUOUS
 10
113.705180
 20
70.402387
 11
113.768902
 21
70.352688
  0
LINE
  8
1
 62
2
  6
CONTINUOUS
 10
113.768902
 20
70.352688
 11
113.790380
 21
70.336035
  0
LINE
  8
1
 62
2
  6
CONTINUOUS
 10
113.790380
 20
55.936035
 11
113.768902
 21
55.919382
  0
LINE
  8
1
 62
2
  6
CONTINUOUS
 10
113.768902
 20
55.919382
 11
113.705179
 21
55.869683
  0
LINE
  8
1
 62
2
  6
CONTINUOUS
 10
113.705179
 20
55.869683
 11
113.691807
 21
55.859198
  0
LINE
  8
1
 62
2
  6
CONTINUOUS
 10
113.691807
 20
55.859198
 11
113.630697
 21
55.811038
  0
LINE
  8
1
 62
2
  6
CONTINUOUS
 10
113.630697
 20
55.811038
 11
113.601328
 21
55.787750
  0
LINE
  8
1
 62
2
  6
CONTINUOUS
 10
113.601328
 20
55.787750
 11
113.490380
 21
55.698938
  0
LINE
  8
1
 62
2
  6
CONTINUOUS
 10
113.490380
 20
55.698938
 11
103.290380
 21
55.698938
  0
LINE
  8
1
 62
2
  6
CONTINUOUS
 10
103.290380
 20
57.179983
 11
103.290380
 21
58.578026
  0
LINE
  8
1
 62
2
  6
CONTINUOUS
 10
113.490380
 20
57.179983
 11
113.490380
 21
58.578026
  0
LINE
  8
1
 62
2
  6
CONTINUOUS
 10
113.490380
 20
60.443453
 11
110.490380
 21
60.443453
  0
LINE
  8
1
 62
2
  6
CONTINUOUS
 10
110.490380
 20
65.828617
 11
110.490380
 21
60.443453
  0
LINE
  8
1
 62
2
  6
CONTINUOUS
 10
113.490380
 20
65.828617
 11
110.490380
 21
65.828617
  0
LINE
  8
1
 62
2
  6
CONTINUOUS
 10
113.490380
 20
60.443453
 11
113.743445
 21
61.260383
  0
LINE
  8
1
 62
2
  6
CONTINUOUS
 10
113.743445
 20
61.260383
 11
113.754925
 21
61.305242
  0
LINE
  8
1
 62
2
  6
CONTINUOUS
 10
113.754925
 20
61.305242
 11
113.929075
 21
62.207584
  0
LINE
  8
1
 62
2
  6
CONTINUOUS
 10
113.929075
 20
62.207584
 11
113.929976
 21
62.214464
  0
LINE
  8
1
 62
2
  6
CONTINUOUS
 10
113.929976
 20
62.214464
 11
113.990380
 21
63.136043
  0
LINE
  8
1
 62
2
  6
CONTINUOUS
 10
113.990380
 20
63.136043
 11
113.929977
 21
64.057607
  0
LINE
  8
1
 62
2
  6
CONTINUOUS
 10
113.929977
 20
64.057607
 11
113.929075
 21
64.064488
  0
LINE
  8
1
 62
2
  6
CONTINUOUS
 10
113.929075
 20
64.064488
 11
113.754925
 21
64.966828
  0
LINE
  8
1
 62
2
  6
CONTINUOUS
 10
113.754925
 20
64.966828
 11
113.743445
 21
65.011687
  0
LINE
  8
1
 62
2
  6
CONTINUOUS
 10
113.743445
 20
65.011687
 11
113.490380
 21
65.828617
  0
LINE
  8
1
 62
2
  6
CONTINUOUS
 10
103.290380
 20
60.256947
 11
103.290380
 21
62.166710
  0
LINE
  8
1
 62
2
  6
CONTINUOUS
 10
110.053283
 20
62.166710
 11
103.290380
 21
62.166710
  0
LINE
  8
1
 62
2
  6
CONTINUOUS
 10
110.053283
 20
62.166710
 11
110.076931
 21
61.999904
  0
LINE
  8
1
 62
2
  6
CONTINUOUS
 10
110.076931
 20
61.999904
 11
110.245938
 21
61.194886
  0
LINE
  8
1
 62
2
  6
CONTINUOUS
 10
110.245938
 20
61.194886
 11
110.490380
 21
60.443453
  0
LINE
  8
1
 62
2
  6
CONTINUOUS
 10
113.490380
 20
60.256947
 11
113.490380
 21
60.443453
  0
LINE
  8
1
 62
2
  6
CONTINUOUS
 10
110.053283
 20
64.105360
 11
103.290380
 21
64.105360
  0
LINE
  8
1
 62
2
  6
CONTINUOUS
 10
110.053283
 20
62.166710
 11
110.089618
 21
62.239589
  0
LINE
  8
1
 62
2
  6
CONTINUOUS
 10
110.089618
 20
62.239589
 11
110.187149
 21
62.485369
  0
LINE
  8
1
 62
2
  6
CONTINUOUS
 10
110.187149
 20
62.485369
 11
110.200767
 21
62.528880
  0
LINE
  8
1
 62
2
  6
CONTINUOUS
 10
110.200767
 20
62.528880
 11
110.249816
 21
62.725471
  0
LINE
  8
1
 62
2
  6
CONTINUOUS
 10
110.249816
 20
62.725471
 11
110.252935
 21
62.741462
  0
LINE
  8
1
 62
2
  6
CONTINUOUS
 10
110.252935
 20
62.741462
 11
110.286146
 21
63.003812
  0
LINE
  8
1
 62
2
  6
CONTINUOUS
 10
110.286146
 20
63.003812
 11
110.286146
 21
63.268258
  0
LINE
  8
1
 62
2
  6
CONTINUOUS
 10
110.286146
 20
63.268258
 11
110.252935
 21
63.530609
  0
LINE
  8
1
 62
2
  6
CONTINUOUS
 10
110.252935
 20
63.530609
 11
110.249816
 21
63.546599
  0
LINE
  8
1
 62
2
  6
CONTINUOUS
 10
110.249816
 20
63.546599
 11
110.200767
 21
63.743190
  0
LINE
  8
1
 62
2
  6
CONTINUOUS
 10
110.200767
 20
63.743190
 11
110.187149
 21
63.786701
  0
LINE
  8
1
 62
2
  6
CONTINUOUS
 10
110.187149
 20
63.786701
 11
110.089618
 21
64.032481
  0
LINE
  8
1
 62
2
  6
CONTINUOUS
 10
110.089618
 20
64.032481
 11
110.053283
 21
64.105360
  0
LINE
  8
1
 62
2
  6
CONTINUOUS
 10
102.990380
 20
63.136035
 11
102.995770
 21
63.003688
  0
LINE
  8
1
 62
2
  6
CONTINUOUS
 10
102.995770
 20
63.003688
 11
103.034836
 21
62.756817
  0
LINE
  8
1
 62
2
  6
CONTINUOUS
 10
103.034836
 20
62.756817
 11
103.038540
 21
62.741419
  0
LINE
  8
1
 62
2
  6
CONTINUOUS
 10
103.038540
 20
62.741419
 11
103.122696
 21
62.485261
  0
LINE
  8
1
 62
2
  6
CONTINUOUS
 10
103.122696
 20
62.485261
 11
103.123411
 21
62.483534
  0
LINE
  8
1
 62
2
  6
CONTINUOUS
 10
103.123411
 20
62.483534
 11
103.178394
 21
62.362999
  0
LINE
  8
1
 62
2
  6
CONTINUOUS
 10
103.178394
 20
62.362999
 11
103.234150
 21
62.258977
  0
LINE
  8
1
 62
2
  6
CONTINUOUS
 10
103.234150
 20
62.258977
 11
103.245425
 21
62.239589
  0
LINE
  8
1
 62
2
  6
CONTINUOUS
 10
103.245425
 20
62.239589
 11
103.290380
 21
62.166710
  0
LINE
  8
1
 62
2
  6
CONTINUOUS
 10
103.290380
 20
64.105360
 11
103.245425
 21
64.032481
  0
LINE
  8
1
 62
2
  6
CONTINUOUS
 10
103.245425
 20
64.032481
 11
103.234150
 21
64.013093
  0
LINE
  8
1
 62
2
  6
CONTINUOUS
 10
103.234150
 20
64.013093
 11
103.178393
 21
63.909069
  0
LINE
  8
1
 62
2
  6
CONTINUOUS
 10
103.178393
 20
63.909069
 11
103.123410
 21
63.788532
  0
LINE
  8
1
 62
2
  6
CONTINUOUS
 10
103.123410
 20
63.788532
 11
103.122695
 21
63.786806
  0
LINE
  8
1
 62
2
  6
CONTINUOUS
 10
103.122695
 20
63.786806
 11
103.038540
 21
63.530651
  0
LINE
  8
1
 62
2
  6
CONTINUOUS
 10
103.038540
 20
63.530651
 11
103.034836
 21
63.515253
  0
LINE
  8
1
 62
2
  6
CONTINUOUS
 10
103.034836
 20
63.515253
 11
102.995770
 21
63.268382
  0
LINE
  8
1
 62
2
  6
CONTINUOUS
 10
102.995770
 20
63.268382
 11
102.990380
 21
63.136035
  0
LINE
  8
1
 62
2
  6
CONTINUOUS
 10
110.490380
 20
65.828617
 11
110.245938
 21
65.077184
  0
LINE
  8
1
 62
2
  6
CONTINUOUS
 10
110.245938
 20
65.077184
 11
110.076931
 21
64.272166
  0
LINE
  8
1
 62
2
  6
CONTINUOUS
 10
110.076931
 20
64.272166
 11
110.053283
 21
64.105360
  0
LINE
  8
1
 62
2
  6
CONTINUOUS
 10
113.490380
 20
65.828617
 11
113.490380
 21
66.015123
  0
LINE
  8
1
 62
2
  6
CONTINUOUS
 10
103.290380
 20
64.105360
 11
103.290380
 21
66.015123
  0
LINE
  8
1
 62
2
  6
CONTINUOUS
 10
103.290380
 20
67.694044
 11
103.290380
 21
69.092087
  0
LINE
  8
1
 62
2
  6
CONTINUOUS
 10
113.490380
 20
67.694044
 11
113.490380
 21
69.092087
  0
LINE
  8
1
 62
2
  6
CONTINUOUS
 10
100.720380
 20
56.886035
 11
100.720380
 21
69.386035
  0
LINE
  8
1
 62
2
  6
CONTINUOUS
 10
85.220380
 20
60.820868
 11
85.220380
 21
56.236035
  0
LINE
  8
1
 62
2
  6
CONTINUOUS
 10
85.220380
 20
60.820868
 11
85.445801
 21
60.849195
  0
LINE
  8
1
 62
2
  6
CONTINUOUS
 10
85.445801
 20
60.849195
 11
85.671182
 21
60.877834
  0
LINE
  8
1
 62
2
  6
CONTINUOUS
 10
85.671182
 20
60.877834
 11
85.896522
 21
60.906794
  0
LINE
  8
1
 62
2
  6
CONTINUOUS
 10
85.896522
 20
60.906794
 11
86.121819
 21
60.936090
  0
LINE
  8
1
 62
2
  6
CONTINUOUS
 10
86.121819
 20
60.936090
 11
86.347071
 21
60.965734
  0
LINE
  8
1
 62
2
  6
CONTINUOUS
 10
86.347071
 20
60.965734
 11
86.572274
 21
60.995741
  0
LINE
  8
1
 62
2
  6
CONTINUOUS
 10
86.572274
 20
60.995741
 11
86.797427
 21
61.026125
  0
LINE
  8
1
 62
2
  6
CONTINUOUS
 10
86.797427
 20
61.026125
 11
87.022526
 21
61.056903
  0
LINE
  8
1
 62
2
  6
CONTINUOUS
 10
87.022526
 20
61.056903
 11
87.247569
 21
61.088091
  0
LINE
  8
1
 62
2
  6
CONTINUOUS
 10
87.247569
 20
61.088091
 11
87.472553
 21
61.119710
  0
LINE
  8
1
 62
2
  6
CONTINUOUS
 10
87.472553
 20
61.119710
 11
87.697472
 21
61.151779
  0
LINE
  8
1
 62
2
  6
CONTINUOUS
 10
87.697472
 20
61.151779
 11
87.922324
 21
61.184318
  0
LINE
  8
1
 62
2
  6
CONTINUOUS
 10
87.922324
 20
61.184318
 11
88.147104
 21
61.217353
  0
LINE
  8
1
 62
2
  6
CONTINUOUS
 10
88.147104
 20
61.217353
 11
88.371806
 21
61.250908
  0
LINE
  8
1
 62
2
  6
CONTINUOUS
 10
88.371806
 20
61.250908
 11
88.596427
 21
61.285010
  0
LINE
  8
1
 62
2
  6
CONTINUOUS
 10
88.596427
 20
61.285010
 11
88.820959
 21
61.319690
  0
LINE
  8
1
 62
2
  6
CONTINUOUS
 10
88.820959
 20
61.319690
 11
89.045396
 21
61.354980
  0
LINE
  8
1
 62
2
  6
CONTINUOUS
 10
89.045396
 20
61.354980
 11
89.269731
 21
61.390917
  0
LINE
  8
1
 62
2
  6
CONTINUOUS
 10
89.269731
 20
61.390917
 11
89.291237
 21
61.394398
  0
LINE
  8
1
 62
2
  6
CONTINUOUS
 10
89.291237
 20
61.394398
 11
89.493955
 21
61.427539
  0
LINE
  8
1
 62
2
  6
CONTINUOUS
 10
89.493955
 20
61.427539
 11
89.718059
 21
61.464890
  0
LINE
  8
1
 62
2
  6
CONTINUOUS
 10
89.718059
 20
61.464890
 11
89.942032
 21
61.503019
  0
LINE
  8
1
 62
2
  6
CONTINUOUS
 10
89.942032
 20
61.503019
 11
90.165862
 21
61.541979
  0
LINE
  8
1
 62
2
  6
CONTINUOUS
 10
90.165862
 20
61.541979
 11
90.389535
 21
61.581831
  0
LINE
  8
1
 62
2
  6
CONTINUOUS
 10
90.389535
 20
61.581831
 11
90.613035
 21
61.622642
  0
LINE
  8
1
 62
2
  6
CONTINUOUS
 10
90.613035
 20
61.622642
 11
90.836344
 21
61.664488
  0
LINE
  8
1
 62
2
  6
CONTINUOUS
 10
90.836344
 20
61.664488
 11
91.059440
 21
61.707456
  0
LINE
  8
1
 62
2
  6
CONTINUOUS
 10
91.059440
 20
61.707456
 11
91.282298
 21
61.751646
  0
LINE
  8
1
 62
2
  6
CONTINUOUS
 10
91.282298
 20
61.751646
 11
91.504886
 21
61.797173
  0
LINE
  8
1
 62
2
  6
CONTINUOUS
 10
91.504886
 20
61.797173
 11
91.727169
 21
61.844171
  0
LINE
  8
1
 62
2
  6
CONTINUOUS
 10
91.727169
 20
61.844171
 11
91.949102
 21
61.892796
  0
LINE
  8
1
 62
2
  6
CONTINUOUS
 10
91.949102
 20
61.892796
 11
92.170631
 21
61.943234
  0
LINE
  8
1
 62
2
  6
CONTINUOUS
 10
92.170631
 20
61.943234
 11
92.391685
 21
61.995712
  0
LINE
  8
1
 62
2
  6
CONTINUOUS
 10
92.391685
 20
61.995712
 11
92.612179
 21
62.050502
  0
LINE
  8
1
 62
2
  6
CONTINUOUS
 10
92.612179
 20
62.050502
 11
92.831996
 21
62.107944
  0
LINE
  8
1
 62
2
  6
CONTINUOUS
 10
92.831996
 20
62.107944
 11
93.050986
 21
62.168468
  0
LINE
  8
1
 62
2
  6
CONTINUOUS
 10
93.050986
 20
62.168468
 11
93.268938
 21
62.232629
  0
LINE
  8
1
 62
2
  6
CONTINUOUS
 10
93.268938
 20
62.232629
 11
93.421332
 21
62.280287
  0
LINE
  8
1
 62
2
  6
CONTINUOUS
 10
93.421332
 20
62.280287
 11
93.485553
 21
62.301170
  0
LINE
  8
1
 62
2
  6
CONTINUOUS
 10
93.485553
 20
62.301170
 11
93.700383
 21
62.375114
  0
LINE
  8
1
 62
2
  6
CONTINUOUS
 10
93.700383
 20
62.375114
 11
93.912718
 21
62.455937
  0
LINE
  8
1
 62
2
  6
CONTINUOUS
 10
93.912718
 20
62.455937
 11
94.121336
 21
62.545901
  0
LINE
  8
1
 62
2
  6
CONTINUOUS
 10
94.121336
 20
62.545901
 11
94.323889
 21
62.648744
  0
LINE
  8
1
 62
2
  6
CONTINUOUS
 10
94.323889
 20
62.648744
 11
94.515037
 21
62.771320
  0
LINE
  8
1
 62
2
  6
CONTINUOUS
 10
94.515037
 20
62.771320
 11
94.679124
 21
62.927540
  0
LINE
  8
1
 62
2
  6
CONTINUOUS
 10
94.679124
 20
62.927540
 11
94.758842
 21
63.136033
  0
LINE
  8
1
 62
2
  6
CONTINUOUS
 10
94.758842
 20
63.136033
 11
94.679125
 21
63.344529
  0
LINE
  8
1
 62
2
  6
CONTINUOUS
 10
94.679125
 20
63.344529
 11
94.515038
 21
63.500751
  0
LINE
  8
1
 62
2
  6
CONTINUOUS
 10
94.515038
 20
63.500751
 11
94.323889
 21
63.623326
  0
LINE
  8
1
 62
2
  6
CONTINUOUS
 10
94.323889
 20
63.623326
 11
94.121337
 21
63.726169
  0
LINE
  8
1
 62
2
  6
CONTINUOUS
 10
94.121337
 20
63.726169
 11
93.912718
 21
63.816133
  0
LINE
  8
1
 62
2
  6
CONTINUOUS
 10
93.912718
 20
63.816133
 11
93.700383
 21
63.896956
  0
LINE
  8
1
 62
2
  6
CONTINUOUS
 10
93.700383
 20
63.896956
 11
93.485553
 21
63.970900
  0
LINE
  8
1
 62
2
  6
CONTINUOUS
 10
93.485553
 20
63.970900
 11
93.421333
 21
63.991783
  0
LINE
  8
1
 62
2
  6
CONTINUOUS
 10
93.421333
 20
63.991783
 11
93.268938
 21
64.039441
  0
LINE
  8
1
 62
2
  6
CONTINUOUS
 10
93.268938
 20
64.039441
 11
93.050986
 21
64.103602
  0
LINE
  8
1
 62
2
  6
CONTINUOUS
 10
93.050986
 20
64.103602
 11
92.831996
 21
64.164126
  0
LINE
  8
1
 62
2
  6
CONTINUOUS
 10
92.831996
 20
64.164126
 11
92.612178
 21
64.221568
  0
LINE
  8
1
 62
2
  6
CONTINUOUS
 10
92.612178
 20
64.221568
 11
92.391685
 21
64.276358
  0
LINE
  8
1
 62
2
  6
CONTINUOUS
 10
92.391685
 20
64.276358
 11
92.170631
 21
64.328836
  0
LINE
  8
1
 62
2
  6
CONTINUOUS
 10
92.170631
 20
64.328836
 11
91.949102
 21
64.379275
  0
LINE
  8
1
 62
2
  6
CONTINUOUS
 10
91.949102
 20
64.379275
 11
91.727169
 21
64.427900
  0
LINE
  8
1
 62
2
  6
CONTINUOUS
 10
91.727169
 20
64.427900
 11
91.504886
 21
64.474897
  0
LINE
  8
1
 62
2
  6
CONTINUOUS
 10
91.504886
 20
64.474897
 11
91.282298
 21
64.520424
  0
LINE
  8
1
 62
2
  6
CONTINUOUS
 10
91.282298
 20
64.520424
 11
91.059440
 21
64.564614
  0
LINE
  8
1
 62
2
  6
CONTINUOUS
 10
91.059440
 20
64.564614
 11
90.836344
 21
64.607582
  0
LINE
  8
1
 62
2
  6
CONTINUOUS
 10
90.836344
 20
64.607582
 11
90.613035
 21
64.649428
  0
LINE
  8
1
 62
2
  6
CONTINUOUS
 10
90.613035
 20
64.649428
 11
90.389535
 21
64.690239
  0
LINE
  8
1
 62
2
  6
CONTINUOUS
 10
90.389535
 20
64.690239
 11
90.165862
 21
64.730091
  0
LINE
  8
1
 62
2
  6
CONTINUOUS
 10
90.165862
 20
64.730091
 11
89.942032
 21
64.769051
  0
LINE
  8
1
 62
2
  6
CONTINUOUS
 10
89.942032
 20
64.769051
 11
89.718059
 21
64.807180
  0
LINE
  8
1
 62
2
  6
CONTINUOUS
 10
89.718059
 20
64.807180
 11
89.493955
 21
64.844531
  0
LINE
  8
1
 62
2
  6
CONTINUOUS
 10
89.493955
 20
64.844531
 11
89.291237
 21
64.877672
  0
LINE
  8
1
 62
2
  6
CONTINUOUS
 10
89.291237
 20
64.877672
 11
89.269731
 21
64.881153
  0
LINE
  8
1
 62
2
  6
CONTINUOUS
 10
89.269731
 20
64.881153
 11
89.045396
 21
64.917090
  0
LINE
  8
1
 62
2
  6
CONTINUOUS
 10
89.045396
 20
64.917090
 11
88.820959
 21
64.952380
  0
LINE
  8
1
 62
2
  6
CONTINUOUS
 10
88.820959
 20
64.952380
 11
88.596427
 21
64.987060
  0
LINE
  8
1
 62
2
  6
CONTINUOUS
 10
88.596427
 20
64.987060
 11
88.371806
 21
65.021162
  0
LINE
  8
1
 62
2
  6
CONTINUOUS
 10
88.371806
 20
65.021162
 11
88.147104
 21
65.054717
  0
LINE
  8
1
 62
2
  6
CONTINUOUS
 10
88.147104
 20
65.054717
 11
87.922324
 21
65.087752
  0
LINE
  8
1
 62
2
  6
CONTINUOUS
 10
87.922324
 20
65.087752
 11
87.697472
 21
65.120292
  0
LINE
  8
1
 62
2
  6
CONTINUOUS
 10
87.697472
 20
65.120292
 11
87.472553
 21
65.152360
  0
LINE
  8
1
 62
2
  6
CONTINUOUS
 10
87.472553
 20
65.152360
 11
87.247569
 21
65.183979
  0
LINE
  8
1
 62
2
  6
CONTINUOUS
 10
87.247569
 20
65.183979
 11
87.022526
 21
65.215168
  0
LINE
  8
1
 62
2
  6
CONTINUOUS
 10
87.022526
 20
65.215168
 11
86.797427
 21
65.245945
  0
LINE
  8
1
 62
2
  6
CONTINUOUS
 10
86.797427
 20
65.245945
 11
86.572274
 21
65.276330
  0
LINE
  8
1
 62
2
  6
CONTINUOUS
 10
86.572274
 20
65.276330
 11
86.347071
 21
65.306336
  0
LINE
  8
1
 62
2
  6
CONTINUOUS
 10
86.347071
 20
65.306336
 11
86.121819
 21
65.335980
  0
LINE
  8
1
 62
2
  6
CONTINUOUS
 10
86.121819
 20
65.335980
 11
85.896522
 21
65.365276
  0
LINE
  8
1
 62
2
  6
CONTINUOUS
 10
85.896522
 20
65.365276
 11
85.671182
 21
65.394237
  0
LINE
  8
1
 62
2
  6
CONTINUOUS
 10
85.671182
 20
65.394237
 11
85.445801
 21
65.422875
  0
LINE
  8
1
 62
2
  6
CONTINUOUS
 10
85.445801
 20
65.422875
 11
85.220380
 21
65.451202
  0
LINE
  8
1
 62
2
  6
CONTINUOUS
 10
85.220380
 20
70.036035
 11
85.220380
 21
65.451202
  0
LINE
  8
1
 62
2
  6
CONTINUOUS
 10
81.720380
 20
65.451202
 11
85.220380
 21
65.451202
  0
LINE
  8
1
 62
2
  6
CONTINUOUS
 10
81.720380
 20
70.036035
 11
81.720380
 21
65.451202
  0
LINE
  8
1
 62
2
  6
CONTINUOUS
 10
81.720380
 20
60.820868
 11
85.220380
 21
60.820868
  0
LINE
  8
1
 62
2
  6
CONTINUOUS
 10
81.720380
 20
65.451202
 11
81.549705
 21
64.877819
  0
LINE
  8
1
 62
2
  6
CONTINUOUS
 10
81.549705
 20
64.877819
 11
81.376469
 21
63.991780
  0
LINE
  8
1
 62
2
  6
CONTINUOUS
 10
81.376469
 20
63.991780
 11
81.320380
 21
63.136070
  0
LINE
  8
1
 62
2
  6
CONTINUOUS
 10
81.320380
 20
63.136070
 11
81.376469
 21
62.280291
  0
LINE
  8
1
 62
2
  6
CONTINUOUS
 10
81.376469
 20
62.280291
 11
81.549705
 21
61.394251
  0
LINE
  8
1
 62
2
  6
CONTINUOUS
 10
81.549705
 20
61.394251
 11
81.720380
 21
60.820868
  0
LINE
  8
1
 62
2
  6
CONTINUOUS
 10
81.220380
 20
56.052193
 11
81.220380
 21
56.036035
  0
LINE
  8
1
 62
2
  6
CONTINUOUS
 10
81.220380
 20
56.169666
 11
81.220380
 21
56.052193
  0
LINE
  8
1
 62
2
  6
CONTINUOUS
 10
81.220380
 20
56.417471
 11
81.220380
 21
56.169666
  0
LINE
  8
1
 62
2
  6
CONTINUOUS
 10
81.220380
 20
56.761886
 11
81.220380
 21
56.417471
  0
LINE
  8
1
 62
2
  6
CONTINUOUS
 10
81.220380
 20
57.240609
 11
81.220380
 21
56.761886
  0
LINE
  8
1
 62
2
  6
CONTINUOUS
 10
81.220380
 20
57.788494
 11
81.220380
 21
57.240609
  0
LINE
  8
1
 62
2
  6
CONTINUOUS
 10
81.220380
 20
58.465510
 11
81.220380
 21
57.788494
  0
LINE
  8
1
 62
2
  6
CONTINUOUS
 10
81.220380
 20
59.179528
 11
81.220380
 21
58.465510
  0
LINE
  8
1
 62
2
  6
CONTINUOUS
 10
81.220380
 20
60.008700
 11
81.220380
 21
59.179528
  0
LINE
  8
1
 62
2
  6
CONTINUOUS
 10
81.220380
 20
60.840191
 11
81.220380
 21
60.008700
  0
LINE
  8
1
 62
2
  6
CONTINUOUS
 10
81.220380
 20
61.765012
 11
81.220380
 21
60.840191
  0
LINE
  8
1
 62
2
  6
CONTINUOUS
 10
81.220380
 20
62.657313
 11
81.220380
 21
61.765012
  0
LINE
  8
1
 62
2
  6
CONTINUOUS
 10
81.220380
 20
63.136035
 11
81.220380
 21
62.657313
  0
LINE
  8
1
 62
2
  6
CONTINUOUS
 10
81.220380
 20
63.614758
 11
81.220380
 21
63.136035
  0
LINE
  8
1
 62
2
  6
CONTINUOUS
 10
81.220380
 20
64.507058
 11
81.220380
 21
63.614758
  0
LINE
  8
1
 62
2
  6
CONTINUOUS
 10
81.220380
 20
65.431879
 11
81.220380
 21
64.507058
  0
LINE
  8
1
 62
2
  6
CONTINUOUS
 10
81.220380
 20
66.263370
 11
81.220380
 21
65.431879
  0
LINE
  8
1
 62
2
  6
CONTINUOUS
 10
81.220380
 20
67.092542
 11
81.220380
 21
66.263370
  0
LINE
  8
1
 62
2
  6
CONTINUOUS
 10
81.220380
 20
67.806560
 11
81.220380
 21
67.092542
  0
LINE
  8
1
 62
2
  6
CONTINUOUS
 10
81.220380
 20
68.483576
 11
81.220380
 21
67.806560
  0
LINE
  8
1
 62
2
  6
CONTINUOUS
 10
81.220380
 20
69.031461
 11
81.220380
 21
68.483576
  0
LINE
  8
1
 62
2
  6
CONTINUOUS
 10
81.220380
 20
69.523523
 11
81.220380
 21
69.031461
  0
LINE
  8
1
 62
2
  6
CONTINUOUS
 10
81.220380
 20
70.236035
 11
81.220380
 21
69.523523
  0
LINE
  8
1
 62
2
  6
CONTINUOUS
 10
73.470380
 20
69.031461
 11
73.470380
 21
69.523523
  0
LINE
  8
1
 62
2
  6
CONTINUOUS
 10
73.470380
 20
68.483576
 11
73.470380
 21
69.031461
  0
LINE
  8
1
 62
2
  6
CONTINUOUS
 10
73.470380
 20
67.806560
 11
73.470380
 21
68.483576
  0
LINE
  8
1
 62
2
  6
CONTINUOUS
 10
73.470380
 20
67.092542
 11
73.470380
 21
67.806560
  0
LINE
  8
1
 62
2
  6
CONTINUOUS
 10
73.470380
 20
66.263370
 11
73.470380
 21
67.092542
  0
LINE
  8
1
 62
2
  6
CONTINUOUS
 10
73.470380
 20
65.431879
 11
73.470380
 21
66.263370
  0
LINE
  8
1
 62
2
  6
CONTINUOUS
 10
73.470380
 20
64.507058
 11
73.470380
 21
65.431879
  0
LINE
  8
1
 62
2
  6
CONTINUOUS
 10
73.470380
 20
63.614758
 11
73.470380
 21
64.507058
  0
LINE
  8
1
 62
2
  6
CONTINUOUS
 10
73.470380
 20
63.136035
 11
73.470380
 21
63.614758
  0
LINE
  8
1
 62
2
  6
CONTINUOUS
 10
73.470380
 20
62.657313
 11
73.470380
 21
63.136035
  0
LINE
  8
1
 62
2
  6
CONTINUOUS
 10
73.470380
 20
61.765012
 11
73.470380
 21
62.657313
  0
LINE
  8
1
 62
2
  6
CONTINUOUS
 10
73.470380
 20
60.840191
 11
73.470380
 21
61.765012
  0
LINE
  8
1
 62
2
  6
CONTINUOUS
 10
73.470380
 20
60.008700
 11
73.470380
 21
60.840191
  0
LINE
  8
1
 62
2
  6
CONTINUOUS
 10
73.470380
 20
59.179528
 11
73.470380
 21
60.008700
  0
LINE
  8
1
 62
2
  6
CONTINUOUS
 10
73.470380
 20
58.465510
 11
73.470380
 21
59.179528
  0
LINE
  8
1
 62
2
  6
CONTINUOUS
 10
73.470380
 20
57.788494
 11
73.470380
 21
58.465510
  0
LINE
  8
1
 62
2
  6
CONTINUOUS
 10
73.470380
 20
57.240609
 11
73.470380
 21
57.788494
  0
LINE
  8
1
 62
2
  6
CONTINUOUS
 10
73.470380
 20
56.761886
 11
73.470380
 21
57.240609
  0
LINE
  8
1
 62
2
  6
CONTINUOUS
 10
73.470380
 20
56.417471
 11
73.470380
 21
56.761886
  0
LINE
  8
1
 62
2
  6
CONTINUOUS
 10
73.470380
 20
56.169666
 11
73.470380
 21
56.417471
  0
LINE
  8
1
 62
2
  6
CONTINUOUS
 10
73.470380
 20
56.052193
 11
73.470380
 21
56.169666
  0
LINE
  8
1
 62
2
  6
CONTINUOUS
 10
73.470380
 20
56.036035
 11
73.470380
 21
56.052193
  0
LINE
  8
1
 62
2
  6
CONTINUOUS
 10
73.470380
 20
69.523523
 11
73.470380
 21
70.236035
  0
LINE
  8
1
 62
2
  6
CONTINUOUS
 10
73.770380
 20
69.269927
 11
73.620379
 21
69.150699
  0
LINE
  8
1
 62
2
  6
CONTINUOUS
 10
73.620379
 20
69.150699
 11
73.470380
 21
69.031461
  0
LINE
  8
1
 62
2
  6
CONTINUOUS
 10
73.770380
 20
69.269927
 11
73.770380
 21
68.722042
  0
LINE
  8
1
 62
2
  6
CONTINUOUS
 10
73.470380
 20
68.483576
 11
73.620379
 21
68.602813
  0
LINE
  8
1
 62
2
  6
CONTINUOUS
 10
73.620379
 20
68.602813
 11
73.770380
 21
68.722042
  0
LINE
  8
1
 62
2
  6
CONTINUOUS
 10
80.920380
 20
69.269927
 11
73.770380
 21
69.269927
  0
LINE
  8
1
 62
2
  6
CONTINUOUS
 10
81.220380
 20
69.031461
 11
81.070381
 21
69.150699
  0
LINE
  8
1
 62
2
  6
CONTINUOUS
 10
81.070381
 20
69.150699
 11
80.920380
 21
69.269927
  0
LINE
  8
1
 62
2
  6
CONTINUOUS
 10
80.920380
 20
68.722042
 11
73.770380
 21
68.722042
  0
LINE
  8
1
 62
2
  6
CONTINUOUS
 10
80.920380
 20
68.722042
 11
80.920380
 21
69.269927
  0
LINE
  8
1
 62
2
  6
CONTINUOUS
 10
80.920380
 20
68.722042
 11
81.070381
 21
68.602813
  0
LINE
  8
1
 62
2
  6
CONTINUOUS
 10
81.070381
 20
68.602813
 11
81.220380
 21
68.483576
  0
LINE
  8
1
 62
2
  6
CONTINUOUS
 10
73.470380
 20
68.483576
 11
81.220380
 21
68.483576
  0
LINE
  8
1
 62
2
  6
CONTINUOUS
 10
73.770380
 20
67.989542
 11
73.620379
 21
67.898054
  0
LINE
  8
1
 62
2
  6
CONTINUOUS
 10
73.620379
 20
67.898054
 11
73.470380
 21
67.806560
  0
LINE
  8
1
 62
2
  6
CONTINUOUS
 10
73.770380
 20
67.989542
 11
73.770380
 21
67.275524
  0
LINE
  8
1
 62
2
  6
CONTINUOUS
 10
73.470380
 20
67.092542
 11
73.620379
 21
67.184036
  0
LINE
  8
1
 62
2
  6
CONTINUOUS
 10
73.620379
 20
67.184036
 11
73.770380
 21
67.275524
  0
LINE
  8
1
 62
2
  6
CONTINUOUS
 10
73.770380
 20
66.378397
 11
73.620379
 21
66.320886
  0
LINE
  8
1
 62
2
  6
CONTINUOUS
 10
73.620379
 20
66.320886
 11
73.470380
 21
66.263370
  0
LINE
  8
1
 62
2
  6
CONTINUOUS
 10
73.770380
 20
66.378397
 11
73.770380
 21
65.546906
  0
LINE
  8
1
 62
2
  6
CONTINUOUS
 10
73.470380
 20
65.431879
 11
73.620379
 21
65.489394
  0
LINE
  8
1
 62
2
  6
CONTINUOUS
 10
73.620379
 20
65.489394
 11
73.770380
 21
65.546906
  0
LINE
  8
1
 62
2
  6
CONTINUOUS
 10
73.770380
 20
64.546292
 11
73.620379
 21
64.526675
  0
LINE
  8
1
 62
2
  6
CONTINUOUS
 10
73.620379
 20
64.526675
 11
73.470380
 21
64.507058
  0
LINE
  8
1
 62
2
  6
CONTINUOUS
 10
73.770380
 20
64.546292
 11
73.770380
 21
63.653991
  0
LINE
  8
1
 62
2
  6
CONTINUOUS
 10
73.470380
 20
63.614758
 11
73.620379
 21
63.634375
  0
LINE
  8
1
 62
2
  6
CONTINUOUS
 10
73.620379
 20
63.634375
 11
73.770380
 21
63.653991
  0
LINE
  8
1
 62
2
  6
CONTINUOUS
 10
80.920380
 20
64.546292
 11
73.770380
 21
64.546292
  0
LINE
  8
1
 62
2
  6
CONTINUOUS
 10
81.220380
 20
64.507058
 11
81.070381
 21
64.526675
  0
LINE
  8
1
 62
2
  6
CONTINUOUS
 10
81.070381
 20
64.526675
 11
80.920380
 21
64.546292
  0
LINE
  8
1
 62
2
  6
CONTINUOUS
 10
80.920380
 20
63.653991
 11
73.770380
 21
63.653991
  0
LINE
  8
1
 62
2
  6
CONTINUOUS
 10
80.920380
 20
63.653991
 11
80.920380
 21
64.546292
  0
LINE
  8
1
 62
2
  6
CONTINUOUS
 10
80.920380
 20
63.653991
 11
81.070381
 21
63.634375
  0
LINE
  8
1
 62
2
  6
CONTINUOUS
 10
81.070381
 20
63.634375
 11
81.220380
 21
63.614758
  0
LINE
  8
1
 62
2
  6
CONTINUOUS
 10
73.470380
 20
63.614758
 11
81.220380
 21
63.614758
  0
LINE
  8
1
 62
2
  6
CONTINUOUS
 10
73.470380
 20
62.657313
 11
81.220380
 21
62.657313
  0
LINE
  8
1
 62
2
  6
CONTINUOUS
 10
73.770380
 20
62.618079
 11
73.620379
 21
62.637695
  0
LINE
  8
1
 62
2
  6
CONTINUOUS
 10
73.620379
 20
62.637695
 11
73.470380
 21
62.657313
  0
LINE
  8
1
 62
2
  6
CONTINUOUS
 10
73.770380
 20
62.618079
 11
73.770380
 21
61.725779
  0
LINE
  8
1
 62
2
  6
CONTINUOUS
 10
73.470380
 20
61.765012
 11
73.620379
 21
61.745395
  0
LINE
  8
1
 62
2
  6
CONTINUOUS
 10
73.620379
 20
61.745395
 11
73.770380
 21
61.725779
  0
LINE
  8
1
 62
2
  6
CONTINUOUS
 10
73.770380
 20
60.725164
 11
73.620379
 21
60.782676
  0
LINE
  8
1
 62
2
  6
CONTINUOUS
 10
73.620379
 20
60.782676
 11
73.470380
 21
60.840191
  0
LINE
  8
1
 62
2
  6
CONTINUOUS
 10
73.770380
 20
60.725164
 11
73.770380
 21
59.893673
  0
LINE
  8
1
 62
2
  6
CONTINUOUS
 10
73.470380
 20
60.008700
 11
73.620379
 21
59.951184
  0
LINE
  8
1
 62
2
  6
CONTINUOUS
 10
73.620379
 20
59.951184
 11
73.770380
 21
59.893673
  0
LINE
  8
1
 62
2
  6
CONTINUOUS
 10
80.920380
 20
60.725164
 11
73.770380
 21
60.725164
  0
LINE
  8
1
 62
2
  6
CONTINUOUS
 10
73.470380
 20
60.840191
 11
81.220380
 21
60.840191
  0
LINE
  8
1
 62
2
  6
CONTINUOUS
 10
81.220380
 20
60.840191
 11
81.070381
 21
60.782676
  0
LINE
  8
1
 62
2
  6
CONTINUOUS
 10
81.070381
 20
60.782676
 11
80.920380
 21
60.725164
  0
LINE
  8
1
 62
2
  6
CONTINUOUS
 10
80.920380
 20
59.893673
 11
73.770380
 21
59.893673
  0
LINE
  8
1
 62
2
  6
CONTINUOUS
 10
80.920380
 20
59.893673
 11
80.920380
 21
60.725164
  0
LINE
  8
1
 62
2
  6
CONTINUOUS
 10
80.920380
 20
59.893673
 11
81.070381
 21
59.951184
  0
LINE
  8
1
 62
2
  6
CONTINUOUS
 10
81.070381
 20
59.951184
 11
81.220380
 21
60.008700
  0
LINE
  8
1
 62
2
  6
CONTINUOUS
 10
73.470380
 20
59.179528
 11
81.220380
 21
59.179528
  0
LINE
  8
1
 62
2
  6
CONTINUOUS
 10
73.770380
 20
58.996547
 11
73.620379
 21
59.088034
  0
LINE
  8
1
 62
2
  6
CONTINUOUS
 10
73.620379
 20
59.088034
 11
73.470380
 21
59.179528
  0
LINE
  8
1
 62
2
  6
CONTINUOUS
 10
73.770380
 20
58.996547
 11
73.770380
 21
58.282529
  0
LINE
  8
1
 62
2
  6
CONTINUOUS
 10
73.470380
 20
58.465510
 11
73.620379
 21
58.374016
  0
LINE
  8
1
 62
2
  6
CONTINUOUS
 10
73.620379
 20
58.374016
 11
73.770380
 21
58.282529
  0
LINE
  8
1
 62
2
  6
CONTINUOUS
 10
73.770380
 20
57.550028
 11
73.620379
 21
57.669257
  0
LINE
  8
1
 62
2
  6
CONTINUOUS
 10
73.620379
 20
57.669257
 11
73.470380
 21
57.788494
  0
LINE
  8
1
 62
2
  6
CONTINUOUS
 10
73.770380
 20
57.550028
 11
73.770380
 21
57.002143
  0
LINE
  8
1
 62
2
  6
CONTINUOUS
 10
73.470380
 20
57.240609
 11
73.620379
 21
57.121372
  0
LINE
  8
1
 62
2
  6
CONTINUOUS
 10
73.620379
 20
57.121372
 11
73.770380
 21
57.002143
  0
LINE
  8
1
 62
2
  6
CONTINUOUS
 10
80.920380
 20
57.002143
 11
81.070381
 21
57.121372
  0
LINE
  8
1
 62
2
  6
CONTINUOUS
 10
81.070381
 20
57.121372
 11
81.220380
 21
57.240609
  0
LINE
  8
1
 62
2
  6
CONTINUOUS
 10
80.920380
 20
57.002143
 11
80.920380
 21
57.550028
  0
LINE
  8
1
 62
2
  6
CONTINUOUS
 10
81.220380
 20
57.788494
 11
81.070381
 21
57.669257
  0
LINE
  8
1
 62
2
  6
CONTINUOUS
 10
81.070381
 20
57.669257
 11
80.920380
 21
57.550028
  0
LINE
  8
1
 62
2
  6
CONTINUOUS
 10
80.920380
 20
57.550028
 11
73.770380
 21
57.550028
  0
LINE
  8
1
 62
2
  6
CONTINUOUS
 10
73.470380
 20
57.788494
 11
81.220380
 21
57.788494
  0
LINE
  8
1
 62
2
  6
CONTINUOUS
 10
80.920380
 20
57.002143
 11
73.770380
 21
57.002143
  0
LINE
  8
1
 62
2
  6
CONTINUOUS
 10
73.470380
 20
56.761886
 11
81.220380
 21
56.761886
  0
LINE
  8
1
 62
2
  6
CONTINUOUS
 10
80.920380
 20
56.484187
 11
73.770380
 21
56.484187
  0
LINE
  8
1
 62
2
  6
CONTINUOUS
 10
73.770380
 20
56.484187
 11
73.620379
 21
56.623032
  0
LINE
  8
1
 62
2
  6
CONTINUOUS
 10
73.620379
 20
56.623032
 11
73.470380
 21
56.761886
  0
LINE
  8
1
 62
2
  6
CONTINUOUS
 10
81.220380
 20
56.761886
 11
81.070381
 21
56.623032
  0
LINE
  8
1
 62
2
  6
CONTINUOUS
 10
81.070381
 20
56.623032
 11
80.920380
 21
56.484187
  0
LINE
  8
1
 62
2
  6
CONTINUOUS
 10
73.470380
 20
56.417471
 11
73.620379
 21
56.278617
  0
LINE
  8
1
 62
2
  6
CONTINUOUS
 10
73.620379
 20
56.278617
 11
73.770380
 21
56.139772
  0
LINE
  8
1
 62
2
  6
CONTINUOUS
 10
80.920380
 20
56.139772
 11
73.770380
 21
56.139772
  0
LINE
  8
1
 62
2
  6
CONTINUOUS
 10
80.920380
 20
56.139772
 11
81.070381
 21
56.278617
  0
LINE
  8
1
 62
2
  6
CONTINUOUS
 10
81.070381
 20
56.278617
 11
81.220380
 21
56.417471
  0
LINE
  8
1
 62
2
  6
CONTINUOUS
 10
73.770380
 20
56.484187
 11
73.770380
 21
56.139772
  0
LINE
  8
1
 62
2
  6
CONTINUOUS
 10
80.920380
 20
56.139772
 11
80.920380
 21
56.484187
  0
LINE
  8
1
 62
2
  6
CONTINUOUS
 10
80.920380
 20
58.282529
 11
81.070381
 21
58.374016
  0
LINE
  8
1
 62
2
  6
CONTINUOUS
 10
81.070381
 20
58.374016
 11
81.220380
 21
58.465510
  0
LINE
  8
1
 62
2
  6
CONTINUOUS
 10
80.920380
 20
58.282529
 11
80.920380
 21
58.996547
  0
LINE
  8
1
 62
2
  6
CONTINUOUS
 10
81.220380
 20
59.179528
 11
81.070381
 21
59.088034
  0
LINE
  8
1
 62
2
  6
CONTINUOUS
 10
81.070381
 20
59.088034
 11
80.920380
 21
58.996547
  0
LINE
  8
1
 62
2
  6
CONTINUOUS
 10
80.920380
 20
58.996547
 11
73.770380
 21
58.996547
  0
LINE
  8
1
 62
2
  6
CONTINUOUS
 10
80.920380
 20
58.282529
 11
73.770380
 21
58.282529
  0
LINE
  8
1
 62
2
  6
CONTINUOUS
 10
80.920380
 20
55.871658
 11
73.770380
 21
55.871658
  0
LINE
  8
1
 62
2
  6
CONTINUOUS
 10
73.770380
 20
55.871658
 11
73.620379
 21
56.020657
  0
LINE
  8
1
 62
2
  6
CONTINUOUS
 10
73.620379
 20
56.020657
 11
73.470380
 21
56.169666
  0
LINE
  8
1
 62
2
  6
CONTINUOUS
 10
80.952677
 20
56.169666
 11
81.220380
 21
56.169666
  0
LINE
  8
1
 62
2
  6
CONTINUOUS
 10
73.470380
 20
56.169666
 11
73.738084
 21
56.169666
  0
LINE
  8
1
 62
2
  6
CONTINUOUS
 10
81.220380
 20
56.169666
 11
81.070381
 21
56.020657
  0
LINE
  8
1
 62
2
  6
CONTINUOUS
 10
81.070381
 20
56.020657
 11
80.920380
 21
55.871658
  0
LINE
  8
1
 62
2
  6
CONTINUOUS
 10
73.770380
 20
55.871658
 11
73.770380
 21
55.754184
  0
LINE
  8
1
 62
2
  6
CONTINUOUS
 10
73.470380
 20
56.052193
 11
73.620379
 21
55.903183
  0
LINE
  8
1
 62
2
  6
CONTINUOUS
 10
73.620379
 20
55.903183
 11
73.770380
 21
55.754184
  0
LINE
  8
1
 62
2
  6
CONTINUOUS
 10
80.920380
 20
55.754184
 11
73.770380
 21
55.754184
  0
LINE
  8
1
 62
2
  6
CONTINUOUS
 10
80.920380
 20
55.754184
 11
80.920380
 21
55.871658
  0
LINE
  8
1
 62
2
  6
CONTINUOUS
 10
80.920380
 20
55.754184
 11
81.070381
 21
55.903183
  0
LINE
  8
1
 62
2
  6
CONTINUOUS
 10
81.070381
 20
55.903183
 11
81.220380
 21
56.052193
  0
LINE
  8
1
 62
2
  6
CONTINUOUS
 10
73.770380
 20
55.754184
 11
73.620379
 21
55.903183
  0
LINE
  8
1
 62
2
  6
CONTINUOUS
 10
73.620379
 20
55.903183
 11
73.486645
 21
56.036035
  0
LINE
  8
1
 62
2
  6
CONTINUOUS
 10
80.920380
 20
61.725779
 11
81.070381
 21
61.745395
  0
LINE
  8
1
 62
2
  6
CONTINUOUS
 10
81.070381
 20
61.745395
 11
81.220380
 21
61.765012
  0
LINE
  8
1
 62
2
  6
CONTINUOUS
 10
80.920380
 20
61.725779
 11
80.920380
 21
62.618079
  0
LINE
  8
1
 62
2
  6
CONTINUOUS
 10
81.220380
 20
62.657313
 11
81.070381
 21
62.637695
  0
LINE
  8
1
 62
2
  6
CONTINUOUS
 10
81.070381
 20
62.637695
 11
80.920380
 21
62.618079
  0
LINE
  8
1
 62
2
  6
CONTINUOUS
 10
80.920380
 20
62.618079
 11
73.770380
 21
62.618079
  0
LINE
  8
1
 62
2
  6
CONTINUOUS
 10
80.920380
 20
61.725779
 11
73.770380
 21
61.725779
  0
LINE
  8
1
 62
2
  6
CONTINUOUS
 10
73.470380
 20
65.431879
 11
81.220380
 21
65.431879
  0
LINE
  8
1
 62
2
  6
CONTINUOUS
 10
80.920380
 20
65.546906
 11
81.070381
 21
65.489394
  0
LINE
  8
1
 62
2
  6
CONTINUOUS
 10
81.070381
 20
65.489394
 11
81.220380
 21
65.431879
  0
LINE
  8
1
 62
2
  6
CONTINUOUS
 10
80.920380
 20
65.546906
 11
80.920380
 21
66.378397
  0
LINE
  8
1
 62
2
  6
CONTINUOUS
 10
81.220380
 20
66.263370
 11
81.070381
 21
66.320886
  0
LINE
  8
1
 62
2
  6
CONTINUOUS
 10
81.070381
 20
66.320886
 11
80.920380
 21
66.378397
  0
LINE
  8
1
 62
2
  6
CONTINUOUS
 10
80.920380
 20
66.378397
 11
73.770380
 21
66.378397
  0
LINE
  8
1
 62
2
  6
CONTINUOUS
 10
80.920380
 20
65.546906
 11
73.770380
 21
65.546906
  0
LINE
  8
1
 62
2
  6
CONTINUOUS
 10
73.470380
 20
67.092542
 11
81.220380
 21
67.092542
  0
LINE
  8
1
 62
2
  6
CONTINUOUS
 10
80.920380
 20
67.275524
 11
81.070381
 21
67.184036
  0
LINE
  8
1
 62
2
  6
CONTINUOUS
 10
81.070381
 20
67.184036
 11
81.220380
 21
67.092542
  0
LINE
  8
1
 62
2
  6
CONTINUOUS
 10
80.920380
 20
67.275524
 11
80.920380
 21
67.989542
  0
LINE
  8
1
 62
2
  6
CONTINUOUS
 10
81.220380
 20
67.806560
 11
81.070381
 21
67.898054
  0
LINE
  8
1
 62
2
  6
CONTINUOUS
 10
81.070381
 20
67.898054
 11
80.920380
 21
67.989542
  0
LINE
  8
1
 62
2
  6
CONTINUOUS
 10
80.920380
 20
67.989542
 11
73.770380
 21
67.989542
  0
LINE
  8
1
 62
2
  6
CONTINUOUS
 10
80.920380
 20
67.275524
 11
73.770380
 21
67.275524
  0
LINE
  8
1
 62
2
  6
CONTINUOUS
 10
73.470380
 20
69.523523
 11
81.220380
 21
69.523523
  0
LINE
  8
1
 62
2
  6
CONTINUOUS
 10
73.470380
 20
69.523523
 11
73.620342
 21
69.689808
  0
LINE
  8
1
 62
2
  6
CONTINUOUS
 10
73.620342
 20
69.689808
 11
73.770380
 21
69.855410
  0
LINE
  8
1
 62
2
  6
CONTINUOUS
 10
73.770380
 20
69.855410
 11
80.920380
 21
69.855410
  0
LINE
  8
1
 62
2
  6
CONTINUOUS
 10
80.920380
 20
69.855410
 11
81.070419
 21
69.689808
  0
LINE
  8
1
 62
2
  6
CONTINUOUS
 10
81.070419
 20
69.689808
 11
81.220380
 21
69.523523
  0
LINE
  8
1
 62
2
  6
CONTINUOUS
 10
80.920380
 20
69.855410
 11
80.920380
 21
70.536035
  0
LINE
  8
1
 62
2
  6
CONTINUOUS
 10
73.770380
 20
70.536035
 11
73.770380
 21
69.855410
  0
LINE
  8
1
 62
2
  6
CONTINUOUS
 10
78.570380
 20
70.382413
 11
78.570380
 21
70.519124
  0
LINE
  8
1
 62
2
  6
CONTINUOUS
 10
77.070380
 20
70.519124
 11
78.570380
 21
70.519124
  0
LINE
  8
1
 62
2
  6
CONTINUOUS
 10
77.070380
 20
70.519124
 11
77.070380
 21
70.536035
  0
LINE
  8
1
 62
2
  6
CONTINUOUS
 10
76.570380
 20
70.382413
 11
77.070380
 21
70.466698
  0
LINE
  8
1
 62
2
  6
CONTINUOUS
 10
76.070380
 20
70.466698
 11
76.570380
 21
70.382413
  0
LINE
  8
1
 62
2
  6
CONTINUOUS
 10
75.570380
 20
70.519124
 11
76.028794
 21
70.473708
  0
LINE
  8
1
 62
2
  6
CONTINUOUS
 10
76.070380
 20
70.536035
 11
76.070380
 21
70.382413
  0
LINE
  8
1
 62
2
  6
CONTINUOUS
 10
76.070380
 20
70.382413
 11
78.570380
 21
70.382413
  0
LINE
  8
1
 62
2
  6
CONTINUOUS
 10
77.070380
 20
70.519124
 11
77.070380
 21
70.382413
  0
LINE
  8
1
 62
2
  6
CONTINUOUS
 10
72.690380
 20
58.561035
 11
72.690380
 21
67.649141
  0
LINE
  8
1
 62
2
  6
CONTINUOUS
 10
72.890380
 20
67.879254
 11
72.790311
 21
67.765548
  0
LINE
  8
1
 62
2
  6
CONTINUOUS
 10
72.790311
 20
67.765548
 11
72.690380
 21
67.649141
  0
LINE
  8
1
 62
2
  6
CONTINUOUS
 10
73.470380
 20
67.879254
 11
72.890380
 21
67.879254
  0
LINE
  8
1
 62
2
  6
CONTINUOUS
 10
81.720380
 20
60.820868
 11
81.720380
 21
56.236035
  0
LINE
  8
1
 62
2
  6
CONTINUOUS
 10
72.890380
 20
67.879254
 11
72.890380
 21
58.361035
  0
LINE
  8
1
 62
132
  6
DASHDOT
 10
67.583239
 20
63.136035
 11
118.006035
 21
63.136035
  0
LINE
  8
1
 62
132
  6
CONTINUOUS
 10
114.490380
 20
66.636035
 11
125.180025
 21
66.636035
  0
LINE
  8
1
 62
132
  6
CONTINUOUS
 10
114.490380
 20
59.636035
 11
122.846691
 21
59.636035
  0
DIMENSION
  8
2
 62
134
  6
CONTINUOUS
  2
*D18
 10
114.490380
 20
84.595800
 11
145.974536
 21
84.595800
 70
     0
  1
ｹｰﾌﾞﾙ長(標準2m)
 13
114.490380
 23
69.886035
 14
175.862166
 24
75.572997
 50
0.000000
  0
LINE
  8
2
 62
134
  6
CONTINUOUS
 10
85.283984
 20
56.203945
 11
91.155029
 21
47.528954
  0
LINE
  8
2
 62
134
  6
CONTINUOUS
 10
91.155029
 20
47.528954
 11
111.784092
 21
47.528954
  0
TEXT
  8
2
 62
134
  6
CONTINUOUS
 10
95.784092
 20
47.314902
 40
4.000000
 41
1.000000
  1
ﾍｯﾄﾞｺﾈｸﾀ
  7
KANJI
 50
0.000000
 51
0.000000
  0
LINE
  8
2
 62
134
  6
CONTINUOUS
 10
85.283984
 20
56.203945
 11
86.795446
 21
54.894180
  0
LINE
  8
2
 62
134
  6
CONTINUOUS
 10
85.283984
 20
56.203945
 11
85.938066
 21
54.313925
  0
LINE
  8
2
 62
134
  6
CONTINUOUS
 10
86.795446
 20
54.894180
 11
85.938066
 21
54.313925
  0
LINE
  8
2
 62
134
  6
CONTINUOUS
 10
85.554677
 20
55.803972
 11
86.310408
 21
55.149090
  0
LINE
  8
2
 62
134
  6
CONTINUOUS
 10
85.554677
 20
55.803972
 11
85.881718
 21
54.858962
  0
LINE
  8
2
 62
134
  6
CONTINUOUS
 10
86.310408
 20
55.149090
 11
85.881718
 21
54.858962
  0
LINE
  8
2
 62
134
  6
CONTINUOUS
 10
135.027849
 20
59.587025
 11
141.406103
 21
47.839092
  0
LINE
  8
2
 62
134
  6
CONTINUOUS
 10
141.406103
 20
47.839092
 11
164.888511
 21
47.839092
  0
TEXT
  8
2
 62
134
  6
CONTINUOUS
 10
142.888511
 20
47.839092
 40
4.000000
 41
1.000000
  1
　接続ｹｰﾌﾞﾙ
  7
KANJI
 50
0.000000
 51
0.000000
  0
LINE
  8
2
 62
134
  6
CONTINUOUS
 10
135.027849
 20
59.587025
 11
136.404524
 21
58.136244
  0
LINE
  8
2
 62
134
  6
CONTINUOUS
 10
135.027849
 20
59.587025
 11
135.494694
 21
57.642274
  0
LINE
  8
2
 62
134
  6
CONTINUOUS
 10
136.404524
 20
58.136244
 11
135.494694
 21
57.642274
  0
LINE
  8
2
 62
134
  6
CONTINUOUS
 10
135.258289
 20
59.162584
 11
135.946626
 21
58.437193
  0
LINE
  8
2
 62
134
  6
CONTINUOUS
 10
135.258289
 20
59.162584
 11
135.491711
 21
58.190208
  0
LINE
  8
2
 62
134
  6
CONTINUOUS
 10
135.946626
 20
58.437193
 11
135.491711
 21
58.190208
  0
DIMENSION
  8
2
 62
134
  6
CONTINUOUS
  2
*D19
 10
70.481417
 20
117.161146
 11
70.481417
 21
129.613214
 70
     0
  1
23
 13
132.637876
 23
117.161146
 14
73.428886
 24
140.161146
 50
90.000000
  0
LINE
  8
1
 62
7
  6
DASHDOT
 10
139.916370
 20
140.161146
 11
71.428886
 21
140.161146
  0
LINE
  8
1
 62
7
  6
DASHDOT
 10
92.551296
 20
140.161146
 11
77.798060
 21
140.161146
  0
LINE
  8
1
 62
14
  6
DOT
 10
90.653926
 20
127.661146
 11
90.653926
 21
152.661146
  0
LINE
  8
1
 62
14
  6
DOT
 10
90.653926
 20
152.661146
 11
92.245056
 21
152.661146
  0
ARC
  8
1
 62
14
  6
DOT
 10
37.793926
 20
140.161146
 40
55.860000
 50
-12.930779
 51
12.930779
  0
LINE
  8
1
 62
14
  6
DOT
 10
92.237379
 20
127.661146
 11
90.653926
 21
127.661146
  0
DIMENSION
  8
2
 62
7
  6
CONTINUOUS
  2
*D20
 10
79.137876
 20
188.255420
 11
65.509431
 21
188.255420
 70
     0
  1
測定距離
 13
79.137876
 23
183.661146
 14
51.964888
 24
188.255420
 50
180.000000
  0
DIMENSION
  8
2
 62
134
  6
CONTINUOUS
  2
*D21
 10
65.555259
 20
183.161146
 11
65.555259
 21
140.161146
 70
     0
  1
φ86
 13
76.637876
 23
183.161146
 14
76.637876
 24
97.161146
 50
-90.000000
  0
LINE
  8
1
 62
7
  6
CONTINUOUS
 10
79.137876
 20
152.711146
 11
79.137876
 21
162.161146
  0
LINE
  8
1
 62
7
  6
CONTINUOUS
 10
79.137876
 20
127.611154
 11
79.137876
 21
118.161146
  0
LINE
  8
1
 62
7
  6
CONTINUOUS
 10
78.637876
 20
183.161146
 11
79.137876
 21
182.661146
  0
LINE
  8
1
 62
7
  6
CONTINUOUS
 10
78.137876
 20
182.661146
 11
78.637876
 21
183.161146
  0
LINE
  8
1
 62
7
  6
CONTINUOUS
 10
78.637876
 20
97.161146
 11
79.137876
 21
97.661146
  0
LINE
  8
1
 62
7
  6
CONTINUOUS
 10
78.137876
 20
182.661146
 11
78.137876
 21
97.661146
  0
LINE
  8
1
 62
7
  6
CONTINUOUS
 10
78.637876
 20
97.161146
 11
78.137876
 21
97.661146
  0
LINE
  8
1
 62
7
  6
CONTINUOUS
 10
79.137876
 20
182.661146
 11
79.137876
 21
152.711146
  0
LINE
  8
1
 62
7
  6
CONTINUOUS
 10
79.137876
 20
127.611154
 11
79.137876
 21
97.661146
  0
LINE
  8
1
 62
7
  6
DOT
 10
77.137876
 20
128.961150
 11
84.137876
 21
128.961150
  0
LINE
  8
1
 62
7
  6
DOT
 10
77.137876
 20
151.361150
 11
84.137876
 21
151.361150
  0
LINE
  8
1
 62
7
  6
DOT
 10
80.137876
 20
153.169213
 11
83.837876
 21
153.169213
  0
LINE
  8
1
 62
7
  6
DOT
 10
84.137876
 20
128.961150
 11
84.137876
 21
152.869221
  0
LINE
  8
1
 62
7
  6
DOT
 10
83.837876
 20
127.153079
 11
84.137876
 21
127.453079
  0
LINE
  8
1
 62
7
  6
DOT
 10
84.137876
 20
128.961150
 11
84.137876
 21
127.453079
  0
LINE
  8
1
 62
7
  6
DOT
 10
80.137876
 20
127.153079
 11
83.837876
 21
127.153079
  0
LINE
  8
1
 62
7
  6
DOT
 10
80.137876
 20
127.611154
 11
84.137876
 21
127.611154
  0
LINE
  8
1
 62
7
  6
DOT
 10
80.137876
 20
127.611154
 11
80.137876
 21
127.153079
  0
LINE
  8
1
 62
7
  6
DOT
 10
79.137876
 20
127.611154
 11
80.137876
 21
127.611154
  0
LINE
  8
1
 62
7
  6
DOT
 10
83.837876
 20
153.169221
 11
84.137876
 21
152.869221
  0
LINE
  8
1
 62
7
  6
DOT
 10
80.137876
 20
152.711146
 11
84.137876
 21
152.711146
  0
LINE
  8
1
 62
7
  6
DOT
 10
80.137876
 20
152.711146
 11
80.137876
 21
153.169221
  0
LINE
  8
1
 62
7
  6
DOT
 10
79.137876
 20
152.711146
 11
80.137876
 21
152.711146
  0
LINE
  8
1
 62
54
  6
CONTINUOUS
 10
76.137876
 20
151.661145
 11
76.137876
 21
151.661148
  0
LINE
  8
1
 62
54
  6
CONTINUOUS
 10
76.137876
 20
154.661145
 11
76.637876
 21
155.161145
  0
LINE
  8
1
 62
54
  6
CONTINUOUS
 10
76.137876
 20
125.661145
 11
76.637876
 21
125.161145
  0
LINE
  8
1
 62
54
  6
CONTINUOUS
 10
76.137876
 20
125.661149
 11
76.137876
 21
154.661145
  0
LINE
  8
1
 62
7
  6
DASHDOT
 10
73.990151
 20
140.161146
 11
84.869842
 21
140.161146
  0
LINE
  8
1
 62
54
  6
CONTINUOUS
 10
78.137876
 20
125.161146
 11
78.137876
 21
127.603071
  0
LINE
  8
1
 62
54
  6
CONTINUOUS
 10
78.137876
 20
125.161146
 11
76.637876
 21
125.161145
  0
LINE
  8
1
 62
54
  6
CONTINUOUS
 10
78.137876
 20
155.161146
 11
78.137876
 21
152.719221
  0
LINE
  8
1
 62
54
  6
CONTINUOUS
 10
78.137876
 20
155.161146
 11
76.637876
 21
155.161145
  0
LINE
  8
1
 62
54
  6
DOT
 10
78.637876
 20
152.719221
 11
78.137876
 21
152.719221
  0
LINE
  8
1
 62
54
  6
DOT
 10
78.637876
 20
153.161146
 11
81.837876
 21
153.161146
  0
LINE
  8
1
 62
54
  6
DOT
 10
82.137876
 20
152.719221
 11
78.637876
 21
152.719221
  0
LINE
  8
1
 62
54
  6
DOT
 10
78.637876
 20
153.161146
 11
78.637876
 21
152.719221
  0
LINE
  8
1
 62
54
  6
DOT
 10
78.637876
 20
127.603071
 11
78.137876
 21
127.603071
  0
LINE
  8
1
 62
54
  6
DOT
 10
78.637876
 20
127.603071
 11
78.137876
 21
127.603071
  0
LINE
  8
1
 62
54
  6
DOT
 10
78.637876
 20
127.161146
 11
81.837876
 21
127.161146
  0
LINE
  8
1
 62
54
  6
DOT
 10
78.637876
 20
127.161146
 11
78.637876
 21
127.603071
  0
LINE
  8
1
 62
54
  6
DOT
 10
82.137876
 20
127.603071
 11
78.637876
 21
127.603071
  0
LINE
  8
1
 62
54
  6
DOT
 10
82.137876
 20
127.461146
 11
81.837876
 21
127.161146
  0
LINE
  8
1
 62
54
  6
DOT
 10
82.137876
 20
152.861146
 11
82.137876
 21
127.461146
  0
LINE
  8
1
 62
54
  6
DOT
 10
81.837876
 20
153.161146
 11
82.137876
 21
152.861146
  0
LINE
  8
1
 62
54
  6
DOT
 10
82.137876
 20
128.761146
 11
76.137876
 21
128.761148
  0
LINE
  8
1
 62
54
  6
DOT
 10
82.137876
 20
151.561147
 11
76.137876
 21
151.561145
  0
DIMENSION
  8
2
 62
134
  6
CONTINUOUS
  2
*D22
 10
78.137876
 20
167.243681
 11
82.137876
 21
167.243681
 70
     0
  1
1
 13
78.137876
 23
167.243681
 14
79.137876
 24
167.243681
 50
0.000000
  0
DIMENSION
  8
2
 62
134
  6
CONTINUOUS
  2
*D23
 10
76.137876
 20
160.667350
 11
72.195377
 21
160.667350
 70
     0
  1
2
 13
76.137876
 23
155.661145
 14
78.137876
 24
160.667350
 50
0.000000
  0
LINE
  8
1
 62
7
  6
CONTINUOUS
 10
79.137876
 20
154.561146
 11
79.637876
 21
155.061146
  0
LINE
  8
1
 62
7
  6
CONTINUOUS
 10
79.137876
 20
154.561146
 11
79.137876
 21
125.761146
  0
LINE
  8
1
 62
7
  6
CONTINUOUS
 10
79.137876
 20
125.761146
 11
79.637876
 21
125.261146
  0
LINE
  8
1
 62
7
  6
DASHDOT
 10
141.916370
 20
140.161146
 11
77.000940
 21
140.161146
  0
LINE
  8
1
 62
7
  6
CONTINUOUS
 10
79.637876
 20
155.061146
 11
131.637876
 21
155.061146
  0
LINE
  8
1
 62
7
  6
CONTINUOUS
 10
131.637876
 20
155.061146
 11
132.137876
 21
154.561146
  0
LINE
  8
1
 62
7
  6
CONTINUOUS
 10
79.637876
 20
125.261146
 11
131.637876
 21
125.261146
  0
LINE
  8
1
 62
250
  6
CONTINUOUS
 10
132.137876
 20
129.661146
 11
132.137876
 21
125.761146
  0
LINE
  8
1
 62
7
  6
CONTINUOUS
 10
131.637876
 20
125.261146
 11
132.137876
 21
125.761146
  0
LINE
  8
1
 62
7
  6
CONTINUOUS
 10
79.637876
 20
125.261146
 11
79.637876
 21
155.061146
  0
LINE
  8
1
 62
7
  6
CONTINUOUS
 10
131.637876
 20
125.261146
 11
131.637876
 21
155.061146
  0
LINE
  8
1
 62
250
  6
CONTINUOUS
 10
132.137876
 20
154.561146
 11
132.137876
 21
129.561146
  0
LINE
  8
2
 62
134
  6
CONTINUOUS
 10
79.137876
 20
99.934212
 11
82.137876
 21
92.735040
  0
LINE
  8
2
 62
134
  6
CONTINUOUS
 10
82.137876
 20
92.735040
 11
99.508952
 21
92.735040
  0
TEXT
  8
2
 62
134
  6
CONTINUOUS
 10
87.508952
 20
92.735040
 40
4.000000
 41
1.000000
  1
遮光板
  7
KANJI
 50
0.000000
 51
0.000000
  0
LINE
  8
2
 62
134
  6
CONTINUOUS
 10
79.137876
 20
99.934212
 11
80.358781
 21
98.350106
  0
LINE
  8
2
 62
134
  6
CONTINUOUS
 10
79.137876
 20
99.934212
 11
79.403157
 21
97.951884
  0
LINE
  8
2
 62
134
  6
CONTINUOUS
 10
80.358781
 20
98.350106
 11
79.403157
 21
97.951884
  0
LINE
  8
2
 62
134
  6
CONTINUOUS
 10
79.323649
 20
99.488408
 11
79.934102
 21
98.696355
  0
LINE
  8
2
 62
134
  6
CONTINUOUS
 10
79.323649
 20
99.488408
 11
79.456290
 21
98.497244
  0
LINE
  8
2
 62
134
  6
CONTINUOUS
 10
79.934102
 20
98.696355
 11
79.456290
 21
98.497244
  0
TEXT
  8
2
 62
134
  6
CONTINUOUS
 10
82.137876
 20
87.770810
 40
4.000000
 41
1.000000
  1
TMVX-25-50
  7
KANJI
 50
0.000000
 51
0.000000
  0
DIMENSION
  8
2
 62
134
  6
CONTINUOUS
  2
*D24
 10
104.264321
 20
125.261146
 11
104.264321
 21
146.165542
 70
     0
  1
φ29.8
 13
86.837876
 23
125.261146
 14
80.837876
 24
155.061146
 50
90.000000
  0
TEXT
  8
5
 62
7
  6
CONTINUOUS
 10
239.974338
 20
28.437914
 40
4.000000
 41
1.000000
  1
ＨＸ－Ｄ５
  7
KANJI
 50
0.000000
 51
0.000000
  0
TEXT
  8
5
 62
7
  6
CONTINUOUS
 10
236.256363
 20
20.406457
 40
4.000000
 41
1.000000
  1
００５－０６８－Ａ００８
  7
KANJI
 50
0.000000
 51
0.000000
  0
TEXT
  8
5
 62
7
  6
CONTINUOUS
 10
172.772351
 20
27.782285
 40
4.000000
 41
1.000000
  1
2016/3/11
  7
KANJI
 50
0.000000
 51
0.000000
  0
TEXT
  8
5
 62
7
  6
CONTINUOUS
 10
196.211093
 20
19.750828
 40
4.000000
 41
1.000000
  1
保田
  7
KANJI
 50
0.810149
 51
0.000000
  0
TEXT
  8
5
 62
7
  6
CONTINUOUS
 10
216.207781
 20
19.914735
 40
4.000000
 41
1.000000
  1
保田
  7
KANJI
 50
-0.112820
 51
0.000000
  0
ARC
  8
1
 62
2
  6
CONTINUOUS
 10
183.337876
 20
147.311146
 40
0.200000
 50
90.000000
 51
180.000000
  0
ARC
  8
1
 62
2
  6
CONTINUOUS
 10
184.537876
 20
147.311146
 40
0.200000
 50
-89.230975
 51
-89.187365
  0
ARC
  8
1
 62
2
  6
CONTINUOUS
 10
184.537876
 20
147.311146
 40
0.200000
 50
-89.143735
 51
-88.819498
  0
ARC
  8
1
 62
2
  6
CONTINUOUS
 10
184.537876
 20
147.311146
 40
0.200000
 50
-88.640266
 51
-84.763088
  0
LINE
  8
1
 62
2
  6
CONTINUOUS
 10
184.919282
 20
139.033422
 11
184.937876
 21
139.033422
  0
LINE
  8
1
 62
2
  6
CONTINUOUS
 10
184.736077
 20
137.474217
 11
184.738179
 21
137.474217
  0
LINE
  8
1
 62
2
  6
CONTINUOUS
 10
184.736077
 20
137.390006
 11
184.737995
 21
137.390006
  0
LINE
  8
1
 62
2
  6
CONTINUOUS
 10
184.537876
 20
147.511146
 11
183.337876
 21
147.511146
  0
LINE
  8
1
 62
2
  6
CONTINUOUS
 10
184.537876
 20
132.211146
 11
183.337876
 21
132.211146
  0
LINE
  8
1
 62
2
  6
CONTINUOUS
 10
184.736077
 20
137.468422
 11
184.738167
 21
137.468422
  0
LINE
  8
1
 62
2
  6
CONTINUOUS
 10
184.919231
 20
139.031146
 11
184.937876
 21
139.031146
  0
ARC
  8
1
 62
2
  6
CONTINUOUS
 10
184.937876
 20
133.261146
 40
0.200000
 50
90.000000
 51
180.000000
  0
ARC
  8
1
 62
2
  6
CONTINUOUS
 10
184.937876
 20
146.461146
 40
0.200000
 50
180.000000
 51
-90.000000
  0
ARC
  8
1
 62
2
  6
CONTINUOUS
 10
184.537876
 20
132.411146
 40
0.200000
 50
83.421437
 51
84.763088
  0
ARC
  8
1
 62
2
  6
CONTINUOUS
 10
184.537876
 20
132.411146
 40
0.200000
 50
-90.000000
 51
0.000000
  0
ARC
  8
1
 62
2
  6
CONTINUOUS
 10
184.537876
 20
147.311146
 40
0.200000
 50
7.692308
 51
90.000000
  0
LINE
  8
1
 62
2
  6
CONTINUOUS
 10
183.137876
 20
132.411146
 11
183.137876
 21
132.664999
  0
ARC
  8
1
 62
2
  6
CONTINUOUS
 10
183.337876
 20
132.411146
 40
0.200000
 50
180.000000
 51
-90.000000
  0
LINE
  8
1
 62
2
  6
CONTINUOUS
 10
184.537876
 20
132.211146
 11
183.337876
 21
132.211146
  0
LINE
  8
1
 62
2
  6
CONTINUOUS
 10
184.537876
 20
147.511146
 11
183.337876
 21
147.511146
  0
LINE
  8
1
 62
2
  6
CONTINUOUS
 10
183.137876
 20
135.258209
 11
183.137876
 21
135.325874
  0
LINE
  8
1
 62
2
  6
CONTINUOUS
 10
184.737876
 20
147.311146
 11
184.737876
 21
132.411146
  0
LINE
  8
1
 62
2
  6
CONTINUOUS
 10
184.737876
 20
134.145379
 11
184.737876
 21
134.593201
  0
LINE
  8
1
 62
2
  6
CONTINUOUS
 10
183.137876
 20
132.411146
 11
183.137876
 21
147.311146
  0
LINE
  8
1
 62
2
  6
CONTINUOUS
 10
183.137876
 20
132.664999
 11
183.137876
 21
132.411146
  0
LINE
  8
1
 62
2
  6
CONTINUOUS
 10
184.937876
 20
146.261146
 11
184.937876
 21
133.461146
  0
LINE
  8
1
 62
2
  6
CONTINUOUS
 10
183.337876
 20
147.511146
 11
183.337876
 21
132.211146
  0
LINE
  8
1
 62
2
  6
CONTINUOUS
 10
184.537876
 20
147.511146
 11
184.537876
 21
132.211146
  0
ARC
  8
1
 62
2
  6
CONTINUOUS
 10
184.537876
 20
147.311146
 40
0.200000
 50
-9.731036
 51
90.000000
  0
LINE
  8
1
 62
2
  6
CONTINUOUS
 10
185.717876
 20
146.261146
 11
184.937876
 21
146.261146
  0
LINE
  8
1
 62
2
  6
CONTINUOUS
 10
185.717876
 20
133.461146
 11
184.937876
 21
133.461146
  0
LINE
  8
1
 62
2
  6
CONTINUOUS
 10
185.717876
 20
133.461146
 11
184.937876
 21
133.461146
  0
LINE
  8
1
 62
2
  6
CONTINUOUS
 10
185.717876
 20
146.261146
 11
184.937876
 21
146.261146
  0
LINE
  8
1
 62
2
  6
CONTINUOUS
 10
193.967876
 20
146.761146
 11
193.467876
 21
146.261146
  0
LINE
  8
1
 62
2
  6
CONTINUOUS
 10
193.967876
 20
132.961146
 11
193.467876
 21
133.461146
  0
LINE
  8
1
 62
2
  6
CONTINUOUS
 10
185.137876
 20
135.086146
 11
185.717876
 21
135.086146
  0
LINE
  8
1
 62
2
  6
CONTINUOUS
 10
197.467876
 20
146.761146
 11
193.967876
 21
146.761146
  0
LINE
  8
1
 62
2
  6
CONTINUOUS
 10
185.137876
 20
135.086146
 11
184.937876
 21
135.286146
  0
LINE
  8
1
 62
2
  6
CONTINUOUS
 10
212.967876
 20
146.111146
 11
215.237876
 21
146.111146
  0
LINE
  8
1
 62
2
  6
CONTINUOUS
 10
212.967876
 20
133.611146
 11
215.237876
 21
133.611146
  0
LINE
  8
1
 62
2
  6
CONTINUOUS
 10
197.467876
 20
132.961146
 11
193.967876
 21
132.961146
  0
LINE
  8
1
 62
2
  6
CONTINUOUS
 10
197.467876
 20
146.761146
 11
212.967876
 21
146.111146
  0
LINE
  8
1
 62
2
  6
CONTINUOUS
 10
197.467876
 20
132.961146
 11
212.967876
 21
133.611146
  0
LINE
  8
1
 62
2
  6
CONTINUOUS
 10
226.037876
 20
132.661146
 11
226.737876
 21
133.361146
  0
LINE
  8
1
 62
2
  6
CONTINUOUS
 10
226.037876
 20
147.061146
 11
226.737876
 21
146.361146
  0
LINE
  8
1
 62
2
  6
CONTINUOUS
 10
185.137876
 20
135.086146
 11
185.717876
 21
135.086146
  0
LINE
  8
1
 62
2
  6
CONTINUOUS
 10
193.167876
 20
147.261146
 11
193.467876
 21
146.961146
  0
LINE
  8
1
 62
2
  6
CONTINUOUS
 10
185.137876
 20
135.086146
 11
184.937876
 21
135.286146
  0
LINE
  8
1
 62
2
  6
CONTINUOUS
 10
186.017876
 20
147.261146
 11
185.717876
 21
146.961146
  0
LINE
  8
1
 62
2
  6
CONTINUOUS
 10
193.167876
 20
147.261146
 11
189.317876
 21
147.261146
  0
LINE
  8
1
 62
2
  6
CONTINUOUS
 10
188.317876
 20
147.261146
 11
186.017876
 21
147.261146
  0
LINE
  8
1
 62
2
  6
CONTINUOUS
 10
185.734259
 20
132.761146
 11
185.717876
 21
132.761146
  0
LINE
  8
1
 62
2
  6
CONTINUOUS
 10
193.467876
 20
132.761146
 11
193.451611
 21
132.761146
  0
LINE
  8
1
 62
2
  6
CONTINUOUS
 10
197.467876
 20
132.961146
 11
193.967876
 21
132.961146
  0
LINE
  8
1
 62
2
  6
CONTINUOUS
 10
193.967876
 20
132.961146
 11
193.467876
 21
133.461146
  0
LINE
  8
1
 62
2
  6
CONTINUOUS
 10
193.967876
 20
146.761146
 11
193.467876
 21
146.261146
  0
LINE
  8
1
 62
2
  6
CONTINUOUS
 10
197.467876
 20
146.761146
 11
193.967876
 21
146.761146
  0
LINE
  8
1
 62
2
  6
CONTINUOUS
 10
197.467876
 20
132.961146
 11
212.967876
 21
133.611146
  0
LINE
  8
1
 62
2
  6
CONTINUOUS
 10
197.467876
 20
146.761146
 11
212.967876
 21
146.111146
  0
LINE
  8
1
 62
2
  6
CONTINUOUS
 10
212.967876
 20
133.611146
 11
215.237876
 21
133.611146
  0
LINE
  8
1
 62
2
  6
CONTINUOUS
 10
212.967876
 20
146.111146
 11
215.237876
 21
146.111146
  0
LINE
  8
1
 62
2
  6
CONTINUOUS
 10
226.037876
 20
147.061146
 11
226.737876
 21
146.361146
  0
LINE
  8
1
 62
2
  6
CONTINUOUS
 10
226.037876
 20
132.661146
 11
226.737876
 21
133.361146
  0
LINE
  8
1
 62
2
  6
CONTINUOUS
 10
226.737876
 20
146.361146
 11
226.737876
 21
133.361146
  0
LINE
  8
1
 62
2
  6
CONTINUOUS
 10
225.737876
 20
146.786524
 11
215.537876
 21
146.786524
  0
LINE
  8
1
 62
2
  6
CONTINUOUS
 10
225.737876
 20
145.817198
 11
225.829303
 21
145.831830
  0
LINE
  8
1
 62
2
  6
CONTINUOUS
 10
225.829303
 20
145.831830
 11
225.868126
 21
145.843992
  0
LINE
  8
1
 62
2
  6
CONTINUOUS
 10
225.868126
 20
145.843992
 11
225.925961
 21
145.872520
  0
LINE
  8
1
 62
2
  6
CONTINUOUS
 10
225.925961
 20
145.872520
 11
225.939121
 21
145.881509
  0
LINE
  8
1
 62
2
  6
CONTINUOUS
 10
225.939121
 20
145.881509
 11
226.009244
 21
145.963454
  0
LINE
  8
1
 62
2
  6
CONTINUOUS
 10
226.009244
 20
145.963454
 11
226.013941
 21
145.973308
  0
LINE
  8
1
 62
2
  6
CONTINUOUS
 10
226.013941
 20
145.973308
 11
226.035104
 21
146.050921
  0
LINE
  8
1
 62
2
  6
CONTINUOUS
 10
226.035104
 20
146.050921
 11
226.037357
 21
146.076342
  0
LINE
  8
1
 62
2
  6
CONTINUOUS
 10
226.037357
 20
146.076342
 11
226.037876
 21
146.096551
  0
LINE
  8
1
 62
2
  6
CONTINUOUS
 10
226.037876
 20
146.096551
 11
226.022535
 21
146.218401
  0
LINE
  8
1
 62
2
  6
CONTINUOUS
 10
226.022535
 20
146.218401
 11
226.013940
 21
146.251905
  0
LINE
  8
1
 62
2
  6
CONTINUOUS
 10
226.013940
 20
146.251905
 11
225.975860
 21
146.362006
  0
LINE
  8
1
 62
2
  6
CONTINUOUS
 10
225.975860
 20
146.362006
 11
225.965278
 21
146.387349
  0
LINE
  8
1
 62
2
  6
CONTINUOUS
 10
225.965278
 20
146.387349
 11
225.925962
 21
146.471776
  0
LINE
  8
1
 62
2
  6
CONTINUOUS
 10
225.925962
 20
146.471776
 11
225.868127
 21
146.579373
  0
LINE
  8
1
 62
2
  6
CONTINUOUS
 10
225.868127
 20
146.579373
 11
225.867438
 21
146.580576
  0
LINE
  8
1
 62
2
  6
CONTINUOUS
 10
225.867438
 20
146.580576
 11
225.737876
 21
146.786524
  0
LINE
  8
1
 62
2
  6
CONTINUOUS
 10
225.737876
 20
145.817198
 11
215.537876
 21
145.817198
  0
LINE
  8
1
 62
2
  6
CONTINUOUS
 10
215.237876
 20
146.096529
 11
215.238397
 21
146.076302
  0
LINE
  8
1
 62
2
  6
CONTINUOUS
 10
215.238397
 20
146.076302
 11
215.266520
 21
145.963433
  0
LINE
  8
1
 62
2
  6
CONTINUOUS
 10
215.266520
 20
145.963433
 11
215.282323
 21
145.936830
  0
LINE
  8
1
 62
2
  6
CONTINUOUS
 10
215.282323
 20
145.936830
 11
215.336619
 21
145.881519
  0
LINE
  8
1
 62
2
  6
CONTINUOUS
 10
215.336619
 20
145.881519
 11
215.370897
 21
145.860302
  0
LINE
  8
1
 62
2
  6
CONTINUOUS
 10
215.370897
 20
145.860302
 11
215.425882
 21
145.837717
  0
LINE
  8
1
 62
2
  6
CONTINUOUS
 10
215.425882
 20
145.837717
 11
215.446453
 21
145.831829
  0
LINE
  8
1
 62
2
  6
CONTINUOUS
 10
215.446453
 20
145.831829
 11
215.537876
 21
145.817198
  0
LINE
  8
1
 62
2
  6
CONTINUOUS
 10
215.537876
 20
146.786524
 11
215.481642
 21
146.701259
  0
LINE
  8
1
 62
2
  6
CONTINUOUS
 10
215.481642
 20
146.701259
 11
215.425881
 21
146.610736
  0
LINE
  8
1
 62
2
  6
CONTINUOUS
 10
215.425881
 20
146.610736
 11
215.425506
 21
146.610102
  0
LINE
  8
1
 62
2
  6
CONTINUOUS
 10
215.425506
 20
146.610102
 11
215.408324
 21
146.580592
  0
LINE
  8
1
 62
2
  6
CONTINUOUS
 10
215.408324
 20
146.580592
 11
215.370895
 21
146.512774
  0
LINE
  8
1
 62
2
  6
CONTINUOUS
 10
215.370895
 20
146.512774
 11
215.317395
 21
146.403200
  0
LINE
  8
1
 62
2
  6
CONTINUOUS
 10
215.317395
 20
146.403200
 11
215.310487
 21
146.387377
  0
LINE
  8
1
 62
2
  6
CONTINUOUS
 10
215.310487
 20
146.387377
 11
215.253224
 21
146.218430
  0
LINE
  8
1
 62
2
  6
CONTINUOUS
 10
215.253224
 20
146.218430
 11
215.237876
 21
146.096529
  0
LINE
  8
1
 62
2
  6
CONTINUOUS
 10
225.737876
 20
144.419155
 11
215.537876
 21
144.419155
  0
LINE
  8
1
 62
2
  6
CONTINUOUS
 10
225.737876
 20
142.740234
 11
225.782829
 21
142.785275
  0
LINE
  8
1
 62
2
  6
CONTINUOUS
 10
225.782829
 20
142.785275
 11
225.804895
 21
142.809710
  0
LINE
  8
1
 62
2
  6
CONTINUOUS
 10
225.804895
 20
142.809710
 11
225.868126
 21
142.890771
  0
LINE
  8
1
 62
2
  6
CONTINUOUS
 10
225.868126
 20
142.890771
 11
225.905597
 21
142.949311
  0
LINE
  8
1
 62
2
  6
CONTINUOUS
 10
225.905597
 20
142.949311
 11
225.925961
 21
142.985834
  0
LINE
  8
1
 62
2
  6
CONTINUOUS
 10
225.925961
 20
142.985834
 11
225.975861
 21
143.097770
  0
LINE
  8
1
 62
2
  6
CONTINUOUS
 10
225.975861
 20
143.097770
 11
225.989716
 21
143.138103
  0
LINE
  8
1
 62
2
  6
CONTINUOUS
 10
225.989716
 20
143.138103
 11
226.032496
 21
143.348719
  0
LINE
  8
1
 62
2
  6
CONTINUOUS
 10
226.032496
 20
143.348719
 11
226.037876
 21
143.461151
  0
LINE
  8
1
 62
2
  6
CONTINUOUS
 10
226.037876
 20
143.461151
 11
226.032496
 21
143.577741
  0
LINE
  8
1
 62
2
  6
CONTINUOUS
 10
226.032496
 20
143.577741
 11
225.989716
 21
143.821599
  0
LINE
  8
1
 62
2
  6
CONTINUOUS
 10
225.989716
 20
143.821599
 11
225.975860
 21
143.872746
  0
LINE
  8
1
 62
2
  6
CONTINUOUS
 10
225.975860
 20
143.872746
 11
225.925962
 21
144.023775
  0
LINE
  8
1
 62
2
  6
CONTINUOUS
 10
225.925962
 20
144.023775
 11
225.905597
 21
144.076332
  0
LINE
  8
1
 62
2
  6
CONTINUOUS
 10
225.905597
 20
144.076332
 11
225.868127
 21
144.164489
  0
LINE
  8
1
 62
2
  6
CONTINUOUS
 10
225.868127
 20
144.164489
 11
225.804895
 21
144.295873
  0
LINE
  8
1
 62
2
  6
CONTINUOUS
 10
225.804895
 20
144.295873
 11
225.782829
 21
144.337971
  0
LINE
  8
1
 62
2
  6
CONTINUOUS
 10
225.782829
 20
144.337971
 11
225.737876
 21
144.419155
  0
LINE
  8
1
 62
2
  6
CONTINUOUS
 10
225.737876
 20
142.740234
 11
215.537876
 21
142.740234
  0
LINE
  8
1
 62
2
  6
CONTINUOUS
 10
215.237876
 20
143.461146
 11
215.243266
 21
143.348618
  0
LINE
  8
1
 62
2
  6
CONTINUOUS
 10
215.243266
 20
143.348618
 11
215.282332
 21
143.149996
  0
LINE
  8
1
 62
2
  6
CONTINUOUS
 10
215.282332
 20
143.149996
 11
215.286036
 21
143.138103
  0
LINE
  8
1
 62
2
  6
CONTINUOUS
 10
215.286036
 20
143.138103
 11
215.370182
 21
142.949267
  0
LINE
  8
1
 62
2
  6
CONTINUOUS
 10
215.370182
 20
142.949267
 11
215.370897
 21
142.948053
  0
LINE
  8
1
 62
2
  6
CONTINUOUS
 10
215.370897
 20
142.948053
 11
215.425882
 21
142.865417
  0
LINE
  8
1
 62
2
  6
CONTINUOUS
 10
215.425882
 20
142.865417
 11
215.481642
 21
142.797556
  0
LINE
  8
1
 62
2
  6
CONTINUOUS
 10
215.481642
 20
142.797556
 11
215.492922
 21
142.785276
  0
LINE
  8
1
 62
2
  6
CONTINUOUS
 10
215.492922
 20
142.785276
 11
215.537876
 21
142.740234
  0
LINE
  8
1
 62
2
  6
CONTINUOUS
 10
215.537876
 20
144.419155
 11
215.492923
 21
144.337968
  0
LINE
  8
1
 62
2
  6
CONTINUOUS
 10
215.492923
 20
144.337968
 11
215.481642
 21
144.316652
  0
LINE
  8
1
 62
2
  6
CONTINUOUS
 10
215.481642
 20
144.316652
 11
215.425881
 21
144.204326
  0
LINE
  8
1
 62
2
  6
CONTINUOUS
 10
215.425881
 20
144.204326
 11
215.370895
 21
144.078170
  0
LINE
  8
1
 62
2
  6
CONTINUOUS
 10
215.370895
 20
144.078170
 11
215.370180
 21
144.076393
  0
LINE
  8
1
 62
2
  6
CONTINUOUS
 10
215.370180
 20
144.076393
 11
215.286036
 21
143.821599
  0
LINE
  8
1
 62
2
  6
CONTINUOUS
 10
215.286036
 20
143.821599
 11
215.282332
 21
143.806820
  0
LINE
  8
1
 62
2
  6
CONTINUOUS
 10
215.282332
 20
143.806820
 11
215.243266
 21
143.577849
  0
LINE
  8
1
 62
2
  6
CONTINUOUS
 10
215.243266
 20
143.577849
 11
215.237876
 21
143.461146
  0
LINE
  8
1
 62
2
  6
CONTINUOUS
 10
225.737876
 20
136.982058
 11
215.537876
 21
136.982058
  0
LINE
  8
1
 62
2
  6
CONTINUOUS
 10
225.737876
 20
135.303137
 11
225.782829
 21
135.384321
  0
LINE
  8
1
 62
2
  6
CONTINUOUS
 10
225.782829
 20
135.384321
 11
225.804895
 21
135.426420
  0
LINE
  8
1
 62
2
  6
CONTINUOUS
 10
225.804895
 20
135.426420
 11
225.868126
 21
135.557802
  0
LINE
  8
1
 62
2
  6
CONTINUOUS
 10
225.868126
 20
135.557802
 11
225.905597
 21
135.645960
  0
LINE
  8
1
 62
2
  6
CONTINUOUS
 10
225.905597
 20
135.645960
 11
225.925961
 21
135.698517
  0
LINE
  8
1
 62
2
  6
CONTINUOUS
 10
225.925961
 20
135.698517
 11
225.975861
 21
135.849552
  0
LINE
  8
1
 62
2
  6
CONTINUOUS
 10
225.975861
 20
135.849552
 11
225.989716
 21
135.900693
  0
LINE
  8
1
 62
2
  6
CONTINUOUS
 10
225.989716
 20
135.900693
 11
226.032496
 21
136.144552
  0
LINE
  8
1
 62
2
  6
CONTINUOUS
 10
226.032496
 20
136.144552
 11
226.037876
 21
136.261151
  0
LINE
  8
1
 62
2
  6
CONTINUOUS
 10
226.037876
 20
136.261151
 11
226.032496
 21
136.373574
  0
LINE
  8
1
 62
2
  6
CONTINUOUS
 10
226.032496
 20
136.373574
 11
225.989716
 21
136.584189
  0
LINE
  8
1
 62
2
  6
CONTINUOUS
 10
225.989716
 20
136.584189
 11
225.975860
 21
136.624526
  0
LINE
  8
1
 62
2
  6
CONTINUOUS
 10
225.975860
 20
136.624526
 11
225.925962
 21
136.736458
  0
LINE
  8
1
 62
2
  6
CONTINUOUS
 10
225.925962
 20
136.736458
 11
225.905597
 21
136.772981
  0
LINE
  8
1
 62
2
  6
CONTINUOUS
 10
225.905597
 20
136.772981
 11
225.868127
 21
136.831521
  0
LINE
  8
1
 62
2
  6
CONTINUOUS
 10
225.868127
 20
136.831521
 11
225.804895
 21
136.912582
  0
LINE
  8
1
 62
2
  6
CONTINUOUS
 10
225.804895
 20
136.912582
 11
225.782829
 21
136.937018
  0
LINE
  8
1
 62
2
  6
CONTINUOUS
 10
225.782829
 20
136.937018
 11
225.737876
 21
136.982058
  0
LINE
  8
1
 62
2
  6
CONTINUOUS
 10
225.737876
 20
135.303137
 11
215.537876
 21
135.303137
  0
LINE
  8
1
 62
2
  6
CONTINUOUS
 10
215.237876
 20
136.261146
 11
215.243266
 21
136.144443
  0
LINE
  8
1
 62
2
  6
CONTINUOUS
 10
215.243266
 20
136.144443
 11
215.282332
 21
135.915473
  0
LINE
  8
1
 62
2
  6
CONTINUOUS
 10
215.282332
 20
135.915473
 11
215.286036
 21
135.900693
  0
LINE
  8
1
 62
2
  6
CONTINUOUS
 10
215.286036
 20
135.900693
 11
215.370182
 21
135.645896
  0
LINE
  8
1
 62
2
  6
CONTINUOUS
 10
215.370182
 20
135.645896
 11
215.370897
 21
135.644119
  0
LINE
  8
1
 62
2
  6
CONTINUOUS
 10
215.370897
 20
135.644119
 11
215.425882
 21
135.517964
  0
LINE
  8
1
 62
2
  6
CONTINUOUS
 10
215.425882
 20
135.517964
 11
215.481642
 21
135.405639
  0
LINE
  8
1
 62
2
  6
CONTINUOUS
 10
215.481642
 20
135.405639
 11
215.492922
 21
135.384324
  0
LINE
  8
1
 62
2
  6
CONTINUOUS
 10
215.492922
 20
135.384324
 11
215.537876
 21
135.303137
  0
LINE
  8
1
 62
2
  6
CONTINUOUS
 10
215.537876
 20
136.982058
 11
215.492923
 21
136.937016
  0
LINE
  8
1
 62
2
  6
CONTINUOUS
 10
215.492923
 20
136.937016
 11
215.481642
 21
136.924736
  0
LINE
  8
1
 62
2
  6
CONTINUOUS
 10
215.481642
 20
136.924736
 11
215.425881
 21
136.856873
  0
LINE
  8
1
 62
2
  6
CONTINUOUS
 10
215.425881
 20
136.856873
 11
215.370895
 21
136.774236
  0
LINE
  8
1
 62
2
  6
CONTINUOUS
 10
215.370895
 20
136.774236
 11
215.370180
 21
136.773023
  0
LINE
  8
1
 62
2
  6
CONTINUOUS
 10
215.370180
 20
136.773023
 11
215.286036
 21
136.584189
  0
LINE
  8
1
 62
2
  6
CONTINUOUS
 10
215.286036
 20
136.584189
 11
215.282332
 21
136.572296
  0
LINE
  8
1
 62
2
  6
CONTINUOUS
 10
215.282332
 20
136.572296
 11
215.243266
 21
136.373675
  0
LINE
  8
1
 62
2
  6
CONTINUOUS
 10
215.243266
 20
136.373675
 11
215.237876
 21
136.261146
  0
LINE
  8
1
 62
2
  6
CONTINUOUS
 10
225.737876
 20
132.935769
 11
215.537876
 21
132.935769
  0
LINE
  8
1
 62
2
  6
CONTINUOUS
 10
215.237876
 20
133.625763
 11
215.253224
 21
133.503862
  0
LINE
  8
1
 62
2
  6
CONTINUOUS
 10
215.253224
 20
133.503862
 11
215.310487
 21
133.334915
  0
LINE
  8
1
 62
2
  6
CONTINUOUS
 10
215.310487
 20
133.334915
 11
215.317396
 21
133.319090
  0
LINE
  8
1
 62
2
  6
CONTINUOUS
 10
215.317396
 20
133.319090
 11
215.370897
 21
133.209515
  0
LINE
  8
1
 62
2
  6
CONTINUOUS
 10
215.370897
 20
133.209515
 11
215.408324
 21
133.141700
  0
LINE
  8
1
 62
2
  6
CONTINUOUS
 10
215.408324
 20
133.141700
 11
215.425507
 21
133.112188
  0
LINE
  8
1
 62
2
  6
CONTINUOUS
 10
215.425507
 20
133.112188
 11
215.425882
 21
133.111555
  0
LINE
  8
1
 62
2
  6
CONTINUOUS
 10
215.425882
 20
133.111555
 11
215.481642
 21
133.021033
  0
LINE
  8
1
 62
2
  6
CONTINUOUS
 10
215.481642
 20
133.021033
 11
215.537876
 21
132.935769
  0
LINE
  8
1
 62
2
  6
CONTINUOUS
 10
215.537876
 20
133.905094
 11
215.446453
 21
133.890463
  0
LINE
  8
1
 62
2
  6
CONTINUOUS
 10
215.446453
 20
133.890463
 11
215.425881
 21
133.884575
  0
LINE
  8
1
 62
2
  6
CONTINUOUS
 10
215.425881
 20
133.884575
 11
215.370895
 21
133.861990
  0
LINE
  8
1
 62
2
  6
CONTINUOUS
 10
215.370895
 20
133.861990
 11
215.336618
 21
133.840774
  0
LINE
  8
1
 62
2
  6
CONTINUOUS
 10
215.336618
 20
133.840774
 11
215.282323
 21
133.785462
  0
LINE
  8
1
 62
2
  6
CONTINUOUS
 10
215.282323
 20
133.785462
 11
215.266523
 21
133.758866
  0
LINE
  8
1
 62
2
  6
CONTINUOUS
 10
215.266523
 20
133.758866
 11
215.238397
 21
133.645989
  0
LINE
  8
1
 62
2
  6
CONTINUOUS
 10
215.238397
 20
133.645989
 11
215.237876
 21
133.625763
  0
LINE
  8
1
 62
2
  6
CONTINUOUS
 10
225.737876
 20
133.905094
 11
215.537876
 21
133.905094
  0
LINE
  8
1
 62
2
  6
CONTINUOUS
 10
225.737876
 20
132.935769
 11
225.867437
 21
133.141715
  0
LINE
  8
1
 62
2
  6
CONTINUOUS
 10
225.867437
 20
133.141715
 11
225.868126
 21
133.142918
  0
LINE
  8
1
 62
2
  6
CONTINUOUS
 10
225.868126
 20
133.142918
 11
225.925961
 21
133.250516
  0
LINE
  8
1
 62
2
  6
CONTINUOUS
 10
225.925961
 20
133.250516
 11
225.965278
 21
133.334943
  0
LINE
  8
1
 62
2
  6
CONTINUOUS
 10
225.965278
 20
133.334943
 11
225.975861
 21
133.360290
  0
LINE
  8
1
 62
2
  6
CONTINUOUS
 10
225.975861
 20
133.360290
 11
226.013941
 21
133.470394
  0
LINE
  8
1
 62
2
  6
CONTINUOUS
 10
226.013941
 20
133.470394
 11
226.022535
 21
133.503891
  0
LINE
  8
1
 62
2
  6
CONTINUOUS
 10
226.022535
 20
133.503891
 11
226.037876
 21
133.625746
  0
LINE
  8
1
 62
2
  6
CONTINUOUS
 10
226.037876
 20
133.625746
 11
226.037357
 21
133.645954
  0
LINE
  8
1
 62
2
  6
CONTINUOUS
 10
226.037357
 20
133.645954
 11
226.035103
 21
133.671376
  0
LINE
  8
1
 62
2
  6
CONTINUOUS
 10
226.035103
 20
133.671376
 11
226.013940
 21
133.748988
  0
LINE
  8
1
 62
2
  6
CONTINUOUS
 10
226.013940
 20
133.748988
 11
226.009244
 21
133.758838
  0
LINE
  8
1
 62
2
  6
CONTINUOUS
 10
226.009244
 20
133.758838
 11
225.939121
 21
133.840783
  0
LINE
  8
1
 62
2
  6
CONTINUOUS
 10
225.939121
 20
133.840783
 11
225.925962
 21
133.849772
  0
LINE
  8
1
 62
2
  6
CONTINUOUS
 10
225.925962
 20
133.849772
 11
225.868127
 21
133.878300
  0
LINE
  8
1
 62
2
  6
CONTINUOUS
 10
225.868127
 20
133.878300
 11
225.829302
 21
133.890463
  0
LINE
  8
1
 62
2
  6
CONTINUOUS
 10
225.829302
 20
133.890463
 11
225.737876
 21
133.905094
  0
LINE
  8
1
 62
2
  6
CONTINUOUS
 10
215.237876
 20
132.661146
 11
215.237876
 21
133.625763
  0
LINE
  8
1
 62
2
  6
CONTINUOUS
 10
215.537876
 20
132.424049
 11
215.537876
 21
132.935769
  0
LINE
  8
1
 62
2
  6
CONTINUOUS
 10
215.537876
 20
132.424049
 11
215.426915
 21
132.512872
  0
LINE
  8
1
 62
2
  6
CONTINUOUS
 10
215.426915
 20
132.512872
 11
215.425881
 21
132.513694
  0
LINE
  8
1
 62
2
  6
CONTINUOUS
 10
215.425881
 20
132.513694
 11
215.370895
 21
132.557213
  0
LINE
  8
1
 62
2
  6
CONTINUOUS
 10
215.370895
 20
132.557213
 11
215.323066
 21
132.594803
  0
LINE
  8
1
 62
2
  6
CONTINUOUS
 10
215.323066
 20
132.594803
 11
215.317395
 21
132.599243
  0
LINE
  8
1
 62
2
  6
CONTINUOUS
 10
215.317395
 20
132.599243
 11
215.267742
 21
132.637976
  0
LINE
  8
1
 62
2
  6
CONTINUOUS
 10
215.267742
 20
132.637976
 11
215.259364
 21
132.644486
  0
LINE
  8
1
 62
2
  6
CONTINUOUS
 10
215.259364
 20
132.644486
 11
215.237876
 21
132.661146
  0
LINE
  8
1
 62
2
  6
CONTINUOUS
 10
225.737876
 20
132.424049
 11
225.737876
 21
132.935769
  0
LINE
  8
1
 62
2
  6
CONTINUOUS
 10
225.737876
 20
132.424049
 11
215.537876
 21
132.424049
  0
LINE
  8
1
 62
2
  6
CONTINUOUS
 10
215.237876
 20
143.461146
 11
215.237876
 21
146.096529
  0
LINE
  8
1
 62
2
  6
CONTINUOUS
 10
215.237876
 20
139.861146
 11
215.237876
 21
143.461146
  0
LINE
  8
1
 62
2
  6
CONTINUOUS
 10
215.237876
 20
136.261146
 11
215.237876
 21
139.861146
  0
LINE
  8
1
 62
2
  6
CONTINUOUS
 10
215.237876
 20
133.625763
 11
215.237876
 21
136.261146
  0
LINE
  8
1
 62
2
  6
CONTINUOUS
 10
215.237876
 20
146.096529
 11
215.237876
 21
147.061146
  0
LINE
  8
1
 62
2
  6
CONTINUOUS
 10
215.537876
 20
146.786524
 11
215.537876
 21
147.298243
  0
LINE
  8
1
 62
2
  6
CONTINUOUS
 10
215.237876
 20
147.061146
 11
215.259364
 21
147.077807
  0
LINE
  8
1
 62
2
  6
CONTINUOUS
 10
215.259364
 20
147.077807
 11
215.267742
 21
147.084316
  0
LINE
  8
1
 62
2
  6
CONTINUOUS
 10
215.267742
 20
147.084316
 11
215.317395
 21
147.123049
  0
LINE
  8
1
 62
2
  6
CONTINUOUS
 10
215.317395
 20
147.123049
 11
215.323066
 21
147.127489
  0
LINE
  8
1
 62
2
  6
CONTINUOUS
 10
215.323066
 20
147.127489
 11
215.370895
 21
147.165080
  0
LINE
  8
1
 62
2
  6
CONTINUOUS
 10
215.370895
 20
147.165080
 11
215.425881
 21
147.208598
  0
LINE
  8
1
 62
2
  6
CONTINUOUS
 10
215.425881
 20
147.208598
 11
215.426915
 21
147.209420
  0
LINE
  8
1
 62
2
  6
CONTINUOUS
 10
215.426915
 20
147.209420
 11
215.537876
 21
147.298243
  0
LINE
  8
1
 62
2
  6
CONTINUOUS
 10
225.737876
 20
146.786524
 11
225.737876
 21
147.298243
  0
LINE
  8
1
 62
2
  6
CONTINUOUS
 10
225.737876
 20
147.298243
 11
215.537876
 21
147.298243
  0
LINE
  8
1
 62
2
  6
CONTINUOUS
 10
225.737876
 20
147.298243
 11
225.848824
 21
147.209431
  0
LINE
  8
1
 62
2
  6
CONTINUOUS
 10
225.848824
 20
147.209431
 11
225.878196
 21
147.186140
  0
LINE
  8
1
 62
2
  6
CONTINUOUS
 10
225.878196
 20
147.186140
 11
225.939307
 21
147.137981
  0
LINE
  8
1
 62
2
  6
CONTINUOUS
 10
225.939307
 20
147.137981
 11
225.952676
 21
147.127498
  0
LINE
  8
1
 62
2
  6
CONTINUOUS
 10
225.952676
 20
147.127498
 11
226.016398
 21
147.077799
  0
LINE
  8
1
 62
2
  6
CONTINUOUS
 10
226.016398
 20
147.077799
 11
226.037876
 21
147.061146
  0
LINE
  8
1
 62
2
  6
CONTINUOUS
 10
226.037876
 20
132.661146
 11
226.016398
 21
132.644493
  0
LINE
  8
1
 62
2
  6
CONTINUOUS
 10
226.016398
 20
132.644493
 11
225.952676
 21
132.594794
  0
LINE
  8
1
 62
2
  6
CONTINUOUS
 10
225.952676
 20
132.594794
 11
225.939303
 21
132.584309
  0
LINE
  8
1
 62
2
  6
CONTINUOUS
 10
225.939303
 20
132.584309
 11
225.878193
 21
132.536150
  0
LINE
  8
1
 62
2
  6
CONTINUOUS
 10
225.878193
 20
132.536150
 11
225.848824
 21
132.512861
  0
LINE
  8
1
 62
2
  6
CONTINUOUS
 10
225.848824
 20
132.512861
 11
225.737876
 21
132.424049
  0
LINE
  8
1
 62
2
  6
CONTINUOUS
 10
225.737876
 20
132.424049
 11
215.537876
 21
132.424049
  0
LINE
  8
1
 62
2
  6
CONTINUOUS
 10
215.537876
 20
133.905094
 11
215.537876
 21
135.303137
  0
LINE
  8
1
 62
2
  6
CONTINUOUS
 10
225.737876
 20
133.905094
 11
225.737876
 21
135.303137
  0
LINE
  8
1
 62
2
  6
CONTINUOUS
 10
225.737876
 20
137.168564
 11
222.737876
 21
137.168564
  0
LINE
  8
1
 62
2
  6
CONTINUOUS
 10
222.737876
 20
142.553729
 11
222.737876
 21
137.168564
  0
LINE
  8
1
 62
2
  6
CONTINUOUS
 10
225.737876
 20
142.553729
 11
222.737876
 21
142.553729
  0
LINE
  8
1
 62
2
  6
CONTINUOUS
 10
225.737876
 20
137.168564
 11
225.990941
 21
137.985495
  0
LINE
  8
1
 62
2
  6
CONTINUOUS
 10
225.990941
 20
137.985495
 11
226.002421
 21
138.030353
  0
LINE
  8
1
 62
2
  6
CONTINUOUS
 10
226.002421
 20
138.030353
 11
226.176571
 21
138.932695
  0
LINE
  8
1
 62
2
  6
CONTINUOUS
 10
226.176571
 20
138.932695
 11
226.177473
 21
138.939575
  0
LINE
  8
1
 62
2
  6
CONTINUOUS
 10
226.177473
 20
138.939575
 11
226.237876
 21
139.861154
  0
LINE
  8
1
 62
2
  6
CONTINUOUS
 10
226.237876
 20
139.861154
 11
226.177473
 21
140.782718
  0
LINE
  8
1
 62
2
  6
CONTINUOUS
 10
226.177473
 20
140.782718
 11
226.176572
 21
140.789599
  0
LINE
  8
1
 62
2
  6
CONTINUOUS
 10
226.176572
 20
140.789599
 11
226.002421
 21
141.691939
  0
LINE
  8
1
 62
2
  6
CONTINUOUS
 10
226.002421
 20
141.691939
 11
225.990941
 21
141.736798
  0
LINE
  8
1
 62
2
  6
CONTINUOUS
 10
225.990941
 20
141.736798
 11
225.737876
 21
142.553729
  0
LINE
  8
1
 62
2
  6
CONTINUOUS
 10
215.537876
 20
136.982058
 11
215.537876
 21
138.891821
  0
LINE
  8
1
 62
2
  6
CONTINUOUS
 10
222.300780
 20
138.891821
 11
215.537876
 21
138.891821
  0
LINE
  8
1
 62
2
  6
CONTINUOUS
 10
222.300780
 20
138.891821
 11
222.324427
 21
138.725015
  0
LINE
  8
1
 62
2
  6
CONTINUOUS
 10
222.324427
 20
138.725015
 11
222.493434
 21
137.919997
  0
LINE
  8
1
 62
2
  6
CONTINUOUS
 10
222.493434
 20
137.919997
 11
222.737876
 21
137.168564
  0
LINE
  8
1
 62
2
  6
CONTINUOUS
 10
225.737876
 20
136.982058
 11
225.737876
 21
137.168564
  0
LINE
  8
1
 62
2
  6
CONTINUOUS
 10
222.300780
 20
140.830471
 11
215.537876
 21
140.830471
  0
LINE
  8
1
 62
2
  6
CONTINUOUS
 10
222.300780
 20
138.891821
 11
222.337114
 21
138.964700
  0
LINE
  8
1
 62
2
  6
CONTINUOUS
 10
222.337114
 20
138.964700
 11
222.434645
 21
139.210480
  0
LINE
  8
1
 62
2
  6
CONTINUOUS
 10
222.434645
 20
139.210480
 11
222.448263
 21
139.253991
  0
LINE
  8
1
 62
2
  6
CONTINUOUS
 10
222.448263
 20
139.253991
 11
222.497313
 21
139.450582
  0
LINE
  8
1
 62
2
  6
CONTINUOUS
 10
222.497313
 20
139.450582
 11
222.500431
 21
139.466573
  0
LINE
  8
1
 62
2
  6
CONTINUOUS
 10
222.500431
 20
139.466573
 11
222.533642
 21
139.728923
  0
LINE
  8
1
 62
2
  6
CONTINUOUS
 10
222.533642
 20
139.728923
 11
222.533642
 21
139.993370
  0
LINE
  8
1
 62
2
  6
CONTINUOUS
 10
222.533642
 20
139.993370
 11
222.500431
 21
140.255720
  0
LINE
  8
1
 62
2
  6
CONTINUOUS
 10
222.500431
 20
140.255720
 11
222.497313
 21
140.271710
  0
LINE
  8
1
 62
2
  6
CONTINUOUS
 10
222.497313
 20
140.271710
 11
222.448263
 21
140.468302
  0
LINE
  8
1
 62
2
  6
CONTINUOUS
 10
222.448263
 20
140.468302
 11
222.434645
 21
140.511812
  0
LINE
  8
1
 62
2
  6
CONTINUOUS
 10
222.434645
 20
140.511812
 11
222.337114
 21
140.757592
  0
LINE
  8
1
 62
2
  6
CONTINUOUS
 10
222.337114
 20
140.757592
 11
222.300780
 21
140.830471
  0
LINE
  8
1
 62
2
  6
CONTINUOUS
 10
215.237876
 20
139.861146
 11
215.243266
 21
139.728799
  0
LINE
  8
1
 62
2
  6
CONTINUOUS
 10
215.243266
 20
139.728799
 11
215.282332
 21
139.481928
  0
LINE
  8
1
 62
2
  6
CONTINUOUS
 10
215.282332
 20
139.481928
 11
215.286036
 21
139.466530
  0
LINE
  8
1
 62
2
  6
CONTINUOUS
 10
215.286036
 20
139.466530
 11
215.370193
 21
139.210372
  0
LINE
  8
1
 62
2
  6
CONTINUOUS
 10
215.370193
 20
139.210372
 11
215.370907
 21
139.208645
  0
LINE
  8
1
 62
2
  6
CONTINUOUS
 10
215.370907
 20
139.208645
 11
215.425890
 21
139.088110
  0
LINE
  8
1
 62
2
  6
CONTINUOUS
 10
215.425890
 20
139.088110
 11
215.481647
 21
138.984088
  0
LINE
  8
1
 62
2
  6
CONTINUOUS
 10
215.481647
 20
138.984088
 11
215.492921
 21
138.964700
  0
LINE
  8
1
 62
2
  6
CONTINUOUS
 10
215.492921
 20
138.964700
 11
215.537876
 21
138.891821
  0
LINE
  8
1
 62
2
  6
CONTINUOUS
 10
215.537876
 20
140.830471
 11
215.492922
 21
140.757592
  0
LINE
  8
1
 62
2
  6
CONTINUOUS
 10
215.492922
 20
140.757592
 11
215.481646
 21
140.738204
  0
LINE
  8
1
 62
2
  6
CONTINUOUS
 10
215.481646
 20
140.738204
 11
215.425889
 21
140.634180
  0
LINE
  8
1
 62
2
  6
CONTINUOUS
 10
215.425889
 20
140.634180
 11
215.370906
 21
140.513643
  0
LINE
  8
1
 62
2
  6
CONTINUOUS
 10
215.370906
 20
140.513643
 11
215.370191
 21
140.511917
  0
LINE
  8
1
 62
2
  6
CONTINUOUS
 10
215.370191
 20
140.511917
 11
215.286036
 21
140.255762
  0
LINE
  8
1
 62
2
  6
CONTINUOUS
 10
215.286036
 20
140.255762
 11
215.282332
 21
140.240364
  0
LINE
  8
1
 62
2
  6
CONTINUOUS
 10
215.282332
 20
140.240364
 11
215.243266
 21
139.993493
  0
LINE
  8
1
 62
2
  6
CONTINUOUS
 10
215.243266
 20
139.993493
 11
215.237876
 21
139.861146
  0
LINE
  8
1
 62
2
  6
CONTINUOUS
 10
222.737876
 20
142.553729
 11
222.493434
 21
141.802295
  0
LINE
  8
1
 62
2
  6
CONTINUOUS
 10
222.493434
 20
141.802295
 11
222.324427
 21
140.997278
  0
LINE
  8
1
 62
2
  6
CONTINUOUS
 10
222.324427
 20
140.997278
 11
222.300780
 21
140.830471
  0
LINE
  8
1
 62
2
  6
CONTINUOUS
 10
225.737876
 20
142.553729
 11
225.737876
 21
142.740234
  0
LINE
  8
1
 62
2
  6
CONTINUOUS
 10
215.537876
 20
140.830471
 11
215.537876
 21
142.740234
  0
LINE
  8
1
 62
2
  6
CONTINUOUS
 10
215.537876
 20
144.419155
 11
215.537876
 21
145.817198
  0
LINE
  8
1
 62
2
  6
CONTINUOUS
 10
225.737876
 20
144.419155
 11
225.737876
 21
145.817198
  0
LINE
  8
1
 62
2
  6
CONTINUOUS
 10
212.967876
 20
133.611146
 11
212.967876
 21
146.111146
  0
LINE
  8
1
 62
2
  6
CONTINUOUS
 10
197.467876
 20
137.545979
 11
197.467876
 21
132.961146
  0
LINE
  8
1
 62
2
  6
CONTINUOUS
 10
197.467876
 20
137.545979
 11
197.693297
 21
137.574306
  0
LINE
  8
1
 62
2
  6
CONTINUOUS
 10
197.693297
 20
137.574306
 11
197.918678
 21
137.602945
  0
LINE
  8
1
 62
2
  6
CONTINUOUS
 10
197.918678
 20
137.602945
 11
198.144018
 21
137.631905
  0
LINE
  8
1
 62
2
  6
CONTINUOUS
 10
198.144018
 20
137.631905
 11
198.369315
 21
137.661201
  0
LINE
  8
1
 62
2
  6
CONTINUOUS
 10
198.369315
 20
137.661201
 11
198.594567
 21
137.690845
  0
LINE
  8
1
 62
2
  6
CONTINUOUS
 10
198.594567
 20
137.690845
 11
198.819770
 21
137.720852
  0
LINE
  8
1
 62
2
  6
CONTINUOUS
 10
198.819770
 20
137.720852
 11
199.044923
 21
137.751236
  0
LINE
  8
1
 62
2
  6
CONTINUOUS
 10
199.044923
 20
137.751236
 11
199.270023
 21
137.782014
  0
LINE
  8
1
 62
2
  6
CONTINUOUS
 10
199.270023
 20
137.782014
 11
199.495066
 21
137.813203
  0
LINE
  8
1
 62
2
  6
CONTINUOUS
 10
199.495066
 20
137.813203
 11
199.720049
 21
137.844821
  0
LINE
  8
1
 62
2
  6
CONTINUOUS
 10
199.720049
 20
137.844821
 11
199.944968
 21
137.876890
  0
LINE
  8
1
 62
2
  6
CONTINUOUS
 10
199.944968
 20
137.876890
 11
200.169820
 21
137.909430
  0
LINE
  8
1
 62
2
  6
CONTINUOUS
 10
200.169820
 20
137.909430
 11
200.394600
 21
137.942464
  0
LINE
  8
1
 62
2
  6
CONTINUOUS
 10
200.394600
 20
137.942464
 11
200.619303
 21
137.976019
  0
LINE
  8
1
 62
2
  6
CONTINUOUS
 10
200.619303
 20
137.976019
 11
200.843923
 21
138.010121
  0
LINE
  8
1
 62
2
  6
CONTINUOUS
 10
200.843923
 20
138.010121
 11
201.068455
 21
138.044801
  0
LINE
  8
1
 62
2
  6
CONTINUOUS
 10
201.068455
 20
138.044801
 11
201.292892
 21
138.080091
  0
LINE
  8
1
 62
2
  6
CONTINUOUS
 10
201.292892
 20
138.080091
 11
201.517227
 21
138.116028
  0
LINE
  8
1
 62
2
  6
CONTINUOUS
 10
201.517227
 20
138.116028
 11
201.538733
 21
138.119509
  0
LINE
  8
1
 62
2
  6
CONTINUOUS
 10
201.538733
 20
138.119509
 11
201.741451
 21
138.152650
  0
LINE
  8
1
 62
2
  6
CONTINUOUS
 10
201.741451
 20
138.152650
 11
201.965555
 21
138.190001
  0
LINE
  8
1
 62
2
  6
CONTINUOUS
 10
201.965555
 20
138.190001
 11
202.189528
 21
138.228130
  0
LINE
  8
1
 62
2
  6
CONTINUOUS
 10
202.189528
 20
138.228130
 11
202.413358
 21
138.267090
  0
LINE
  8
1
 62
2
  6
CONTINUOUS
 10
202.413358
 20
138.267090
 11
202.637031
 21
138.306942
  0
LINE
  8
1
 62
2
  6
CONTINUOUS
 10
202.637031
 20
138.306942
 11
202.860531
 21
138.347753
  0
LINE
  8
1
 62
2
  6
CONTINUOUS
 10
202.860531
 20
138.347753
 11
203.083840
 21
138.389599
  0
LINE
  8
1
 62
2
  6
CONTINUOUS
 10
203.083840
 20
138.389599
 11
203.306936
 21
138.432567
  0
LINE
  8
1
 62
2
  6
CONTINUOUS
 10
203.306936
 20
138.432567
 11
203.529794
 21
138.476757
  0
LINE
  8
1
 62
2
  6
CONTINUOUS
 10
203.529794
 20
138.476757
 11
203.752382
 21
138.522284
  0
LINE
  8
1
 62
2
  6
CONTINUOUS
 10
203.752382
 20
138.522284
 11
203.974665
 21
138.569282
  0
LINE
  8
1
 62
2
  6
CONTINUOUS
 10
203.974665
 20
138.569282
 11
204.196599
 21
138.617907
  0
LINE
  8
1
 62
2
  6
CONTINUOUS
 10
204.196599
 20
138.617907
 11
204.418127
 21
138.668346
  0
LINE
  8
1
 62
2
  6
CONTINUOUS
 10
204.418127
 20
138.668346
 11
204.639181
 21
138.720823
  0
LINE
  8
1
 62
2
  6
CONTINUOUS
 10
204.639181
 20
138.720823
 11
204.859675
 21
138.775613
  0
LINE
  8
1
 62
2
  6
CONTINUOUS
 10
204.859675
 20
138.775613
 11
205.079492
 21
138.833055
  0
LINE
  8
1
 62
2
  6
CONTINUOUS
 10
205.079492
 20
138.833055
 11
205.298482
 21
138.893579
  0
LINE
  8
1
 62
2
  6
CONTINUOUS
 10
205.298482
 20
138.893579
 11
205.516434
 21
138.957741
  0
LINE
  8
1
 62
2
  6
CONTINUOUS
 10
205.516434
 20
138.957741
 11
205.668828
 21
139.005398
  0
LINE
  8
1
 62
2
  6
CONTINUOUS
 10
205.668828
 20
139.005398
 11
205.733049
 21
139.026281
  0
LINE
  8
1
 62
2
  6
CONTINUOUS
 10
205.733049
 20
139.026281
 11
205.947879
 21
139.100225
  0
LINE
  8
1
 62
2
  6
CONTINUOUS
 10
205.947879
 20
139.100225
 11
206.160214
 21
139.181048
  0
LINE
  8
1
 62
2
  6
CONTINUOUS
 10
206.160214
 20
139.181048
 11
206.368832
 21
139.271012
  0
LINE
  8
1
 62
2
  6
CONTINUOUS
 10
206.368832
 20
139.271012
 11
206.571385
 21
139.373855
  0
LINE
  8
1
 62
2
  6
CONTINUOUS
 10
206.571385
 20
139.373855
 11
206.762533
 21
139.496431
  0
LINE
  8
1
 62
2
  6
CONTINUOUS
 10
206.762533
 20
139.496431
 11
206.926620
 21
139.652651
  0
LINE
  8
1
 62
2
  6
CONTINUOUS
 10
206.926620
 20
139.652651
 11
207.006338
 21
139.861144
  0
LINE
  8
1
 62
2
  6
CONTINUOUS
 10
207.006338
 20
139.861144
 11
206.926621
 21
140.069640
  0
LINE
  8
1
 62
2
  6
CONTINUOUS
 10
206.926621
 20
140.069640
 11
206.762534
 21
140.225862
  0
LINE
  8
1
 62
2
  6
CONTINUOUS
 10
206.762534
 20
140.225862
 11
206.571385
 21
140.348437
  0
LINE
  8
1
 62
2
  6
CONTINUOUS
 10
206.571385
 20
140.348437
 11
206.368833
 21
140.451281
  0
LINE
  8
1
 62
2
  6
CONTINUOUS
 10
206.368833
 20
140.451281
 11
206.160214
 21
140.541244
  0
LINE
  8
1
 62
2
  6
CONTINUOUS
 10
206.160214
 20
140.541244
 11
205.947879
 21
140.622067
  0
LINE
  8
1
 62
2
  6
CONTINUOUS
 10
205.947879
 20
140.622067
 11
205.733049
 21
140.696011
  0
LINE
  8
1
 62
2
  6
CONTINUOUS
 10
205.733049
 20
140.696011
 11
205.668829
 21
140.716894
  0
LINE
  8
1
 62
2
  6
CONTINUOUS
 10
205.668829
 20
140.716894
 11
205.516434
 21
140.764552
  0
LINE
  8
1
 62
2
  6
CONTINUOUS
 10
205.516434
 20
140.764552
 11
205.298482
 21
140.828713
  0
LINE
  8
1
 62
2
  6
CONTINUOUS
 10
205.298482
 20
140.828713
 11
205.079492
 21
140.889237
  0
LINE
  8
1
 62
2
  6
CONTINUOUS
 10
205.079492
 20
140.889237
 11
204.859675
 21
140.946679
  0
LINE
  8
1
 62
2
  6
CONTINUOUS
 10
204.859675
 20
140.946679
 11
204.639181
 21
141.001469
  0
LINE
  8
1
 62
2
  6
CONTINUOUS
 10
204.639181
 20
141.001469
 11
204.418127
 21
141.053947
  0
LINE
  8
1
 62
2
  6
CONTINUOUS
 10
204.418127
 20
141.053947
 11
204.196598
 21
141.104386
  0
LINE
  8
1
 62
2
  6
CONTINUOUS
 10
204.196598
 20
141.104386
 11
203.974665
 21
141.153011
  0
LINE
  8
1
 62
2
  6
CONTINUOUS
 10
203.974665
 20
141.153011
 11
203.752382
 21
141.200008
  0
LINE
  8
1
 62
2
  6
CONTINUOUS
 10
203.752382
 20
141.200008
 11
203.529794
 21
141.245535
  0
LINE
  8
1
 62
2
  6
CONTINUOUS
 10
203.529794
 20
141.245535
 11
203.306936
 21
141.289725
  0
LINE
  8
1
 62
2
  6
CONTINUOUS
 10
203.306936
 20
141.289725
 11
203.083840
 21
141.332693
  0
LINE
  8
1
 62
2
  6
CONTINUOUS
 10
203.083840
 20
141.332693
 11
202.860531
 21
141.374540
  0
LINE
  8
1
 62
2
  6
CONTINUOUS
 10
202.860531
 20
141.374540
 11
202.637031
 21
141.415350
  0
LINE
  8
1
 62
2
  6
CONTINUOUS
 10
202.637031
 20
141.415350
 11
202.413358
 21
141.455202
  0
LINE
  8
1
 62
2
  6
CONTINUOUS
 10
202.413358
 20
141.455202
 11
202.189528
 21
141.494162
  0
LINE
  8
1
 62
2
  6
CONTINUOUS
 10
202.189528
 20
141.494162
 11
201.965555
 21
141.532291
  0
LINE
  8
1
 62
2
  6
CONTINUOUS
 10
201.965555
 20
141.532291
 11
201.741451
 21
141.569642
  0
LINE
  8
1
 62
2
  6
CONTINUOUS
 10
201.741451
 20
141.569642
 11
201.538733
 21
141.602783
  0
LINE
  8
1
 62
2
  6
CONTINUOUS
 10
201.538733
 20
141.602783
 11
201.517227
 21
141.606265
  0
LINE
  8
1
 62
2
  6
CONTINUOUS
 10
201.517227
 20
141.606265
 11
201.292892
 21
141.642201
  0
LINE
  8
1
 62
2
  6
CONTINUOUS
 10
201.292892
 20
141.642201
 11
201.068455
 21
141.677491
  0
LINE
  8
1
 62
2
  6
CONTINUOUS
 10
201.068455
 20
141.677491
 11
200.843923
 21
141.712171
  0
LINE
  8
1
 62
2
  6
CONTINUOUS
 10
200.843923
 20
141.712171
 11
200.619303
 21
141.746273
  0
LINE
  8
1
 62
2
  6
CONTINUOUS
 10
200.619303
 20
141.746273
 11
200.394600
 21
141.779828
  0
LINE
  8
1
 62
2
  6
CONTINUOUS
 10
200.394600
 20
141.779828
 11
200.169820
 21
141.812863
  0
LINE
  8
1
 62
2
  6
CONTINUOUS
 10
200.169820
 20
141.812863
 11
199.944968
 21
141.845403
  0
LINE
  8
1
 62
2
  6
CONTINUOUS
 10
199.944968
 20
141.845403
 11
199.720049
 21
141.877471
  0
LINE
  8
1
 62
2
  6
CONTINUOUS
 10
199.720049
 20
141.877471
 11
199.495066
 21
141.909090
  0
LINE
  8
1
 62
2
  6
CONTINUOUS
 10
199.495066
 20
141.909090
 11
199.270023
 21
141.940279
  0
LINE
  8
1
 62
2
  6
CONTINUOUS
 10
199.270023
 20
141.940279
 11
199.044923
 21
141.971056
  0
LINE
  8
1
 62
2
  6
CONTINUOUS
 10
199.044923
 20
141.971056
 11
198.819770
 21
142.001441
  0
LINE
  8
1
 62
2
  6
CONTINUOUS
 10
198.819770
 20
142.001441
 11
198.594567
 21
142.031447
  0
LINE
  8
1
 62
2
  6
CONTINUOUS
 10
198.594567
 20
142.031447
 11
198.369315
 21
142.061091
  0
LINE
  8
1
 62
2
  6
CONTINUOUS
 10
198.369315
 20
142.061091
 11
198.144018
 21
142.090387
  0
LINE
  8
1
 62
2
  6
CONTINUOUS
 10
198.144018
 20
142.090387
 11
197.918678
 21
142.119348
  0
LINE
  8
1
 62
2
  6
CONTINUOUS
 10
197.918678
 20
142.119348
 11
197.693297
 21
142.147986
  0
LINE
  8
1
 62
2
  6
CONTINUOUS
 10
197.693297
 20
142.147986
 11
197.467876
 21
142.176314
  0
LINE
  8
1
 62
2
  6
CONTINUOUS
 10
197.467876
 20
146.761146
 11
197.467876
 21
142.176314
  0
LINE
  8
1
 62
2
  6
CONTINUOUS
 10
193.967876
 20
142.176314
 11
197.467876
 21
142.176314
  0
LINE
  8
1
 62
2
  6
CONTINUOUS
 10
193.967876
 20
146.761146
 11
193.967876
 21
142.176314
  0
LINE
  8
1
 62
2
  6
CONTINUOUS
 10
193.967876
 20
137.545979
 11
197.467876
 21
137.545979
  0
LINE
  8
1
 62
2
  6
CONTINUOUS
 10
193.967876
 20
142.176314
 11
193.797201
 21
141.602930
  0
LINE
  8
1
 62
2
  6
CONTINUOUS
 10
193.797201
 20
141.602930
 11
193.623965
 21
140.716891
  0
LINE
  8
1
 62
2
  6
CONTINUOUS
 10
193.623965
 20
140.716891
 11
193.567876
 21
139.861181
  0
LINE
  8
1
 62
2
  6
CONTINUOUS
 10
193.567876
 20
139.861181
 11
193.623965
 21
139.005402
  0
LINE
  8
1
 62
2
  6
CONTINUOUS
 10
193.623965
 20
139.005402
 11
193.797201
 21
138.119362
  0
LINE
  8
1
 62
2
  6
CONTINUOUS
 10
193.797201
 20
138.119362
 11
193.967876
 21
137.545979
  0
LINE
  8
1
 62
2
  6
CONTINUOUS
 10
193.467876
 20
132.777304
 11
193.467876
 21
132.761146
  0
LINE
  8
1
 62
2
  6
CONTINUOUS
 10
193.467876
 20
132.894777
 11
193.467876
 21
132.777304
  0
LINE
  8
1
 62
2
  6
CONTINUOUS
 10
193.467876
 20
133.142582
 11
193.467876
 21
132.894777
  0
LINE
  8
1
 62
2
  6
CONTINUOUS
 10
193.467876
 20
133.486997
 11
193.467876
 21
133.142582
  0
LINE
  8
1
 62
2
  6
CONTINUOUS
 10
193.467876
 20
133.965720
 11
193.467876
 21
133.486997
  0
LINE
  8
1
 62
2
  6
CONTINUOUS
 10
193.467876
 20
134.513605
 11
193.467876
 21
133.965720
  0
LINE
  8
1
 62
2
  6
CONTINUOUS
 10
193.467876
 20
135.190621
 11
193.467876
 21
134.513605
  0
LINE
  8
1
 62
2
  6
CONTINUOUS
 10
193.467876
 20
135.904639
 11
193.467876
 21
135.190621
  0
LINE
  8
1
 62
2
  6
CONTINUOUS
 10
193.467876
 20
136.733811
 11
193.467876
 21
135.904639
  0
LINE
  8
1
 62
2
  6
CONTINUOUS
 10
193.467876
 20
137.565302
 11
193.467876
 21
136.733811
  0
LINE
  8
1
 62
2
  6
CONTINUOUS
 10
193.467876
 20
138.490123
 11
193.467876
 21
137.565302
  0
LINE
  8
1
 62
2
  6
CONTINUOUS
 10
193.467876
 20
139.382424
 11
193.467876
 21
138.490123
  0
LINE
  8
1
 62
2
  6
CONTINUOUS
 10
193.467876
 20
139.861146
 11
193.467876
 21
139.382424
  0
LINE
  8
1
 62
2
  6
CONTINUOUS
 10
193.467876
 20
140.339869
 11
193.467876
 21
139.861146
  0
LINE
  8
1
 62
2
  6
CONTINUOUS
 10
193.467876
 20
141.232169
 11
193.467876
 21
140.339869
  0
LINE
  8
1
 62
2
  6
CONTINUOUS
 10
193.467876
 20
142.156990
 11
193.467876
 21
141.232169
  0
LINE
  8
1
 62
2
  6
CONTINUOUS
 10
193.467876
 20
142.988482
 11
193.467876
 21
142.156990
  0
LINE
  8
1
 62
2
  6
CONTINUOUS
 10
193.467876
 20
143.817653
 11
193.467876
 21
142.988482
  0
LINE
  8
1
 62
2
  6
CONTINUOUS
 10
193.467876
 20
144.531671
 11
193.467876
 21
143.817653
  0
LINE
  8
1
 62
2
  6
CONTINUOUS
 10
193.467876
 20
145.208687
 11
193.467876
 21
144.531671
  0
LINE
  8
1
 62
2
  6
CONTINUOUS
 10
193.467876
 20
145.756572
 11
193.467876
 21
145.208687
  0
LINE
  8
1
 62
2
  6
CONTINUOUS
 10
193.467876
 20
146.248634
 11
193.467876
 21
145.756572
  0
LINE
  8
1
 62
2
  6
CONTINUOUS
 10
193.467876
 20
146.961146
 11
193.467876
 21
146.248634
  0
LINE
  8
1
 62
2
  6
CONTINUOUS
 10
185.717876
 20
145.756572
 11
185.717876
 21
146.248634
  0
LINE
  8
1
 62
2
  6
CONTINUOUS
 10
185.717876
 20
145.208687
 11
185.717876
 21
145.756572
  0
LINE
  8
1
 62
2
  6
CONTINUOUS
 10
185.717876
 20
144.531671
 11
185.717876
 21
145.208687
  0
LINE
  8
1
 62
2
  6
CONTINUOUS
 10
185.717876
 20
143.817653
 11
185.717876
 21
144.531671
  0
LINE
  8
1
 62
2
  6
CONTINUOUS
 10
185.717876
 20
142.988482
 11
185.717876
 21
143.817653
  0
LINE
  8
1
 62
2
  6
CONTINUOUS
 10
185.717876
 20
142.156990
 11
185.717876
 21
142.988482
  0
LINE
  8
1
 62
2
  6
CONTINUOUS
 10
185.717876
 20
141.232169
 11
185.717876
 21
142.156990
  0
LINE
  8
1
 62
2
  6
CONTINUOUS
 10
185.717876
 20
140.339869
 11
185.717876
 21
141.232169
  0
LINE
  8
1
 62
2
  6
CONTINUOUS
 10
185.717876
 20
139.861146
 11
185.717876
 21
140.339869
  0
LINE
  8
1
 62
2
  6
CONTINUOUS
 10
185.717876
 20
139.382424
 11
185.717876
 21
139.861146
  0
LINE
  8
1
 62
2
  6
CONTINUOUS
 10
185.717876
 20
138.490123
 11
185.717876
 21
139.382424
  0
LINE
  8
1
 62
2
  6
CONTINUOUS
 10
185.717876
 20
137.565302
 11
185.717876
 21
138.490123
  0
LINE
  8
1
 62
2
  6
CONTINUOUS
 10
185.717876
 20
136.733811
 11
185.717876
 21
137.565302
  0
LINE
  8
1
 62
2
  6
CONTINUOUS
 10
185.717876
 20
135.904639
 11
185.717876
 21
136.733811
  0
LINE
  8
1
 62
2
  6
CONTINUOUS
 10
185.717876
 20
135.190621
 11
185.717876
 21
135.904639
  0
LINE
  8
1
 62
2
  6
CONTINUOUS
 10
185.717876
 20
134.513605
 11
185.717876
 21
135.190621
  0
LINE
  8
1
 62
2
  6
CONTINUOUS
 10
185.717876
 20
133.965720
 11
185.717876
 21
134.513605
  0
LINE
  8
1
 62
2
  6
CONTINUOUS
 10
185.717876
 20
133.486997
 11
185.717876
 21
133.965720
  0
LINE
  8
1
 62
2
  6
CONTINUOUS
 10
185.717876
 20
133.142582
 11
185.717876
 21
133.486997
  0
LINE
  8
1
 62
2
  6
CONTINUOUS
 10
185.717876
 20
132.894777
 11
185.717876
 21
133.142582
  0
LINE
  8
1
 62
2
  6
CONTINUOUS
 10
185.717876
 20
132.777304
 11
185.717876
 21
132.894777
  0
LINE
  8
1
 62
2
  6
CONTINUOUS
 10
185.717876
 20
132.761146
 11
185.717876
 21
132.777304
  0
LINE
  8
1
 62
2
  6
CONTINUOUS
 10
185.717876
 20
146.248634
 11
185.717876
 21
146.961146
  0
LINE
  8
1
 62
2
  6
CONTINUOUS
 10
186.017876
 20
145.995038
 11
185.867876
 21
145.875810
  0
LINE
  8
1
 62
2
  6
CONTINUOUS
 10
185.867876
 20
145.875810
 11
185.717876
 21
145.756572
  0
LINE
  8
1
 62
2
  6
CONTINUOUS
 10
186.017876
 20
145.995038
 11
186.017876
 21
145.447153
  0
LINE
  8
1
 62
2
  6
CONTINUOUS
 10
185.717876
 20
145.208687
 11
185.867876
 21
145.327924
  0
LINE
  8
1
 62
2
  6
CONTINUOUS
 10
185.867876
 20
145.327924
 11
186.017876
 21
145.447153
  0
LINE
  8
1
 62
2
  6
CONTINUOUS
 10
193.167876
 20
145.995038
 11
186.017876
 21
145.995038
  0
LINE
  8
1
 62
2
  6
CONTINUOUS
 10
193.467876
 20
145.756572
 11
193.317877
 21
145.875810
  0
LINE
  8
1
 62
2
  6
CONTINUOUS
 10
193.317877
 20
145.875810
 11
193.167876
 21
145.995038
  0
LINE
  8
1
 62
2
  6
CONTINUOUS
 10
193.167876
 20
145.447153
 11
186.017876
 21
145.447153
  0
LINE
  8
1
 62
2
  6
CONTINUOUS
 10
193.167876
 20
145.447153
 11
193.167876
 21
145.995038
  0
LINE
  8
1
 62
2
  6
CONTINUOUS
 10
193.167876
 20
145.447153
 11
193.317877
 21
145.327924
  0
LINE
  8
1
 62
2
  6
CONTINUOUS
 10
193.317877
 20
145.327924
 11
193.467876
 21
145.208687
  0
LINE
  8
1
 62
2
  6
CONTINUOUS
 10
185.717876
 20
145.208687
 11
193.467876
 21
145.208687
  0
LINE
  8
1
 62
2
  6
CONTINUOUS
 10
186.017876
 20
144.714653
 11
185.867876
 21
144.623165
  0
LINE
  8
1
 62
2
  6
CONTINUOUS
 10
185.867876
 20
144.623165
 11
185.717876
 21
144.531671
  0
LINE
  8
1
 62
2
  6
CONTINUOUS
 10
186.017876
 20
144.714653
 11
186.017876
 21
144.000635
  0
LINE
  8
1
 62
2
  6
CONTINUOUS
 10
185.717876
 20
143.817653
 11
185.867876
 21
143.909147
  0
LINE
  8
1
 62
2
  6
CONTINUOUS
 10
185.867876
 20
143.909147
 11
186.017876
 21
144.000635
  0
LINE
  8
1
 62
2
  6
CONTINUOUS
 10
186.017876
 20
143.103508
 11
185.867876
 21
143.045997
  0
LINE
  8
1
 62
2
  6
CONTINUOUS
 10
185.867876
 20
143.045997
 11
185.717876
 21
142.988482
  0
LINE
  8
1
 62
2
  6
CONTINUOUS
 10
186.017876
 20
143.103508
 11
186.017876
 21
142.272017
  0
LINE
  8
1
 62
2
  6
CONTINUOUS
 10
185.717876
 20
142.156990
 11
185.867876
 21
142.214505
  0
LINE
  8
1
 62
2
  6
CONTINUOUS
 10
185.867876
 20
142.214505
 11
186.017876
 21
142.272017
  0
LINE
  8
1
 62
2
  6
CONTINUOUS
 10
186.017876
 20
141.271403
 11
185.867876
 21
141.251787
  0
LINE
  8
1
 62
2
  6
CONTINUOUS
 10
185.867876
 20
141.251787
 11
185.717876
 21
141.232169
  0
LINE
  8
1
 62
2
  6
CONTINUOUS
 10
186.017876
 20
141.271403
 11
186.017876
 21
140.379102
  0
LINE
  8
1
 62
2
  6
CONTINUOUS
 10
185.717876
 20
140.339869
 11
185.867876
 21
140.359486
  0
LINE
  8
1
 62
2
  6
CONTINUOUS
 10
185.867876
 20
140.359486
 11
186.017876
 21
140.379102
  0
LINE
  8
1
 62
2
  6
CONTINUOUS
 10
193.167876
 20
141.271403
 11
186.017876
 21
141.271403
  0
LINE
  8
1
 62
2
  6
CONTINUOUS
 10
193.467876
 20
141.232169
 11
193.317877
 21
141.251787
  0
LINE
  8
1
 62
2
  6
CONTINUOUS
 10
193.317877
 20
141.251787
 11
193.167876
 21
141.271403
  0
LINE
  8
1
 62
2
  6
CONTINUOUS
 10
193.167876
 20
140.379102
 11
186.017876
 21
140.379102
  0
LINE
  8
1
 62
2
  6
CONTINUOUS
 10
193.167876
 20
140.379102
 11
193.167876
 21
141.271403
  0
LINE
  8
1
 62
2
  6
CONTINUOUS
 10
193.167876
 20
140.379102
 11
193.317877
 21
140.359486
  0
LINE
  8
1
 62
2
  6
CONTINUOUS
 10
193.317877
 20
140.359486
 11
193.467876
 21
140.339869
  0
LINE
  8
1
 62
2
  6
CONTINUOUS
 10
185.717876
 20
140.339869
 11
193.467876
 21
140.339869
  0
LINE
  8
1
 62
2
  6
CONTINUOUS
 10
185.717876
 20
139.382424
 11
193.467876
 21
139.382424
  0
LINE
  8
1
 62
2
  6
CONTINUOUS
 10
186.017876
 20
139.343190
 11
185.867876
 21
139.362806
  0
LINE
  8
1
 62
2
  6
CONTINUOUS
 10
185.867876
 20
139.362806
 11
185.717876
 21
139.382424
  0
LINE
  8
1
 62
2
  6
CONTINUOUS
 10
186.017876
 20
139.343190
 11
186.017876
 21
138.450890
  0
LINE
  8
1
 62
2
  6
CONTINUOUS
 10
185.717876
 20
138.490123
 11
185.867876
 21
138.470506
  0
LINE
  8
1
 62
2
  6
CONTINUOUS
 10
185.867876
 20
138.470506
 11
186.017876
 21
138.450890
  0
LINE
  8
1
 62
2
  6
CONTINUOUS
 10
186.017876
 20
137.450275
 11
185.867876
 21
137.507787
  0
LINE
  8
1
 62
2
  6
CONTINUOUS
 10
185.867876
 20
137.507787
 11
185.717876
 21
137.565302
  0
LINE
  8
1
 62
2
  6
CONTINUOUS
 10
186.017876
 20
137.450275
 11
186.017876
 21
136.618784
  0
LINE
  8
1
 62
2
  6
CONTINUOUS
 10
185.717876
 20
136.733811
 11
185.867876
 21
136.676295
  0
LINE
  8
1
 62
2
  6
CONTINUOUS
 10
185.867876
 20
136.676295
 11
186.017876
 21
136.618784
  0
LINE
  8
1
 62
2
  6
CONTINUOUS
 10
193.167876
 20
137.450275
 11
186.017876
 21
137.450275
  0
LINE
  8
1
 62
2
  6
CONTINUOUS
 10
185.717876
 20
137.565302
 11
193.467876
 21
137.565302
  0
LINE
  8
1
 62
2
  6
CONTINUOUS
 10
193.467876
 20
137.565302
 11
193.317877
 21
137.507787
  0
LINE
  8
1
 62
2
  6
CONTINUOUS
 10
193.317877
 20
137.507787
 11
193.167876
 21
137.450275
  0
LINE
  8
1
 62
2
  6
CONTINUOUS
 10
193.167876
 20
136.618784
 11
186.017876
 21
136.618784
  0
LINE
  8
1
 62
2
  6
CONTINUOUS
 10
193.167876
 20
136.618784
 11
193.167876
 21
137.450275
  0
LINE
  8
1
 62
2
  6
CONTINUOUS
 10
193.167876
 20
136.618784
 11
193.317877
 21
136.676295
  0
LINE
  8
1
 62
2
  6
CONTINUOUS
 10
193.317877
 20
136.676295
 11
193.467876
 21
136.733811
  0
LINE
  8
1
 62
2
  6
CONTINUOUS
 10
185.717876
 20
135.904639
 11
193.467876
 21
135.904639
  0
LINE
  8
1
 62
2
  6
CONTINUOUS
 10
186.017876
 20
135.721658
 11
185.867876
 21
135.813145
  0
LINE
  8
1
 62
2
  6
CONTINUOUS
 10
185.867876
 20
135.813145
 11
185.717876
 21
135.904639
  0
LINE
  8
1
 62
2
  6
CONTINUOUS
 10
186.017876
 20
135.721658
 11
186.017876
 21
135.007640
  0
LINE
  8
1
 62
2
  6
CONTINUOUS
 10
185.717876
 20
135.190621
 11
185.867876
 21
135.099127
  0
LINE
  8
1
 62
2
  6
CONTINUOUS
 10
185.867876
 20
135.099127
 11
186.017876
 21
135.007640
  0
LINE
  8
1
 62
2
  6
CONTINUOUS
 10
186.017876
 20
134.275139
 11
185.867876
 21
134.394368
  0
LINE
  8
1
 62
2
  6
CONTINUOUS
 10
185.867876
 20
134.394368
 11
185.717876
 21
134.513605
  0
LINE
  8
1
 62
2
  6
CONTINUOUS
 10
186.017876
 20
134.275139
 11
186.017876
 21
133.727254
  0
LINE
  8
1
 62
2
  6
CONTINUOUS
 10
185.717876
 20
133.965720
 11
185.867876
 21
133.846483
  0
LINE
  8
1
 62
2
  6
CONTINUOUS
 10
185.867876
 20
133.846483
 11
186.017876
 21
133.727254
  0
LINE
  8
1
 62
2
  6
CONTINUOUS
 10
193.167876
 20
133.727254
 11
193.317877
 21
133.846483
  0
LINE
  8
1
 62
2
  6
CONTINUOUS
 10
193.317877
 20
133.846483
 11
193.467876
 21
133.965720
  0
LINE
  8
1
 62
2
  6
CONTINUOUS
 10
193.167876
 20
133.727254
 11
193.167876
 21
134.275139
  0
LINE
  8
1
 62
2
  6
CONTINUOUS
 10
193.467876
 20
134.513605
 11
193.317877
 21
134.394368
  0
LINE
  8
1
 62
2
  6
CONTINUOUS
 10
193.317877
 20
134.394368
 11
193.167876
 21
134.275139
  0
LINE
  8
1
 62
2
  6
CONTINUOUS
 10
193.167876
 20
134.275139
 11
186.017876
 21
134.275139
  0
LINE
  8
1
 62
2
  6
CONTINUOUS
 10
185.717876
 20
134.513605
 11
193.467876
 21
134.513605
  0
LINE
  8
1
 62
2
  6
CONTINUOUS
 10
193.167876
 20
133.727254
 11
186.017876
 21
133.727254
  0
LINE
  8
1
 62
2
  6
CONTINUOUS
 10
185.717876
 20
133.486997
 11
193.467876
 21
133.486997
  0
LINE
  8
1
 62
2
  6
CONTINUOUS
 10
193.167876
 20
133.209298
 11
186.017876
 21
133.209298
  0
LINE
  8
1
 62
2
  6
CONTINUOUS
 10
186.017876
 20
133.209298
 11
185.867876
 21
133.348143
  0
LINE
  8
1
 62
2
  6
CONTINUOUS
 10
185.867876
 20
133.348143
 11
185.717876
 21
133.486997
  0
LINE
  8
1
 62
2
  6
CONTINUOUS
 10
193.467876
 20
133.486997
 11
193.317877
 21
133.348143
  0
LINE
  8
1
 62
2
  6
CONTINUOUS
 10
193.317877
 20
133.348143
 11
193.167876
 21
133.209298
  0
LINE
  8
1
 62
2
  6
CONTINUOUS
 10
185.717876
 20
133.142582
 11
185.867876
 21
133.003728
  0
LINE
  8
1
 62
2
  6
CONTINUOUS
 10
185.867876
 20
133.003728
 11
186.017876
 21
132.864883
  0
LINE
  8
1
 62
2
  6
CONTINUOUS
 10
193.167876
 20
132.864883
 11
186.017876
 21
132.864883
  0
LINE
  8
1
 62
2
  6
CONTINUOUS
 10
193.167876
 20
132.864883
 11
193.317877
 21
133.003728
  0
LINE
  8
1
 62
2
  6
CONTINUOUS
 10
193.317877
 20
133.003728
 11
193.467876
 21
133.142582
  0
LINE
  8
1
 62
2
  6
CONTINUOUS
 10
186.017876
 20
133.209298
 11
186.017876
 21
132.864883
  0
LINE
  8
1
 62
2
  6
CONTINUOUS
 10
193.167876
 20
132.864883
 11
193.167876
 21
133.209298
  0
LINE
  8
1
 62
2
  6
CONTINUOUS
 10
193.167876
 20
135.007640
 11
193.317877
 21
135.099127
  0
LINE
  8
1
 62
2
  6
CONTINUOUS
 10
193.317877
 20
135.099127
 11
193.467876
 21
135.190621
  0
LINE
  8
1
 62
2
  6
CONTINUOUS
 10
193.167876
 20
135.007640
 11
193.167876
 21
135.721658
  0
LINE
  8
1
 62
2
  6
CONTINUOUS
 10
193.467876
 20
135.904639
 11
193.317877
 21
135.813145
  0
LINE
  8
1
 62
2
  6
CONTINUOUS
 10
193.317877
 20
135.813145
 11
193.167876
 21
135.721658
  0
LINE
  8
1
 62
2
  6
CONTINUOUS
 10
193.167876
 20
135.721658
 11
186.017876
 21
135.721658
  0
LINE
  8
1
 62
2
  6
CONTINUOUS
 10
193.167876
 20
135.007640
 11
186.017876
 21
135.007640
  0
LINE
  8
1
 62
2
  6
CONTINUOUS
 10
193.167876
 20
132.596769
 11
186.017876
 21
132.596769
  0
LINE
  8
1
 62
2
  6
CONTINUOUS
 10
186.017876
 20
132.596769
 11
185.867876
 21
132.745768
  0
LINE
  8
1
 62
2
  6
CONTINUOUS
 10
185.867876
 20
132.745768
 11
185.717876
 21
132.894777
  0
LINE
  8
1
 62
2
  6
CONTINUOUS
 10
193.200173
 20
132.894777
 11
193.467876
 21
132.894777
  0
LINE
  8
1
 62
2
  6
CONTINUOUS
 10
185.717876
 20
132.894777
 11
185.985580
 21
132.894777
  0
LINE
  8
1
 62
2
  6
CONTINUOUS
 10
193.467876
 20
132.894777
 11
193.317877
 21
132.745768
  0
LINE
  8
1
 62
2
  6
CONTINUOUS
 10
193.317877
 20
132.745768
 11
193.167876
 21
132.596769
  0
LINE
  8
1
 62
2
  6
CONTINUOUS
 10
186.017876
 20
132.596769
 11
186.017876
 21
132.479295
  0
LINE
  8
1
 62
2
  6
CONTINUOUS
 10
185.717876
 20
132.777304
 11
185.867876
 21
132.628294
  0
LINE
  8
1
 62
2
  6
CONTINUOUS
 10
185.867876
 20
132.628294
 11
186.017876
 21
132.479295
  0
LINE
  8
1
 62
2
  6
CONTINUOUS
 10
193.167876
 20
132.479295
 11
186.017876
 21
132.479295
  0
LINE
  8
1
 62
2
  6
CONTINUOUS
 10
193.167876
 20
132.479295
 11
193.167876
 21
132.596769
  0
LINE
  8
1
 62
2
  6
CONTINUOUS
 10
193.167876
 20
132.479295
 11
193.317877
 21
132.628294
  0
LINE
  8
1
 62
2
  6
CONTINUOUS
 10
193.317877
 20
132.628294
 11
193.467876
 21
132.777304
  0
LINE
  8
1
 62
2
  6
CONTINUOUS
 10
186.017876
 20
132.479295
 11
185.867876
 21
132.628294
  0
LINE
  8
1
 62
2
  6
CONTINUOUS
 10
185.867876
 20
132.628294
 11
185.734141
 21
132.761146
  0
LINE
  8
1
 62
2
  6
CONTINUOUS
 10
193.167876
 20
138.450890
 11
193.317877
 21
138.470506
  0
LINE
  8
1
 62
2
  6
CONTINUOUS
 10
193.317877
 20
138.470506
 11
193.467876
 21
138.490123
  0
LINE
  8
1
 62
2
  6
CONTINUOUS
 10
193.167876
 20
138.450890
 11
193.167876
 21
139.343190
  0
LINE
  8
1
 62
2
  6
CONTINUOUS
 10
193.467876
 20
139.382424
 11
193.317877
 21
139.362806
  0
LINE
  8
1
 62
2
  6
CONTINUOUS
 10
193.317877
 20
139.362806
 11
193.167876
 21
139.343190
  0
LINE
  8
1
 62
2
  6
CONTINUOUS
 10
193.167876
 20
139.343190
 11
186.017876
 21
139.343190
  0
LINE
  8
1
 62
2
  6
CONTINUOUS
 10
193.167876
 20
138.450890
 11
186.017876
 21
138.450890
  0
LINE
  8
1
 62
2
  6
CONTINUOUS
 10
185.717876
 20
142.156990
 11
193.467876
 21
142.156990
  0
LINE
  8
1
 62
2
  6
CONTINUOUS
 10
193.167876
 20
142.272017
 11
193.317877
 21
142.214505
  0
LINE
  8
1
 62
2
  6
CONTINUOUS
 10
193.317877
 20
142.214505
 11
193.467876
 21
142.156990
  0
LINE
  8
1
 62
2
  6
CONTINUOUS
 10
193.167876
 20
142.272017
 11
193.167876
 21
143.103508
  0
LINE
  8
1
 62
2
  6
CONTINUOUS
 10
193.467876
 20
142.988482
 11
193.317877
 21
143.045997
  0
LINE
  8
1
 62
2
  6
CONTINUOUS
 10
193.317877
 20
143.045997
 11
193.167876
 21
143.103508
  0
LINE
  8
1
 62
2
  6
CONTINUOUS
 10
193.167876
 20
143.103508
 11
186.017876
 21
143.103508
  0
LINE
  8
1
 62
2
  6
CONTINUOUS
 10
193.167876
 20
142.272017
 11
186.017876
 21
142.272017
  0
LINE
  8
1
 62
2
  6
CONTINUOUS
 10
185.717876
 20
143.817653
 11
193.467876
 21
143.817653
  0
LINE
  8
1
 62
2
  6
CONTINUOUS
 10
193.167876
 20
144.000635
 11
193.317877
 21
143.909147
  0
LINE
  8
1
 62
2
  6
CONTINUOUS
 10
193.317877
 20
143.909147
 11
193.467876
 21
143.817653
  0
LINE
  8
1
 62
2
  6
CONTINUOUS
 10
193.167876
 20
144.000635
 11
193.167876
 21
144.714653
  0
LINE
  8
1
 62
2
  6
CONTINUOUS
 10
193.467876
 20
144.531671
 11
193.317877
 21
144.623165
  0
LINE
  8
1
 62
2
  6
CONTINUOUS
 10
193.317877
 20
144.623165
 11
193.167876
 21
144.714653
  0
LINE
  8
1
 62
2
  6
CONTINUOUS
 10
193.167876
 20
144.714653
 11
186.017876
 21
144.714653
  0
LINE
  8
1
 62
2
  6
CONTINUOUS
 10
193.167876
 20
144.000635
 11
186.017876
 21
144.000635
  0
LINE
  8
1
 62
2
  6
CONTINUOUS
 10
185.717876
 20
146.248634
 11
193.467876
 21
146.248634
  0
LINE
  8
1
 62
2
  6
CONTINUOUS
 10
185.717876
 20
146.248634
 11
185.867838
 21
146.414919
  0
LINE
  8
1
 62
2
  6
CONTINUOUS
 10
185.867838
 20
146.414919
 11
186.017876
 21
146.580521
  0
LINE
  8
1
 62
2
  6
CONTINUOUS
 10
186.017876
 20
146.580521
 11
193.167876
 21
146.580521
  0
LINE
  8
1
 62
2
  6
CONTINUOUS
 10
193.167876
 20
146.580521
 11
193.317915
 21
146.414919
  0
LINE
  8
1
 62
2
  6
CONTINUOUS
 10
193.317915
 20
146.414919
 11
193.467876
 21
146.248634
  0
LINE
  8
1
 62
2
  6
CONTINUOUS
 10
193.167876
 20
146.580521
 11
193.167876
 21
147.261146
  0
LINE
  8
1
 62
2
  6
CONTINUOUS
 10
186.017876
 20
147.261146
 11
186.017876
 21
146.580521
  0
LINE
  8
1
 62
2
  6
CONTINUOUS
 10
190.817876
 20
147.107525
 11
190.817876
 21
147.244235
  0
LINE
  8
1
 62
2
  6
CONTINUOUS
 10
189.317876
 20
147.244235
 11
190.817876
 21
147.244235
  0
LINE
  8
1
 62
2
  6
CONTINUOUS
 10
189.317876
 20
147.244235
 11
189.317876
 21
147.261146
  0
LINE
  8
1
 62
2
  6
CONTINUOUS
 10
188.817876
 20
147.107525
 11
189.317876
 21
147.191809
  0
LINE
  8
1
 62
2
  6
CONTINUOUS
 10
188.317876
 20
147.191809
 11
188.817876
 21
147.107525
  0
LINE
  8
1
 62
2
  6
CONTINUOUS
 10
187.817876
 20
147.244235
 11
188.276290
 21
147.198819
  0
LINE
  8
1
 62
2
  6
CONTINUOUS
 10
188.317876
 20
147.261146
 11
188.317876
 21
147.107525
  0
LINE
  8
1
 62
2
  6
CONTINUOUS
 10
188.317876
 20
147.107525
 11
190.817876
 21
147.107525
  0
LINE
  8
1
 62
2
  6
CONTINUOUS
 10
189.317876
 20
147.244235
 11
189.317876
 21
147.107525
  0
LINE
  8
1
 62
2
  6
CONTINUOUS
 10
184.937876
 20
135.286146
 11
184.937876
 21
144.374252
  0
LINE
  8
1
 62
2
  6
CONTINUOUS
 10
185.137876
 20
144.604365
 11
185.037807
 21
144.490659
  0
LINE
  8
1
 62
2
  6
CONTINUOUS
 10
185.037807
 20
144.490659
 11
184.937876
 21
144.374252
  0
LINE
  8
1
 62
2
  6
CONTINUOUS
 10
185.717876
 20
144.604365
 11
185.137876
 21
144.604365
  0
LINE
  8
1
 62
2
  6
CONTINUOUS
 10
193.967876
 20
137.545979
 11
193.967876
 21
132.961146
  0
LINE
  8
1
 62
2
  6
CONTINUOUS
 10
185.137876
 20
144.604365
 11
185.137876
 21
135.086146
  0
LINE
  8
1
 62
132
  6
CONTINUOUS
 10
226.737876
 20
143.361146
 11
234.598337
 21
143.361146
  0
LINE
  8
1
 62
132
  6
CONTINUOUS
 10
226.737876
 20
136.361146
 11
234.523325
 21
136.361146
  0
LINE
  8
1
 62
132
  6
DASHDOT
 10
179.830735
 20
139.861146
 11
236.097089
 21
139.861146
  0
ARC
  8
1
 62
7
  6
CONTINUOUS
 10
192.162166
 20
73.586522
 40
0.200000
 50
49.347308
 51
86.000000
  0
ARC
  8
1
 62
7
  6
CONTINUOUS
 10
178.562166
 20
75.236035
 40
0.200000
 50
-90.000000
 51
0.000000
  0
ARC
  8
1
 62
7
  6
CONTINUOUS
 10
176.262166
 20
74.636035
 40
0.400000
 50
90.000000
 51
180.000000
  0
ARC
  8
1
 62
7
  6
CONTINUOUS
 10
177.459849
 20
76.736035
 40
0.500000
 50
90.000000
 51
162.817149
  0
ARC
  8
1
 62
7
  6
CONTINUOUS
 10
177.662166
 20
76.736035
 40
0.500000
 50
33.507719
 51
90.000000
  0
ARC
  8
1
 62
7
  6
CONTINUOUS
 10
178.762166
 20
76.886035
 40
0.500000
 50
-146.492281
 51
-90.000000
  0
ARC
  8
1
 62
7
  6
CONTINUOUS
 10
176.362166
 20
73.836035
 40
0.500000
 50
180.000000
 51
-109.144553
  0
ARC
  8
1
 62
7
  6
CONTINUOUS
 10
183.762166
 20
74.236035
 40
0.500000
 50
180.000000
 51
-90.000000
  0
ARC
  8
1
 62
7
  6
CONTINUOUS
 10
193.762166
 20
53.986035
 40
0.600000
 50
-90.000000
 51
0.000000
  0
ARC
  8
1
 62
7
  6
CONTINUOUS
 10
193.762166
 20
73.136035
 40
0.600000
 50
0.000000
 51
90.000000
  0
ARC
  8
1
 62
7
  6
CONTINUOUS
 10
179.662166
 20
75.486035
 40
0.900000
 50
90.000000
 51
180.000000
  0
ARC
  8
1
 62
7
  6
CONTINUOUS
 10
193.362166
 20
73.936035
 40
1.000000
 50
0.000000
 51
90.000000
  0
ARC
  8
1
 62
7
  6
CONTINUOUS
 10
182.262166
 20
75.386035
 40
1.000000
 50
0.000000
 51
90.000000
  0
ARC
  8
1
 62
7
  6
CONTINUOUS
 10
190.233434
 20
79.616035
 40
4.680000
 50
-109.747638
 51
-90.000000
  0
LINE
  8
1
 62
7
  6
CONTINUOUS
 10
180.162166
 20
53.186035
 11
178.762166
 21
53.186035
  0
LINE
  8
1
 62
7
  6
CONTINUOUS
 10
193.762166
 20
53.386035
 11
180.162166
 21
53.386035
  0
LINE
  8
1
 62
7
  6
CONTINUOUS
 10
194.362166
 20
54.086035
 11
178.762166
 21
54.086035
  0
LINE
  8
1
 62
7
  6
CONTINUOUS
 10
178.762166
 20
54.436035
 11
188.762166
 21
54.436035
  0
LINE
  8
1
 62
7
  6
CONTINUOUS
 10
175.862166
 20
73.836035
 11
175.862166
 21
74.636035
  0
LINE
  8
1
 62
7
  6
CONTINUOUS
 10
177.862166
 20
72.386035
 11
177.862166
 21
72.786035
  0
LINE
  8
1
 62
7
  6
CONTINUOUS
 10
178.762166
 20
71.886035
 11
178.762166
 21
53.186035
  0
LINE
  8
1
 62
7
  6
CONTINUOUS
 10
178.762166
 20
75.236035
 11
178.762166
 21
75.486035
  0
LINE
  8
1
 62
7
  6
CONTINUOUS
 10
180.162166
 20
53.386035
 11
180.162166
 21
53.186035
  0
LINE
  8
1
 62
7
  6
CONTINUOUS
 10
183.262166
 20
75.386035
 11
183.262166
 21
74.236035
  0
LINE
  8
1
 62
7
  6
CONTINUOUS
 10
178.079071
 20
77.012060
 11
178.345260
 21
76.610010
  0
LINE
  8
1
 62
7
  6
CONTINUOUS
 10
185.212166
 20
73.736035
 11
185.212166
 21
71.836035
  0
LINE
  8
1
 62
7
  6
CONTINUOUS
 10
186.192166
 20
75.457707
 11
186.192166
 21
75.907707
  0
LINE
  8
1
 62
7
  6
CONTINUOUS
 10
178.762166
 20
71.886035
 11
177.862166
 21
72.386035
  0
LINE
  8
1
 62
7
  6
CONTINUOUS
 10
188.762166
 20
55.696612
 11
188.762166
 21
54.436035
  0
LINE
  8
1
 62
7
  6
CONTINUOUS
 10
188.762166
 20
56.558150
 11
188.762166
 21
55.713920
  0
LINE
  8
1
 62
7
  6
CONTINUOUS
 10
188.762166
 20
57.696612
 11
188.762166
 21
56.575458
  0
LINE
  8
1
 62
7
  6
CONTINUOUS
 10
188.762166
 20
58.558150
 11
188.762166
 21
57.713920
  0
LINE
  8
1
 62
7
  6
CONTINUOUS
 10
188.762166
 20
59.696612
 11
188.762166
 21
58.575458
  0
LINE
  8
1
 62
7
  6
CONTINUOUS
 10
188.762166
 20
60.558150
 11
188.762166
 21
59.713920
  0
LINE
  8
1
 62
7
  6
CONTINUOUS
 10
188.762166
 20
61.696612
 11
188.762166
 21
60.575458
  0
LINE
  8
1
 62
7
  6
CONTINUOUS
 10
188.762166
 20
62.558150
 11
188.762166
 21
61.713920
  0
LINE
  8
1
 62
7
  6
CONTINUOUS
 10
188.762166
 20
63.696612
 11
188.762166
 21
62.575458
  0
LINE
  8
1
 62
7
  6
CONTINUOUS
 10
188.762166
 20
64.558150
 11
188.762166
 21
63.713920
  0
LINE
  8
1
 62
7
  6
CONTINUOUS
 10
188.762166
 20
65.696612
 11
188.762166
 21
64.575458
  0
LINE
  8
1
 62
7
  6
CONTINUOUS
 10
188.762166
 20
66.558150
 11
188.762166
 21
65.713920
  0
LINE
  8
1
 62
7
  6
CONTINUOUS
 10
188.762166
 20
67.696612
 11
188.762166
 21
66.575458
  0
LINE
  8
1
 62
7
  6
CONTINUOUS
 10
188.762166
 20
68.558150
 11
188.762166
 21
67.713920
  0
LINE
  8
1
 62
7
  6
CONTINUOUS
 10
188.762166
 20
69.696612
 11
188.762166
 21
68.575458
  0
LINE
  8
1
 62
7
  6
CONTINUOUS
 10
188.762166
 20
70.558150
 11
188.762166
 21
69.713920
  0
LINE
  8
1
 62
7
  6
CONTINUOUS
 10
188.762166
 20
71.836035
 11
188.762166
 21
70.575458
  0
LINE
  8
1
 62
7
  6
CONTINUOUS
 10
177.862166
 20
72.786035
 11
176.198189
 21
73.363688
  0
LINE
  8
1
 62
7
  6
CONTINUOUS
 10
178.762166
 20
71.836035
 11
188.762166
 21
71.836035
  0
LINE
  8
1
 62
7
  6
CONTINUOUS
 10
185.212166
 20
72.186035
 11
178.222166
 21
72.186035
  0
LINE
  8
1
 62
7
  6
CONTINUOUS
 10
194.362166
 20
72.436035
 11
185.212166
 21
72.436035
  0
LINE
  8
1
 62
7
  6
CONTINUOUS
 10
193.762166
 20
73.736035
 11
183.762166
 21
73.736035
  0
LINE
  8
1
 62
7
  6
CONTINUOUS
 10
183.208396
 20
75.692404
 11
183.862166
 21
75.457707
  0
LINE
  8
1
 62
7
  6
CONTINUOUS
 10
194.362166
 20
73.936035
 11
194.362166
 21
53.986035
  0
LINE
  8
1
 62
7
  6
CONTINUOUS
 10
190.233434
 20
74.936035
 11
193.362166
 21
74.936035
  0
LINE
  8
1
 62
7
  6
CONTINUOUS
 10
176.262166
 20
75.036035
 11
178.562166
 21
75.036035
  0
LINE
  8
1
 62
7
  6
CONTINUOUS
 10
192.176117
 20
73.786035
 11
183.262166
 21
74.409359
  0
LINE
  8
1
 62
7
  6
CONTINUOUS
 10
186.712166
 20
75.907707
 11
188.652166
 21
75.211266
  0
LINE
  8
1
 62
7
  6
CONTINUOUS
 10
183.862166
 20
75.457707
 11
186.192166
 21
75.457707
  0
LINE
  8
1
 62
7
  6
CONTINUOUS
 10
186.192166
 20
75.907707
 11
186.712166
 21
75.907707
  0
LINE
  8
1
 62
7
  6
CONTINUOUS
 10
176.410810
 20
75.036035
 11
176.982166
 21
76.883746
  0
LINE
  8
1
 62
7
  6
CONTINUOUS
 10
178.762166
 20
76.386035
 11
182.262166
 21
76.386035
  0
LINE
  8
1
 62
7
  6
CONTINUOUS
 10
177.459849
 20
77.236035
 11
177.662166
 21
77.236035
  0
LINE
  8
1
 62
7
  6
CONTINUOUS
 10
178.762166
 20
70.736035
 11
172.625957
 21
70.736035
  0
LINE
  8
1
 62
7
  6
CONTINUOUS
 10
178.762166
 20
69.536035
 11
172.650449
 21
69.536035
  0
LINE
  8
1
 62
7
  6
CONTINUOUS
 10
178.762166
 20
55.536035
 11
172.625957
 21
55.536035
  0
LINE
  8
1
 62
7
  6
CONTINUOUS
 10
178.762166
 20
56.736035
 11
172.650449
 21
56.736035
  0
LINE
  8
1
 62
7
  6
CONTINUOUS
 10
178.762166
 20
64.736035
 11
172.625957
 21
64.736035
  0
LINE
  8
1
 62
7
  6
CONTINUOUS
 10
178.762166
 20
63.536035
 11
172.650449
 21
63.536035
  0
LINE
  8
1
 62
7
  6
CONTINUOUS
 10
178.762166
 20
66.736035
 11
172.625957
 21
66.736035
  0
LINE
  8
1
 62
7
  6
CONTINUOUS
 10
178.762166
 20
65.536035
 11
172.650449
 21
65.536035
  0
LINE
  8
1
 62
7
  6
CONTINUOUS
 10
178.762166
 20
68.736035
 11
172.625957
 21
68.736035
  0
LINE
  8
1
 62
7
  6
CONTINUOUS
 10
178.762166
 20
67.536035
 11
172.650449
 21
67.536035
  0
LINE
  8
1
 62
7
  6
CONTINUOUS
 10
178.762166
 20
61.536035
 11
172.625957
 21
61.536035
  0
LINE
  8
1
 62
7
  6
CONTINUOUS
 10
178.762166
 20
62.736035
 11
172.650449
 21
62.736035
  0
LINE
  8
1
 62
7
  6
CONTINUOUS
 10
178.762166
 20
59.536035
 11
172.625957
 21
59.536035
  0
LINE
  8
1
 62
7
  6
CONTINUOUS
 10
178.762166
 20
60.736035
 11
172.650449
 21
60.736035
  0
LINE
  8
1
 62
7
  6
CONTINUOUS
 10
178.762166
 20
57.536035
 11
172.625957
 21
57.536035
  0
LINE
  8
1
 62
7
  6
CONTINUOUS
 10
178.762166
 20
58.736035
 11
172.650449
 21
58.736035
  0
TEXT
  8
2
 62
7
  6
DOT
 10
63.017869
 20
10.952127
 40
5.000000
 41
1.000000
  1
1
  7
KANJI
 50
0.000000
 51
0.000000
  0
LINE
  8
2
 62
134
  6
CONTINUOUS
 10
64.218371
 20
15.737309
 11
61.822520
 21
11.587574
  0
LINE
  8
2
 62
134
  6
CONTINUOUS
 10
61.822520
 20
11.587574
 11
66.614222
 21
11.587574
  0
LINE
  8
2
 62
134
  6
CONTINUOUS
 10
66.614222
 20
11.587574
 11
64.218371
 21
15.737309
  0
TEXT
  8
2
 62
134
  6
CONTINUOUS
 10
70.138130
 20
12.254931
 40
4.000000
 41
1.000000
  1
XN2A-1870（オムロン）表記削除　2021/7/7　保田
  7
KANJI
 50
0.000000
 51
30.000000
  0
TEXT
  8
2
 62
7
  6
DOT
 10
224.068485
 20
76.486369
 40
5.000000
 41
1.000000
  1
1
  7
KANJI
 50
0.000000
 51
0.000000
  0
LINE
  8
2
 62
134
  6
CONTINUOUS
 10
225.268987
 20
81.271552
 11
222.873136
 21
77.121816
  0
LINE
  8
2
 62
134
  6
CONTINUOUS
 10
222.873136
 20
77.121816
 11
227.664838
 21
77.121816
  0
LINE
  8
2
 62
134
  6
CONTINUOUS
 10
227.664838
 20
77.121816
 11
225.268987
 21
81.271552
  0
LINE
  8
10
 62
7
  6
CONTINUOUS
 10
14.676040
 20
31.004267
 11
82.175351
 21
31.004267
  0
TEXT
  8
10
 62
7
  6
CONTINUOUS
 10
14.961312
 20
31.735116
 40
3.999900
 41
1.000000
  1
該当機種
  7
KANJI
 50
0.000000
 51
0.000000
  0
LINE
  8
10
 62
7
  6
CONTINUOUS
 10
14.676040
 20
31.004267
 11
14.676040
 21
26.337717
  0
LINE
  8
10
 62
7
  6
CONTINUOUS
 10
14.676040
 20
26.337717
 11
82.175351
 21
26.337717
  0
LINE
  8
10
 62
134
  6
CONTINUOUS
 10
82.175351
 20
31.004267
 11
82.175351
 21
26.337717
  0
TEXT
  8
10
 62
7
  6
CONTINUOUS
 10
16.944396
 20
26.325783
 40
3.999900
 41
1.000000
  1
TMHX-CME0250-0050H003
  7
KANJI
 50
0.000000
 51
0.000000
  0
LINE
  8
2
 62
134
  6
CONTINUOUS
 10
83.467505
 20
21.325958
 11
81.071654
 21
17.176222
  0
LINE
  8
2
 62
134
  6
CONTINUOUS
 10
81.071654
 20
17.176222
 11
85.863356
 21
17.176222
  0
LINE
  8
2
 62
134
  6
CONTINUOUS
 10
85.863356
 20
17.176222
 11
83.467505
 21
21.325958
  0
TEXT
  8
2
 62
7
  6
DOT
 10
82.267003
 20
16.540776
 40
5.000000
 41
1.000000
  1
2
  7
KANJI
 50
0.000000
 51
0.000000
  0
TEXT
  8
2
 62
134
  6
CONTINUOUS
 10
86.876019
 20
17.139206
 40
4.000000
 41
1.000000
  1
訂正 ｻﾞｸﾞﾘ深さ3→3.5　2023/10/3　保田
  7
KANJI
 50
0.000000
 51
30.000000
  0
LINE
  8
2
 62
134
  6
CONTINUOUS
 10
194.858094
 20
113.258200
 11
192.462243
 21
109.108465
  0
LINE
  8
2
 62
134
  6
CONTINUOUS
 10
192.462243
 20
109.108465
 11
197.253945
 21
109.108465
  0
LINE
  8
2
 62
134
  6
CONTINUOUS
 10
197.253945
 20
109.108465
 11
194.858094
 21
113.258200
  0
TEXT
  8
2
 62
7
  6
DOT
 10
193.657592
 20
108.473018
 40
5.000000
 41
1.000000
  1
2
  7
KANJI
 50
0.000000
 51
0.000000
  0
TEXT
  8
2
 62
134
  6
CONTINUOUS
 10
164.560792
 20
103.720366
 40
4.000000
 41
1.000000
  1
ｻﾞｸﾞﾘφ6深さ3.5
  7
KANJI
 50
0.000000
 51
0.000000
  0
LINE
  8
2
 62
134
  6
CONTINUOUS
 10
138.379746
 20
121.928158
 11
145.259938
 21
107.861763
  0
LINE
  8
2
 62
134
  6
CONTINUOUS
 10
145.259938
 20
107.861763
 11
161.595053
 21
107.861763
  0
TEXT
  8
2
 62
134
  6
CONTINUOUS
 10
145.595053
 20
107.715533
 40
4.000000
 41
1.000000
  1
　取付穴
  7
KANJI
 50
0.000000
 51
0.000000
  0
LINE
  8
2
 62
134
  6
CONTINUOUS
 10
138.379746
 20
121.928158
 11
139.693557
 21
120.420212
  0
LINE
  8
2
 62
134
  6
CONTINUOUS
 10
138.379746
 20
121.928158
 11
138.763567
 21
119.965333
  0
LINE
  8
2
 62
134
  6
CONTINUOUS
 10
139.693557
 20
120.420212
 11
138.763567
 21
119.965333
  0
LINE
  8
2
 62
134
  6
CONTINUOUS
 10
138.591950
 20
121.494311
 11
139.248855
 21
120.740339
  0
LINE
  8
2
 62
134
  6
CONTINUOUS
 10
138.591950
 20
121.494311
 11
138.783860
 21
120.512899
  0
LINE
  8
2
 62
134
  6
CONTINUOUS
 10
139.248855
 20
120.740339
 11
138.783860
 21
120.512899
  0
LINE
  8
2
 62
134
  6
CONTINUOUS
 10
111.699553
 20
125.261146
 11
117.776304
 21
107.407861
  0
LINE
  8
2
 62
134
  6
CONTINUOUS
 10
117.776304
 20
107.407861
 11
132.145956
 21
107.407861
  0
TEXT
  8
2
 62
134
  6
CONTINUOUS
 10
124.145956
 20
107.587964
 40
4.000000
 41
1.000000
  1
鏡筒
  7
KANJI
 50
0.000000
 51
0.000000
  0
LINE
  8
2
 62
134
  6
CONTINUOUS
 10
111.699553
 20
125.261146
 11
113.368315
 21
122.768109
  0
LINE
  8
2
 62
134
  6
CONTINUOUS
 10
111.699553
 20
125.261146
 11
111.898224
 21
122.267732
  0
LINE
  8
2
 62
134
  6
CONTINUOUS
 10
113.368315
 20
122.768109
 11
111.898224
 21
122.267732
  0
LINE
  8
2
 62
134
  6
CONTINUOUS
 10
111.932982
 20
124.575340
 11
112.767363
 21
123.328821
  0
LINE
  8
2
 62
134
  6
CONTINUOUS
 10
111.932982
 20
124.575340
 11
112.032318
 21
123.078632
  0
LINE
  8
2
 62
134
  6
CONTINUOUS
 10
112.767363
 20
123.328821
 11
112.032318
 21
123.078632
  0
LINE
  8
2
 62
134
  6
CONTINUOUS
 10
91.329142
 20
128.857014
 11
97.069882
 21
107.200670
  0
LINE
  8
2
 62
134
  6
CONTINUOUS
 10
97.069882
 20
107.200670
 11
110.763226
 21
107.200670
  0
TEXT
  8
2
 62
134
  6
CONTINUOUS
 10
102.763226
 20
107.380773
 40
4.000000
 41
1.000000
  1
ﾚﾝｽﾞ
  7
KANJI
 50
0.000000
 51
0.000000
  0
LINE
  8
2
 62
134
  6
CONTINUOUS
 10
91.329142
 20
128.857014
 11
92.822185
 21
126.254934
  0
LINE
  8
2
 62
134
  6
CONTINUOUS
 10
91.329142
 20
128.857014
 11
91.321115
 21
125.857025
  0
LINE
  8
2
 62
134
  6
CONTINUOUS
 10
92.822185
 20
126.254934
 11
91.321115
 21
125.857025
  0
LINE
  8
2
 62
134
  6
CONTINUOUS
 10
91.514769
 20
128.156755
 11
92.261290
 21
126.855715
  0
LINE
  8
2
 62
134
  6
CONTINUOUS
 10
91.514769
 20
128.156755
 11
91.510755
 21
126.656761
  0
LINE
  8
2
 62
134
  6
CONTINUOUS
 10
92.261290
 20
126.855715
 11
91.510755
 21
126.656761
  0
TEXT
  8
2
 62
134
  6
CONTINUOUS
 10
148.046275
 20
103.662485
 40
4.000000
 41
1.000000
  1
3-φ3.5
  7
KANJI
 50
0.000000
 51
0.000000
  0
ENDSEC
  0
EOF
