  0
SECTION
  2
HEADER
  9
$ACADVER
  1
AC1009
  9
$INSBASE
 10
0.000000
 20
0.000000
  9
$EXTMIN
 10
0.000000
 20
0.000000
  9
$EXTMAX
 10
297.000000
 20
210.000000
  9
$LIMMIN
 10
0.000000
 20
0.000000
  9
$LIMMAX
 10
297.000000
 20
210.000000
  9
$VIEWCTR
 10
148.500000
 20
105.000000
  9
$VIEWSIZE
 40
210.000000
  9
$PEXTMIN
 10
0.000000
 20
0.000000
 30
0.000000
  9
$PEXTMAX
 10
297.000000
 20
210.000000
 30
0.000000
  9
$SNAPMODE
 70
     0
  9
$SNAPUNIT
 10
1.000000
 20
1.000000
  9
$SNAPBASE
 10
0.000000
 20
0.000000
  9
$SNAPANG
 50
0.000000
  9
$SNAPISOPAIR
 70
     0
  9
$SNAPSTYLE
 70
     0
  9
$GRIDMODE
 70
     0
  9
$GRIDUNIT
 10
0.000000
 20
0.000000
  9
$ORTHOMODE
 70
     0
  9
$REGENMODE
 70
     1
  9
$FILLMODE
 70
     1
  9
$QTEXTMODE
 70
     0
  9
$DRAGMODE
 70
     2
  9
$LTSCALE
 40
0.250000
  9
$OSMODE
 70
     0
  9
$ATTMODE
 70
     1
  9
$TEXTSIZE
 40
4.000000
  9
$TRACEWID
 40
0.050000
  9
$TEXTSTYLE
  7
STANDARD
  9
$CLAYER
  8
0
  9
$CELTYPE
  6
BYLAYER
  9
$CECOLOR
 62
   256
  9
$DIMSCALE
 40
1.000000
  9
$DIMASZ
 40
1.000000
  9
$DIMEXO
 40
0.000000
  9
$DIMDLI
 40
0.500000
  9
$DIMRND
 40
0.000000
  9
$DIMDLE
 40
0.000000
  9
$DIMEXE
 40
0.000000
  9
$DIMTP
 40
0.000000
  9
$DIMTM
 40
0.000000
  9
$DIMTXT
 40
4.000000
  9
$DIMCEN
 40
0.000000
  9
$DIMTSZ
 40
0.000000
  9
$DIMTOL
 70
     0
  9
$DIMLIM
 70
     0
  9
$DIMTIH
 70
     1
  9
$DIMTOH
 70
     1
  9
$DIMSE1
 70
     0
  9
$DIMSE2
 70
     0
  9
$DIMTAD
 70
     0
  9
$DIMZIN
 70
     0
  9
$DIMBLK
  1

  9
$DIMASO
 70
     0
  9
$DIMSHO
 70
     0
  9
$DIMPOST
  1

  9
$DIMAPOST
  1

  9
$DIMALT
 70
     0
  9
$DIMALTD
 70
     0
  9
$DIMALTF
 40
25.400000
  9
$DIMLFAC
 40
1.000000
  9
$DIMTOFL
 70
     0
  9
$DIMTVP
 40
0.000000
  9
$DIMTIX
 70
     0
  9
$DIMSOXD
 70
     0
  9
$DIMSAH
 70
     0
  9
$DIMBLKL
  1

  9
$DIMBLKR
  1

  9
$LUNITS
 70
     2
  9
$LUPREC
 70
     2
  9
$AXISMODE
 70
     0
  9
$AXISUNIT
 10
1.000000
 20
1.000000
  9
$SKETCHINC
 40
0.000000
  9
$FILLETRAD
 40
0.000000
  9
$AUNITS
 70
     1
  9
$AUPREC
 70
     2
  9
$MENU
  1
ACAD
  9
$ELEVATION
 40
0.000000
  9
$THICKNESS
 40
0.000000
  9
$VIEWDIR
 10
0.000000
 20
0.000000
 30
1.000000
  9
$LIMCHECK
 70
     1
  9
$BLIPMODE
 70
     1
  9
$CHAMFERA
 40
0.000000
  9
$CHAMFERB
 40
0.000000
  9
$FASTZOOM
 70
     1
  9
$SKPOLY
 70
     0
  9
$TDCREATE
 40
0.000000
  9
$TDUPDATE
 40
0.000000
  9
$TDINDWG
 40
0.000000
  9
$TDUSRTIMER
 40
0.000000
  9
$USRTIMER
 70
     1
  9
$ANGBASE
 50
0.000000
  9
$ANGDIR
 70
     0
  9
$PDMODE
 70
     0
  9
$PDSIZE
 40
0.000000
  9
$PLINEWID
 40
0.000000
  9
$COORDS
 70
     2
  9
$USERI1
 70
     0
  9
$USERI2
 70
     0
  9
$USERI3
 70
     0
  9
$USERI4
 70
     0
  9
$USERI5
 70
     0
  9
$USERR1
 40
0.000000
  9
$USERR2
 40
0.000000
  9
$USERR3
 40
0.000000
  9
$USERR4
 40
0.000000
  9
$USERR5
 40
0.000000
  0
ENDSEC
  0
SECTION
  2
TABLES
  0
TABLE
  2
LTYPE
 70
     5
  0
LTYPE
  2
CONTINUOUS
 70
    64
  3
Solid line
 72
    65
 73
     0
 40
0.0
  0
LTYPE
  2
HIDDEN
 70
    64
  3
------------------------
 72
    65
 73
     2
 40
12.6
 49
8.4
 49
-4.2
  0
LTYPE
  2
DOT
 70
    64
  3
････････････････････････
 72
    65
 73
     2
 40
8.0
 49
6.0
 49
-2.0
  0
LTYPE
  2
DASHDOT
 70
    64
  3
--･--･--･--･--･--･--･--
 72
    65
 73
     4
 40
50.5
 49
30.0
 49
-9.0
 49
2.5
 49
-9.0
  0
LTYPE
  2
DIVIDE
 70
    64
  3
--･･--･･--･･--･･--･･--
 72
    65
 73
     6
 40
58.0
 49
30.0
 49
-9.0
 49
2.5
 49
-5.0
 49
2.5
 49
-9.0
  0
LTYPE
  2
ACAD_ISO06W100
 70
    64
  3
____ ... ____ ... ____
 72
    65
 73
     8
 40
37.5
 49
24.0
 49
-3.0
 49
0.5
 49
-3.0
 49
0.5
 49
-3.0
 49
0.5
 49
-3.0
  0
LTYPE
  2
ACAD_ISO14W100
 70
    64
  3
__ . . . __ . . . __ . . . 
 72
    65
 73
     8
 40
25.5
 49
12.0
 49
-3.0
 49
0.5
 49
-3.0
 49
0.5
 49
-3.0
 49
0.5
 49
-3.0
  0
ENDTAB
  0
TABLE
  2
LAYER
 70
5
  0
LAYER
  2
1
 70
64
 62
7
  6
CONTINUOUS
  0
LAYER
  2
2
 70
64
 62
134
  6
CONTINUOUS
  0
LAYER
  2
3
 70
64
 62
214
  6
CONTINUOUS
  0
LAYER
  2
5
 70
64
 62
94
  6
CONTINUOUS
  0
LAYER
  2
10
 70
64
 62
3
  6
CONTINUOUS
  0
ENDTAB
  0
TABLE
  2
STYLE
 70
     2
  0
STYLE
  2
STANDARD
 70
    64
 40
0.0
 41
1.0
 50
0.0
 71
     0
 42
0.2
  3
TXT
  4

  0
STYLE
  2
KANJI
 70
    64
 40
0.0
 41
1.0
 50
0.0
 71
     0
 42
0.2
  3
TXT
  4
BIGFONT
  0
ENDTAB
  0
TABLE
  2
VIEW
 70
     0
  0
ENDTAB
  0
ENDSEC
  0
SECTION
  2
BLOCKS
  0
BLOCK
  8
2
 62
134
  6
CONTINUOUS
  2
*D1
 70
    65
 10
0.0
 20
0.0
  0
LINE
  8
2
 62
134
  6
CONTINUOUS
 10
273.162855
 20
157.482626
 11
273.162855
 21
127.482626
  0
LINE
  8
2
 62
134
  6
CONTINUOUS
 10
275.162855
 20
157.482626
 11
262.220719
 21
157.482626
  0
LINE
  8
2
 62
134
  6
CONTINUOUS
 10
275.162855
 20
127.482626
 11
262.220719
 21
127.482626
  0
LINE
  8
2
 62
134
  6
CONTINUOUS
 10
273.162855
 20
157.482626
 11
273.680493
 21
155.550774
  0
LINE
  8
2
 62
134
  6
CONTINUOUS
 10
273.162855
 20
157.482626
 11
272.645217
 21
155.550774
  0
LINE
  8
2
 62
134
  6
CONTINUOUS
 10
273.680493
 20
155.550774
 11
272.645217
 21
155.550774
  0
LINE
  8
2
 62
134
  6
CONTINUOUS
 10
273.162855
 20
156.999663
 11
273.421674
 21
156.033737
  0
LINE
  8
2
 62
134
  6
CONTINUOUS
 10
273.162855
 20
156.999663
 11
272.904036
 21
156.033737
  0
LINE
  8
2
 62
134
  6
CONTINUOUS
 10
273.421674
 20
156.033737
 11
272.904036
 21
156.033737
  0
LINE
  8
2
 62
134
  6
CONTINUOUS
 10
273.162855
 20
127.482626
 11
272.645217
 21
129.414477
  0
LINE
  8
2
 62
134
  6
CONTINUOUS
 10
273.162855
 20
127.482626
 11
273.680493
 21
129.414477
  0
LINE
  8
2
 62
134
  6
CONTINUOUS
 10
272.645217
 20
129.414477
 11
273.680493
 21
129.414477
  0
LINE
  8
2
 62
134
  6
CONTINUOUS
 10
273.162855
 20
127.965589
 11
272.904036
 21
128.931514
  0
LINE
  8
2
 62
134
  6
CONTINUOUS
 10
273.162855
 20
127.965589
 11
273.421674
 21
128.931514
  0
LINE
  8
2
 62
134
  6
CONTINUOUS
 10
272.904036
 20
128.931514
 11
273.421674
 21
128.931514
  0
TEXT
  8
2
 62
134
  6
CONTINUOUS
 10
273.162855
 20
140.482657
 40
4.000000
 41
1.000000
  1
30
  7
KANJI
 50
90.000000
 51
30.000000
  0
ENDBLK
  0
BLOCK
  8
2
 62
134
  6
CONTINUOUS
  2
*D2
 70
    65
 10
0.0
 20
0.0
  0
LINE
  8
2
 62
134
  6
CONTINUOUS
 10
236.520719
 20
165.088843
 11
248.520719
 21
165.088843
  0
LINE
  8
2
 62
134
  6
CONTINUOUS
 10
236.520719
 20
167.088843
 11
236.520719
 21
159.182626
  0
LINE
  8
2
 62
134
  6
CONTINUOUS
 10
248.520719
 20
167.088843
 11
248.520719
 21
161.623854
  0
LINE
  8
2
 62
134
  6
CONTINUOUS
 10
236.520719
 20
165.088843
 11
238.452570
 21
165.606481
  0
LINE
  8
2
 62
134
  6
CONTINUOUS
 10
236.520719
 20
165.088843
 11
238.452570
 21
164.571205
  0
LINE
  8
2
 62
134
  6
CONTINUOUS
 10
238.452570
 20
165.606481
 11
238.452570
 21
164.571205
  0
LINE
  8
2
 62
134
  6
CONTINUOUS
 10
237.003681
 20
165.088843
 11
237.969607
 21
165.347662
  0
LINE
  8
2
 62
134
  6
CONTINUOUS
 10
237.003681
 20
165.088843
 11
237.969607
 21
164.830024
  0
LINE
  8
2
 62
134
  6
CONTINUOUS
 10
237.969607
 20
165.347662
 11
237.969607
 21
164.830024
  0
LINE
  8
2
 62
134
  6
CONTINUOUS
 10
248.520719
 20
165.088843
 11
246.588867
 21
164.571205
  0
LINE
  8
2
 62
134
  6
CONTINUOUS
 10
248.520719
 20
165.088843
 11
246.588867
 21
165.606481
  0
LINE
  8
2
 62
134
  6
CONTINUOUS
 10
246.588867
 20
164.571205
 11
246.588867
 21
165.606481
  0
LINE
  8
2
 62
134
  6
CONTINUOUS
 10
248.037756
 20
165.088843
 11
247.071830
 21
164.830024
  0
LINE
  8
2
 62
134
  6
CONTINUOUS
 10
248.037756
 20
165.088843
 11
247.071830
 21
165.347662
  0
LINE
  8
2
 62
134
  6
CONTINUOUS
 10
247.071830
 20
164.830024
 11
247.071830
 21
165.347662
  0
TEXT
  8
2
 62
134
  6
CONTINUOUS
 10
240.520719
 20
165.088843
 40
4.000000
 41
1.000000
  1
12
  7
KANJI
 50
0.000000
 51
30.000000
  0
ENDBLK
  0
BLOCK
  8
2
 62
134
  6
CONTINUOUS
  2
*D3
 70
    65
 10
0.0
 20
0.0
  0
LINE
  8
2
 62
134
  6
CONTINUOUS
 10
248.520719
 20
165.088843
 11
260.520719
 21
165.088843
  0
LINE
  8
2
 62
134
  6
CONTINUOUS
 10
260.520719
 20
167.088843
 11
260.520719
 21
159.182626
  0
LINE
  8
2
 62
134
  6
CONTINUOUS
 10
248.520719
 20
165.088843
 11
250.452570
 21
165.606481
  0
LINE
  8
2
 62
134
  6
CONTINUOUS
 10
248.520719
 20
165.088843
 11
250.452570
 21
164.571205
  0
LINE
  8
2
 62
134
  6
CONTINUOUS
 10
250.452570
 20
165.606481
 11
250.452570
 21
164.571205
  0
LINE
  8
2
 62
134
  6
CONTINUOUS
 10
249.003681
 20
165.088843
 11
249.969607
 21
165.347662
  0
LINE
  8
2
 62
134
  6
CONTINUOUS
 10
249.003681
 20
165.088843
 11
249.969607
 21
164.830024
  0
LINE
  8
2
 62
134
  6
CONTINUOUS
 10
249.969607
 20
165.347662
 11
249.969607
 21
164.830024
  0
LINE
  8
2
 62
134
  6
CONTINUOUS
 10
260.520719
 20
165.088843
 11
258.588867
 21
164.571205
  0
LINE
  8
2
 62
134
  6
CONTINUOUS
 10
260.520719
 20
165.088843
 11
258.588867
 21
165.606481
  0
LINE
  8
2
 62
134
  6
CONTINUOUS
 10
258.588867
 20
164.571205
 11
258.588867
 21
165.606481
  0
LINE
  8
2
 62
134
  6
CONTINUOUS
 10
260.037756
 20
165.088843
 11
259.071830
 21
164.830024
  0
LINE
  8
2
 62
134
  6
CONTINUOUS
 10
260.037756
 20
165.088843
 11
259.071830
 21
165.347662
  0
LINE
  8
2
 62
134
  6
CONTINUOUS
 10
259.071830
 20
164.830024
 11
259.071830
 21
165.347662
  0
TEXT
  8
2
 62
134
  6
CONTINUOUS
 10
252.520719
 20
165.088843
 40
4.000000
 41
1.000000
  1
12
  7
KANJI
 50
0.000000
 51
30.000000
  0
ENDBLK
  0
BLOCK
  8
2
 62
134
  6
CONTINUOUS
  2
*D4
 70
    65
 10
0.0
 20
0.0
  0
LINE
  8
2
 62
134
  6
CONTINUOUS
 10
236.520719
 20
171.910917
 11
260.520719
 21
171.910917
  0
LINE
  8
2
 62
134
  6
CONTINUOUS
 10
236.520719
 20
173.910917
 11
236.520719
 21
159.182626
  0
LINE
  8
2
 62
134
  6
CONTINUOUS
 10
260.520719
 20
173.910917
 11
260.520719
 21
159.182626
  0
LINE
  8
2
 62
134
  6
CONTINUOUS
 10
236.520719
 20
171.910917
 11
238.452570
 21
172.428556
  0
LINE
  8
2
 62
134
  6
CONTINUOUS
 10
236.520719
 20
171.910917
 11
238.452570
 21
171.393279
  0
LINE
  8
2
 62
134
  6
CONTINUOUS
 10
238.452570
 20
172.428556
 11
238.452570
 21
171.393279
  0
LINE
  8
2
 62
134
  6
CONTINUOUS
 10
237.003681
 20
171.910917
 11
237.969607
 21
172.169736
  0
LINE
  8
2
 62
134
  6
CONTINUOUS
 10
237.003681
 20
171.910917
 11
237.969607
 21
171.652098
  0
LINE
  8
2
 62
134
  6
CONTINUOUS
 10
237.969607
 20
172.169736
 11
237.969607
 21
171.652098
  0
LINE
  8
2
 62
134
  6
CONTINUOUS
 10
260.520719
 20
171.910917
 11
258.588867
 21
171.393279
  0
LINE
  8
2
 62
134
  6
CONTINUOUS
 10
260.520719
 20
171.910917
 11
258.588867
 21
172.428556
  0
LINE
  8
2
 62
134
  6
CONTINUOUS
 10
258.588867
 20
171.393279
 11
258.588867
 21
172.428556
  0
LINE
  8
2
 62
134
  6
CONTINUOUS
 10
260.037756
 20
171.910917
 11
259.071830
 21
171.652098
  0
LINE
  8
2
 62
134
  6
CONTINUOUS
 10
260.037756
 20
171.910917
 11
259.071830
 21
172.169736
  0
LINE
  8
2
 62
134
  6
CONTINUOUS
 10
259.071830
 20
171.652098
 11
259.071830
 21
172.169736
  0
TEXT
  8
2
 62
134
  6
CONTINUOUS
 10
245.425028
 20
171.910917
 40
4.000000
 41
1.000000
  1
24
  7
KANJI
 50
0.000000
 51
30.000000
  0
ENDBLK
  0
BLOCK
  8
2
 62
134
  6
CONTINUOUS
  2
*D5
 70
    65
 10
0.0
 20
0.0
  0
LINE
  8
2
 62
134
  6
CONTINUOUS
 10
120.189346
 20
172.482626
 11
168.689346
 21
172.482626
  0
LINE
  8
2
 62
134
  6
CONTINUOUS
 10
120.189346
 20
174.482626
 11
120.189346
 21
155.201880
  0
LINE
  8
2
 62
134
  6
CONTINUOUS
 10
168.689346
 20
174.482626
 11
168.689346
 21
159.182626
  0
LINE
  8
2
 62
134
  6
CONTINUOUS
 10
120.189346
 20
172.482626
 11
122.121198
 21
173.000264
  0
LINE
  8
2
 62
134
  6
CONTINUOUS
 10
120.189346
 20
172.482626
 11
122.121198
 21
171.964988
  0
LINE
  8
2
 62
134
  6
CONTINUOUS
 10
122.121198
 20
173.000264
 11
122.121198
 21
171.964988
  0
LINE
  8
2
 62
134
  6
CONTINUOUS
 10
120.672309
 20
172.482626
 11
121.638235
 21
172.741445
  0
LINE
  8
2
 62
134
  6
CONTINUOUS
 10
120.672309
 20
172.482626
 11
121.638235
 21
172.223807
  0
LINE
  8
2
 62
134
  6
CONTINUOUS
 10
121.638235
 20
172.741445
 11
121.638235
 21
172.223807
  0
LINE
  8
2
 62
134
  6
CONTINUOUS
 10
168.689346
 20
172.482626
 11
166.757494
 21
171.964988
  0
LINE
  8
2
 62
134
  6
CONTINUOUS
 10
168.689346
 20
172.482626
 11
166.757494
 21
173.000264
  0
LINE
  8
2
 62
134
  6
CONTINUOUS
 10
166.757494
 20
171.964988
 11
166.757494
 21
173.000264
  0
LINE
  8
2
 62
134
  6
CONTINUOUS
 10
168.206383
 20
172.482626
 11
167.240457
 21
172.223807
  0
LINE
  8
2
 62
134
  6
CONTINUOUS
 10
168.206383
 20
172.482626
 11
167.240457
 21
172.741445
  0
LINE
  8
2
 62
134
  6
CONTINUOUS
 10
167.240457
 20
172.223807
 11
167.240457
 21
172.741445
  0
TEXT
  8
2
 62
134
  6
CONTINUOUS
 10
140.439346
 20
172.482626
 40
4.000000
 41
1.000000
  1
48.5
  7
KANJI
 50
0.000000
 51
30.000000
  0
ENDBLK
  0
BLOCK
  8
2
 62
134
  6
CONTINUOUS
  2
*D6
 70
    65
 10
0.0
 20
0.0
  0
LINE
  8
2
 62
134
  6
CONTINUOUS
 10
142.059562
 20
152.482626
 11
142.059562
 21
132.482626
  0
LINE
  8
2
 62
134
  6
CONTINUOUS
 10
144.059562
 20
152.482626
 11
128.852383
 21
152.482626
  0
LINE
  8
2
 62
134
  6
CONTINUOUS
 10
144.059562
 20
132.482626
 11
129.109096
 21
132.482626
  0
LINE
  8
2
 62
134
  6
CONTINUOUS
 10
142.059562
 20
152.482626
 11
142.577200
 21
150.550774
  0
LINE
  8
2
 62
134
  6
CONTINUOUS
 10
142.059562
 20
152.482626
 11
141.541924
 21
150.550774
  0
LINE
  8
2
 62
134
  6
CONTINUOUS
 10
142.577200
 20
150.550774
 11
141.541924
 21
150.550774
  0
LINE
  8
2
 62
134
  6
CONTINUOUS
 10
142.059562
 20
151.999663
 11
142.318381
 21
151.033737
  0
LINE
  8
2
 62
134
  6
CONTINUOUS
 10
142.059562
 20
151.999663
 11
141.800743
 21
151.033737
  0
LINE
  8
2
 62
134
  6
CONTINUOUS
 10
142.318381
 20
151.033737
 11
141.800743
 21
151.033737
  0
LINE
  8
2
 62
134
  6
CONTINUOUS
 10
142.059562
 20
132.482626
 11
141.541924
 21
134.414477
  0
LINE
  8
2
 62
134
  6
CONTINUOUS
 10
142.059562
 20
132.482626
 11
142.577200
 21
134.414477
  0
LINE
  8
2
 62
134
  6
CONTINUOUS
 10
141.541924
 20
134.414477
 11
142.577200
 21
134.414477
  0
LINE
  8
2
 62
134
  6
CONTINUOUS
 10
142.059562
 20
132.965589
 11
141.800743
 21
133.931514
  0
LINE
  8
2
 62
134
  6
CONTINUOUS
 10
142.059562
 20
132.965589
 11
142.318381
 21
133.931514
  0
LINE
  8
2
 62
134
  6
CONTINUOUS
 10
141.800743
 20
133.931514
 11
142.318381
 21
133.931514
  0
TEXT
  8
2
 62
134
  6
CONTINUOUS
 10
142.059562
 20
143.982626
 40
4.000000
 41
1.000000
  1
20
  7
KANJI
 50
90.000000
 51
30.000000
  0
ENDBLK
  0
BLOCK
  8
2
 62
134
  6
CONTINUOUS
  2
*D7
 70
    65
 10
0.0
 20
0.0
  0
LINE
  8
2
 62
134
  6
CONTINUOUS
 10
116.189346
 20
162.765892
 11
128.189346
 21
162.765892
  0
LINE
  8
2
 62
134
  6
CONTINUOUS
 10
120.189346
 20
164.765892
 11
120.189346
 21
155.482626
  0
LINE
  8
2
 62
134
  6
CONTINUOUS
 10
124.189346
 20
164.765892
 11
124.189346
 21
157.203332
  0
LINE
  8
2
 62
134
  6
CONTINUOUS
 10
120.189346
 20
162.765892
 11
118.257494
 21
162.248254
  0
LINE
  8
2
 62
134
  6
CONTINUOUS
 10
120.189346
 20
162.765892
 11
118.257494
 21
163.283530
  0
LINE
  8
2
 62
134
  6
CONTINUOUS
 10
118.257494
 20
162.248254
 11
118.257494
 21
163.283530
  0
LINE
  8
2
 62
134
  6
CONTINUOUS
 10
119.706383
 20
162.765892
 11
118.740457
 21
162.507073
  0
LINE
  8
2
 62
134
  6
CONTINUOUS
 10
119.706383
 20
162.765892
 11
118.740457
 21
163.024711
  0
LINE
  8
2
 62
134
  6
CONTINUOUS
 10
118.740457
 20
162.507073
 11
118.740457
 21
163.024711
  0
LINE
  8
2
 62
134
  6
CONTINUOUS
 10
124.189346
 20
162.765892
 11
126.121198
 21
163.283530
  0
LINE
  8
2
 62
134
  6
CONTINUOUS
 10
124.189346
 20
162.765892
 11
126.121198
 21
162.248254
  0
LINE
  8
2
 62
134
  6
CONTINUOUS
 10
126.121198
 20
163.283530
 11
126.121198
 21
162.248254
  0
LINE
  8
2
 62
134
  6
CONTINUOUS
 10
124.672309
 20
162.765892
 11
125.638235
 21
163.024711
  0
LINE
  8
2
 62
134
  6
CONTINUOUS
 10
124.672309
 20
162.765892
 11
125.638235
 21
162.507073
  0
LINE
  8
2
 62
134
  6
CONTINUOUS
 10
125.638235
 20
163.024711
 11
125.638235
 21
162.507073
  0
TEXT
  8
2
 62
134
  6
CONTINUOUS
 10
121.121198
 20
162.765892
 40
4.000000
 41
1.000000
  1
4
  7
KANJI
 50
0.000000
 51
30.000000
  0
ENDBLK
  0
BLOCK
  8
2
 62
134
  6
CONTINUOUS
  2
*D8
 70
    65
 10
0.0
 20
0.0
  0
LINE
  8
2
 62
134
  6
CONTINUOUS
 10
168.689346
 20
172.482626
 11
212.289346
 21
172.482626
  0
LINE
  8
2
 62
134
  6
CONTINUOUS
 10
168.689346
 20
174.482626
 11
168.689346
 21
159.182626
  0
LINE
  8
2
 62
134
  6
CONTINUOUS
 10
212.289346
 20
174.482626
 11
212.289346
 21
149.332626
  0
LINE
  8
2
 62
134
  6
CONTINUOUS
 10
168.689346
 20
172.482626
 11
170.621198
 21
173.000264
  0
LINE
  8
2
 62
134
  6
CONTINUOUS
 10
168.689346
 20
172.482626
 11
170.621198
 21
171.964988
  0
LINE
  8
2
 62
134
  6
CONTINUOUS
 10
170.621198
 20
173.000264
 11
170.621198
 21
171.964988
  0
LINE
  8
2
 62
134
  6
CONTINUOUS
 10
169.172309
 20
172.482626
 11
170.138235
 21
172.741445
  0
LINE
  8
2
 62
134
  6
CONTINUOUS
 10
169.172309
 20
172.482626
 11
170.138235
 21
172.223807
  0
LINE
  8
2
 62
134
  6
CONTINUOUS
 10
170.138235
 20
172.741445
 11
170.138235
 21
172.223807
  0
LINE
  8
2
 62
134
  6
CONTINUOUS
 10
212.289346
 20
172.482626
 11
210.357494
 21
171.964988
  0
LINE
  8
2
 62
134
  6
CONTINUOUS
 10
212.289346
 20
172.482626
 11
210.357494
 21
173.000264
  0
LINE
  8
2
 62
134
  6
CONTINUOUS
 10
210.357494
 20
171.964988
 11
210.357494
 21
173.000264
  0
LINE
  8
2
 62
134
  6
CONTINUOUS
 10
211.806383
 20
172.482626
 11
210.840457
 21
172.223807
  0
LINE
  8
2
 62
134
  6
CONTINUOUS
 10
211.806383
 20
172.482626
 11
210.840457
 21
172.741445
  0
LINE
  8
2
 62
134
  6
CONTINUOUS
 10
210.840457
 20
172.223807
 11
210.840457
 21
172.741445
  0
TEXT
  8
2
 62
134
  6
CONTINUOUS
 10
189.085223
 20
172.482626
 40
4.000000
 41
1.000000
  1
44
  7
KANJI
 50
0.000000
 51
30.000000
  0
ENDBLK
  0
BLOCK
  8
2
 62
134
  6
CONTINUOUS
  2
*D9
 70
    65
 10
0.0
 20
0.0
  0
LINE
  8
2
 62
134
  6
CONTINUOUS
 10
205.519125
 20
127.045529
 11
205.519125
 21
162.111316
  0
LINE
  8
2
 62
134
  6
CONTINUOUS
 10
205.519125
 20
135.045529
 11
206.036763
 21
133.113677
  0
LINE
  8
2
 62
134
  6
CONTINUOUS
 10
205.519125
 20
135.045529
 11
205.001486
 21
133.113677
  0
LINE
  8
2
 62
134
  6
CONTINUOUS
 10
206.036763
 20
133.113677
 11
205.001486
 21
133.113677
  0
LINE
  8
2
 62
134
  6
CONTINUOUS
 10
205.519125
 20
134.562566
 11
205.777944
 21
133.596640
  0
LINE
  8
2
 62
134
  6
CONTINUOUS
 10
205.519125
 20
134.562566
 11
205.260306
 21
133.596640
  0
LINE
  8
2
 62
134
  6
CONTINUOUS
 10
205.777944
 20
133.596640
 11
205.260306
 21
133.596640
  0
LINE
  8
2
 62
134
  6
CONTINUOUS
 10
205.519125
 20
149.919723
 11
205.001486
 21
151.851574
  0
LINE
  8
2
 62
134
  6
CONTINUOUS
 10
205.519125
 20
149.919723
 11
206.036763
 21
151.851574
  0
LINE
  8
2
 62
134
  6
CONTINUOUS
 10
205.001486
 20
151.851574
 11
206.036763
 21
151.851574
  0
LINE
  8
2
 62
134
  6
CONTINUOUS
 10
205.519125
 20
150.402685
 11
205.260306
 21
151.368611
  0
LINE
  8
2
 62
134
  6
CONTINUOUS
 10
205.519125
 20
150.402685
 11
205.777944
 21
151.368611
  0
LINE
  8
2
 62
134
  6
CONTINUOUS
 10
205.260306
 20
151.368611
 11
205.777944
 21
151.368611
  0
TEXT
  8
2
 62
134
  6
CONTINUOUS
 10
205.519125
 20
154.111316
 40
4.000000
 41
1.000000
  1
φ15
  7
KANJI
 50
90.000000
 51
0.000000
  0
ENDBLK
  0
BLOCK
  8
2
 62
134
  6
CONTINUOUS
  2
*D10
 70
    65
 10
0.0
 20
0.0
  0
LINE
  8
2
 62
134
  6
CONTINUOUS
 10
80.419287
 20
149.982626
 11
80.419287
 21
134.982626
  0
LINE
  8
2
 62
134
  6
CONTINUOUS
 10
78.419287
 20
149.982626
 11
80.789346
 21
149.982626
  0
LINE
  8
2
 62
134
  6
CONTINUOUS
 10
78.419287
 20
134.982626
 11
80.789346
 21
134.982626
  0
LINE
  8
2
 62
134
  6
CONTINUOUS
 10
80.419287
 20
149.982626
 11
80.936925
 21
148.050774
  0
LINE
  8
2
 62
134
  6
CONTINUOUS
 10
80.419287
 20
149.982626
 11
79.901649
 21
148.050774
  0
LINE
  8
2
 62
134
  6
CONTINUOUS
 10
80.936925
 20
148.050774
 11
79.901649
 21
148.050774
  0
LINE
  8
2
 62
134
  6
CONTINUOUS
 10
80.419287
 20
149.499663
 11
80.678106
 21
148.533737
  0
LINE
  8
2
 62
134
  6
CONTINUOUS
 10
80.419287
 20
149.499663
 11
80.160468
 21
148.533737
  0
LINE
  8
2
 62
134
  6
CONTINUOUS
 10
80.678106
 20
148.533737
 11
80.160468
 21
148.533737
  0
LINE
  8
2
 62
134
  6
CONTINUOUS
 10
80.419287
 20
134.982626
 11
79.901649
 21
136.914477
  0
LINE
  8
2
 62
134
  6
CONTINUOUS
 10
80.419287
 20
134.982626
 11
80.936925
 21
136.914477
  0
LINE
  8
2
 62
134
  6
CONTINUOUS
 10
79.901649
 20
136.914477
 11
80.936925
 21
136.914477
  0
LINE
  8
2
 62
134
  6
CONTINUOUS
 10
80.419287
 20
135.465589
 11
80.160468
 21
136.431515
  0
LINE
  8
2
 62
134
  6
CONTINUOUS
 10
80.419287
 20
135.465589
 11
80.678106
 21
136.431515
  0
LINE
  8
2
 62
134
  6
CONTINUOUS
 10
80.160468
 20
136.431515
 11
80.678106
 21
136.431515
  0
TEXT
  8
2
 62
134
  6
CONTINUOUS
 10
80.419287
 20
138.482626
 40
4.000000
 41
1.000000
  1
φ15
  7
KANJI
 50
90.000000
 51
30.000000
  0
ENDBLK
  0
BLOCK
  8
2
 62
134
  6
CONTINUOUS
  2
*D11
 70
    65
 10
0.0
 20
0.0
  0
LINE
  8
2
 62
134
  6
CONTINUOUS
 10
71.174004
 20
152.482626
 11
71.174004
 21
132.482626
  0
LINE
  8
2
 62
134
  6
CONTINUOUS
 10
69.174004
 20
152.482626
 11
113.489346
 21
152.482626
  0
LINE
  8
2
 62
134
  6
CONTINUOUS
 10
69.174004
 20
132.482626
 11
113.489346
 21
132.482626
  0
LINE
  8
2
 62
134
  6
CONTINUOUS
 10
71.174004
 20
152.482626
 11
71.691642
 21
150.550774
  0
LINE
  8
2
 62
134
  6
CONTINUOUS
 10
71.174004
 20
152.482626
 11
70.656366
 21
150.550774
  0
LINE
  8
2
 62
134
  6
CONTINUOUS
 10
71.691642
 20
150.550774
 11
70.656366
 21
150.550774
  0
LINE
  8
2
 62
134
  6
CONTINUOUS
 10
71.174004
 20
151.999663
 11
71.432823
 21
151.033737
  0
LINE
  8
2
 62
134
  6
CONTINUOUS
 10
71.174004
 20
151.999663
 11
70.915185
 21
151.033737
  0
LINE
  8
2
 62
134
  6
CONTINUOUS
 10
71.432823
 20
151.033737
 11
70.915185
 21
151.033737
  0
LINE
  8
2
 62
134
  6
CONTINUOUS
 10
71.174004
 20
132.482626
 11
70.656366
 21
134.414477
  0
LINE
  8
2
 62
134
  6
CONTINUOUS
 10
71.174004
 20
132.482626
 11
71.691642
 21
134.414477
  0
LINE
  8
2
 62
134
  6
CONTINUOUS
 10
70.656366
 20
134.414477
 11
71.691642
 21
134.414477
  0
LINE
  8
2
 62
134
  6
CONTINUOUS
 10
71.174004
 20
132.965589
 11
70.915185
 21
133.931514
  0
LINE
  8
2
 62
134
  6
CONTINUOUS
 10
71.174004
 20
132.965589
 11
71.432823
 21
133.931514
  0
LINE
  8
2
 62
134
  6
CONTINUOUS
 10
70.915185
 20
133.931514
 11
71.432823
 21
133.931514
  0
TEXT
  8
2
 62
134
  6
CONTINUOUS
 10
71.174004
 20
138.482626
 40
4.000000
 41
1.000000
  1
φ20
  7
KANJI
 50
90.000000
 51
30.000000
  0
ENDBLK
  0
BLOCK
  8
2
 62
134
  6
CONTINUOUS
  2
*D12
 70
    65
 10
0.0
 20
0.0
  0
LINE
  8
2
 62
134
  6
CONTINUOUS
 10
82.688877
 20
172.482626
 11
120.188877
 21
172.482626
  0
LINE
  8
2
 62
134
  6
CONTINUOUS
 10
82.688877
 20
174.482626
 11
82.688877
 21
150.982615
  0
LINE
  8
2
 62
134
  6
CONTINUOUS
 10
120.188877
 20
174.482626
 11
120.188877
 21
154.282615
  0
LINE
  8
2
 62
134
  6
CONTINUOUS
 10
82.688877
 20
172.482626
 11
84.620728
 21
173.000264
  0
LINE
  8
2
 62
134
  6
CONTINUOUS
 10
82.688877
 20
172.482626
 11
84.620728
 21
171.964988
  0
LINE
  8
2
 62
134
  6
CONTINUOUS
 10
84.620728
 20
173.000264
 11
84.620728
 21
171.964988
  0
LINE
  8
2
 62
134
  6
CONTINUOUS
 10
83.171840
 20
172.482626
 11
84.137766
 21
172.741445
  0
LINE
  8
2
 62
134
  6
CONTINUOUS
 10
83.171840
 20
172.482626
 11
84.137766
 21
172.223807
  0
LINE
  8
2
 62
134
  6
CONTINUOUS
 10
84.137766
 20
172.741445
 11
84.137766
 21
172.223807
  0
LINE
  8
2
 62
134
  6
CONTINUOUS
 10
120.188877
 20
172.482626
 11
118.257025
 21
171.964988
  0
LINE
  8
2
 62
134
  6
CONTINUOUS
 10
120.188877
 20
172.482626
 11
118.257025
 21
173.000264
  0
LINE
  8
2
 62
134
  6
CONTINUOUS
 10
118.257025
 20
171.964988
 11
118.257025
 21
173.000264
  0
LINE
  8
2
 62
134
  6
CONTINUOUS
 10
119.705914
 20
172.482626
 11
118.739988
 21
172.223807
  0
LINE
  8
2
 62
134
  6
CONTINUOUS
 10
119.705914
 20
172.482626
 11
118.739988
 21
172.741445
  0
LINE
  8
2
 62
134
  6
CONTINUOUS
 10
118.739988
 20
172.223807
 11
118.739988
 21
172.741445
  0
TEXT
  8
2
 62
134
  6
CONTINUOUS
 10
97.438877
 20
172.482626
 40
4.000000
 41
1.000000
  1
37.5
  7
KANJI
 50
0.000000
 51
30.000000
  0
ENDBLK
  0
BLOCK
  8
2
 62
134
  6
CONTINUOUS
  2
*D13
 70
    65
 10
0.0
 20
0.0
  0
LINE
  8
2
 62
134
  6
CONTINUOUS
 10
147.346758
 20
64.773587
 11
147.346758
 21
88.985615
  0
LINE
  8
2
 62
134
  6
CONTINUOUS
 10
147.346758
 20
72.773587
 11
147.864396
 21
70.841736
  0
LINE
  8
2
 62
134
  6
CONTINUOUS
 10
147.346758
 20
72.773587
 11
146.829120
 21
70.841736
  0
LINE
  8
2
 62
134
  6
CONTINUOUS
 10
147.864396
 20
70.841736
 11
146.829120
 21
70.841736
  0
LINE
  8
2
 62
134
  6
CONTINUOUS
 10
147.346758
 20
72.290624
 11
147.605577
 21
71.324698
  0
LINE
  8
2
 62
134
  6
CONTINUOUS
 10
147.346758
 20
72.290624
 11
147.087939
 21
71.324698
  0
LINE
  8
2
 62
134
  6
CONTINUOUS
 10
147.605577
 20
71.324698
 11
147.087939
 21
71.324698
  0
LINE
  8
2
 62
134
  6
CONTINUOUS
 10
147.346758
 20
79.773587
 11
146.829120
 21
81.705439
  0
LINE
  8
2
 62
134
  6
CONTINUOUS
 10
147.346758
 20
79.773587
 11
147.864396
 21
81.705439
  0
LINE
  8
2
 62
134
  6
CONTINUOUS
 10
146.829120
 20
81.705439
 11
147.864396
 21
81.705439
  0
LINE
  8
2
 62
134
  6
CONTINUOUS
 10
147.346758
 20
80.256550
 11
147.087939
 21
81.222476
  0
LINE
  8
2
 62
134
  6
CONTINUOUS
 10
147.346758
 20
80.256550
 11
147.605577
 21
81.222476
  0
LINE
  8
2
 62
134
  6
CONTINUOUS
 10
147.087939
 20
81.222476
 11
147.605577
 21
81.222476
  0
TEXT
  8
2
 62
134
  6
CONTINUOUS
 10
147.346758
 20
82.985615
 40
4.000000
 41
1.000000
  1
φ7
  7
KANJI
 50
90.000000
 51
0.000000
  0
ENDBLK
  0
BLOCK
  8
2
 62
134
  6
CONTINUOUS
  2
*D14
 70
    65
 10
0.0
 20
0.0
  0
LINE
  8
2
 62
134
  6
CONTINUOUS
 10
198.709894
 20
97.733352
 11
204.709894
 21
97.733352
  0
LINE
  8
2
 62
134
  6
CONTINUOUS
 10
198.709894
 20
99.733352
 11
198.709894
 21
91.023587
  0
LINE
  8
2
 62
134
  6
CONTINUOUS
 10
204.709894
 20
99.733352
 11
204.709894
 21
91.023587
  0
LINE
  8
2
 62
134
  6
CONTINUOUS
 10
198.709894
 20
97.733352
 11
200.641746
 21
98.250990
  0
LINE
  8
2
 62
134
  6
CONTINUOUS
 10
198.709894
 20
97.733352
 11
200.641746
 21
97.215714
  0
LINE
  8
2
 62
134
  6
CONTINUOUS
 10
200.641746
 20
98.250990
 11
200.641746
 21
97.215714
  0
LINE
  8
2
 62
134
  6
CONTINUOUS
 10
199.192857
 20
97.733352
 11
200.158783
 21
97.992171
  0
LINE
  8
2
 62
134
  6
CONTINUOUS
 10
199.192857
 20
97.733352
 11
200.158783
 21
97.474533
  0
LINE
  8
2
 62
134
  6
CONTINUOUS
 10
200.158783
 20
97.992171
 11
200.158783
 21
97.474533
  0
LINE
  8
2
 62
134
  6
CONTINUOUS
 10
204.709894
 20
97.733352
 11
202.778043
 21
97.215714
  0
LINE
  8
2
 62
134
  6
CONTINUOUS
 10
204.709894
 20
97.733352
 11
202.778043
 21
98.250990
  0
LINE
  8
2
 62
134
  6
CONTINUOUS
 10
202.778043
 20
97.215714
 11
202.778043
 21
98.250990
  0
LINE
  8
2
 62
134
  6
CONTINUOUS
 10
204.226931
 20
97.733352
 11
203.261006
 21
97.474533
  0
LINE
  8
2
 62
134
  6
CONTINUOUS
 10
204.226931
 20
97.733352
 11
203.261006
 21
97.992171
  0
LINE
  8
2
 62
134
  6
CONTINUOUS
 10
203.261006
 20
97.474533
 11
203.261006
 21
97.992171
  0
TEXT
  8
2
 62
134
  6
CONTINUOUS
 10
200.709894
 20
97.733352
 40
4.000000
 41
1.000000
  1
6
  7
KANJI
 50
0.000000
 51
30.000000
  0
ENDBLK
  0
BLOCK
  8
3
 62
134
  6
CONTINUOUS
  2
*D15
 70
    65
 10
0.0
 20
0.0
  0
LINE
  8
3
 62
134
  6
CONTINUOUS
 10
101.479717
 20
97.754434
 11
170.052043
 21
97.754434
  0
LINE
  8
3
 62
134
  6
CONTINUOUS
 10
101.479717
 20
99.754434
 11
101.479717
 21
81.773556
  0
LINE
  8
3
 62
134
  6
CONTINUOUS
 10
170.052043
 20
99.754434
 11
170.052043
 21
85.873587
  0
LINE
  8
3
 62
134
  6
CONTINUOUS
 10
101.479717
 20
97.754434
 11
103.411569
 21
98.272072
  0
LINE
  8
3
 62
134
  6
CONTINUOUS
 10
101.479717
 20
97.754434
 11
103.411569
 21
97.236796
  0
LINE
  8
3
 62
134
  6
CONTINUOUS
 10
103.411569
 20
98.272072
 11
103.411569
 21
97.236796
  0
LINE
  8
3
 62
134
  6
CONTINUOUS
 10
101.962680
 20
97.754434
 11
102.928606
 21
98.013253
  0
LINE
  8
3
 62
134
  6
CONTINUOUS
 10
101.962680
 20
97.754434
 11
102.928606
 21
97.495615
  0
LINE
  8
3
 62
134
  6
CONTINUOUS
 10
102.928606
 20
98.013253
 11
102.928606
 21
97.495615
  0
LINE
  8
3
 62
134
  6
CONTINUOUS
 10
170.052043
 20
97.754434
 11
168.120191
 21
97.236796
  0
LINE
  8
3
 62
134
  6
CONTINUOUS
 10
170.052043
 20
97.754434
 11
168.120191
 21
98.272072
  0
LINE
  8
3
 62
134
  6
CONTINUOUS
 10
168.120191
 20
97.236796
 11
168.120191
 21
98.272072
  0
LINE
  8
3
 62
134
  6
CONTINUOUS
 10
169.569080
 20
97.754434
 11
168.603154
 21
97.495615
  0
LINE
  8
3
 62
134
  6
CONTINUOUS
 10
169.569080
 20
97.754434
 11
168.603154
 21
98.013253
  0
LINE
  8
3
 62
134
  6
CONTINUOUS
 10
168.603154
 20
97.495615
 11
168.603154
 21
98.013253
  0
TEXT
  8
3
 62
134
  6
CONTINUOUS
 10
118.765880
 20
97.754434
 40
4.000000
 41
1.000000
  1
ｹｰﾌﾞﾙ長（標準2m）
  7
KANJI
 50
0.000000
 51
30.000000
  0
ENDBLK
  0
ENDSEC
  0
SECTION
  2
ENTITIES
  0
LINE
  8
5
 62
7
  6
CONTINUOUS
 10
285.000000
 20
195.000000
 11
10.000000
 21
195.000000
  0
LINE
  8
5
 62
7
  6
CONTINUOUS
 10
10.000000
 20
195.000000
 11
10.000000
 21
10.000000
  0
LINE
  8
5
 62
7
  6
CONTINUOUS
 10
10.000000
 20
10.000000
 11
285.000000
 21
10.000000
  0
LINE
  8
5
 62
7
  6
CONTINUOUS
 10
285.000000
 20
10.000000
 11
285.000000
 21
195.000000
  0
TEXT
  8
5
 62
7
  6
CONTINUOUS
 10
210.962748
 20
25.651490
 40
1.750000
 41
4.000000
  1
製図
  7
KANJI
 50
-90.000000
 51
0.000000
  0
TEXT
  8
5
 62
7
  6
CONTINUOUS
 10
230.795530
 20
25.487583
 40
1.750000
 41
4.000000
  1
図番
  7
KANJI
 50
-90.000000
 51
0.000000
  0
TEXT
  8
5
 62
7
  6
CONTINUOUS
 10
230.795530
 20
38.764073
 40
1.750000
 41
4.000000
  1
図　名
  7
KANJI
 50
-90.000000
 51
0.000000
  0
TEXT
  8
5
 62
7
  6
CONTINUOUS
 10
165.888245
 20
33.355132
 40
1.750000
 41
4.000000
  1
日付
  7
KANJI
 50
-90.000000
 51
0.000000
  0
TEXT
  8
5
 62
7
  6
CONTINUOUS
 10
200.964404
 20
33.519040
 40
1.750000
 41
4.000000
  1
図法
  7
KANJI
 50
-90.000000
 51
0.000000
  0
TEXT
  8
5
 62
7
  6
CONTINUOUS
 10
200.800497
 20
41.550497
 40
1.750000
 41
4.000000
  1
尺度
  7
KANJI
 50
-90.000000
 51
0.000000
  0
TEXT
  8
5
 62
7
  6
CONTINUOUS
 10
165.888245
 20
41.386589
 40
1.750000
 41
4.000000
  1
公差
  7
KANJI
 50
-90.000000
 51
0.000000
  0
TEXT
  8
5
 62
7
  6
CONTINUOUS
 10
165.888245
 20
25.487583
 40
1.750000
 41
4.000000
  1
承認
  7
KANJI
 50
-90.000000
 51
0.000000
  0
TEXT
  8
5
 62
7
  6
CONTINUOUS
 10
190.966060
 20
25.487583
 40
1.750000
 41
4.000000
  1
設計
  7
KANJI
 50
-90.000000
 51
0.000000
  0
TEXT
  8
5
 62
7
  6
CONTINUOUS
 10
184.409768
 20
11.555464
 40
4.500000
 41
1.888889
  1
ジャパンセンサー株式会社
  7
KANJI
 50
0.000000
 51
0.000000
  0
LINE
  8
5
 62
7
  6
CONTINUOUS
 10
165.000000
 20
42.000000
 11
285.000000
 21
42.000000
  0
LINE
  8
5
 62
7
  6
CONTINUOUS
 10
165.000000
 20
10.000000
 11
165.000000
 21
42.000000
  0
LINE
  8
5
 62
7
  6
CONTINUOUS
 10
285.000000
 20
18.000000
 11
165.000000
 21
18.000000
  0
LINE
  8
5
 62
7
  6
CONTINUOUS
 10
230.000000
 20
42.000000
 11
230.000000
 21
18.000000
  0
LINE
  8
5
 62
7
  6
CONTINUOUS
 10
285.000000
 20
26.000000
 11
165.000000
 21
26.000000
  0
LINE
  8
5
 62
7
  6
CONTINUOUS
 10
235.000000
 20
18.000000
 11
235.000000
 21
42.000000
  0
LINE
  8
5
 62
7
  6
CONTINUOUS
 10
205.000000
 20
42.000000
 11
205.000000
 21
26.000000
  0
LINE
  8
5
 62
7
  6
CONTINUOUS
 10
170.000000
 20
18.000000
 11
170.000000
 21
42.000000
  0
LINE
  8
5
 62
7
  6
CONTINUOUS
 10
165.000000
 20
34.000000
 11
230.000000
 21
34.000000
  0
LINE
  8
5
 62
7
  6
CONTINUOUS
 10
200.000000
 20
42.000000
 11
200.000000
 21
26.000000
  0
LINE
  8
5
 62
7
  6
CONTINUOUS
 10
190.000000
 20
18.000000
 11
190.000000
 21
26.000000
  0
LINE
  8
5
 62
7
  6
CONTINUOUS
 10
210.000000
 20
18.000000
 11
210.000000
 21
26.000000
  0
LINE
  8
5
 62
7
  6
CONTINUOUS
 10
195.000000
 20
26.000000
 11
195.000000
 21
18.000000
  0
LINE
  8
5
 62
7
  6
CONTINUOUS
 10
215.000000
 20
26.000000
 11
215.000000
 21
18.000000
  0
TEXT
  8
5
 62
7
  6
CONTINUOUS
 10
209.979305
 20
35.649834
 40
4.000000
 41
1.000000
  1
１／１
  7
KANJI
 50
0.000000
 51
0.000000
  0
TEXT
  8
5
 62
7
  6
CONTINUOUS
 10
208.995861
 20
27.290563
 40
4.000000
 41
1.000000
  1
三角法
  7
KANJI
 50
0.000000
 51
0.000000
  0
LINE
  8
1
 62
4
  6
DASHDOT
 10
248.520719
 20
152.482626
 11
248.520719
 21
133.782114
  0
LINE
  8
1
 62
4
  6
DASHDOT
 10
241.149849
 20
142.482626
 11
256.496199
 21
142.482626
  0
LINE
  8
1
 62
4
  6
DASHDOT
 10
248.520719
 20
124.823574
 11
248.520719
 21
159.623854
  0
LINE
  8
1
 62
4
  6
DASHDOT
 10
261.937621
 20
142.482626
 11
234.040039
 21
142.482626
  0
LINE
  8
1
 62
7
  6
CONTINUOUS
 10
260.220719
 20
127.482626
 11
260.520719
 21
127.782626
  0
LINE
  8
1
 62
7
  6
CONTINUOUS
 10
260.520719
 20
157.182626
 11
260.520719
 21
127.782626
  0
LINE
  8
1
 62
7
  6
CONTINUOUS
 10
236.820719
 20
127.482626
 11
260.220719
 21
127.482626
  0
LINE
  8
1
 62
7
  6
CONTINUOUS
 10
236.520719
 20
127.782626
 11
236.820719
 21
127.482626
  0
LINE
  8
1
 62
7
  6
CONTINUOUS
 10
236.520719
 20
157.182626
 11
236.520719
 21
127.782626
  0
LINE
  8
1
 62
7
  6
CONTINUOUS
 10
236.820719
 20
157.482626
 11
236.520719
 21
157.182626
  0
LINE
  8
1
 62
7
  6
CONTINUOUS
 10
260.220719
 20
157.482626
 11
236.820719
 21
157.482626
  0
LINE
  8
1
 62
7
  6
CONTINUOUS
 10
260.220719
 20
157.482626
 11
260.520719
 21
157.182626
  0
CIRCLE
  8
1
 62
7
  6
CONTINUOUS
 10
258.020719
 20
129.982626
 40
2.100000
  0
CIRCLE
  8
1
 62
7
  6
CONTINUOUS
 10
258.020719
 20
129.982628
 40
1.100000
  0
LINE
  8
1
 62
214
  6
DASHDOT
 10
258.020719
 20
132.462716
 11
258.020719
 21
127.042659
  0
LINE
  8
1
 62
214
  6
DASHDOT
 10
260.850435
 20
129.982626
 11
255.459996
 21
129.982626
  0
LINE
  8
1
 62
214
  6
DASHDOT
 10
259.843394
 20
129.982628
 11
255.376532
 21
129.982628
  0
LINE
  8
1
 62
214
  6
DASHDOT
 10
258.020719
 20
131.765801
 11
258.020719
 21
128.210045
  0
CIRCLE
  8
1
 62
7
  6
CONTINUOUS
 10
239.020719
 20
154.982628
 40
2.100000
  0
CIRCLE
  8
1
 62
7
  6
CONTINUOUS
 10
239.020719
 20
154.982626
 40
1.100000
  0
LINE
  8
1
 62
214
  6
DASHDOT
 10
239.020719
 20
152.502537
 11
239.020719
 21
157.922594
  0
LINE
  8
1
 62
214
  6
DASHDOT
 10
236.191002
 20
154.982628
 11
241.581441
 21
154.982628
  0
LINE
  8
1
 62
214
  6
DASHDOT
 10
237.198043
 20
154.982626
 11
241.664905
 21
154.982626
  0
LINE
  8
1
 62
214
  6
DASHDOT
 10
239.020719
 20
153.199452
 11
239.020719
 21
156.755208
  0
DIMENSION
  8
2
 62
134
  6
CONTINUOUS
  2
*D1
 10
273.162855
 20
157.482626
 11
273.162855
 21
142.482657
 70
     0
  1
30
 13
262.220719
 23
157.482626
 14
262.220719
 24
127.482626
 50
-90.000000
  0
DIMENSION
  8
2
 62
134
  6
CONTINUOUS
  2
*D2
 10
236.520719
 20
165.088843
 11
242.520719
 21
165.088843
 70
     0
  1
12
 13
236.520719
 23
159.182626
 14
248.520719
 24
161.623854
 50
0.000000
  0
DIMENSION
  8
2
 62
134
  6
CONTINUOUS
  2
*D3
 10
248.520719
 20
165.088843
 11
254.520719
 21
165.088843
 70
     0
  1
12
 13
248.520719
 23
165.088843
 14
260.520719
 24
159.182626
 50
0.000000
  0
DIMENSION
  8
2
 62
134
  6
CONTINUOUS
  2
*D4
 10
236.520719
 20
171.910917
 11
247.425028
 21
171.910917
 70
     0
  1
24
 13
236.520719
 23
159.182626
 14
260.520719
 24
159.182626
 50
0.000000
  0
CIRCLE
  8
1
 62
7
  6
CONTINUOUS
 10
248.520719
 20
142.482626
 40
3.499975
  0
CIRCLE
  8
1
 62
7
  6
CONTINUOUS
 10
248.520719
 20
142.482657
 40
7.437065
  0
CIRCLE
  8
1
 62
7
  6
CONTINUOUS
 10
248.520719
 20
142.482626
 40
7.650000
  0
LINE
  8
1
 62
4
  6
CONTINUOUS
 10
168.689346
 20
148.833479
 11
168.689346
 21
136.131773
  0
LINE
  8
1
 62
7
  6
CONTINUOUS
 10
168.389346
 20
157.482626
 11
168.689346
 21
157.182626
  0
LINE
  8
1
 62
7
  6
CONTINUOUS
 10
168.689346
 20
127.782626
 11
168.689346
 21
157.182626
  0
LINE
  8
1
 62
7
  6
CONTINUOUS
 10
168.689346
 20
127.782626
 11
168.389346
 21
127.482626
  0
LINE
  8
1
 62
4
  6
DASHDOT
 10
147.033221
 20
142.482626
 11
189.128537
 21
142.482626
  0
LINE
  8
1
 62
7
  6
DASHDOT
 10
125.775634
 20
142.482626
 11
171.092052
 21
142.482626
  0
CIRCLE
  8
1
 62
7
  6
DASHDOT
 10
124.189346
 20
132.482626
 40
3.000000
  0
CIRCLE
  8
1
 62
7
  6
DASHDOT
 10
124.189346
 20
152.482626
 40
3.000000
  0
LINE
  8
1
 62
7
  6
CONTINUOUS
 10
129.689346
 20
157.482626
 11
129.689346
 21
127.482626
  0
LINE
  8
1
 62
7
  6
CONTINUOUS
 10
129.689346
 20
157.482626
 11
168.389346
 21
157.482626
  0
LINE
  8
1
 62
7
  6
CONTINUOUS
 10
129.689346
 20
127.482626
 11
168.389346
 21
127.482626
  0
CIRCLE
  8
1
 62
7
  6
CONTINUOUS
 10
124.189346
 20
152.482626
 40
1.750000
  0
CIRCLE
  8
1
 62
7
  6
CONTINUOUS
 10
124.189346
 20
132.482626
 40
1.750000
  0
CIRCLE
  8
1
 62
7
  6
CONTINUOUS
 10
124.189346
 20
152.482626
 40
1.750000
  0
LINE
  8
1
 62
7
  6
CONTINUOUS
 10
120.189346
 20
131.482626
 11
120.189346
 21
153.482626
  0
LINE
  8
1
 62
7
  6
CONTINUOUS
 10
129.689346
 20
127.482626
 11
124.189346
 21
127.482626
  0
ARC
  8
1
 62
7
  6
CONTINUOUS
 10
124.189346
 20
131.482626
 40
4.000000
 50
180.000000
 51
-90.000005
  0
LINE
  8
1
 62
7
  6
CONTINUOUS
 10
129.689346
 20
157.482626
 11
124.189346
 21
157.482626
  0
ARC
  8
1
 62
7
  6
CONTINUOUS
 10
124.189346
 20
153.482626
 40
4.000000
 50
90.000000
 51
180.000000
  0
LINE
  8
1
 62
214
  6
DASHDOT
 10
121.550107
 20
152.482626
 11
126.852383
 21
152.482626
  0
LINE
  8
1
 62
214
  6
DASHDOT
 10
124.189346
 20
150.246450
 11
124.189346
 21
155.203332
  0
LINE
  8
1
 62
214
  6
DASHDOT
 10
121.340070
 20
152.482626
 11
126.852383
 21
152.482626
  0
LINE
  8
1
 62
214
  6
DASHDOT
 10
121.620120
 20
132.482626
 11
127.109096
 21
132.482626
  0
LINE
  8
1
 62
214
  6
DASHDOT
 10
124.189346
 20
129.884918
 11
124.189346
 21
134.680350
  0
LINE
  8
1
 62
7
  6
CONTINUOUS
 10
129.689346
 20
155.883968
 11
129.689346
 21
157.482626
  0
LINE
  8
1
 62
7
  6
CONTINUOUS
 10
129.689346
 20
127.482626
 11
129.689346
 21
129.582626
  0
LINE
  8
1
 62
7
  6
CONTINUOUS
 10
129.689346
 20
129.582626
 11
129.689346
 21
152.982627
  0
LINE
  8
1
 62
7
  6
CONTINUOUS
 10
129.689346
 20
155.883968
 11
129.689346
 21
129.582626
  0
LINE
  8
1
 62
7
  6
CONTINUOUS
 10
129.688590
 20
145.682626
 11
129.688590
 21
145.982626
  0
LINE
  8
1
 62
7
  6
CONTINUOUS
 10
129.688590
 20
139.282626
 11
129.688590
 21
138.982626
  0
LINE
  8
1
 62
7
  6
CONTINUOUS
 10
129.688590
 20
139.282626
 11
129.688590
 21
142.482626
  0
LINE
  8
1
 62
11
  6
CONTINUOUS
 10
120.188521
 20
148.982626
 11
120.188412
 21
150.982626
  0
LINE
  8
1
 62
11
  6
CONTINUOUS
 10
120.188877
 20
142.482657
 11
120.188412
 21
133.982626
  0
DIMENSION
  8
2
 62
134
  6
CONTINUOUS
  2
*D5
 10
120.189346
 20
172.482626
 11
144.439346
 21
172.482626
 70
     0
  1
48.5
 13
120.189346
 23
155.201880
 14
168.689346
 24
159.182626
 50
0.000000
  0
DIMENSION
  8
2
 62
134
  6
CONTINUOUS
  2
*D6
 10
142.059562
 20
152.482626
 11
142.059562
 21
145.982626
 70
     0
  1
20
 13
128.852383
 23
152.482626
 14
129.109096
 24
132.482626
 50
-90.000000
  0
DIMENSION
  8
2
 62
134
  6
CONTINUOUS
  2
*D7
 10
120.189346
 20
162.765892
 11
122.121198
 21
162.765892
 70
     0
  1
4
 13
120.189346
 23
155.482626
 14
124.189346
 24
157.203332
 50
0.000000
  0
LINE
  8
1
 62
7
  6
CONTINUOUS
 10
224.154421
 20
148.566363
 11
220.202604
 21
136.710912
  0
LINE
  8
1
 62
7
  6
CONTINUOUS
 10
222.037377
 20
148.566363
 11
218.085560
 21
136.710912
  0
ARC
  8
1
 62
2
  6
CONTINUOUS
 10
168.889346
 20
149.932626
 40
0.200000
 50
90.000000
 51
180.000000
  0
ARC
  8
1
 62
2
  6
CONTINUOUS
 10
170.089346
 20
149.932626
 40
0.200000
 50
-89.230975
 51
-89.187365
  0
ARC
  8
1
 62
2
  6
CONTINUOUS
 10
170.089346
 20
149.932626
 40
0.200000
 50
-89.143735
 51
-88.819498
  0
ARC
  8
1
 62
2
  6
CONTINUOUS
 10
170.089346
 20
149.932626
 40
0.200000
 50
-88.640266
 51
-84.763088
  0
LINE
  8
1
 62
2
  6
CONTINUOUS
 10
170.470752
 20
141.654902
 11
170.489346
 21
141.654902
  0
LINE
  8
1
 62
2
  6
CONTINUOUS
 10
170.287546
 20
140.095697
 11
170.289649
 21
140.095697
  0
LINE
  8
1
 62
2
  6
CONTINUOUS
 10
170.287546
 20
140.011485
 11
170.289465
 21
140.011485
  0
LINE
  8
1
 62
2
  6
CONTINUOUS
 10
170.089346
 20
150.132626
 11
168.889346
 21
150.132626
  0
LINE
  8
1
 62
2
  6
CONTINUOUS
 10
170.089346
 20
134.832626
 11
168.889346
 21
134.832626
  0
LINE
  8
1
 62
2
  6
CONTINUOUS
 10
170.287546
 20
140.089902
 11
170.289636
 21
140.089902
  0
LINE
  8
1
 62
2
  6
CONTINUOUS
 10
170.470701
 20
141.652626
 11
170.489346
 21
141.652626
  0
ARC
  8
1
 62
2
  6
CONTINUOUS
 10
170.489346
 20
135.882626
 40
0.200000
 50
90.000000
 51
180.000000
  0
ARC
  8
1
 62
2
  6
CONTINUOUS
 10
170.489346
 20
149.082626
 40
0.200000
 50
180.000000
 51
-90.000000
  0
ARC
  8
1
 62
2
  6
CONTINUOUS
 10
170.089346
 20
135.032626
 40
0.200000
 50
83.421437
 51
84.763088
  0
ARC
  8
1
 62
2
  6
CONTINUOUS
 10
170.089346
 20
135.032626
 40
0.200000
 50
-90.000000
 51
0.000000
  0
ARC
  8
1
 62
2
  6
CONTINUOUS
 10
170.089346
 20
149.932626
 40
0.200000
 50
7.692308
 51
90.000000
  0
LINE
  8
1
 62
2
  6
CONTINUOUS
 10
168.689346
 20
135.032626
 11
168.689346
 21
135.286478
  0
ARC
  8
1
 62
2
  6
CONTINUOUS
 10
168.889346
 20
135.032626
 40
0.200000
 50
180.000000
 51
-90.000000
  0
LINE
  8
1
 62
2
  6
CONTINUOUS
 10
170.089346
 20
134.832626
 11
168.889346
 21
134.832626
  0
LINE
  8
1
 62
2
  6
CONTINUOUS
 10
170.089346
 20
150.132626
 11
168.889346
 21
150.132626
  0
LINE
  8
1
 62
2
  6
CONTINUOUS
 10
168.689346
 20
137.879689
 11
168.689346
 21
137.947353
  0
LINE
  8
1
 62
2
  6
CONTINUOUS
 10
170.289346
 20
149.932626
 11
170.289346
 21
135.032626
  0
LINE
  8
1
 62
2
  6
CONTINUOUS
 10
170.289346
 20
136.766858
 11
170.289346
 21
137.214680
  0
LINE
  8
1
 62
2
  6
CONTINUOUS
 10
168.689346
 20
135.032626
 11
168.689346
 21
149.932626
  0
LINE
  8
1
 62
2
  6
CONTINUOUS
 10
168.689346
 20
135.286478
 11
168.689346
 21
135.032626
  0
LINE
  8
1
 62
2
  6
CONTINUOUS
 10
170.489346
 20
148.882626
 11
170.489346
 21
136.082626
  0
LINE
  8
1
 62
2
  6
CONTINUOUS
 10
168.889346
 20
150.132626
 11
168.889346
 21
134.832626
  0
LINE
  8
1
 62
2
  6
CONTINUOUS
 10
170.089346
 20
150.132626
 11
170.089346
 21
134.832626
  0
ARC
  8
1
 62
2
  6
CONTINUOUS
 10
170.089346
 20
149.932626
 40
0.200000
 50
-9.731036
 51
90.000000
  0
LINE
  8
1
 62
2
  6
CONTINUOUS
 10
171.269346
 20
148.882626
 11
170.489346
 21
148.882626
  0
LINE
  8
1
 62
2
  6
CONTINUOUS
 10
171.269346
 20
136.082626
 11
170.489346
 21
136.082626
  0
LINE
  8
1
 62
2
  6
CONTINUOUS
 10
171.269346
 20
136.082626
 11
170.489346
 21
136.082626
  0
LINE
  8
1
 62
2
  6
CONTINUOUS
 10
171.269346
 20
148.882626
 11
170.489346
 21
148.882626
  0
LINE
  8
1
 62
2
  6
CONTINUOUS
 10
179.519346
 20
149.382626
 11
179.019346
 21
148.882626
  0
LINE
  8
1
 62
2
  6
CONTINUOUS
 10
179.519346
 20
135.582626
 11
179.019346
 21
136.082626
  0
LINE
  8
1
 62
2
  6
CONTINUOUS
 10
170.689346
 20
137.707626
 11
171.269346
 21
137.707626
  0
LINE
  8
1
 62
2
  6
CONTINUOUS
 10
183.019346
 20
149.382626
 11
179.519346
 21
149.382626
  0
LINE
  8
1
 62
2
  6
CONTINUOUS
 10
170.689346
 20
137.707626
 11
170.489346
 21
137.907626
  0
LINE
  8
1
 62
2
  6
CONTINUOUS
 10
198.519346
 20
148.732626
 11
200.789346
 21
148.732626
  0
LINE
  8
1
 62
2
  6
CONTINUOUS
 10
198.519346
 20
136.232626
 11
200.789346
 21
136.232626
  0
LINE
  8
1
 62
2
  6
CONTINUOUS
 10
183.019346
 20
135.582626
 11
179.519346
 21
135.582626
  0
LINE
  8
1
 62
2
  6
CONTINUOUS
 10
183.019346
 20
149.382626
 11
198.519346
 21
148.732626
  0
LINE
  8
1
 62
2
  6
CONTINUOUS
 10
183.019346
 20
135.582626
 11
198.519346
 21
136.232626
  0
LINE
  8
1
 62
2
  6
CONTINUOUS
 10
211.589346
 20
135.282626
 11
212.289346
 21
135.982626
  0
LINE
  8
1
 62
2
  6
CONTINUOUS
 10
211.589346
 20
149.682626
 11
212.289346
 21
148.982626
  0
LINE
  8
1
 62
2
  6
CONTINUOUS
 10
170.689346
 20
137.707626
 11
171.269346
 21
137.707626
  0
LINE
  8
1
 62
2
  6
CONTINUOUS
 10
178.719346
 20
149.882626
 11
179.019346
 21
149.582626
  0
LINE
  8
1
 62
2
  6
CONTINUOUS
 10
170.689346
 20
137.707626
 11
170.489346
 21
137.907626
  0
LINE
  8
1
 62
2
  6
CONTINUOUS
 10
171.569346
 20
149.882626
 11
171.269346
 21
149.582626
  0
LINE
  8
1
 62
2
  6
CONTINUOUS
 10
178.719346
 20
149.882626
 11
174.869346
 21
149.882626
  0
LINE
  8
1
 62
2
  6
CONTINUOUS
 10
173.869346
 20
149.882626
 11
171.569346
 21
149.882626
  0
LINE
  8
1
 62
2
  6
CONTINUOUS
 10
171.285729
 20
135.382626
 11
171.269346
 21
135.382626
  0
LINE
  8
1
 62
2
  6
CONTINUOUS
 10
179.019346
 20
135.382626
 11
179.003081
 21
135.382626
  0
LINE
  8
1
 62
2
  6
CONTINUOUS
 10
183.019346
 20
135.582626
 11
179.519346
 21
135.582626
  0
LINE
  8
1
 62
2
  6
CONTINUOUS
 10
179.519346
 20
135.582626
 11
179.019346
 21
136.082626
  0
LINE
  8
1
 62
2
  6
CONTINUOUS
 10
179.519346
 20
149.382626
 11
179.019346
 21
148.882626
  0
LINE
  8
1
 62
2
  6
CONTINUOUS
 10
183.019346
 20
149.382626
 11
179.519346
 21
149.382626
  0
LINE
  8
1
 62
2
  6
CONTINUOUS
 10
183.019346
 20
135.582626
 11
198.519346
 21
136.232626
  0
LINE
  8
1
 62
2
  6
CONTINUOUS
 10
183.019346
 20
149.382626
 11
198.519346
 21
148.732626
  0
LINE
  8
1
 62
2
  6
CONTINUOUS
 10
198.519346
 20
136.232626
 11
200.789346
 21
136.232626
  0
LINE
  8
1
 62
2
  6
CONTINUOUS
 10
198.519346
 20
148.732626
 11
200.789346
 21
148.732626
  0
LINE
  8
1
 62
2
  6
CONTINUOUS
 10
211.589346
 20
149.682626
 11
212.289346
 21
148.982626
  0
LINE
  8
1
 62
2
  6
CONTINUOUS
 10
211.589346
 20
135.282626
 11
212.289346
 21
135.982626
  0
LINE
  8
1
 62
2
  6
CONTINUOUS
 10
212.289346
 20
148.982626
 11
212.289346
 21
135.982626
  0
LINE
  8
1
 62
2
  6
CONTINUOUS
 10
211.289346
 20
149.408003
 11
201.089346
 21
149.408003
  0
LINE
  8
1
 62
2
  6
CONTINUOUS
 10
211.289346
 20
148.438678
 11
211.380772
 21
148.453309
  0
LINE
  8
1
 62
2
  6
CONTINUOUS
 10
211.380772
 20
148.453309
 11
211.419596
 21
148.465472
  0
LINE
  8
1
 62
2
  6
CONTINUOUS
 10
211.419596
 20
148.465472
 11
211.477431
 21
148.494000
  0
LINE
  8
1
 62
2
  6
CONTINUOUS
 10
211.477431
 20
148.494000
 11
211.490590
 21
148.502988
  0
LINE
  8
1
 62
2
  6
CONTINUOUS
 10
211.490590
 20
148.502988
 11
211.560714
 21
148.584934
  0
LINE
  8
1
 62
2
  6
CONTINUOUS
 10
211.560714
 20
148.584934
 11
211.565411
 21
148.594788
  0
LINE
  8
1
 62
2
  6
CONTINUOUS
 10
211.565411
 20
148.594788
 11
211.586573
 21
148.672401
  0
LINE
  8
1
 62
2
  6
CONTINUOUS
 10
211.586573
 20
148.672401
 11
211.588827
 21
148.697822
  0
LINE
  8
1
 62
2
  6
CONTINUOUS
 10
211.588827
 20
148.697822
 11
211.589346
 21
148.718030
  0
LINE
  8
1
 62
2
  6
CONTINUOUS
 10
211.589346
 20
148.718030
 11
211.574005
 21
148.839881
  0
LINE
  8
1
 62
2
  6
CONTINUOUS
 10
211.574005
 20
148.839881
 11
211.565409
 21
148.873384
  0
LINE
  8
1
 62
2
  6
CONTINUOUS
 10
211.565409
 20
148.873384
 11
211.527329
 21
148.983485
  0
LINE
  8
1
 62
2
  6
CONTINUOUS
 10
211.527329
 20
148.983485
 11
211.516747
 21
149.008829
  0
LINE
  8
1
 62
2
  6
CONTINUOUS
 10
211.516747
 20
149.008829
 11
211.477431
 21
149.093255
  0
LINE
  8
1
 62
2
  6
CONTINUOUS
 10
211.477431
 20
149.093255
 11
211.419597
 21
149.200853
  0
LINE
  8
1
 62
2
  6
CONTINUOUS
 10
211.419597
 20
149.200853
 11
211.418907
 21
149.202056
  0
LINE
  8
1
 62
2
  6
CONTINUOUS
 10
211.418907
 20
149.202056
 11
211.289346
 21
149.408003
  0
LINE
  8
1
 62
2
  6
CONTINUOUS
 10
211.289346
 20
148.438678
 11
201.089346
 21
148.438678
  0
LINE
  8
1
 62
2
  6
CONTINUOUS
 10
200.789346
 20
148.718009
 11
200.789867
 21
148.697782
  0
LINE
  8
1
 62
2
  6
CONTINUOUS
 10
200.789867
 20
148.697782
 11
200.817989
 21
148.584913
  0
LINE
  8
1
 62
2
  6
CONTINUOUS
 10
200.817989
 20
148.584913
 11
200.833793
 21
148.558310
  0
LINE
  8
1
 62
2
  6
CONTINUOUS
 10
200.833793
 20
148.558310
 11
200.888088
 21
148.502998
  0
LINE
  8
1
 62
2
  6
CONTINUOUS
 10
200.888088
 20
148.502998
 11
200.922366
 21
148.481781
  0
LINE
  8
1
 62
2
  6
CONTINUOUS
 10
200.922366
 20
148.481781
 11
200.977352
 21
148.459197
  0
LINE
  8
1
 62
2
  6
CONTINUOUS
 10
200.977352
 20
148.459197
 11
200.997923
 21
148.453309
  0
LINE
  8
1
 62
2
  6
CONTINUOUS
 10
200.997923
 20
148.453309
 11
201.089346
 21
148.438678
  0
LINE
  8
1
 62
2
  6
CONTINUOUS
 10
201.089346
 20
149.408003
 11
201.033112
 21
149.322739
  0
LINE
  8
1
 62
2
  6
CONTINUOUS
 10
201.033112
 20
149.322739
 11
200.977351
 21
149.232215
  0
LINE
  8
1
 62
2
  6
CONTINUOUS
 10
200.977351
 20
149.232215
 11
200.976976
 21
149.231582
  0
LINE
  8
1
 62
2
  6
CONTINUOUS
 10
200.976976
 20
149.231582
 11
200.959794
 21
149.202072
  0
LINE
  8
1
 62
2
  6
CONTINUOUS
 10
200.959794
 20
149.202072
 11
200.922365
 21
149.134254
  0
LINE
  8
1
 62
2
  6
CONTINUOUS
 10
200.922365
 20
149.134254
 11
200.868865
 21
149.024680
  0
LINE
  8
1
 62
2
  6
CONTINUOUS
 10
200.868865
 20
149.024680
 11
200.861957
 21
149.008857
  0
LINE
  8
1
 62
2
  6
CONTINUOUS
 10
200.861957
 20
149.008857
 11
200.804694
 21
148.839910
  0
LINE
  8
1
 62
2
  6
CONTINUOUS
 10
200.804694
 20
148.839910
 11
200.789346
 21
148.718009
  0
LINE
  8
1
 62
2
  6
CONTINUOUS
 10
211.289346
 20
147.040634
 11
201.089346
 21
147.040634
  0
LINE
  8
1
 62
2
  6
CONTINUOUS
 10
211.289346
 20
145.361714
 11
211.334298
 21
145.406754
  0
LINE
  8
1
 62
2
  6
CONTINUOUS
 10
211.334298
 20
145.406754
 11
211.356365
 21
145.431190
  0
LINE
  8
1
 62
2
  6
CONTINUOUS
 10
211.356365
 20
145.431190
 11
211.419596
 21
145.512250
  0
LINE
  8
1
 62
2
  6
CONTINUOUS
 10
211.419596
 20
145.512250
 11
211.457066
 21
145.570791
  0
LINE
  8
1
 62
2
  6
CONTINUOUS
 10
211.457066
 20
145.570791
 11
211.477431
 21
145.607313
  0
LINE
  8
1
 62
2
  6
CONTINUOUS
 10
211.477431
 20
145.607313
 11
211.527331
 21
145.719250
  0
LINE
  8
1
 62
2
  6
CONTINUOUS
 10
211.527331
 20
145.719250
 11
211.541186
 21
145.759583
  0
LINE
  8
1
 62
2
  6
CONTINUOUS
 10
211.541186
 20
145.759583
 11
211.583966
 21
145.970198
  0
LINE
  8
1
 62
2
  6
CONTINUOUS
 10
211.583966
 20
145.970198
 11
211.589346
 21
146.082630
  0
LINE
  8
1
 62
2
  6
CONTINUOUS
 10
211.589346
 20
146.082630
 11
211.583966
 21
146.199220
  0
LINE
  8
1
 62
2
  6
CONTINUOUS
 10
211.583966
 20
146.199220
 11
211.541186
 21
146.443079
  0
LINE
  8
1
 62
2
  6
CONTINUOUS
 10
211.541186
 20
146.443079
 11
211.527329
 21
146.494225
  0
LINE
  8
1
 62
2
  6
CONTINUOUS
 10
211.527329
 20
146.494225
 11
211.477431
 21
146.645255
  0
LINE
  8
1
 62
2
  6
CONTINUOUS
 10
211.477431
 20
146.645255
 11
211.457066
 21
146.697812
  0
LINE
  8
1
 62
2
  6
CONTINUOUS
 10
211.457066
 20
146.697812
 11
211.419597
 21
146.785968
  0
LINE
  8
1
 62
2
  6
CONTINUOUS
 10
211.419597
 20
146.785968
 11
211.356365
 21
146.917352
  0
LINE
  8
1
 62
2
  6
CONTINUOUS
 10
211.356365
 20
146.917352
 11
211.334298
 21
146.959451
  0
LINE
  8
1
 62
2
  6
CONTINUOUS
 10
211.334298
 20
146.959451
 11
211.289346
 21
147.040634
  0
LINE
  8
1
 62
2
  6
CONTINUOUS
 10
211.289346
 20
145.361714
 11
201.089346
 21
145.361714
  0
LINE
  8
1
 62
2
  6
CONTINUOUS
 10
200.789346
 20
146.082626
 11
200.794736
 21
145.970097
  0
LINE
  8
1
 62
2
  6
CONTINUOUS
 10
200.794736
 20
145.970097
 11
200.833801
 21
145.771476
  0
LINE
  8
1
 62
2
  6
CONTINUOUS
 10
200.833801
 20
145.771476
 11
200.837506
 21
145.759583
  0
LINE
  8
1
 62
2
  6
CONTINUOUS
 10
200.837506
 20
145.759583
 11
200.921652
 21
145.570747
  0
LINE
  8
1
 62
2
  6
CONTINUOUS
 10
200.921652
 20
145.570747
 11
200.922366
 21
145.569533
  0
LINE
  8
1
 62
2
  6
CONTINUOUS
 10
200.922366
 20
145.569533
 11
200.977352
 21
145.486897
  0
LINE
  8
1
 62
2
  6
CONTINUOUS
 10
200.977352
 20
145.486897
 11
201.033112
 21
145.419036
  0
LINE
  8
1
 62
2
  6
CONTINUOUS
 10
201.033112
 20
145.419036
 11
201.044392
 21
145.406756
  0
LINE
  8
1
 62
2
  6
CONTINUOUS
 10
201.044392
 20
145.406756
 11
201.089346
 21
145.361714
  0
LINE
  8
1
 62
2
  6
CONTINUOUS
 10
201.089346
 20
147.040634
 11
201.044392
 21
146.959448
  0
LINE
  8
1
 62
2
  6
CONTINUOUS
 10
201.044392
 20
146.959448
 11
201.033112
 21
146.938132
  0
LINE
  8
1
 62
2
  6
CONTINUOUS
 10
201.033112
 20
146.938132
 11
200.977351
 21
146.825805
  0
LINE
  8
1
 62
2
  6
CONTINUOUS
 10
200.977351
 20
146.825805
 11
200.922365
 21
146.699649
  0
LINE
  8
1
 62
2
  6
CONTINUOUS
 10
200.922365
 20
146.699649
 11
200.921650
 21
146.697872
  0
LINE
  8
1
 62
2
  6
CONTINUOUS
 10
200.921650
 20
146.697872
 11
200.837506
 21
146.443079
  0
LINE
  8
1
 62
2
  6
CONTINUOUS
 10
200.837506
 20
146.443079
 11
200.833801
 21
146.428299
  0
LINE
  8
1
 62
2
  6
CONTINUOUS
 10
200.833801
 20
146.428299
 11
200.794736
 21
146.199329
  0
LINE
  8
1
 62
2
  6
CONTINUOUS
 10
200.794736
 20
146.199329
 11
200.789346
 21
146.082626
  0
LINE
  8
1
 62
2
  6
CONTINUOUS
 10
211.289346
 20
139.603538
 11
201.089346
 21
139.603538
  0
LINE
  8
1
 62
2
  6
CONTINUOUS
 10
211.289346
 20
137.924617
 11
211.334298
 21
138.005801
  0
LINE
  8
1
 62
2
  6
CONTINUOUS
 10
211.334298
 20
138.005801
 11
211.356365
 21
138.047899
  0
LINE
  8
1
 62
2
  6
CONTINUOUS
 10
211.356365
 20
138.047899
 11
211.419596
 21
138.179282
  0
LINE
  8
1
 62
2
  6
CONTINUOUS
 10
211.419596
 20
138.179282
 11
211.457066
 21
138.267440
  0
LINE
  8
1
 62
2
  6
CONTINUOUS
 10
211.457066
 20
138.267440
 11
211.477431
 21
138.319996
  0
LINE
  8
1
 62
2
  6
CONTINUOUS
 10
211.477431
 20
138.319996
 11
211.527331
 21
138.471031
  0
LINE
  8
1
 62
2
  6
CONTINUOUS
 10
211.527331
 20
138.471031
 11
211.541186
 21
138.522173
  0
LINE
  8
1
 62
2
  6
CONTINUOUS
 10
211.541186
 20
138.522173
 11
211.583966
 21
138.766031
  0
LINE
  8
1
 62
2
  6
CONTINUOUS
 10
211.583966
 20
138.766031
 11
211.589346
 21
138.882630
  0
LINE
  8
1
 62
2
  6
CONTINUOUS
 10
211.589346
 20
138.882630
 11
211.583966
 21
138.995053
  0
LINE
  8
1
 62
2
  6
CONTINUOUS
 10
211.583966
 20
138.995053
 11
211.541186
 21
139.205669
  0
LINE
  8
1
 62
2
  6
CONTINUOUS
 10
211.541186
 20
139.205669
 11
211.527329
 21
139.246006
  0
LINE
  8
1
 62
2
  6
CONTINUOUS
 10
211.527329
 20
139.246006
 11
211.477431
 21
139.357938
  0
LINE
  8
1
 62
2
  6
CONTINUOUS
 10
211.477431
 20
139.357938
 11
211.457066
 21
139.394461
  0
LINE
  8
1
 62
2
  6
CONTINUOUS
 10
211.457066
 20
139.394461
 11
211.419597
 21
139.453000
  0
LINE
  8
1
 62
2
  6
CONTINUOUS
 10
211.419597
 20
139.453000
 11
211.356365
 21
139.534061
  0
LINE
  8
1
 62
2
  6
CONTINUOUS
 10
211.356365
 20
139.534061
 11
211.334298
 21
139.558497
  0
LINE
  8
1
 62
2
  6
CONTINUOUS
 10
211.334298
 20
139.558497
 11
211.289346
 21
139.603538
  0
LINE
  8
1
 62
2
  6
CONTINUOUS
 10
211.289346
 20
137.924617
 11
201.089346
 21
137.924617
  0
LINE
  8
1
 62
2
  6
CONTINUOUS
 10
200.789346
 20
138.882626
 11
200.794736
 21
138.765923
  0
LINE
  8
1
 62
2
  6
CONTINUOUS
 10
200.794736
 20
138.765923
 11
200.833801
 21
138.536952
  0
LINE
  8
1
 62
2
  6
CONTINUOUS
 10
200.833801
 20
138.536952
 11
200.837506
 21
138.522173
  0
LINE
  8
1
 62
2
  6
CONTINUOUS
 10
200.837506
 20
138.522173
 11
200.921652
 21
138.267375
  0
LINE
  8
1
 62
2
  6
CONTINUOUS
 10
200.921652
 20
138.267375
 11
200.922366
 21
138.265598
  0
LINE
  8
1
 62
2
  6
CONTINUOUS
 10
200.922366
 20
138.265598
 11
200.977352
 21
138.139444
  0
LINE
  8
1
 62
2
  6
CONTINUOUS
 10
200.977352
 20
138.139444
 11
201.033112
 21
138.027119
  0
LINE
  8
1
 62
2
  6
CONTINUOUS
 10
201.033112
 20
138.027119
 11
201.044392
 21
138.005803
  0
LINE
  8
1
 62
2
  6
CONTINUOUS
 10
201.044392
 20
138.005803
 11
201.089346
 21
137.924617
  0
LINE
  8
1
 62
2
  6
CONTINUOUS
 10
201.089346
 20
139.603538
 11
201.044392
 21
139.558496
  0
LINE
  8
1
 62
2
  6
CONTINUOUS
 10
201.044392
 20
139.558496
 11
201.033112
 21
139.546215
  0
LINE
  8
1
 62
2
  6
CONTINUOUS
 10
201.033112
 20
139.546215
 11
200.977351
 21
139.478353
  0
LINE
  8
1
 62
2
  6
CONTINUOUS
 10
200.977351
 20
139.478353
 11
200.922365
 21
139.395716
  0
LINE
  8
1
 62
2
  6
CONTINUOUS
 10
200.922365
 20
139.395716
 11
200.921650
 21
139.394502
  0
LINE
  8
1
 62
2
  6
CONTINUOUS
 10
200.921650
 20
139.394502
 11
200.837506
 21
139.205669
  0
LINE
  8
1
 62
2
  6
CONTINUOUS
 10
200.837506
 20
139.205669
 11
200.833801
 21
139.193776
  0
LINE
  8
1
 62
2
  6
CONTINUOUS
 10
200.833801
 20
139.193776
 11
200.794736
 21
138.995154
  0
LINE
  8
1
 62
2
  6
CONTINUOUS
 10
200.794736
 20
138.995154
 11
200.789346
 21
138.882626
  0
LINE
  8
1
 62
2
  6
CONTINUOUS
 10
211.289346
 20
135.557248
 11
201.089346
 21
135.557248
  0
LINE
  8
1
 62
2
  6
CONTINUOUS
 10
200.789346
 20
136.247243
 11
200.804694
 21
136.125342
  0
LINE
  8
1
 62
2
  6
CONTINUOUS
 10
200.804694
 20
136.125342
 11
200.861956
 21
135.956394
  0
LINE
  8
1
 62
2
  6
CONTINUOUS
 10
200.861956
 20
135.956394
 11
200.868866
 21
135.940570
  0
LINE
  8
1
 62
2
  6
CONTINUOUS
 10
200.868866
 20
135.940570
 11
200.922366
 21
135.830995
  0
LINE
  8
1
 62
2
  6
CONTINUOUS
 10
200.922366
 20
135.830995
 11
200.959794
 21
135.763180
  0
LINE
  8
1
 62
2
  6
CONTINUOUS
 10
200.959794
 20
135.763180
 11
200.976977
 21
135.733668
  0
LINE
  8
1
 62
2
  6
CONTINUOUS
 10
200.976977
 20
135.733668
 11
200.977352
 21
135.733035
  0
LINE
  8
1
 62
2
  6
CONTINUOUS
 10
200.977352
 20
135.733035
 11
201.033112
 21
135.642512
  0
LINE
  8
1
 62
2
  6
CONTINUOUS
 10
201.033112
 20
135.642512
 11
201.089346
 21
135.557248
  0
LINE
  8
1
 62
2
  6
CONTINUOUS
 10
201.089346
 20
136.526574
 11
200.997923
 21
136.511943
  0
LINE
  8
1
 62
2
  6
CONTINUOUS
 10
200.997923
 20
136.511943
 11
200.977351
 21
136.506055
  0
LINE
  8
1
 62
2
  6
CONTINUOUS
 10
200.977351
 20
136.506055
 11
200.922365
 21
136.483469
  0
LINE
  8
1
 62
2
  6
CONTINUOUS
 10
200.922365
 20
136.483469
 11
200.888088
 21
136.462253
  0
LINE
  8
1
 62
2
  6
CONTINUOUS
 10
200.888088
 20
136.462253
 11
200.833793
 21
136.406942
  0
LINE
  8
1
 62
2
  6
CONTINUOUS
 10
200.833793
 20
136.406942
 11
200.817993
 21
136.380346
  0
LINE
  8
1
 62
2
  6
CONTINUOUS
 10
200.817993
 20
136.380346
 11
200.789867
 21
136.267468
  0
LINE
  8
1
 62
2
  6
CONTINUOUS
 10
200.789867
 20
136.267468
 11
200.789346
 21
136.247243
  0
LINE
  8
1
 62
2
  6
CONTINUOUS
 10
211.289346
 20
136.526574
 11
201.089346
 21
136.526574
  0
LINE
  8
1
 62
2
  6
CONTINUOUS
 10
211.289346
 20
135.557248
 11
211.418906
 21
135.763194
  0
LINE
  8
1
 62
2
  6
CONTINUOUS
 10
211.418906
 20
135.763194
 11
211.419596
 21
135.764397
  0
LINE
  8
1
 62
2
  6
CONTINUOUS
 10
211.419596
 20
135.764397
 11
211.477431
 21
135.871996
  0
LINE
  8
1
 62
2
  6
CONTINUOUS
 10
211.477431
 20
135.871996
 11
211.516748
 21
135.956423
  0
LINE
  8
1
 62
2
  6
CONTINUOUS
 10
211.516748
 20
135.956423
 11
211.527331
 21
135.981770
  0
LINE
  8
1
 62
2
  6
CONTINUOUS
 10
211.527331
 20
135.981770
 11
211.565411
 21
136.091873
  0
LINE
  8
1
 62
2
  6
CONTINUOUS
 10
211.565411
 20
136.091873
 11
211.574005
 21
136.125371
  0
LINE
  8
1
 62
2
  6
CONTINUOUS
 10
211.574005
 20
136.125371
 11
211.589346
 21
136.247226
  0
LINE
  8
1
 62
2
  6
CONTINUOUS
 10
211.589346
 20
136.247226
 11
211.588827
 21
136.267434
  0
LINE
  8
1
 62
2
  6
CONTINUOUS
 10
211.588827
 20
136.267434
 11
211.586573
 21
136.292855
  0
LINE
  8
1
 62
2
  6
CONTINUOUS
 10
211.586573
 20
136.292855
 11
211.565409
 21
136.370467
  0
LINE
  8
1
 62
2
  6
CONTINUOUS
 10
211.565409
 20
136.370467
 11
211.560714
 21
136.380317
  0
LINE
  8
1
 62
2
  6
CONTINUOUS
 10
211.560714
 20
136.380317
 11
211.490591
 21
136.462263
  0
LINE
  8
1
 62
2
  6
CONTINUOUS
 10
211.490591
 20
136.462263
 11
211.477431
 21
136.471252
  0
LINE
  8
1
 62
2
  6
CONTINUOUS
 10
211.477431
 20
136.471252
 11
211.419597
 21
136.499780
  0
LINE
  8
1
 62
2
  6
CONTINUOUS
 10
211.419597
 20
136.499780
 11
211.380772
 21
136.511942
  0
LINE
  8
1
 62
2
  6
CONTINUOUS
 10
211.380772
 20
136.511942
 11
211.289346
 21
136.526574
  0
LINE
  8
1
 62
2
  6
CONTINUOUS
 10
200.789346
 20
135.282626
 11
200.789346
 21
136.247243
  0
LINE
  8
1
 62
2
  6
CONTINUOUS
 10
201.089346
 20
135.045529
 11
201.089346
 21
135.557248
  0
LINE
  8
1
 62
2
  6
CONTINUOUS
 10
201.089346
 20
135.045529
 11
200.978385
 21
135.134352
  0
LINE
  8
1
 62
2
  6
CONTINUOUS
 10
200.978385
 20
135.134352
 11
200.977351
 21
135.135174
  0
LINE
  8
1
 62
2
  6
CONTINUOUS
 10
200.977351
 20
135.135174
 11
200.922365
 21
135.178692
  0
LINE
  8
1
 62
2
  6
CONTINUOUS
 10
200.922365
 20
135.178692
 11
200.874536
 21
135.216282
  0
LINE
  8
1
 62
2
  6
CONTINUOUS
 10
200.874536
 20
135.216282
 11
200.868865
 21
135.220723
  0
LINE
  8
1
 62
2
  6
CONTINUOUS
 10
200.868865
 20
135.220723
 11
200.819212
 21
135.259456
  0
LINE
  8
1
 62
2
  6
CONTINUOUS
 10
200.819212
 20
135.259456
 11
200.810834
 21
135.265965
  0
LINE
  8
1
 62
2
  6
CONTINUOUS
 10
200.810834
 20
135.265965
 11
200.789346
 21
135.282626
  0
LINE
  8
1
 62
2
  6
CONTINUOUS
 10
211.289346
 20
135.045529
 11
211.289346
 21
135.557248
  0
LINE
  8
1
 62
2
  6
CONTINUOUS
 10
211.289346
 20
135.045529
 11
201.089346
 21
135.045529
  0
LINE
  8
1
 62
2
  6
CONTINUOUS
 10
200.789346
 20
146.082626
 11
200.789346
 21
148.718009
  0
LINE
  8
1
 62
2
  6
CONTINUOUS
 10
200.789346
 20
142.482626
 11
200.789346
 21
146.082626
  0
LINE
  8
1
 62
2
  6
CONTINUOUS
 10
200.789346
 20
138.882626
 11
200.789346
 21
142.482626
  0
LINE
  8
1
 62
2
  6
CONTINUOUS
 10
200.789346
 20
136.247243
 11
200.789346
 21
138.882626
  0
LINE
  8
1
 62
2
  6
CONTINUOUS
 10
200.789346
 20
148.718009
 11
200.789346
 21
149.682626
  0
LINE
  8
1
 62
2
  6
CONTINUOUS
 10
201.089346
 20
149.408003
 11
201.089346
 21
149.919723
  0
LINE
  8
1
 62
2
  6
CONTINUOUS
 10
200.789346
 20
149.682626
 11
200.810834
 21
149.699286
  0
LINE
  8
1
 62
2
  6
CONTINUOUS
 10
200.810834
 20
149.699286
 11
200.819212
 21
149.705796
  0
LINE
  8
1
 62
2
  6
CONTINUOUS
 10
200.819212
 20
149.705796
 11
200.868865
 21
149.744529
  0
LINE
  8
1
 62
2
  6
CONTINUOUS
 10
200.868865
 20
149.744529
 11
200.874536
 21
149.748969
  0
LINE
  8
1
 62
2
  6
CONTINUOUS
 10
200.874536
 20
149.748969
 11
200.922365
 21
149.786559
  0
LINE
  8
1
 62
2
  6
CONTINUOUS
 10
200.922365
 20
149.786559
 11
200.977351
 21
149.830078
  0
LINE
  8
1
 62
2
  6
CONTINUOUS
 10
200.977351
 20
149.830078
 11
200.978385
 21
149.830900
  0
LINE
  8
1
 62
2
  6
CONTINUOUS
 10
200.978385
 20
149.830900
 11
201.089346
 21
149.919723
  0
LINE
  8
1
 62
2
  6
CONTINUOUS
 10
211.289346
 20
149.408003
 11
211.289346
 21
149.919723
  0
LINE
  8
1
 62
2
  6
CONTINUOUS
 10
211.289346
 20
149.919723
 11
201.089346
 21
149.919723
  0
LINE
  8
1
 62
2
  6
CONTINUOUS
 10
211.289346
 20
149.919723
 11
211.400293
 21
149.830911
  0
LINE
  8
1
 62
2
  6
CONTINUOUS
 10
211.400293
 20
149.830911
 11
211.429666
 21
149.807620
  0
LINE
  8
1
 62
2
  6
CONTINUOUS
 10
211.429666
 20
149.807620
 11
211.490776
 21
149.759460
  0
LINE
  8
1
 62
2
  6
CONTINUOUS
 10
211.490776
 20
149.759460
 11
211.504145
 21
149.748978
  0
LINE
  8
1
 62
2
  6
CONTINUOUS
 10
211.504145
 20
149.748978
 11
211.567868
 21
149.699279
  0
LINE
  8
1
 62
2
  6
CONTINUOUS
 10
211.567868
 20
149.699279
 11
211.589346
 21
149.682626
  0
LINE
  8
1
 62
2
  6
CONTINUOUS
 10
211.589346
 20
135.282626
 11
211.567868
 21
135.265973
  0
LINE
  8
1
 62
2
  6
CONTINUOUS
 10
211.567868
 20
135.265973
 11
211.504145
 21
135.216274
  0
LINE
  8
1
 62
2
  6
CONTINUOUS
 10
211.504145
 20
135.216274
 11
211.490773
 21
135.205789
  0
LINE
  8
1
 62
2
  6
CONTINUOUS
 10
211.490773
 20
135.205789
 11
211.429662
 21
135.157629
  0
LINE
  8
1
 62
2
  6
CONTINUOUS
 10
211.429662
 20
135.157629
 11
211.400293
 21
135.134341
  0
LINE
  8
1
 62
2
  6
CONTINUOUS
 10
211.400293
 20
135.134341
 11
211.289346
 21
135.045529
  0
LINE
  8
1
 62
2
  6
CONTINUOUS
 10
211.289346
 20
135.045529
 11
201.089346
 21
135.045529
  0
LINE
  8
1
 62
2
  6
CONTINUOUS
 10
201.089346
 20
136.526574
 11
201.089346
 21
137.924617
  0
LINE
  8
1
 62
2
  6
CONTINUOUS
 10
211.289346
 20
136.526574
 11
211.289346
 21
137.924617
  0
LINE
  8
1
 62
2
  6
CONTINUOUS
 10
211.289346
 20
139.790043
 11
208.289346
 21
139.790043
  0
LINE
  8
1
 62
2
  6
CONTINUOUS
 10
208.289346
 20
145.175208
 11
208.289346
 21
139.790043
  0
LINE
  8
1
 62
2
  6
CONTINUOUS
 10
211.289346
 20
145.175208
 11
208.289346
 21
145.175208
  0
LINE
  8
1
 62
2
  6
CONTINUOUS
 10
211.289346
 20
139.790043
 11
211.542410
 21
140.606974
  0
LINE
  8
1
 62
2
  6
CONTINUOUS
 10
211.542410
 20
140.606974
 11
211.553891
 21
140.651833
  0
LINE
  8
1
 62
2
  6
CONTINUOUS
 10
211.553891
 20
140.651833
 11
211.728041
 21
141.554175
  0
LINE
  8
1
 62
2
  6
CONTINUOUS
 10
211.728041
 20
141.554175
 11
211.728942
 21
141.561054
  0
LINE
  8
1
 62
2
  6
CONTINUOUS
 10
211.728942
 20
141.561054
 11
211.789346
 21
142.482633
  0
LINE
  8
1
 62
2
  6
CONTINUOUS
 10
211.789346
 20
142.482633
 11
211.728943
 21
143.404197
  0
LINE
  8
1
 62
2
  6
CONTINUOUS
 10
211.728943
 20
143.404197
 11
211.728041
 21
143.411078
  0
LINE
  8
1
 62
2
  6
CONTINUOUS
 10
211.728041
 20
143.411078
 11
211.553891
 21
144.313419
  0
LINE
  8
1
 62
2
  6
CONTINUOUS
 10
211.553891
 20
144.313419
 11
211.542410
 21
144.358277
  0
LINE
  8
1
 62
2
  6
CONTINUOUS
 10
211.542410
 20
144.358277
 11
211.289346
 21
145.175208
  0
LINE
  8
1
 62
2
  6
CONTINUOUS
 10
201.089346
 20
139.603538
 11
201.089346
 21
141.513300
  0
LINE
  8
1
 62
2
  6
CONTINUOUS
 10
207.852249
 20
141.513300
 11
201.089346
 21
141.513300
  0
LINE
  8
1
 62
2
  6
CONTINUOUS
 10
207.852249
 20
141.513300
 11
207.875897
 21
141.346495
  0
LINE
  8
1
 62
2
  6
CONTINUOUS
 10
207.875897
 20
141.346495
 11
208.044904
 21
140.541477
  0
LINE
  8
1
 62
2
  6
CONTINUOUS
 10
208.044904
 20
140.541477
 11
208.289346
 21
139.790043
  0
LINE
  8
1
 62
2
  6
CONTINUOUS
 10
211.289346
 20
139.603538
 11
211.289346
 21
139.790043
  0
LINE
  8
1
 62
2
  6
CONTINUOUS
 10
207.852249
 20
143.451951
 11
201.089346
 21
143.451951
  0
LINE
  8
1
 62
2
  6
CONTINUOUS
 10
207.852249
 20
141.513300
 11
207.888584
 21
141.586179
  0
LINE
  8
1
 62
2
  6
CONTINUOUS
 10
207.888584
 20
141.586179
 11
207.986115
 21
141.831959
  0
LINE
  8
1
 62
2
  6
CONTINUOUS
 10
207.986115
 20
141.831959
 11
207.999733
 21
141.875470
  0
LINE
  8
1
 62
2
  6
CONTINUOUS
 10
207.999733
 20
141.875470
 11
208.048782
 21
142.072062
  0
LINE
  8
1
 62
2
  6
CONTINUOUS
 10
208.048782
 20
142.072062
 11
208.051901
 21
142.088052
  0
LINE
  8
1
 62
2
  6
CONTINUOUS
 10
208.051901
 20
142.088052
 11
208.085112
 21
142.350402
  0
LINE
  8
1
 62
2
  6
CONTINUOUS
 10
208.085112
 20
142.350402
 11
208.085112
 21
142.614849
  0
LINE
  8
1
 62
2
  6
CONTINUOUS
 10
208.085112
 20
142.614849
 11
208.051901
 21
142.877199
  0
LINE
  8
1
 62
2
  6
CONTINUOUS
 10
208.051901
 20
142.877199
 11
208.048782
 21
142.893190
  0
LINE
  8
1
 62
2
  6
CONTINUOUS
 10
208.048782
 20
142.893190
 11
207.999733
 21
143.089781
  0
LINE
  8
1
 62
2
  6
CONTINUOUS
 10
207.999733
 20
143.089781
 11
207.986115
 21
143.133292
  0
LINE
  8
1
 62
2
  6
CONTINUOUS
 10
207.986115
 20
143.133292
 11
207.888584
 21
143.379072
  0
LINE
  8
1
 62
2
  6
CONTINUOUS
 10
207.888584
 20
143.379072
 11
207.852249
 21
143.451951
  0
LINE
  8
1
 62
2
  6
CONTINUOUS
 10
200.789346
 20
142.482626
 11
200.794736
 21
142.350279
  0
LINE
  8
1
 62
2
  6
CONTINUOUS
 10
200.794736
 20
142.350279
 11
200.833801
 21
142.103408
  0
LINE
  8
1
 62
2
  6
CONTINUOUS
 10
200.833801
 20
142.103408
 11
200.837506
 21
142.088010
  0
LINE
  8
1
 62
2
  6
CONTINUOUS
 10
200.837506
 20
142.088010
 11
200.921662
 21
141.831851
  0
LINE
  8
1
 62
2
  6
CONTINUOUS
 10
200.921662
 20
141.831851
 11
200.922377
 21
141.830125
  0
LINE
  8
1
 62
2
  6
CONTINUOUS
 10
200.922377
 20
141.830125
 11
200.977359
 21
141.709590
  0
LINE
  8
1
 62
2
  6
CONTINUOUS
 10
200.977359
 20
141.709590
 11
201.033116
 21
141.605567
  0
LINE
  8
1
 62
2
  6
CONTINUOUS
 10
201.033116
 20
141.605567
 11
201.044391
 21
141.586180
  0
LINE
  8
1
 62
2
  6
CONTINUOUS
 10
201.044391
 20
141.586180
 11
201.089346
 21
141.513300
  0
LINE
  8
1
 62
2
  6
CONTINUOUS
 10
201.089346
 20
143.451951
 11
201.044391
 21
143.379071
  0
LINE
  8
1
 62
2
  6
CONTINUOUS
 10
201.044391
 20
143.379071
 11
201.033116
 21
143.359683
  0
LINE
  8
1
 62
2
  6
CONTINUOUS
 10
201.033116
 20
143.359683
 11
200.977358
 21
143.255660
  0
LINE
  8
1
 62
2
  6
CONTINUOUS
 10
200.977358
 20
143.255660
 11
200.922376
 21
143.135123
  0
LINE
  8
1
 62
2
  6
CONTINUOUS
 10
200.922376
 20
143.135123
 11
200.921661
 21
143.133396
  0
LINE
  8
1
 62
2
  6
CONTINUOUS
 10
200.921661
 20
143.133396
 11
200.837506
 21
142.877242
  0
LINE
  8
1
 62
2
  6
CONTINUOUS
 10
200.837506
 20
142.877242
 11
200.833801
 21
142.861844
  0
LINE
  8
1
 62
2
  6
CONTINUOUS
 10
200.833801
 20
142.861844
 11
200.794736
 21
142.614973
  0
LINE
  8
1
 62
2
  6
CONTINUOUS
 10
200.794736
 20
142.614973
 11
200.789346
 21
142.482626
  0
LINE
  8
1
 62
2
  6
CONTINUOUS
 10
208.289346
 20
145.175208
 11
208.044904
 21
144.423775
  0
LINE
  8
1
 62
2
  6
CONTINUOUS
 10
208.044904
 20
144.423775
 11
207.875897
 21
143.618757
  0
LINE
  8
1
 62
2
  6
CONTINUOUS
 10
207.875897
 20
143.618757
 11
207.852249
 21
143.451951
  0
LINE
  8
1
 62
2
  6
CONTINUOUS
 10
211.289346
 20
145.175208
 11
211.289346
 21
145.361714
  0
LINE
  8
1
 62
2
  6
CONTINUOUS
 10
201.089346
 20
143.451951
 11
201.089346
 21
145.361714
  0
LINE
  8
1
 62
2
  6
CONTINUOUS
 10
201.089346
 20
147.040634
 11
201.089346
 21
148.438678
  0
LINE
  8
1
 62
2
  6
CONTINUOUS
 10
211.289346
 20
147.040634
 11
211.289346
 21
148.438678
  0
LINE
  8
1
 62
2
  6
CONTINUOUS
 10
198.519346
 20
136.232626
 11
198.519346
 21
148.732626
  0
LINE
  8
1
 62
2
  6
CONTINUOUS
 10
183.019346
 20
140.167458
 11
183.019346
 21
135.582626
  0
LINE
  8
1
 62
2
  6
CONTINUOUS
 10
183.019346
 20
140.167458
 11
183.244767
 21
140.195786
  0
LINE
  8
1
 62
2
  6
CONTINUOUS
 10
183.244767
 20
140.195786
 11
183.470148
 21
140.224424
  0
LINE
  8
1
 62
2
  6
CONTINUOUS
 10
183.470148
 20
140.224424
 11
183.695488
 21
140.253385
  0
LINE
  8
1
 62
2
  6
CONTINUOUS
 10
183.695488
 20
140.253385
 11
183.920785
 21
140.282681
  0
LINE
  8
1
 62
2
  6
CONTINUOUS
 10
183.920785
 20
140.282681
 11
184.146036
 21
140.312325
  0
LINE
  8
1
 62
2
  6
CONTINUOUS
 10
184.146036
 20
140.312325
 11
184.371240
 21
140.342331
  0
LINE
  8
1
 62
2
  6
CONTINUOUS
 10
184.371240
 20
140.342331
 11
184.596393
 21
140.372715
  0
LINE
  8
1
 62
2
  6
CONTINUOUS
 10
184.596393
 20
140.372715
 11
184.821492
 21
140.403493
  0
LINE
  8
1
 62
2
  6
CONTINUOUS
 10
184.821492
 20
140.403493
 11
185.046535
 21
140.434682
  0
LINE
  8
1
 62
2
  6
CONTINUOUS
 10
185.046535
 20
140.434682
 11
185.271518
 21
140.466301
  0
LINE
  8
1
 62
2
  6
CONTINUOUS
 10
185.271518
 20
140.466301
 11
185.496438
 21
140.498369
  0
LINE
  8
1
 62
2
  6
CONTINUOUS
 10
185.496438
 20
140.498369
 11
185.721290
 21
140.530909
  0
LINE
  8
1
 62
2
  6
CONTINUOUS
 10
185.721290
 20
140.530909
 11
185.946070
 21
140.563944
  0
LINE
  8
1
 62
2
  6
CONTINUOUS
 10
185.946070
 20
140.563944
 11
186.170772
 21
140.597499
  0
LINE
  8
1
 62
2
  6
CONTINUOUS
 10
186.170772
 20
140.597499
 11
186.395393
 21
140.631601
  0
LINE
  8
1
 62
2
  6
CONTINUOUS
 10
186.395393
 20
140.631601
 11
186.619925
 21
140.666281
  0
LINE
  8
1
 62
2
  6
CONTINUOUS
 10
186.619925
 20
140.666281
 11
186.844362
 21
140.701571
  0
LINE
  8
1
 62
2
  6
CONTINUOUS
 10
186.844362
 20
140.701571
 11
187.068697
 21
140.737507
  0
LINE
  8
1
 62
2
  6
CONTINUOUS
 10
187.068697
 20
140.737507
 11
187.090203
 21
140.740989
  0
LINE
  8
1
 62
2
  6
CONTINUOUS
 10
187.090203
 20
140.740989
 11
187.292921
 21
140.774130
  0
LINE
  8
1
 62
2
  6
CONTINUOUS
 10
187.292921
 20
140.774130
 11
187.517025
 21
140.811481
  0
LINE
  8
1
 62
2
  6
CONTINUOUS
 10
187.517025
 20
140.811481
 11
187.740997
 21
140.849610
  0
LINE
  8
1
 62
2
  6
CONTINUOUS
 10
187.740997
 20
140.849610
 11
187.964828
 21
140.888570
  0
LINE
  8
1
 62
2
  6
CONTINUOUS
 10
187.964828
 20
140.888570
 11
188.188501
 21
140.928422
  0
LINE
  8
1
 62
2
  6
CONTINUOUS
 10
188.188501
 20
140.928422
 11
188.412001
 21
140.969232
  0
LINE
  8
1
 62
2
  6
CONTINUOUS
 10
188.412001
 20
140.969232
 11
188.635310
 21
141.011078
  0
LINE
  8
1
 62
2
  6
CONTINUOUS
 10
188.635310
 20
141.011078
 11
188.858406
 21
141.054047
  0
LINE
  8
1
 62
2
  6
CONTINUOUS
 10
188.858406
 20
141.054047
 11
189.081264
 21
141.098237
  0
LINE
  8
1
 62
2
  6
CONTINUOUS
 10
189.081264
 20
141.098237
 11
189.303852
 21
141.143764
  0
LINE
  8
1
 62
2
  6
CONTINUOUS
 10
189.303852
 20
141.143764
 11
189.526135
 21
141.190761
  0
LINE
  8
1
 62
2
  6
CONTINUOUS
 10
189.526135
 20
141.190761
 11
189.748068
 21
141.239386
  0
LINE
  8
1
 62
2
  6
CONTINUOUS
 10
189.748068
 20
141.239386
 11
189.969597
 21
141.289825
  0
LINE
  8
1
 62
2
  6
CONTINUOUS
 10
189.969597
 20
141.289825
 11
190.190651
 21
141.342303
  0
LINE
  8
1
 62
2
  6
CONTINUOUS
 10
190.190651
 20
141.342303
 11
190.411144
 21
141.397093
  0
LINE
  8
1
 62
2
  6
CONTINUOUS
 10
190.411144
 20
141.397093
 11
190.630962
 21
141.454535
  0
LINE
  8
1
 62
2
  6
CONTINUOUS
 10
190.630962
 20
141.454535
 11
190.849952
 21
141.515059
  0
LINE
  8
1
 62
2
  6
CONTINUOUS
 10
190.849952
 20
141.515059
 11
191.067904
 21
141.579220
  0
LINE
  8
1
 62
2
  6
CONTINUOUS
 10
191.067904
 20
141.579220
 11
191.220298
 21
141.626878
  0
LINE
  8
1
 62
2
  6
CONTINUOUS
 10
191.220298
 20
141.626878
 11
191.284519
 21
141.647761
  0
LINE
  8
1
 62
2
  6
CONTINUOUS
 10
191.284519
 20
141.647761
 11
191.499349
 21
141.721704
  0
LINE
  8
1
 62
2
  6
CONTINUOUS
 10
191.499349
 20
141.721704
 11
191.711684
 21
141.802528
  0
LINE
  8
1
 62
2
  6
CONTINUOUS
 10
191.711684
 20
141.802528
 11
191.920302
 21
141.892492
  0
LINE
  8
1
 62
2
  6
CONTINUOUS
 10
191.920302
 20
141.892492
 11
192.122855
 21
141.995335
  0
LINE
  8
1
 62
2
  6
CONTINUOUS
 10
192.122855
 20
141.995335
 11
192.314003
 21
142.117910
  0
LINE
  8
1
 62
2
  6
CONTINUOUS
 10
192.314003
 20
142.117910
 11
192.478090
 21
142.274131
  0
LINE
  8
1
 62
2
  6
CONTINUOUS
 10
192.478090
 20
142.274131
 11
192.557808
 21
142.482624
  0
LINE
  8
1
 62
2
  6
CONTINUOUS
 10
192.557808
 20
142.482624
 11
192.478090
 21
142.691120
  0
LINE
  8
1
 62
2
  6
CONTINUOUS
 10
192.478090
 20
142.691120
 11
192.314004
 21
142.847341
  0
LINE
  8
1
 62
2
  6
CONTINUOUS
 10
192.314004
 20
142.847341
 11
192.122855
 21
142.969916
  0
LINE
  8
1
 62
2
  6
CONTINUOUS
 10
192.122855
 20
142.969916
 11
191.920302
 21
143.072760
  0
LINE
  8
1
 62
2
  6
CONTINUOUS
 10
191.920302
 20
143.072760
 11
191.711683
 21
143.162724
  0
LINE
  8
1
 62
2
  6
CONTINUOUS
 10
191.711683
 20
143.162724
 11
191.499348
 21
143.243547
  0
LINE
  8
1
 62
2
  6
CONTINUOUS
 10
191.499348
 20
143.243547
 11
191.284518
 21
143.317490
  0
LINE
  8
1
 62
2
  6
CONTINUOUS
 10
191.284518
 20
143.317490
 11
191.220298
 21
143.338374
  0
LINE
  8
1
 62
2
  6
CONTINUOUS
 10
191.220298
 20
143.338374
 11
191.067904
 21
143.386031
  0
LINE
  8
1
 62
2
  6
CONTINUOUS
 10
191.067904
 20
143.386031
 11
190.849952
 21
143.450193
  0
LINE
  8
1
 62
2
  6
CONTINUOUS
 10
190.849952
 20
143.450193
 11
190.630962
 21
143.510717
  0
LINE
  8
1
 62
2
  6
CONTINUOUS
 10
190.630962
 20
143.510717
 11
190.411144
 21
143.568159
  0
LINE
  8
1
 62
2
  6
CONTINUOUS
 10
190.411144
 20
143.568159
 11
190.190651
 21
143.622949
  0
LINE
  8
1
 62
2
  6
CONTINUOUS
 10
190.190651
 20
143.622949
 11
189.969596
 21
143.675426
  0
LINE
  8
1
 62
2
  6
CONTINUOUS
 10
189.969596
 20
143.675426
 11
189.748068
 21
143.725865
  0
LINE
  8
1
 62
2
  6
CONTINUOUS
 10
189.748068
 20
143.725865
 11
189.526135
 21
143.774490
  0
LINE
  8
1
 62
2
  6
CONTINUOUS
 10
189.526135
 20
143.774490
 11
189.303852
 21
143.821488
  0
LINE
  8
1
 62
2
  6
CONTINUOUS
 10
189.303852
 20
143.821488
 11
189.081263
 21
143.867014
  0
LINE
  8
1
 62
2
  6
CONTINUOUS
 10
189.081263
 20
143.867014
 11
188.858406
 21
143.911205
  0
LINE
  8
1
 62
2
  6
CONTINUOUS
 10
188.858406
 20
143.911205
 11
188.635310
 21
143.954173
  0
LINE
  8
1
 62
2
  6
CONTINUOUS
 10
188.635310
 20
143.954173
 11
188.412001
 21
143.996019
  0
LINE
  8
1
 62
2
  6
CONTINUOUS
 10
188.412001
 20
143.996019
 11
188.188501
 21
144.036830
  0
LINE
  8
1
 62
2
  6
CONTINUOUS
 10
188.188501
 20
144.036830
 11
187.964827
 21
144.076681
  0
LINE
  8
1
 62
2
  6
CONTINUOUS
 10
187.964827
 20
144.076681
 11
187.740997
 21
144.115642
  0
LINE
  8
1
 62
2
  6
CONTINUOUS
 10
187.740997
 20
144.115642
 11
187.517025
 21
144.153771
  0
LINE
  8
1
 62
2
  6
CONTINUOUS
 10
187.517025
 20
144.153771
 11
187.292921
 21
144.191122
  0
LINE
  8
1
 62
2
  6
CONTINUOUS
 10
187.292921
 20
144.191122
 11
187.090203
 21
144.224263
  0
LINE
  8
1
 62
2
  6
CONTINUOUS
 10
187.090203
 20
144.224263
 11
187.068697
 21
144.227744
  0
LINE
  8
1
 62
2
  6
CONTINUOUS
 10
187.068697
 20
144.227744
 11
186.844362
 21
144.263681
  0
LINE
  8
1
 62
2
  6
CONTINUOUS
 10
186.844362
 20
144.263681
 11
186.619925
 21
144.298971
  0
LINE
  8
1
 62
2
  6
CONTINUOUS
 10
186.619925
 20
144.298971
 11
186.395393
 21
144.333651
  0
LINE
  8
1
 62
2
  6
CONTINUOUS
 10
186.395393
 20
144.333651
 11
186.619925
 21
144.298971
  0
LINE
  8
1
 62
2
  6
CONTINUOUS
 10
186.619925
 20
144.298971
 11
186.395222
 21
144.332526
  0
LINE
  8
1
 62
2
  6
CONTINUOUS
 10
186.395222
 20
144.332526
 11
186.170442
 21
144.365560
  0
LINE
  8
1
 62
2
  6
CONTINUOUS
 10
186.170442
 20
144.365560
 11
185.945590
 21
144.398100
  0
LINE
  8
1
 62
2
  6
CONTINUOUS
 10
185.945590
 20
144.398100
 11
185.720671
 21
144.430169
  0
LINE
  8
1
 62
2
  6
CONTINUOUS
 10
185.720671
 20
144.430169
 11
185.046535
 21
144.530569
  0
LINE
  8
1
 62
2
  6
CONTINUOUS
 10
185.046535
 20
144.530569
 11
184.821492
 21
144.561758
  0
LINE
  8
1
 62
2
  6
CONTINUOUS
 10
184.821492
 20
144.561758
 11
184.596393
 21
144.592536
  0
LINE
  8
1
 62
2
  6
CONTINUOUS
 10
184.596393
 20
144.592536
 11
184.371240
 21
144.622920
  0
LINE
  8
1
 62
2
  6
CONTINUOUS
 10
184.371240
 20
144.622920
 11
184.146036
 21
144.652927
  0
LINE
  8
1
 62
2
  6
CONTINUOUS
 10
184.146036
 20
144.652927
 11
183.920785
 21
144.682571
  0
LINE
  8
1
 62
2
  6
CONTINUOUS
 10
183.920785
 20
144.682571
 11
183.695488
 21
144.711866
  0
LINE
  8
1
 62
2
  6
CONTINUOUS
 10
183.695488
 20
144.711866
 11
183.470148
 21
144.740827
  0
LINE
  8
1
 62
2
  6
CONTINUOUS
 10
183.470148
 20
144.740827
 11
183.244767
 21
144.769466
  0
LINE
  8
1
 62
2
  6
CONTINUOUS
 10
183.244767
 20
144.769466
 11
183.019346
 21
144.797793
  0
LINE
  8
1
 62
2
  6
CONTINUOUS
 10
183.019346
 20
149.382626
 11
183.019346
 21
144.797793
  0
LINE
  8
1
 62
2
  6
CONTINUOUS
 10
179.519346
 20
144.797793
 11
183.019346
 21
144.797793
  0
LINE
  8
1
 62
2
  6
CONTINUOUS
 10
179.519346
 20
149.382626
 11
179.519346
 21
144.797793
  0
LINE
  8
1
 62
2
  6
CONTINUOUS
 10
179.519346
 20
140.167458
 11
183.019346
 21
140.167458
  0
LINE
  8
1
 62
2
  6
CONTINUOUS
 10
179.519346
 20
144.797793
 11
179.348671
 21
144.224409
  0
LINE
  8
1
 62
2
  6
CONTINUOUS
 10
179.348671
 20
144.224409
 11
179.175435
 21
143.338370
  0
LINE
  8
1
 62
2
  6
CONTINUOUS
 10
179.175435
 20
143.338370
 11
179.119346
 21
142.482660
  0
LINE
  8
1
 62
2
  6
CONTINUOUS
 10
179.119346
 20
142.482660
 11
179.175435
 21
141.626881
  0
LINE
  8
1
 62
2
  6
CONTINUOUS
 10
179.175435
 20
141.626881
 11
179.348671
 21
140.740842
  0
LINE
  8
1
 62
2
  6
CONTINUOUS
 10
179.348671
 20
140.740842
 11
179.519346
 21
140.167458
  0
LINE
  8
1
 62
2
  6
CONTINUOUS
 10
179.019346
 20
135.398783
 11
179.019346
 21
135.382626
  0
LINE
  8
1
 62
2
  6
CONTINUOUS
 10
179.019346
 20
135.516257
 11
179.019346
 21
135.398783
  0
LINE
  8
1
 62
2
  6
CONTINUOUS
 10
179.019346
 20
135.764062
 11
179.019346
 21
135.516257
  0
LINE
  8
1
 62
2
  6
CONTINUOUS
 10
179.019346
 20
136.108477
 11
179.019346
 21
135.764062
  0
LINE
  8
1
 62
2
  6
CONTINUOUS
 10
179.019346
 20
136.587199
 11
179.019346
 21
136.108477
  0
LINE
  8
1
 62
2
  6
CONTINUOUS
 10
179.019346
 20
137.135085
 11
179.019346
 21
136.587199
  0
LINE
  8
1
 62
2
  6
CONTINUOUS
 10
179.019346
 20
137.812101
 11
179.019346
 21
137.135085
  0
LINE
  8
1
 62
2
  6
CONTINUOUS
 10
179.019346
 20
138.526119
 11
179.019346
 21
137.812101
  0
LINE
  8
1
 62
2
  6
CONTINUOUS
 10
179.019346
 20
139.355290
 11
179.019346
 21
138.526119
  0
LINE
  8
1
 62
2
  6
CONTINUOUS
 10
179.019346
 20
140.186782
 11
179.019346
 21
139.355290
  0
LINE
  8
1
 62
2
  6
CONTINUOUS
 10
179.019346
 20
141.111603
 11
179.019346
 21
140.186782
  0
LINE
  8
1
 62
2
  6
CONTINUOUS
 10
179.019346
 20
142.003903
 11
179.019346
 21
141.111603
  0
LINE
  8
1
 62
2
  6
CONTINUOUS
 10
179.019346
 20
142.482626
 11
179.019346
 21
142.003903
  0
LINE
  8
1
 62
2
  6
CONTINUOUS
 10
179.019346
 20
142.961348
 11
179.019346
 21
142.482626
  0
LINE
  8
1
 62
2
  6
CONTINUOUS
 10
179.019346
 20
143.853649
 11
179.019346
 21
142.961348
  0
LINE
  8
1
 62
2
  6
CONTINUOUS
 10
179.019346
 20
144.778470
 11
179.019346
 21
143.853649
  0
LINE
  8
1
 62
2
  6
CONTINUOUS
 10
179.019346
 20
145.609961
 11
179.019346
 21
144.778470
  0
LINE
  8
1
 62
2
  6
CONTINUOUS
 10
179.019346
 20
146.439133
 11
179.019346
 21
145.609961
  0
LINE
  8
1
 62
2
  6
CONTINUOUS
 10
179.019346
 20
147.153151
 11
179.019346
 21
146.439133
  0
LINE
  8
1
 62
2
  6
CONTINUOUS
 10
179.019346
 20
147.830167
 11
179.019346
 21
147.153151
  0
LINE
  8
1
 62
2
  6
CONTINUOUS
 10
179.019346
 20
148.378052
 11
179.019346
 21
147.830167
  0
LINE
  8
1
 62
2
  6
CONTINUOUS
 10
179.019346
 20
148.870114
 11
179.019346
 21
148.378052
  0
LINE
  8
1
 62
2
  6
CONTINUOUS
 10
179.019346
 20
149.582626
 11
179.019346
 21
148.870114
  0
LINE
  8
1
 62
2
  6
CONTINUOUS
 10
171.269346
 20
148.378052
 11
171.269346
 21
148.870114
  0
LINE
  8
1
 62
2
  6
CONTINUOUS
 10
171.269346
 20
147.830167
 11
171.269346
 21
148.378052
  0
LINE
  8
1
 62
2
  6
CONTINUOUS
 10
171.269346
 20
147.153151
 11
171.269346
 21
147.830167
  0
LINE
  8
1
 62
2
  6
CONTINUOUS
 10
171.269346
 20
146.439133
 11
171.269346
 21
147.153151
  0
LINE
  8
1
 62
2
  6
CONTINUOUS
 10
171.269346
 20
145.609961
 11
171.269346
 21
146.439133
  0
LINE
  8
1
 62
2
  6
CONTINUOUS
 10
171.269346
 20
144.778470
 11
171.269346
 21
145.609961
  0
LINE
  8
1
 62
2
  6
CONTINUOUS
 10
171.269346
 20
143.853649
 11
171.269346
 21
144.778470
  0
LINE
  8
1
 62
2
  6
CONTINUOUS
 10
171.269346
 20
142.961348
 11
171.269346
 21
143.853649
  0
LINE
  8
1
 62
2
  6
CONTINUOUS
 10
171.269346
 20
142.482626
 11
171.269346
 21
142.961348
  0
LINE
  8
1
 62
2
  6
CONTINUOUS
 10
171.269346
 20
142.003903
 11
171.269346
 21
142.482626
  0
LINE
  8
1
 62
2
  6
CONTINUOUS
 10
171.269346
 20
141.111603
 11
171.269346
 21
142.003903
  0
LINE
  8
1
 62
2
  6
CONTINUOUS
 10
171.269346
 20
140.186782
 11
171.269346
 21
141.111603
  0
LINE
  8
1
 62
2
  6
CONTINUOUS
 10
171.269346
 20
139.355290
 11
171.269346
 21
140.186782
  0
LINE
  8
1
 62
2
  6
CONTINUOUS
 10
171.269346
 20
138.526119
 11
171.269346
 21
139.355290
  0
LINE
  8
1
 62
2
  6
CONTINUOUS
 10
171.269346
 20
137.812101
 11
171.269346
 21
138.526119
  0
LINE
  8
1
 62
2
  6
CONTINUOUS
 10
171.269346
 20
137.135085
 11
171.269346
 21
137.812101
  0
LINE
  8
1
 62
2
  6
CONTINUOUS
 10
171.269346
 20
136.587199
 11
171.269346
 21
137.135085
  0
LINE
  8
1
 62
2
  6
CONTINUOUS
 10
171.269346
 20
136.108477
 11
171.269346
 21
136.587199
  0
LINE
  8
1
 62
2
  6
CONTINUOUS
 10
171.269346
 20
135.764062
 11
171.269346
 21
136.108477
  0
LINE
  8
1
 62
2
  6
CONTINUOUS
 10
171.269346
 20
135.516257
 11
171.269346
 21
135.764062
  0
LINE
  8
1
 62
2
  6
CONTINUOUS
 10
171.269346
 20
135.398783
 11
171.269346
 21
135.516257
  0
LINE
  8
1
 62
2
  6
CONTINUOUS
 10
171.269346
 20
135.382626
 11
171.269346
 21
135.398783
  0
LINE
  8
1
 62
2
  6
CONTINUOUS
 10
171.269346
 20
148.870114
 11
171.269346
 21
149.582626
  0
LINE
  8
1
 62
2
  6
CONTINUOUS
 10
171.569346
 20
148.616518
 11
171.419345
 21
148.497289
  0
LINE
  8
1
 62
2
  6
CONTINUOUS
 10
171.419345
 20
148.497289
 11
171.269346
 21
148.378052
  0
LINE
  8
1
 62
2
  6
CONTINUOUS
 10
171.569346
 20
148.616518
 11
171.569346
 21
148.068633
  0
LINE
  8
1
 62
2
  6
CONTINUOUS
 10
171.269346
 20
147.830167
 11
171.419345
 21
147.949404
  0
LINE
  8
1
 62
2
  6
CONTINUOUS
 10
171.419345
 20
147.949404
 11
171.569346
 21
148.068633
  0
LINE
  8
1
 62
2
  6
CONTINUOUS
 10
178.719346
 20
148.616518
 11
171.569346
 21
148.616518
  0
LINE
  8
1
 62
2
  6
CONTINUOUS
 10
179.019346
 20
148.378052
 11
178.869347
 21
148.497289
  0
LINE
  8
1
 62
2
  6
CONTINUOUS
 10
178.869347
 20
148.497289
 11
178.719346
 21
148.616518
  0
LINE
  8
1
 62
2
  6
CONTINUOUS
 10
178.719346
 20
148.068633
 11
171.569346
 21
148.068633
  0
LINE
  8
1
 62
2
  6
CONTINUOUS
 10
178.719346
 20
148.068633
 11
178.719346
 21
148.616518
  0
LINE
  8
1
 62
2
  6
CONTINUOUS
 10
178.719346
 20
148.068633
 11
178.869347
 21
147.949404
  0
LINE
  8
1
 62
2
  6
CONTINUOUS
 10
178.869347
 20
147.949404
 11
179.019346
 21
147.830167
  0
LINE
  8
1
 62
2
  6
CONTINUOUS
 10
171.269346
 20
147.830167
 11
179.019346
 21
147.830167
  0
LINE
  8
1
 62
2
  6
CONTINUOUS
 10
171.569346
 20
147.336132
 11
171.419345
 21
147.244645
  0
LINE
  8
1
 62
2
  6
CONTINUOUS
 10
171.419345
 20
147.244645
 11
171.269346
 21
147.153151
  0
LINE
  8
1
 62
2
  6
CONTINUOUS
 10
171.569346
 20
147.336132
 11
171.569346
 21
146.622114
  0
LINE
  8
1
 62
2
  6
CONTINUOUS
 10
171.269346
 20
146.439133
 11
171.419345
 21
146.530627
  0
LINE
  8
1
 62
2
  6
CONTINUOUS
 10
171.419345
 20
146.530627
 11
171.569346
 21
146.622114
  0
LINE
  8
1
 62
2
  6
CONTINUOUS
 10
171.569346
 20
145.724988
 11
171.419345
 21
145.667477
  0
LINE
  8
1
 62
2
  6
CONTINUOUS
 10
171.419345
 20
145.667477
 11
171.269346
 21
145.609961
  0
LINE
  8
1
 62
2
  6
CONTINUOUS
 10
171.569346
 20
145.724988
 11
171.569346
 21
144.893496
  0
LINE
  8
1
 62
2
  6
CONTINUOUS
 10
171.269346
 20
144.778470
 11
171.419345
 21
144.835985
  0
LINE
  8
1
 62
2
  6
CONTINUOUS
 10
171.419345
 20
144.835985
 11
171.569346
 21
144.893496
  0
LINE
  8
1
 62
2
  6
CONTINUOUS
 10
171.569346
 20
143.892882
 11
171.419345
 21
143.873266
  0
LINE
  8
1
 62
2
  6
CONTINUOUS
 10
171.419345
 20
143.873266
 11
171.269346
 21
143.853649
  0
LINE
  8
1
 62
2
  6
CONTINUOUS
 10
171.569346
 20
143.892882
 11
171.569346
 21
143.000582
  0
LINE
  8
1
 62
2
  6
CONTINUOUS
 10
171.269346
 20
142.961348
 11
171.419345
 21
142.980966
  0
LINE
  8
1
 62
2
  6
CONTINUOUS
 10
171.419345
 20
142.980966
 11
171.569346
 21
143.000582
  0
LINE
  8
1
 62
2
  6
CONTINUOUS
 10
178.719346
 20
143.892882
 11
171.569346
 21
143.892882
  0
LINE
  8
1
 62
2
  6
CONTINUOUS
 10
179.019346
 20
143.853649
 11
178.869347
 21
143.873266
  0
LINE
  8
1
 62
2
  6
CONTINUOUS
 10
178.869347
 20
143.873266
 11
178.719346
 21
143.892882
  0
LINE
  8
1
 62
2
  6
CONTINUOUS
 10
178.719346
 20
143.000582
 11
171.569346
 21
143.000582
  0
LINE
  8
1
 62
2
  6
CONTINUOUS
 10
178.719346
 20
143.000582
 11
178.719346
 21
143.892882
  0
LINE
  8
1
 62
2
  6
CONTINUOUS
 10
178.719346
 20
143.000582
 11
178.869347
 21
142.980966
  0
LINE
  8
1
 62
2
  6
CONTINUOUS
 10
178.869347
 20
142.980966
 11
179.019346
 21
142.961348
  0
LINE
  8
1
 62
2
  6
CONTINUOUS
 10
171.269346
 20
142.961348
 11
179.019346
 21
142.961348
  0
LINE
  8
1
 62
2
  6
CONTINUOUS
 10
171.269346
 20
142.003903
 11
179.019346
 21
142.003903
  0
LINE
  8
1
 62
2
  6
CONTINUOUS
 10
171.569346
 20
141.964670
 11
171.419345
 21
141.984286
  0
LINE
  8
1
 62
2
  6
CONTINUOUS
 10
171.419345
 20
141.984286
 11
171.269346
 21
142.003903
  0
LINE
  8
1
 62
2
  6
CONTINUOUS
 10
171.569346
 20
141.964670
 11
171.569346
 21
141.072369
  0
LINE
  8
1
 62
2
  6
CONTINUOUS
 10
171.269346
 20
141.111603
 11
171.419345
 21
141.091985
  0
LINE
  8
1
 62
2
  6
CONTINUOUS
 10
171.419345
 20
141.091985
 11
171.569346
 21
141.072369
  0
LINE
  8
1
 62
2
  6
CONTINUOUS
 10
171.569346
 20
140.071755
 11
171.419345
 21
140.129266
  0
LINE
  8
1
 62
2
  6
CONTINUOUS
 10
171.419345
 20
140.129266
 11
171.269346
 21
140.186782
  0
LINE
  8
1
 62
2
  6
CONTINUOUS
 10
171.569346
 20
140.071755
 11
171.569346
 21
139.240263
  0
LINE
  8
1
 62
2
  6
CONTINUOUS
 10
171.269346
 20
139.355290
 11
171.419345
 21
139.297775
  0
LINE
  8
1
 62
2
  6
CONTINUOUS
 10
171.419345
 20
139.297775
 11
171.569346
 21
139.240263
  0
LINE
  8
1
 62
2
  6
CONTINUOUS
 10
178.719346
 20
140.071755
 11
171.569346
 21
140.071755
  0
LINE
  8
1
 62
2
  6
CONTINUOUS
 10
171.269346
 20
140.186782
 11
179.019346
 21
140.186782
  0
LINE
  8
1
 62
2
  6
CONTINUOUS
 10
179.019346
 20
140.186782
 11
178.869347
 21
140.129266
  0
LINE
  8
1
 62
2
  6
CONTINUOUS
 10
178.869347
 20
140.129266
 11
178.719346
 21
140.071755
  0
LINE
  8
1
 62
2
  6
CONTINUOUS
 10
178.719346
 20
139.240263
 11
171.569346
 21
139.240263
  0
LINE
  8
1
 62
2
  6
CONTINUOUS
 10
178.719346
 20
139.240263
 11
178.719346
 21
140.071755
  0
LINE
  8
1
 62
2
  6
CONTINUOUS
 10
178.719346
 20
139.240263
 11
178.869347
 21
139.297775
  0
LINE
  8
1
 62
2
  6
CONTINUOUS
 10
178.869347
 20
139.297775
 11
179.019346
 21
139.355290
  0
LINE
  8
1
 62
2
  6
CONTINUOUS
 10
171.269346
 20
138.526119
 11
179.019346
 21
138.526119
  0
LINE
  8
1
 62
2
  6
CONTINUOUS
 10
171.569346
 20
138.343137
 11
171.419345
 21
138.434625
  0
LINE
  8
1
 62
2
  6
CONTINUOUS
 10
171.419345
 20
138.434625
 11
171.269346
 21
138.526119
  0
LINE
  8
1
 62
2
  6
CONTINUOUS
 10
171.569346
 20
138.343137
 11
171.569346
 21
137.629119
  0
LINE
  8
1
 62
2
  6
CONTINUOUS
 10
171.269346
 20
137.812101
 11
171.419345
 21
137.720607
  0
LINE
  8
1
 62
2
  6
CONTINUOUS
 10
171.419345
 20
137.720607
 11
171.569346
 21
137.629119
  0
LINE
  8
1
 62
2
  6
CONTINUOUS
 10
171.569346
 20
136.896619
 11
171.419345
 21
137.015848
  0
LINE
  8
1
 62
2
  6
CONTINUOUS
 10
171.419345
 20
137.015848
 11
171.269346
 21
137.135085
  0
LINE
  8
1
 62
2
  6
CONTINUOUS
 10
171.569346
 20
136.896619
 11
171.569346
 21
136.348733
  0
LINE
  8
1
 62
2
  6
CONTINUOUS
 10
171.269346
 20
136.587199
 11
171.419345
 21
136.467962
  0
LINE
  8
1
 62
2
  6
CONTINUOUS
 10
171.419345
 20
136.467962
 11
171.569346
 21
136.348733
  0
LINE
  8
1
 62
2
  6
CONTINUOUS
 10
178.719346
 20
136.348733
 11
178.869347
 21
136.467962
  0
LINE
  8
1
 62
2
  6
CONTINUOUS
 10
178.869347
 20
136.467962
 11
179.019346
 21
136.587199
  0
LINE
  8
1
 62
2
  6
CONTINUOUS
 10
178.719346
 20
136.348733
 11
178.719346
 21
136.896619
  0
LINE
  8
1
 62
2
  6
CONTINUOUS
 10
179.019346
 20
137.135085
 11
178.869347
 21
137.015848
  0
LINE
  8
1
 62
2
  6
CONTINUOUS
 10
178.869347
 20
137.015848
 11
178.719346
 21
136.896619
  0
LINE
  8
1
 62
2
  6
CONTINUOUS
 10
178.719346
 20
136.896619
 11
171.569346
 21
136.896619
  0
LINE
  8
1
 62
2
  6
CONTINUOUS
 10
171.269346
 20
137.135085
 11
179.019346
 21
137.135085
  0
LINE
  8
1
 62
2
  6
CONTINUOUS
 10
178.719346
 20
136.348733
 11
171.569346
 21
136.348733
  0
LINE
  8
1
 62
2
  6
CONTINUOUS
 10
171.269346
 20
136.108477
 11
179.019346
 21
136.108477
  0
LINE
  8
1
 62
2
  6
CONTINUOUS
 10
178.719346
 20
135.830777
 11
171.569346
 21
135.830777
  0
LINE
  8
1
 62
2
  6
CONTINUOUS
 10
171.569346
 20
135.830777
 11
171.419345
 21
135.969622
  0
LINE
  8
1
 62
2
  6
CONTINUOUS
 10
171.419345
 20
135.969622
 11
171.269346
 21
136.108477
  0
LINE
  8
1
 62
2
  6
CONTINUOUS
 10
179.019346
 20
136.108477
 11
178.869347
 21
135.969622
  0
LINE
  8
1
 62
2
  6
CONTINUOUS
 10
178.869347
 20
135.969622
 11
178.719346
 21
135.830777
  0
LINE
  8
1
 62
2
  6
CONTINUOUS
 10
171.269346
 20
135.764062
 11
171.419345
 21
135.625207
  0
LINE
  8
1
 62
2
  6
CONTINUOUS
 10
171.419345
 20
135.625207
 11
171.569346
 21
135.486362
  0
LINE
  8
1
 62
2
  6
CONTINUOUS
 10
178.719346
 20
135.486362
 11
171.569346
 21
135.486362
  0
LINE
  8
1
 62
2
  6
CONTINUOUS
 10
178.719346
 20
135.486362
 11
178.869347
 21
135.625207
  0
LINE
  8
1
 62
2
  6
CONTINUOUS
 10
178.869347
 20
135.625207
 11
179.019346
 21
135.764062
  0
LINE
  8
1
 62
2
  6
CONTINUOUS
 10
171.569346
 20
135.830777
 11
171.569346
 21
135.486362
  0
LINE
  8
1
 62
2
  6
CONTINUOUS
 10
178.719346
 20
135.486362
 11
178.719346
 21
135.830777
  0
LINE
  8
1
 62
2
  6
CONTINUOUS
 10
178.719346
 20
137.629119
 11
178.869347
 21
137.720607
  0
LINE
  8
1
 62
2
  6
CONTINUOUS
 10
178.869347
 20
137.720607
 11
179.019346
 21
137.812101
  0
LINE
  8
1
 62
2
  6
CONTINUOUS
 10
178.719346
 20
137.629119
 11
178.719346
 21
138.343137
  0
LINE
  8
1
 62
2
  6
CONTINUOUS
 10
179.019346
 20
138.526119
 11
178.869347
 21
138.434625
  0
LINE
  8
1
 62
2
  6
CONTINUOUS
 10
178.869347
 20
138.434625
 11
178.719346
 21
138.343137
  0
LINE
  8
1
 62
2
  6
CONTINUOUS
 10
178.719346
 20
138.343137
 11
171.569346
 21
138.343137
  0
LINE
  8
1
 62
2
  6
CONTINUOUS
 10
178.719346
 20
137.629119
 11
171.569346
 21
137.629119
  0
LINE
  8
1
 62
2
  6
CONTINUOUS
 10
178.719346
 20
135.218249
 11
171.569346
 21
135.218249
  0
LINE
  8
1
 62
2
  6
CONTINUOUS
 10
171.569346
 20
135.218249
 11
171.419345
 21
135.367247
  0
LINE
  8
1
 62
2
  6
CONTINUOUS
 10
171.419345
 20
135.367247
 11
171.269346
 21
135.516257
  0
LINE
  8
1
 62
2
  6
CONTINUOUS
 10
178.751642
 20
135.516257
 11
179.019346
 21
135.516257
  0
LINE
  8
1
 62
2
  6
CONTINUOUS
 10
171.269346
 20
135.516257
 11
171.537050
 21
135.516257
  0
LINE
  8
1
 62
2
  6
CONTINUOUS
 10
179.019346
 20
135.516257
 11
178.869347
 21
135.367247
  0
LINE
  8
1
 62
2
  6
CONTINUOUS
 10
178.869347
 20
135.367247
 11
178.719346
 21
135.218249
  0
LINE
  8
1
 62
2
  6
CONTINUOUS
 10
171.569346
 20
135.218249
 11
171.569346
 21
135.100775
  0
LINE
  8
1
 62
2
  6
CONTINUOUS
 10
171.269346
 20
135.398783
 11
171.419345
 21
135.249774
  0
LINE
  8
1
 62
2
  6
CONTINUOUS
 10
171.419345
 20
135.249774
 11
171.569346
 21
135.100775
  0
LINE
  8
1
 62
2
  6
CONTINUOUS
 10
178.719346
 20
135.100775
 11
171.569346
 21
135.100775
  0
LINE
  8
1
 62
2
  6
CONTINUOUS
 10
178.719346
 20
135.100775
 11
178.719346
 21
135.218249
  0
LINE
  8
1
 62
2
  6
CONTINUOUS
 10
178.719346
 20
135.100775
 11
178.869347
 21
135.249774
  0
LINE
  8
1
 62
2
  6
CONTINUOUS
 10
178.869347
 20
135.249774
 11
179.019346
 21
135.398783
  0
LINE
  8
1
 62
2
  6
CONTINUOUS
 10
171.569346
 20
135.100775
 11
171.419345
 21
135.249774
  0
LINE
  8
1
 62
2
  6
CONTINUOUS
 10
171.419345
 20
135.249774
 11
171.285611
 21
135.382626
  0
LINE
  8
1
 62
2
  6
CONTINUOUS
 10
178.719346
 20
141.072369
 11
178.869347
 21
141.091985
  0
LINE
  8
1
 62
2
  6
CONTINUOUS
 10
178.869347
 20
141.091985
 11
179.019346
 21
141.111603
  0
LINE
  8
1
 62
2
  6
CONTINUOUS
 10
178.719346
 20
141.072369
 11
178.719346
 21
141.964670
  0
LINE
  8
1
 62
2
  6
CONTINUOUS
 10
179.019346
 20
142.003903
 11
178.869347
 21
141.984286
  0
LINE
  8
1
 62
2
  6
CONTINUOUS
 10
178.869347
 20
141.984286
 11
178.719346
 21
141.964670
  0
LINE
  8
1
 62
2
  6
CONTINUOUS
 10
178.719346
 20
141.964670
 11
171.569346
 21
141.964670
  0
LINE
  8
1
 62
2
  6
CONTINUOUS
 10
178.719346
 20
141.072369
 11
171.569346
 21
141.072369
  0
LINE
  8
1
 62
2
  6
CONTINUOUS
 10
171.269346
 20
144.778470
 11
179.019346
 21
144.778470
  0
LINE
  8
1
 62
2
  6
CONTINUOUS
 10
178.719346
 20
144.893496
 11
178.869347
 21
144.835985
  0
LINE
  8
1
 62
2
  6
CONTINUOUS
 10
178.869347
 20
144.835985
 11
179.019346
 21
144.778470
  0
LINE
  8
1
 62
2
  6
CONTINUOUS
 10
178.719346
 20
144.893496
 11
178.719346
 21
145.724988
  0
LINE
  8
1
 62
2
  6
CONTINUOUS
 10
179.019346
 20
145.609961
 11
178.869347
 21
145.667477
  0
LINE
  8
1
 62
2
  6
CONTINUOUS
 10
178.869347
 20
145.667477
 11
178.719346
 21
145.724988
  0
LINE
  8
1
 62
2
  6
CONTINUOUS
 10
178.719346
 20
145.724988
 11
171.569346
 21
145.724988
  0
LINE
  8
1
 62
2
  6
CONTINUOUS
 10
178.719346
 20
144.893496
 11
171.569346
 21
144.893496
  0
LINE
  8
1
 62
2
  6
CONTINUOUS
 10
171.269346
 20
146.439133
 11
179.019346
 21
146.439133
  0
LINE
  8
1
 62
2
  6
CONTINUOUS
 10
178.719346
 20
146.622114
 11
178.869347
 21
146.530627
  0
LINE
  8
1
 62
2
  6
CONTINUOUS
 10
178.869347
 20
146.530627
 11
179.019346
 21
146.439133
  0
LINE
  8
1
 62
2
  6
CONTINUOUS
 10
178.719346
 20
146.622114
 11
178.719346
 21
147.336132
  0
LINE
  8
1
 62
2
  6
CONTINUOUS
 10
179.019346
 20
147.153151
 11
178.869347
 21
147.244645
  0
LINE
  8
1
 62
2
  6
CONTINUOUS
 10
178.869347
 20
147.244645
 11
178.719346
 21
147.336132
  0
LINE
  8
1
 62
2
  6
CONTINUOUS
 10
178.719346
 20
147.336132
 11
171.569346
 21
147.336132
  0
LINE
  8
1
 62
2
  6
CONTINUOUS
 10
178.719346
 20
146.622114
 11
171.569346
 21
146.622114
  0
LINE
  8
1
 62
2
  6
CONTINUOUS
 10
171.269346
 20
148.870114
 11
179.019346
 21
148.870114
  0
LINE
  8
1
 62
2
  6
CONTINUOUS
 10
171.269346
 20
148.870114
 11
171.419308
 21
149.036399
  0
LINE
  8
1
 62
2
  6
CONTINUOUS
 10
171.419308
 20
149.036399
 11
171.569346
 21
149.202001
  0
LINE
  8
1
 62
2
  6
CONTINUOUS
 10
171.569346
 20
149.202001
 11
178.719346
 21
149.202001
  0
LINE
  8
1
 62
2
  6
CONTINUOUS
 10
178.719346
 20
149.202001
 11
178.869384
 21
149.036399
  0
LINE
  8
1
 62
2
  6
CONTINUOUS
 10
178.869384
 20
149.036399
 11
179.019346
 21
148.870114
  0
LINE
  8
1
 62
2
  6
CONTINUOUS
 10
178.719346
 20
149.202001
 11
178.719346
 21
149.882626
  0
LINE
  8
1
 62
2
  6
CONTINUOUS
 10
171.569346
 20
149.882626
 11
171.569346
 21
149.202001
  0
LINE
  8
1
 62
2
  6
CONTINUOUS
 10
176.369346
 20
149.729004
 11
176.369346
 21
149.865715
  0
LINE
  8
1
 62
2
  6
CONTINUOUS
 10
174.869346
 20
149.865715
 11
176.369346
 21
149.865715
  0
LINE
  8
1
 62
2
  6
CONTINUOUS
 10
174.869346
 20
149.865715
 11
174.869346
 21
149.882626
  0
LINE
  8
1
 62
2
  6
CONTINUOUS
 10
174.369346
 20
149.729004
 11
174.869346
 21
149.813288
  0
LINE
  8
1
 62
2
  6
CONTINUOUS
 10
173.869346
 20
149.813288
 11
174.369346
 21
149.729004
  0
LINE
  8
1
 62
2
  6
CONTINUOUS
 10
173.369346
 20
149.865715
 11
173.827760
 21
149.820299
  0
LINE
  8
1
 62
2
  6
CONTINUOUS
 10
173.869346
 20
149.882626
 11
173.869346
 21
149.729004
  0
LINE
  8
1
 62
2
  6
CONTINUOUS
 10
173.869346
 20
149.729004
 11
176.369346
 21
149.729004
  0
LINE
  8
1
 62
2
  6
CONTINUOUS
 10
174.869346
 20
149.865715
 11
174.869346
 21
149.729004
  0
LINE
  8
1
 62
2
  6
CONTINUOUS
 10
170.489346
 20
137.907626
 11
170.489346
 21
146.995732
  0
LINE
  8
1
 62
2
  6
CONTINUOUS
 10
170.689346
 20
147.225845
 11
170.589277
 21
147.112139
  0
LINE
  8
1
 62
2
  6
CONTINUOUS
 10
170.589277
 20
147.112139
 11
170.489346
 21
146.995732
  0
LINE
  8
1
 62
2
  6
CONTINUOUS
 10
171.269346
 20
147.225845
 11
170.689346
 21
147.225845
  0
LINE
  8
1
 62
2
  6
CONTINUOUS
 10
179.519346
 20
140.167458
 11
179.519346
 21
135.582626
  0
LINE
  8
1
 62
2
  6
CONTINUOUS
 10
170.689346
 20
147.225845
 11
170.689346
 21
137.707626
  0
LINE
  8
1
 62
132
  6
DASHDOT
 10
165.382205
 20
142.482626
 11
218.104882
 21
142.482594
  0
LINE
  8
1
 62
132
  6
CONTINUOUS
 10
212.289346
 20
145.982626
 11
221.176120
 21
145.982593
  0
LINE
  8
1
 62
132
  6
CONTINUOUS
 10
212.289346
 20
138.982626
 11
218.842786
 21
138.982592
  0
DIMENSION
  8
2
 62
134
  6
CONTINUOUS
  2
*D8
 10
168.689346
 20
172.482626
 11
191.085223
 21
172.482626
 70
     0
  1
44
 13
168.689346
 23
159.182626
 14
212.289346
 24
149.332626
 50
0.000000
  0
DIMENSION
  8
2
 62
134
  6
CONTINUOUS
  2
*D9
 10
205.519125
 20
135.045529
 11
205.519125
 21
158.111316
 70
     0
  1
φ15
 13
205.519125
 23
135.045529
 14
205.519125
 24
149.919723
 50
90.000000
  0
TEXT
  8
3
 62
134
  6
CONTINUOUS
 10
144.945436
 20
108.080617
 40
4.000000
 41
1.000000
  1
2-φ3.5ザグリφ6深さ3
  7
KANJI
 50
0.000000
 51
30.000000
  0
LINE
  8
3
 62
134
  6
CONTINUOUS
 10
125.873604
 20
130.000032
 11
142.945436
 21
112.080617
  0
LINE
  8
3
 62
134
  6
CONTINUOUS
 10
142.945436
 20
112.080617
 11
159.303286
 21
112.080617
  0
TEXT
  8
3
 62
134
  6
CONTINUOUS
 10
147.303286
 20
112.080617
 40
4.000000
 41
1.000000
  1
取付穴
  7
KANJI
 50
0.000000
 51
30.000000
  0
LINE
  8
3
 62
134
  6
CONTINUOUS
 10
125.873604
 20
130.000032
 11
127.580932
 21
128.958382
  0
LINE
  8
3
 62
134
  6
CONTINUOUS
 10
125.873604
 20
130.000032
 11
126.831369
 21
128.244273
  0
LINE
  8
3
 62
134
  6
CONTINUOUS
 10
127.580932
 20
128.958382
 11
126.831369
 21
128.244273
  0
LINE
  8
3
 62
134
  6
CONTINUOUS
 10
126.206741
 20
129.650356
 11
127.060405
 21
129.129531
  0
LINE
  8
3
 62
134
  6
CONTINUOUS
 10
126.206741
 20
129.650356
 11
126.685623
 21
128.772476
  0
LINE
  8
3
 62
134
  6
CONTINUOUS
 10
127.060405
 20
129.129531
 11
126.685623
 21
128.772476
  0
LINE
  8
3
 62
214
  6
CONTINUOUS
 10
185.815226
 20
135.699872
 11
195.982020
 21
112.479512
  0
LINE
  8
3
 62
214
  6
CONTINUOUS
 10
195.982020
 20
112.479512
 11
219.704909
 21
112.479512
  0
TEXT
  8
3
 62
214
  6
CONTINUOUS
 10
201.704909
 20
112.479512
 40
4.000000
 41
1.000000
  1
ｹｰﾌﾞﾙｺﾈｸﾀ
  7
KANJI
 50
0.000000
 51
0.000000
  0
LINE
  8
3
 62
214
  6
CONTINUOUS
 10
185.815226
 20
135.699872
 11
187.064232
 21
134.137827
  0
LINE
  8
3
 62
214
  6
CONTINUOUS
 10
185.815226
 20
135.699872
 11
186.115875
 21
133.722599
  0
LINE
  8
3
 62
214
  6
CONTINUOUS
 10
187.064232
 20
134.137827
 11
186.115875
 21
133.722599
  0
LINE
  8
3
 62
214
  6
CONTINUOUS
 10
186.008933
 20
135.257458
 11
186.633436
 21
134.476435
  0
LINE
  8
3
 62
214
  6
CONTINUOUS
 10
186.008933
 20
135.257458
 11
186.159257
 21
134.268821
  0
LINE
  8
3
 62
214
  6
CONTINUOUS
 10
186.633436
 20
134.476435
 11
186.159257
 21
134.268821
  0
TEXT
  8
5
 62
7
  6
CONTINUOUS
 10
172.772351
 20
27.782285
 40
4.000000
 41
1.000000
  1
2017/02/03
  7
KANJI
 50
-0.091868
 51
0.000000
  0
LINE
  8
10
 62
7
  6
CONTINUOUS
 10
83.843651
 20
21.010890
 11
16.344340
 21
21.010890
  0
LINE
  8
10
 62
7
  6
CONTINUOUS
 10
16.344340
 20
25.677440
 11
83.843651
 21
25.677440
  0
LINE
  8
10
 62
7
  6
CONTINUOUS
 10
16.344340
 20
30.343990
 11
83.843651
 21
30.343990
  0
TEXT
  8
10
 62
7
  6
CONTINUOUS
 10
16.629611
 20
31.074838
 40
3.999900
 41
1.000000
  1
該当機種
  7
KANJI
 50
0.000000
 51
0.000000
  0
LINE
  8
10
 62
7
  6
CONTINUOUS
 10
16.344340
 20
30.343990
 11
16.344340
 21
16.344340
  0
LINE
  8
10
 62
7
  6
CONTINUOUS
 10
16.344340
 20
16.344340
 11
83.843651
 21
16.344340
  0
LINE
  8
10
 62
134
  6
CONTINUOUS
 10
83.843651
 20
30.343990
 11
83.843651
 21
16.344340
  0
TEXT
  8
5
 62
7
  6
CONTINUOUS
 10
195.928459
 20
19.918632
 40
3.500000
 41
1.000000
  1
須藤(民)
  7
KANJI
 50
0.000000
 51
0.000000
  0
TEXT
  8
5
 62
7
  6
CONTINUOUS
 10
215.928459
 20
19.918632
 40
3.500000
 41
1.000000
  1
須藤(民)
  7
KANJI
 50
0.000000
 51
0.000000
  0
TEXT
  8
10
 62
7
  6
CONTINUOUS
 10
18.612695
 20
25.665506
 40
3.999900
 41
1.000000
  1
FLHX-ANE□□□□S
  7
KANJI
 50
0.000000
 51
0.000000
  0
TEXT
  8
10
 62
7
  6
CONTINUOUS
 10
18.612695
 20
16.332406
 40
3.999900
 41
1.000000
  1
FLHX-TNE□□□□S
  7
KANJI
 50
0.000000
 51
0.000000
  0
TEXT
  8
10
 62
7
  6
CONTINUOUS
 10
18.612695
 20
20.998956
 40
3.999900
 41
1.000000
  1
FLHX-PNE□□□□S
  7
KANJI
 50
0.000000
 51
0.000000
  0
DIMENSION
  8
2
 62
134
  6
CONTINUOUS
  2
*D10
 10
80.419287
 20
149.982626
 11
80.419287
 21
142.482626
 70
     0
  1
φ15
 13
80.789346
 23
149.982626
 14
80.789346
 24
134.982626
 50
-90.000000
  0
DIMENSION
  8
2
 62
134
  6
CONTINUOUS
  2
*D11
 10
71.174004
 20
152.482626
 11
71.174004
 21
142.482626
 70
     0
  1
φ20
 13
113.489346
 23
152.482626
 14
113.489346
 24
132.482626
 50
-90.000000
  0
ARC
  8
1
 62
7
  6
DOT
 10
87.799849
 20
142.483195
 40
5.000000
 50
-36.869899
 51
36.869899
  0
ARC
  8
1
 62
7
  6
DOT
 10
95.799848
 20
142.483195
 40
5.000000
 50
143.130101
 51
-143.130101
  0
LINE
  8
3
 62
134
  6
CONTINUOUS
 10
91.788901
 20
142.482626
 11
82.427054
 21
164.267998
  0
LINE
  8
3
 62
134
  6
CONTINUOUS
 10
82.427054
 20
164.267998
 11
73.172444
 21
164.267998
  0
TEXT
  8
3
 62
134
  6
CONTINUOUS
 10
73.172444
 20
164.267998
 40
4.000000
 41
1.000000
  1
ﾚﾝｽﾞ
  7
KANJI
 50
0.000000
 51
30.000000
  0
LINE
  8
3
 62
134
  6
CONTINUOUS
 10
91.788901
 20
142.482626
 11
90.550584
 21
144.053158
  0
LINE
  8
3
 62
134
  6
CONTINUOUS
 10
91.788901
 20
142.482626
 11
91.501753
 21
144.461905
  0
LINE
  8
3
 62
134
  6
CONTINUOUS
 10
90.550584
 20
144.053158
 11
91.501753
 21
144.461905
  0
LINE
  8
3
 62
134
  6
CONTINUOUS
 10
91.598218
 20
142.926352
 11
90.979059
 21
143.711618
  0
LINE
  8
3
 62
134
  6
CONTINUOUS
 10
91.598218
 20
142.926352
 11
91.454644
 21
143.915992
  0
LINE
  8
3
 62
134
  6
CONTINUOUS
 10
90.979059
 20
143.711618
 11
91.454644
 21
143.915992
  0
LINE
  8
2
 62
134
  6
CONTINUOUS
 10
82.767692
 20
112.113511
 11
80.835840
 21
111.595873
  0
LINE
  8
2
 62
134
  6
CONTINUOUS
 10
80.835840
 20
111.595873
 11
80.835840
 21
112.631149
  0
LINE
  8
2
 62
134
  6
CONTINUOUS
 10
80.835840
 20
112.631149
 11
82.767692
 21
112.113511
  0
LINE
  8
2
 62
134
  6
CONTINUOUS
 10
82.767692
 20
110.113511
 11
82.767692
 21
129.739826
  0
LINE
  8
2
 62
134
  6
CONTINUOUS
 10
46.921604
 20
112.113511
 11
82.767692
 21
112.113511
  0
TEXT
  8
3
 62
134
  6
CONTINUOUS
 10
56.779731
 20
112.113511
 40
4.000000
 41
1.000000
  1
測定距離
  7
KANJI
 50
0.000000
 51
30.000000
  0
TEXT
  8
5
 62
7
  6
CONTINUOUS
 10
237.999322
 20
34.938808
 40
4.000000
 41
1.000000
  1
FLHX-A/P/T φ6外形図
  7
KANJI
 50
0.000000
 51
0.000000
  0
TEXT
  8
5
 62
7
  6
CONTINUOUS
 10
237.999322
 20
27.426947
 40
4.000000
 41
1.000000
  1
ＨＸ－Ｃ３
  7
KANJI
 50
0.000000
 51
0.000000
  0
TEXT
  8
5
 62
7
  6
CONTINUOUS
 10
235.916500
 20
20.406457
 40
4.000000
 41
1.000000
  1
００５－０６６－Ａ０１４
  7
KANJI
 50
0.000000
 51
0.000000
  0
LINE
  8
1
 62
7
  6
DASHDOT
 10
80.419287
 20
142.482623
 11
220.009454
 21
142.482594
  0
LINE
  8
1
 62
7
  6
CONTINUOUS
 10
114.288877
 20
149.982615
 11
114.288877
 21
148.982615
  0
LINE
  8
1
 62
7
  6
CONTINUOUS
 10
114.288877
 20
148.982615
 11
109.288877
 21
148.982615
  0
LINE
  8
1
 62
7
  6
CONTINUOUS
 10
109.288877
 20
148.982615
 11
109.288877
 21
149.982615
  0
LINE
  8
1
 62
7
  6
CONTINUOUS
 10
114.288877
 20
134.982615
 11
114.288877
 21
135.982615
  0
LINE
  8
1
 62
7
  6
CONTINUOUS
 10
114.288877
 20
135.982615
 11
109.288877
 21
135.982615
  0
LINE
  8
1
 62
7
  6
CONTINUOUS
 10
109.288877
 20
135.982615
 11
109.288877
 21
134.982615
  0
LINE
  8
1
 62
7
  6
CONTINUOUS
 10
115.488877
 20
149.982615
 11
114.288877
 21
149.982615
  0
LINE
  8
1
 62
7
  6
CONTINUOUS
 10
115.488877
 20
134.982615
 11
114.288877
 21
134.982615
  0
LINE
  8
1
 62
7
  6
CONTINUOUS
 10
115.488877
 20
149.982615
 11
115.488877
 21
151.482615
  0
LINE
  8
1
 62
7
  6
CONTINUOUS
 10
116.488877
 20
152.482615
 11
115.488877
 21
151.482615
  0
LINE
  8
1
 62
7
  6
CONTINUOUS
 10
115.488877
 20
134.982615
 11
115.488877
 21
133.482615
  0
LINE
  8
1
 62
7
  6
CONTINUOUS
 10
115.488877
 20
133.482615
 11
116.488877
 21
132.482615
  0
LINE
  8
1
 62
7
  6
CONTINUOUS
 10
116.488877
 20
152.482615
 11
119.988877
 21
152.482615
  0
LINE
  8
1
 62
7
  6
CONTINUOUS
 10
119.988877
 20
152.482615
 11
120.188877
 21
152.282615
  0
LINE
  8
1
 62
7
  6
CONTINUOUS
 10
116.488877
 20
132.482615
 11
119.988877
 21
132.482615
  0
LINE
  8
1
 62
7
  6
CONTINUOUS
 10
119.988877
 20
132.482615
 11
120.188877
 21
132.682615
  0
LINE
  8
1
 62
3
  6
CONTINUOUS
 10
82.688877
 20
135.982615
 11
83.688877
 21
134.982615
  0
LINE
  8
1
 62
3
  6
CONTINUOUS
 10
82.688877
 20
148.982615
 11
82.688877
 21
135.982615
  0
LINE
  8
1
 62
3
  6
CONTINUOUS
 10
83.688877
 20
149.982615
 11
82.688877
 21
148.982615
  0
LINE
  8
1
 62
7
  6
CONTINUOUS
 10
109.288877
 20
149.982615
 11
83.688877
 21
149.982615
  0
LINE
  8
1
 62
7
  6
CONTINUOUS
 10
109.288877
 20
134.982615
 11
83.688877
 21
134.982615
  0
LINE
  8
1
 62
7
  6
CONTINUOUS
 10
83.688877
 20
149.982615
 11
83.688877
 21
134.982615
  0
LINE
  8
1
 62
7
  6
CONTINUOUS
 10
109.288877
 20
148.982615
 11
109.288877
 21
135.982615
  0
LINE
  8
1
 62
7
  6
CONTINUOUS
 10
114.288877
 20
148.982615
 11
114.288877
 21
135.982615
  0
LINE
  8
1
 62
7
  6
CONTINUOUS
 10
115.488877
 20
149.982615
 11
115.488877
 21
134.982615
  0
LINE
  8
1
 62
7
  6
CONTINUOUS
 10
116.488877
 20
152.482615
 11
116.488877
 21
132.482615
  0
LINE
  8
1
 62
7
  6
CONTINUOUS
 10
119.988877
 20
152.482615
 11
119.988877
 21
132.482615
  0
DIMENSION
  8
2
 62
134
  6
CONTINUOUS
  2
*D12
 10
82.688877
 20
172.482626
 11
101.438877
 21
172.482626
 70
     0
  1
37.5
 13
82.688877
 23
150.982615
 14
120.188877
 24
154.282615
 50
0.000000
  0
LINE
  8
1
 62
7
  6
CONTINUOUS
 10
133.344792
 20
82.357325
 11
129.392975
 21
70.501874
  0
LINE
  8
1
 62
7
  6
CONTINUOUS
 10
131.227748
 20
82.357325
 11
127.275931
 21
70.501874
  0
LINE
  8
3
 62
134
  6
CONTINUOUS
 10
123.999169
 20
72.773574
 11
132.733113
 21
56.427626
  0
LINE
  8
3
 62
134
  6
CONTINUOUS
 10
132.733113
 20
56.427626
 11
156.215521
 21
56.427626
  0
TEXT
  8
3
 62
134
  6
CONTINUOUS
 10
134.215521
 20
56.427626
 40
4.000000
 41
1.000000
  1
　接続ｹｰﾌﾞﾙ
  7
KANJI
 50
0.000000
 51
30.000000
  0
LINE
  8
3
 62
134
  6
CONTINUOUS
 10
123.999169
 20
72.773574
 11
125.366135
 21
71.313641
  0
LINE
  8
3
 62
134
  6
CONTINUOUS
 10
123.999169
 20
72.773574
 11
124.453030
 21
70.825752
  0
LINE
  8
3
 62
134
  6
CONTINUOUS
 10
125.366135
 20
71.313641
 11
124.453030
 21
70.825752
  0
LINE
  8
3
 62
134
  6
CONTINUOUS
 10
124.226772
 20
72.347605
 11
124.910255
 21
71.617638
  0
LINE
  8
3
 62
134
  6
CONTINUOUS
 10
124.226772
 20
72.347605
 11
124.453703
 21
71.373694
  0
LINE
  8
3
 62
134
  6
CONTINUOUS
 10
124.910255
 20
71.617638
 11
124.453703
 21
71.373694
  0
LINE
  8
1
 62
4
  6
CONTINUOUS
 10
57.879717
 20
82.624440
 11
57.879717
 21
69.922734
  0
LINE
  8
1
 62
7
  6
CONTINUOUS
 10
57.579717
 20
91.273587
 11
57.879717
 21
90.973587
  0
LINE
  8
1
 62
7
  6
CONTINUOUS
 10
57.879717
 20
61.573587
 11
57.879717
 21
90.973587
  0
LINE
  8
1
 62
7
  6
CONTINUOUS
 10
57.879717
 20
61.573587
 11
57.579717
 21
61.273587
  0
LINE
  8
1
 62
7
  6
CONTINUOUS
 10
57.579717
 20
61.273587
 11
52.579717
 21
61.273587
  0
LINE
  8
1
 62
7
  6
CONTINUOUS
 10
57.579717
 20
91.273587
 11
52.579717
 21
91.273587
  0
ARC
  8
1
 62
2
  6
CONTINUOUS
 10
58.079717
 20
83.723587
 40
0.200000
 50
90.000000
 51
180.000000
  0
ARC
  8
1
 62
2
  6
CONTINUOUS
 10
59.279717
 20
83.723587
 40
0.200000
 50
-89.230975
 51
-89.187365
  0
ARC
  8
1
 62
2
  6
CONTINUOUS
 10
59.279717
 20
83.723587
 40
0.200000
 50
-89.143735
 51
-88.819498
  0
ARC
  8
1
 62
2
  6
CONTINUOUS
 10
59.279717
 20
83.723587
 40
0.200000
 50
-88.640266
 51
-84.763088
  0
LINE
  8
1
 62
2
  6
CONTINUOUS
 10
59.661123
 20
75.445863
 11
59.679717
 21
75.445863
  0
LINE
  8
1
 62
2
  6
CONTINUOUS
 10
59.477917
 20
73.886658
 11
59.480020
 21
73.886658
  0
LINE
  8
1
 62
2
  6
CONTINUOUS
 10
59.477917
 20
73.802447
 11
59.479836
 21
73.802447
  0
LINE
  8
1
 62
2
  6
CONTINUOUS
 10
59.279717
 20
83.923587
 11
58.079717
 21
83.923587
  0
LINE
  8
1
 62
2
  6
CONTINUOUS
 10
59.279717
 20
68.623587
 11
58.079717
 21
68.623587
  0
LINE
  8
1
 62
2
  6
CONTINUOUS
 10
59.477917
 20
73.880863
 11
59.480007
 21
73.880863
  0
LINE
  8
1
 62
2
  6
CONTINUOUS
 10
59.661072
 20
75.443587
 11
59.679717
 21
75.443587
  0
ARC
  8
1
 62
2
  6
CONTINUOUS
 10
59.679717
 20
69.673587
 40
0.200000
 50
90.000000
 51
180.000000
  0
ARC
  8
1
 62
2
  6
CONTINUOUS
 10
59.679717
 20
82.873587
 40
0.200000
 50
180.000000
 51
-90.000000
  0
ARC
  8
1
 62
2
  6
CONTINUOUS
 10
59.279717
 20
68.823587
 40
0.200000
 50
83.421437
 51
84.763088
  0
ARC
  8
1
 62
2
  6
CONTINUOUS
 10
59.279717
 20
68.823587
 40
0.200000
 50
-90.000000
 51
0.000000
  0
ARC
  8
1
 62
2
  6
CONTINUOUS
 10
59.279717
 20
83.723587
 40
0.200000
 50
7.692308
 51
90.000000
  0
LINE
  8
1
 62
2
  6
CONTINUOUS
 10
57.879717
 20
68.823587
 11
57.879717
 21
69.077440
  0
ARC
  8
1
 62
2
  6
CONTINUOUS
 10
58.079717
 20
68.823587
 40
0.200000
 50
180.000000
 51
-90.000000
  0
LINE
  8
1
 62
2
  6
CONTINUOUS
 10
59.279717
 20
68.623587
 11
58.079717
 21
68.623587
  0
LINE
  8
1
 62
2
  6
CONTINUOUS
 10
59.279717
 20
83.923587
 11
58.079717
 21
83.923587
  0
LINE
  8
1
 62
2
  6
CONTINUOUS
 10
57.879717
 20
71.670650
 11
57.879717
 21
71.738315
  0
LINE
  8
1
 62
2
  6
CONTINUOUS
 10
59.479717
 20
83.723587
 11
59.479717
 21
68.823587
  0
LINE
  8
1
 62
2
  6
CONTINUOUS
 10
59.479717
 20
70.557820
 11
59.479717
 21
71.005642
  0
LINE
  8
1
 62
2
  6
CONTINUOUS
 10
57.879717
 20
68.823587
 11
57.879717
 21
83.723587
  0
LINE
  8
1
 62
2
  6
CONTINUOUS
 10
57.879717
 20
69.077440
 11
57.879717
 21
68.823587
  0
LINE
  8
1
 62
2
  6
CONTINUOUS
 10
59.679717
 20
82.673587
 11
59.679717
 21
69.873587
  0
LINE
  8
1
 62
2
  6
CONTINUOUS
 10
58.079717
 20
83.923587
 11
58.079717
 21
68.623587
  0
LINE
  8
1
 62
2
  6
CONTINUOUS
 10
59.279717
 20
83.923587
 11
59.279717
 21
68.623587
  0
ARC
  8
1
 62
2
  6
CONTINUOUS
 10
59.279717
 20
83.723587
 40
0.200000
 50
-9.731036
 51
90.000000
  0
LINE
  8
1
 62
2
  6
CONTINUOUS
 10
60.459717
 20
82.673587
 11
59.679717
 21
82.673587
  0
LINE
  8
1
 62
2
  6
CONTINUOUS
 10
60.459717
 20
69.873587
 11
59.679717
 21
69.873587
  0
LINE
  8
1
 62
2
  6
CONTINUOUS
 10
60.459717
 20
69.873587
 11
59.679717
 21
69.873587
  0
LINE
  8
1
 62
2
  6
CONTINUOUS
 10
60.459717
 20
82.673587
 11
59.679717
 21
82.673587
  0
LINE
  8
1
 62
2
  6
CONTINUOUS
 10
68.709717
 20
83.173587
 11
68.209717
 21
82.673587
  0
LINE
  8
1
 62
2
  6
CONTINUOUS
 10
68.709717
 20
69.373587
 11
68.209717
 21
69.873587
  0
LINE
  8
1
 62
2
  6
CONTINUOUS
 10
59.879717
 20
71.498587
 11
60.459717
 21
71.498587
  0
LINE
  8
1
 62
2
  6
CONTINUOUS
 10
72.209717
 20
83.173587
 11
68.709717
 21
83.173587
  0
LINE
  8
1
 62
2
  6
CONTINUOUS
 10
59.879717
 20
71.498587
 11
59.679717
 21
71.698587
  0
LINE
  8
1
 62
2
  6
CONTINUOUS
 10
87.709717
 20
82.523587
 11
89.979717
 21
82.523587
  0
LINE
  8
1
 62
2
  6
CONTINUOUS
 10
87.709717
 20
70.023587
 11
89.979717
 21
70.023587
  0
LINE
  8
1
 62
2
  6
CONTINUOUS
 10
72.209717
 20
69.373587
 11
68.709717
 21
69.373587
  0
LINE
  8
1
 62
2
  6
CONTINUOUS
 10
72.209717
 20
83.173587
 11
87.709717
 21
82.523587
  0
LINE
  8
1
 62
2
  6
CONTINUOUS
 10
72.209717
 20
69.373587
 11
87.709717
 21
70.023587
  0
LINE
  8
1
 62
2
  6
CONTINUOUS
 10
100.779717
 20
69.073587
 11
101.479717
 21
69.773587
  0
LINE
  8
1
 62
2
  6
CONTINUOUS
 10
100.779717
 20
83.473587
 11
101.479717
 21
82.773587
  0
LINE
  8
1
 62
2
  6
CONTINUOUS
 10
59.879717
 20
71.498587
 11
60.459717
 21
71.498587
  0
LINE
  8
1
 62
2
  6
CONTINUOUS
 10
67.909717
 20
83.673587
 11
68.209717
 21
83.373587
  0
LINE
  8
1
 62
2
  6
CONTINUOUS
 10
59.879717
 20
71.498587
 11
59.679717
 21
71.698587
  0
LINE
  8
1
 62
2
  6
CONTINUOUS
 10
60.759717
 20
83.673587
 11
60.459717
 21
83.373587
  0
LINE
  8
1
 62
2
  6
CONTINUOUS
 10
67.909717
 20
83.673587
 11
64.059717
 21
83.673587
  0
LINE
  8
1
 62
2
  6
CONTINUOUS
 10
63.059717
 20
83.673587
 11
60.759717
 21
83.673587
  0
LINE
  8
1
 62
2
  6
CONTINUOUS
 10
60.476100
 20
69.173587
 11
60.459717
 21
69.173587
  0
LINE
  8
1
 62
2
  6
CONTINUOUS
 10
68.209717
 20
69.173587
 11
68.193452
 21
69.173587
  0
LINE
  8
1
 62
2
  6
CONTINUOUS
 10
72.209717
 20
69.373587
 11
68.709717
 21
69.373587
  0
LINE
  8
1
 62
2
  6
CONTINUOUS
 10
68.709717
 20
69.373587
 11
68.209717
 21
69.873587
  0
LINE
  8
1
 62
2
  6
CONTINUOUS
 10
68.709717
 20
83.173587
 11
68.209717
 21
82.673587
  0
LINE
  8
1
 62
2
  6
CONTINUOUS
 10
72.209717
 20
83.173587
 11
68.709717
 21
83.173587
  0
LINE
  8
1
 62
2
  6
CONTINUOUS
 10
72.209717
 20
69.373587
 11
87.709717
 21
70.023587
  0
LINE
  8
1
 62
2
  6
CONTINUOUS
 10
72.209717
 20
83.173587
 11
87.709717
 21
82.523587
  0
LINE
  8
1
 62
2
  6
CONTINUOUS
 10
87.709717
 20
70.023587
 11
89.979717
 21
70.023587
  0
LINE
  8
1
 62
2
  6
CONTINUOUS
 10
87.709717
 20
82.523587
 11
89.979717
 21
82.523587
  0
LINE
  8
1
 62
2
  6
CONTINUOUS
 10
100.779717
 20
83.473587
 11
101.479717
 21
82.773587
  0
LINE
  8
1
 62
2
  6
CONTINUOUS
 10
100.779717
 20
69.073587
 11
101.479717
 21
69.773587
  0
LINE
  8
1
 62
2
  6
CONTINUOUS
 10
101.479717
 20
82.773587
 11
101.479717
 21
69.773587
  0
LINE
  8
1
 62
2
  6
CONTINUOUS
 10
100.479717
 20
83.198965
 11
90.279717
 21
83.198965
  0
LINE
  8
1
 62
2
  6
CONTINUOUS
 10
100.479717
 20
82.229639
 11
100.571143
 21
82.244271
  0
LINE
  8
1
 62
2
  6
CONTINUOUS
 10
100.571143
 20
82.244271
 11
100.609967
 21
82.256433
  0
LINE
  8
1
 62
2
  6
CONTINUOUS
 10
100.609967
 20
82.256433
 11
100.667802
 21
82.284961
  0
LINE
  8
1
 62
2
  6
CONTINUOUS
 10
100.667802
 20
82.284961
 11
100.680961
 21
82.293950
  0
LINE
  8
1
 62
2
  6
CONTINUOUS
 10
100.680961
 20
82.293950
 11
100.751084
 21
82.375895
  0
LINE
  8
1
 62
2
  6
CONTINUOUS
 10
100.751084
 20
82.375895
 11
100.755782
 21
82.385749
  0
LINE
  8
1
 62
2
  6
CONTINUOUS
 10
100.755782
 20
82.385749
 11
100.776944
 21
82.463362
  0
LINE
  8
1
 62
2
  6
CONTINUOUS
 10
100.776944
 20
82.463362
 11
100.779198
 21
82.488783
  0
LINE
  8
1
 62
2
  6
CONTINUOUS
 10
100.779198
 20
82.488783
 11
100.779717
 21
82.508992
  0
LINE
  8
1
 62
2
  6
CONTINUOUS
 10
100.779717
 20
82.508992
 11
100.764376
 21
82.630842
  0
LINE
  8
1
 62
2
  6
CONTINUOUS
 10
100.764376
 20
82.630842
 11
100.755780
 21
82.664346
  0
LINE
  8
1
 62
2
  6
CONTINUOUS
 10
100.755780
 20
82.664346
 11
100.717700
 21
82.774447
  0
LINE
  8
1
 62
2
  6
CONTINUOUS
 10
100.717700
 20
82.774447
 11
100.707118
 21
82.799790
  0
LINE
  8
1
 62
2
  6
CONTINUOUS
 10
100.707118
 20
82.799790
 11
100.667802
 21
82.884217
  0
LINE
  8
1
 62
2
  6
CONTINUOUS
 10
100.667802
 20
82.884217
 11
100.609968
 21
82.991814
  0
LINE
  8
1
 62
2
  6
CONTINUOUS
 10
100.609968
 20
82.991814
 11
100.609278
 21
82.993017
  0
LINE
  8
1
 62
2
  6
CONTINUOUS
 10
100.609278
 20
82.993017
 11
100.479717
 21
83.198965
  0
LINE
  8
1
 62
2
  6
CONTINUOUS
 10
100.479717
 20
82.229639
 11
90.279717
 21
82.229639
  0
LINE
  8
1
 62
2
  6
CONTINUOUS
 10
89.979717
 20
82.508970
 11
89.980238
 21
82.488743
  0
LINE
  8
1
 62
2
  6
CONTINUOUS
 10
89.980238
 20
82.488743
 11
90.008360
 21
82.375874
  0
LINE
  8
1
 62
2
  6
CONTINUOUS
 10
90.008360
 20
82.375874
 11
90.024164
 21
82.349271
  0
LINE
  8
1
 62
2
  6
CONTINUOUS
 10
90.024164
 20
82.349271
 11
90.078459
 21
82.293960
  0
LINE
  8
1
 62
2
  6
CONTINUOUS
 10
90.078459
 20
82.293960
 11
90.112737
 21
82.272743
  0
LINE
  8
1
 62
2
  6
CONTINUOUS
 10
90.112737
 20
82.272743
 11
90.167723
 21
82.250158
  0
LINE
  8
1
 62
2
  6
CONTINUOUS
 10
90.167723
 20
82.250158
 11
90.188294
 21
82.244270
  0
LINE
  8
1
 62
2
  6
CONTINUOUS
 10
90.188294
 20
82.244270
 11
90.279717
 21
82.229639
  0
LINE
  8
1
 62
2
  6
CONTINUOUS
 10
90.279717
 20
83.198965
 11
90.223483
 21
83.113700
  0
LINE
  8
1
 62
2
  6
CONTINUOUS
 10
90.223483
 20
83.113700
 11
90.167722
 21
83.023177
  0
LINE
  8
1
 62
2
  6
CONTINUOUS
 10
90.167722
 20
83.023177
 11
90.167347
 21
83.022543
  0
LINE
  8
1
 62
2
  6
CONTINUOUS
 10
90.167347
 20
83.022543
 11
90.150165
 21
82.993033
  0
LINE
  8
1
 62
2
  6
CONTINUOUS
 10
90.150165
 20
82.993033
 11
90.112736
 21
82.925215
  0
LINE
  8
1
 62
2
  6
CONTINUOUS
 10
90.112736
 20
82.925215
 11
90.059236
 21
82.815641
  0
LINE
  8
1
 62
2
  6
CONTINUOUS
 10
90.059236
 20
82.815641
 11
90.052328
 21
82.799818
  0
LINE
  8
1
 62
2
  6
CONTINUOUS
 10
90.052328
 20
82.799818
 11
89.995065
 21
82.630871
  0
LINE
  8
1
 62
2
  6
CONTINUOUS
 10
89.995065
 20
82.630871
 11
89.979717
 21
82.508970
  0
LINE
  8
1
 62
2
  6
CONTINUOUS
 10
100.479717
 20
80.831596
 11
90.279717
 21
80.831596
  0
LINE
  8
1
 62
2
  6
CONTINUOUS
 10
100.479717
 20
79.152675
 11
100.524669
 21
79.197716
  0
LINE
  8
1
 62
2
  6
CONTINUOUS
 10
100.524669
 20
79.197716
 11
100.546736
 21
79.222151
  0
LINE
  8
1
 62
2
  6
CONTINUOUS
 10
100.546736
 20
79.222151
 11
100.609967
 21
79.303212
  0
LINE
  8
1
 62
2
  6
CONTINUOUS
 10
100.609967
 20
79.303212
 11
100.647437
 21
79.361752
  0
LINE
  8
1
 62
2
  6
CONTINUOUS
 10
100.647437
 20
79.361752
 11
100.667802
 21
79.398275
  0
LINE
  8
1
 62
2
  6
CONTINUOUS
 10
100.667802
 20
79.398275
 11
100.717702
 21
79.510211
  0
LINE
  8
1
 62
2
  6
CONTINUOUS
 10
100.717702
 20
79.510211
 11
100.731557
 21
79.550544
  0
LINE
  8
1
 62
2
  6
CONTINUOUS
 10
100.731557
 20
79.550544
 11
100.774337
 21
79.761160
  0
LINE
  8
1
 62
2
  6
CONTINUOUS
 10
100.774337
 20
79.761160
 11
100.779717
 21
79.873592
  0
LINE
  8
1
 62
2
  6
CONTINUOUS
 10
100.779717
 20
79.873592
 11
100.774337
 21
79.990182
  0
LINE
  8
1
 62
2
  6
CONTINUOUS
 10
100.774337
 20
79.990182
 11
100.731557
 21
80.234040
  0
LINE
  8
1
 62
2
  6
CONTINUOUS
 10
100.731557
 20
80.234040
 11
100.717700
 21
80.285187
  0
LINE
  8
1
 62
2
  6
CONTINUOUS
 10
100.717700
 20
80.285187
 11
100.667802
 21
80.436216
  0
LINE
  8
1
 62
2
  6
CONTINUOUS
 10
100.667802
 20
80.436216
 11
100.647437
 21
80.488773
  0
LINE
  8
1
 62
2
  6
CONTINUOUS
 10
100.647437
 20
80.488773
 11
100.609968
 21
80.576930
  0
LINE
  8
1
 62
2
  6
CONTINUOUS
 10
100.609968
 20
80.576930
 11
100.546736
 21
80.708314
  0
LINE
  8
1
 62
2
  6
CONTINUOUS
 10
100.546736
 20
80.708314
 11
100.524669
 21
80.750412
  0
LINE
  8
1
 62
2
  6
CONTINUOUS
 10
100.524669
 20
80.750412
 11
100.479717
 21
80.831596
  0
LINE
  8
1
 62
2
  6
CONTINUOUS
 10
100.479717
 20
79.152675
 11
90.279717
 21
79.152675
  0
LINE
  8
1
 62
2
  6
CONTINUOUS
 10
89.979717
 20
79.873587
 11
89.985107
 21
79.761059
  0
LINE
  8
1
 62
2
  6
CONTINUOUS
 10
89.985107
 20
79.761059
 11
90.024172
 21
79.562437
  0
LINE
  8
1
 62
2
  6
CONTINUOUS
 10
90.024172
 20
79.562437
 11
90.027877
 21
79.550544
  0
LINE
  8
1
 62
2
  6
CONTINUOUS
 10
90.027877
 20
79.550544
 11
90.112023
 21
79.361708
  0
LINE
  8
1
 62
2
  6
CONTINUOUS
 10
90.112023
 20
79.361708
 11
90.112737
 21
79.360494
  0
LINE
  8
1
 62
2
  6
CONTINUOUS
 10
90.112737
 20
79.360494
 11
90.167723
 21
79.277858
  0
LINE
  8
1
 62
2
  6
CONTINUOUS
 10
90.167723
 20
79.277858
 11
90.223483
 21
79.209997
  0
LINE
  8
1
 62
2
  6
CONTINUOUS
 10
90.223483
 20
79.209997
 11
90.234763
 21
79.197717
  0
LINE
  8
1
 62
2
  6
CONTINUOUS
 10
90.234763
 20
79.197717
 11
90.279717
 21
79.152675
  0
LINE
  8
1
 62
2
  6
CONTINUOUS
 10
90.279717
 20
80.831596
 11
90.234763
 21
80.750409
  0
LINE
  8
1
 62
2
  6
CONTINUOUS
 10
90.234763
 20
80.750409
 11
90.223483
 21
80.729093
  0
LINE
  8
1
 62
2
  6
CONTINUOUS
 10
90.223483
 20
80.729093
 11
90.167722
 21
80.616767
  0
LINE
  8
1
 62
2
  6
CONTINUOUS
 10
90.167722
 20
80.616767
 11
90.112736
 21
80.490611
  0
LINE
  8
1
 62
2
  6
CONTINUOUS
 10
90.112736
 20
80.490611
 11
90.112021
 21
80.488834
  0
LINE
  8
1
 62
2
  6
CONTINUOUS
 10
90.112021
 20
80.488834
 11
90.027877
 21
80.234040
  0
LINE
  8
1
 62
2
  6
CONTINUOUS
 10
90.027877
 20
80.234040
 11
90.024172
 21
80.219261
  0
LINE
  8
1
 62
2
  6
CONTINUOUS
 10
90.024172
 20
80.219261
 11
89.985107
 21
79.990290
  0
LINE
  8
1
 62
2
  6
CONTINUOUS
 10
89.985107
 20
79.990290
 11
89.979717
 21
79.873587
  0
LINE
  8
1
 62
2
  6
CONTINUOUS
 10
100.479717
 20
73.394499
 11
90.279717
 21
73.394499
  0
LINE
  8
1
 62
2
  6
CONTINUOUS
 10
100.479717
 20
71.715578
 11
100.524669
 21
71.796762
  0
LINE
  8
1
 62
2
  6
CONTINUOUS
 10
100.524669
 20
71.796762
 11
100.546736
 21
71.838861
  0
LINE
  8
1
 62
2
  6
CONTINUOUS
 10
100.546736
 20
71.838861
 11
100.609967
 21
71.970243
  0
LINE
  8
1
 62
2
  6
CONTINUOUS
 10
100.609967
 20
71.970243
 11
100.647437
 21
72.058401
  0
LINE
  8
1
 62
2
  6
CONTINUOUS
 10
100.647437
 20
72.058401
 11
100.667802
 21
72.110958
  0
LINE
  8
1
 62
2
  6
CONTINUOUS
 10
100.667802
 20
72.110958
 11
100.717702
 21
72.261993
  0
LINE
  8
1
 62
2
  6
CONTINUOUS
 10
100.717702
 20
72.261993
 11
100.731557
 21
72.313134
  0
LINE
  8
1
 62
2
  6
CONTINUOUS
 10
100.731557
 20
72.313134
 11
100.774337
 21
72.556993
  0
LINE
  8
1
 62
2
  6
CONTINUOUS
 10
100.774337
 20
72.556993
 11
100.779717
 21
72.673592
  0
LINE
  8
1
 62
2
  6
CONTINUOUS
 10
100.779717
 20
72.673592
 11
100.774337
 21
72.786015
  0
LINE
  8
1
 62
2
  6
CONTINUOUS
 10
100.774337
 20
72.786015
 11
100.731557
 21
72.996630
  0
LINE
  8
1
 62
2
  6
CONTINUOUS
 10
100.731557
 20
72.996630
 11
100.717700
 21
73.036967
  0
LINE
  8
1
 62
2
  6
CONTINUOUS
 10
100.717700
 20
73.036967
 11
100.667802
 21
73.148899
  0
LINE
  8
1
 62
2
  6
CONTINUOUS
 10
100.667802
 20
73.148899
 11
100.647437
 21
73.185422
  0
LINE
  8
1
 62
2
  6
CONTINUOUS
 10
100.647437
 20
73.185422
 11
100.609968
 21
73.243962
  0
LINE
  8
1
 62
2
  6
CONTINUOUS
 10
100.609968
 20
73.243962
 11
100.546736
 21
73.325023
  0
LINE
  8
1
 62
2
  6
CONTINUOUS
 10
100.546736
 20
73.325023
 11
100.524669
 21
73.349459
  0
LINE
  8
1
 62
2
  6
CONTINUOUS
 10
100.524669
 20
73.349459
 11
100.479717
 21
73.394499
  0
LINE
  8
1
 62
2
  6
CONTINUOUS
 10
100.479717
 20
71.715578
 11
90.279717
 21
71.715578
  0
LINE
  8
1
 62
2
  6
CONTINUOUS
 10
89.979717
 20
72.673587
 11
89.985107
 21
72.556884
  0
LINE
  8
1
 62
2
  6
CONTINUOUS
 10
89.985107
 20
72.556884
 11
90.024172
 21
72.327914
  0
LINE
  8
1
 62
2
  6
CONTINUOUS
 10
90.024172
 20
72.327914
 11
90.027877
 21
72.313134
  0
LINE
  8
1
 62
2
  6
CONTINUOUS
 10
90.027877
 20
72.313134
 11
90.112023
 21
72.058337
  0
LINE
  8
1
 62
2
  6
CONTINUOUS
 10
90.112023
 20
72.058337
 11
90.112737
 21
72.056560
  0
LINE
  8
1
 62
2
  6
CONTINUOUS
 10
90.112737
 20
72.056560
 11
90.167723
 21
71.930405
  0
LINE
  8
1
 62
2
  6
CONTINUOUS
 10
90.167723
 20
71.930405
 11
90.223483
 21
71.818080
  0
LINE
  8
1
 62
2
  6
CONTINUOUS
 10
90.223483
 20
71.818080
 11
90.234763
 21
71.796765
  0
LINE
  8
1
 62
2
  6
CONTINUOUS
 10
90.234763
 20
71.796765
 11
90.279717
 21
71.715578
  0
LINE
  8
1
 62
2
  6
CONTINUOUS
 10
90.279717
 20
73.394499
 11
90.234763
 21
73.349457
  0
LINE
  8
1
 62
2
  6
CONTINUOUS
 10
90.234763
 20
73.349457
 11
90.223483
 21
73.337177
  0
LINE
  8
1
 62
2
  6
CONTINUOUS
 10
90.223483
 20
73.337177
 11
90.167722
 21
73.269314
  0
LINE
  8
1
 62
2
  6
CONTINUOUS
 10
90.167722
 20
73.269314
 11
90.112736
 21
73.186677
  0
LINE
  8
1
 62
2
  6
CONTINUOUS
 10
90.112736
 20
73.186677
 11
90.112021
 21
73.185464
  0
LINE
  8
1
 62
2
  6
CONTINUOUS
 10
90.112021
 20
73.185464
 11
90.027877
 21
72.996630
  0
LINE
  8
1
 62
2
  6
CONTINUOUS
 10
90.027877
 20
72.996630
 11
90.024172
 21
72.984737
  0
LINE
  8
1
 62
2
  6
CONTINUOUS
 10
90.024172
 20
72.984737
 11
89.985107
 21
72.786116
  0
LINE
  8
1
 62
2
  6
CONTINUOUS
 10
89.985107
 20
72.786116
 11
89.979717
 21
72.673587
  0
LINE
  8
1
 62
2
  6
CONTINUOUS
 10
100.479717
 20
69.348210
 11
90.279717
 21
69.348210
  0
LINE
  8
1
 62
2
  6
CONTINUOUS
 10
89.979717
 20
70.038204
 11
89.995065
 21
69.916303
  0
LINE
  8
1
 62
2
  6
CONTINUOUS
 10
89.995065
 20
69.916303
 11
90.052327
 21
69.747356
  0
LINE
  8
1
 62
2
  6
CONTINUOUS
 10
90.052327
 20
69.747356
 11
90.059237
 21
69.731531
  0
LINE
  8
1
 62
2
  6
CONTINUOUS
 10
90.059237
 20
69.731531
 11
90.112737
 21
69.621956
  0
LINE
  8
1
 62
2
  6
CONTINUOUS
 10
90.112737
 20
69.621956
 11
90.150165
 21
69.554141
  0
LINE
  8
1
 62
2
  6
CONTINUOUS
 10
90.150165
 20
69.554141
 11
90.167348
 21
69.524629
  0
LINE
  8
1
 62
2
  6
CONTINUOUS
 10
90.167348
 20
69.524629
 11
90.167723
 21
69.523996
  0
LINE
  8
1
 62
2
  6
CONTINUOUS
 10
90.167723
 20
69.523996
 11
90.223483
 21
69.433474
  0
LINE
  8
1
 62
2
  6
CONTINUOUS
 10
90.223483
 20
69.433474
 11
90.279717
 21
69.348210
  0
LINE
  8
1
 62
2
  6
CONTINUOUS
 10
90.279717
 20
70.317535
 11
90.188294
 21
70.302904
  0
LINE
  8
1
 62
2
  6
CONTINUOUS
 10
90.188294
 20
70.302904
 11
90.167722
 21
70.297016
  0
LINE
  8
1
 62
2
  6
CONTINUOUS
 10
90.167722
 20
70.297016
 11
90.112736
 21
70.274431
  0
LINE
  8
1
 62
2
  6
CONTINUOUS
 10
90.112736
 20
70.274431
 11
90.078459
 21
70.253215
  0
LINE
  8
1
 62
2
  6
CONTINUOUS
 10
90.078459
 20
70.253215
 11
90.024164
 21
70.197903
  0
LINE
  8
1
 62
2
  6
CONTINUOUS
 10
90.024164
 20
70.197903
 11
90.008364
 21
70.171307
  0
LINE
  8
1
 62
2
  6
CONTINUOUS
 10
90.008364
 20
70.171307
 11
89.980238
 21
70.058430
  0
LINE
  8
1
 62
2
  6
CONTINUOUS
 10
89.980238
 20
70.058430
 11
89.979717
 21
70.038204
  0
LINE
  8
1
 62
2
  6
CONTINUOUS
 10
100.479717
 20
70.317535
 11
90.279717
 21
70.317535
  0
LINE
  8
1
 62
2
  6
CONTINUOUS
 10
100.479717
 20
69.348210
 11
100.609277
 21
69.554156
  0
LINE
  8
1
 62
2
  6
CONTINUOUS
 10
100.609277
 20
69.554156
 11
100.609967
 21
69.555359
  0
LINE
  8
1
 62
2
  6
CONTINUOUS
 10
100.609967
 20
69.555359
 11
100.667802
 21
69.662957
  0
LINE
  8
1
 62
2
  6
CONTINUOUS
 10
100.667802
 20
69.662957
 11
100.707119
 21
69.747384
  0
LINE
  8
1
 62
2
  6
CONTINUOUS
 10
100.707119
 20
69.747384
 11
100.717702
 21
69.772731
  0
LINE
  8
1
 62
2
  6
CONTINUOUS
 10
100.717702
 20
69.772731
 11
100.755782
 21
69.882835
  0
LINE
  8
1
 62
2
  6
CONTINUOUS
 10
100.755782
 20
69.882835
 11
100.764376
 21
69.916332
  0
LINE
  8
1
 62
2
  6
CONTINUOUS
 10
100.764376
 20
69.916332
 11
100.779717
 21
70.038187
  0
LINE
  8
1
 62
2
  6
CONTINUOUS
 10
100.779717
 20
70.038187
 11
100.779198
 21
70.058395
  0
LINE
  8
1
 62
2
  6
CONTINUOUS
 10
100.779198
 20
70.058395
 11
100.776944
 21
70.083817
  0
LINE
  8
1
 62
2
  6
CONTINUOUS
 10
100.776944
 20
70.083817
 11
100.755780
 21
70.161429
  0
LINE
  8
1
 62
2
  6
CONTINUOUS
 10
100.755780
 20
70.161429
 11
100.751084
 21
70.171279
  0
LINE
  8
1
 62
2
  6
CONTINUOUS
 10
100.751084
 20
70.171279
 11
100.680962
 21
70.253224
  0
LINE
  8
1
 62
2
  6
CONTINUOUS
 10
100.680962
 20
70.253224
 11
100.667802
 21
70.262213
  0
LINE
  8
1
 62
2
  6
CONTINUOUS
 10
100.667802
 20
70.262213
 11
100.609968
 21
70.290741
  0
LINE
  8
1
 62
2
  6
CONTINUOUS
 10
100.609968
 20
70.290741
 11
100.571143
 21
70.302904
  0
LINE
  8
1
 62
2
  6
CONTINUOUS
 10
100.571143
 20
70.302904
 11
100.479717
 21
70.317535
  0
LINE
  8
1
 62
2
  6
CONTINUOUS
 10
89.979717
 20
69.073587
 11
89.979717
 21
70.038204
  0
LINE
  8
1
 62
2
  6
CONTINUOUS
 10
90.279717
 20
68.836490
 11
90.279717
 21
69.348210
  0
LINE
  8
1
 62
2
  6
CONTINUOUS
 10
90.279717
 20
68.836490
 11
90.168756
 21
68.925313
  0
LINE
  8
1
 62
2
  6
CONTINUOUS
 10
90.168756
 20
68.925313
 11
90.167722
 21
68.926135
  0
LINE
  8
1
 62
2
  6
CONTINUOUS
 10
90.167722
 20
68.926135
 11
90.112736
 21
68.969654
  0
LINE
  8
1
 62
2
  6
CONTINUOUS
 10
90.112736
 20
68.969654
 11
90.064906
 21
69.007244
  0
LINE
  8
1
 62
2
  6
CONTINUOUS
 10
90.064906
 20
69.007244
 11
90.059236
 21
69.011684
  0
LINE
  8
1
 62
2
  6
CONTINUOUS
 10
90.059236
 20
69.011684
 11
90.009583
 21
69.050417
  0
LINE
  8
1
 62
2
  6
CONTINUOUS
 10
90.009583
 20
69.050417
 11
90.001205
 21
69.056927
  0
LINE
  8
1
 62
2
  6
CONTINUOUS
 10
90.001205
 20
69.056927
 11
89.979717
 21
69.073587
  0
LINE
  8
1
 62
2
  6
CONTINUOUS
 10
100.479717
 20
68.836490
 11
100.479717
 21
69.348210
  0
LINE
  8
1
 62
2
  6
CONTINUOUS
 10
100.479717
 20
68.836490
 11
90.279717
 21
68.836490
  0
LINE
  8
1
 62
2
  6
CONTINUOUS
 10
89.979717
 20
79.873587
 11
89.979717
 21
82.508970
  0
LINE
  8
1
 62
2
  6
CONTINUOUS
 10
89.979717
 20
76.273587
 11
89.979717
 21
79.873587
  0
LINE
  8
1
 62
2
  6
CONTINUOUS
 10
89.979717
 20
72.673587
 11
89.979717
 21
76.273587
  0
LINE
  8
1
 62
2
  6
CONTINUOUS
 10
89.979717
 20
70.038204
 11
89.979717
 21
72.673587
  0
LINE
  8
1
 62
2
  6
CONTINUOUS
 10
89.979717
 20
82.508970
 11
89.979717
 21
83.473587
  0
LINE
  8
1
 62
2
  6
CONTINUOUS
 10
90.279717
 20
83.198965
 11
90.279717
 21
83.710684
  0
LINE
  8
1
 62
2
  6
CONTINUOUS
 10
89.979717
 20
83.473587
 11
90.001205
 21
83.490248
  0
LINE
  8
1
 62
2
  6
CONTINUOUS
 10
90.001205
 20
83.490248
 11
90.009583
 21
83.496757
  0
LINE
  8
1
 62
2
  6
CONTINUOUS
 10
90.009583
 20
83.496757
 11
90.059236
 21
83.535490
  0
LINE
  8
1
 62
2
  6
CONTINUOUS
 10
90.059236
 20
83.535490
 11
90.064906
 21
83.539930
  0
LINE
  8
1
 62
2
  6
CONTINUOUS
 10
90.064906
 20
83.539930
 11
90.112736
 21
83.577521
  0
LINE
  8
1
 62
2
  6
CONTINUOUS
 10
90.112736
 20
83.577521
 11
90.167722
 21
83.621039
  0
LINE
  8
1
 62
2
  6
CONTINUOUS
 10
90.167722
 20
83.621039
 11
90.168756
 21
83.621861
  0
LINE
  8
1
 62
2
  6
CONTINUOUS
 10
90.168756
 20
83.621861
 11
90.279717
 21
83.710684
  0
LINE
  8
1
 62
2
  6
CONTINUOUS
 10
100.479717
 20
83.198965
 11
100.479717
 21
83.710684
  0
LINE
  8
1
 62
2
  6
CONTINUOUS
 10
100.479717
 20
83.710684
 11
90.279717
 21
83.710684
  0
LINE
  8
1
 62
2
  6
CONTINUOUS
 10
100.479717
 20
83.710684
 11
100.590664
 21
83.621872
  0
LINE
  8
1
 62
2
  6
CONTINUOUS
 10
100.590664
 20
83.621872
 11
100.620037
 21
83.598581
  0
LINE
  8
1
 62
2
  6
CONTINUOUS
 10
100.620037
 20
83.598581
 11
100.681147
 21
83.550422
  0
LINE
  8
1
 62
2
  6
CONTINUOUS
 10
100.681147
 20
83.550422
 11
100.694516
 21
83.539939
  0
LINE
  8
1
 62
2
  6
CONTINUOUS
 10
100.694516
 20
83.539939
 11
100.758239
 21
83.490240
  0
LINE
  8
1
 62
2
  6
CONTINUOUS
 10
100.758239
 20
83.490240
 11
100.779717
 21
83.473587
  0
LINE
  8
1
 62
2
  6
CONTINUOUS
 10
100.779717
 20
69.073587
 11
100.758239
 21
69.056934
  0
LINE
  8
1
 62
2
  6
CONTINUOUS
 10
100.758239
 20
69.056934
 11
100.694516
 21
69.007235
  0
LINE
  8
1
 62
2
  6
CONTINUOUS
 10
100.694516
 20
69.007235
 11
100.681144
 21
68.996750
  0
LINE
  8
1
 62
2
  6
CONTINUOUS
 10
100.681144
 20
68.996750
 11
100.620033
 21
68.948591
  0
LINE
  8
1
 62
2
  6
CONTINUOUS
 10
100.620033
 20
68.948591
 11
100.590664
 21
68.925302
  0
LINE
  8
1
 62
2
  6
CONTINUOUS
 10
100.590664
 20
68.925302
 11
100.479717
 21
68.836490
  0
LINE
  8
1
 62
2
  6
CONTINUOUS
 10
100.479717
 20
68.836490
 11
90.279717
 21
68.836490
  0
LINE
  8
1
 62
2
  6
CONTINUOUS
 10
90.279717
 20
70.317535
 11
90.279717
 21
71.715578
  0
LINE
  8
1
 62
2
  6
CONTINUOUS
 10
100.479717
 20
70.317535
 11
100.479717
 21
71.715578
  0
LINE
  8
1
 62
2
  6
CONTINUOUS
 10
100.479717
 20
73.581005
 11
97.479717
 21
73.581005
  0
LINE
  8
1
 62
2
  6
CONTINUOUS
 10
97.479717
 20
78.966170
 11
97.479717
 21
73.581005
  0
LINE
  8
1
 62
2
  6
CONTINUOUS
 10
100.479717
 20
78.966170
 11
97.479717
 21
78.966170
  0
LINE
  8
1
 62
2
  6
CONTINUOUS
 10
100.479717
 20
73.581005
 11
100.732781
 21
74.397936
  0
LINE
  8
1
 62
2
  6
CONTINUOUS
 10
100.732781
 20
74.397936
 11
100.744262
 21
74.442794
  0
LINE
  8
1
 62
2
  6
CONTINUOUS
 10
100.744262
 20
74.442794
 11
100.918412
 21
75.345136
  0
LINE
  8
1
 62
2
  6
CONTINUOUS
 10
100.918412
 20
75.345136
 11
100.919313
 21
75.352016
  0
LINE
  8
1
 62
2
  6
CONTINUOUS
 10
100.919313
 20
75.352016
 11
100.979717
 21
76.273595
  0
LINE
  8
1
 62
2
  6
CONTINUOUS
 10
100.979717
 20
76.273595
 11
100.919314
 21
77.195159
  0
LINE
  8
1
 62
2
  6
CONTINUOUS
 10
100.919314
 20
77.195159
 11
100.918412
 21
77.202040
  0
LINE
  8
1
 62
2
  6
CONTINUOUS
 10
100.918412
 20
77.202040
 11
100.744262
 21
78.104380
  0
LINE
  8
1
 62
2
  6
CONTINUOUS
 10
100.744262
 20
78.104380
 11
100.732781
 21
78.149239
  0
LINE
  8
1
 62
2
  6
CONTINUOUS
 10
100.732781
 20
78.149239
 11
100.479717
 21
78.966170
  0
LINE
  8
1
 62
2
  6
CONTINUOUS
 10
90.279717
 20
73.394499
 11
90.279717
 21
75.304262
  0
LINE
  8
1
 62
2
  6
CONTINUOUS
 10
97.042620
 20
75.304262
 11
90.279717
 21
75.304262
  0
LINE
  8
1
 62
2
  6
CONTINUOUS
 10
97.042620
 20
75.304262
 11
97.066268
 21
75.137456
  0
LINE
  8
1
 62
2
  6
CONTINUOUS
 10
97.066268
 20
75.137456
 11
97.235275
 21
74.332438
  0
LINE
  8
1
 62
2
  6
CONTINUOUS
 10
97.235275
 20
74.332438
 11
97.479717
 21
73.581005
  0
LINE
  8
1
 62
2
  6
CONTINUOUS
 10
100.479717
 20
73.394499
 11
100.479717
 21
73.581005
  0
LINE
  8
1
 62
2
  6
CONTINUOUS
 10
97.042620
 20
77.242912
 11
90.279717
 21
77.242912
  0
LINE
  8
1
 62
2
  6
CONTINUOUS
 10
97.042620
 20
75.304262
 11
97.078955
 21
75.377141
  0
LINE
  8
1
 62
2
  6
CONTINUOUS
 10
97.078955
 20
75.377141
 11
97.176486
 21
75.622921
  0
LINE
  8
1
 62
2
  6
CONTINUOUS
 10
97.176486
 20
75.622921
 11
97.190104
 21
75.666432
  0
LINE
  8
1
 62
2
  6
CONTINUOUS
 10
97.190104
 20
75.666432
 11
97.239153
 21
75.863023
  0
LINE
  8
1
 62
2
  6
CONTINUOUS
 10
97.239153
 20
75.863023
 11
97.242272
 21
75.879014
  0
LINE
  8
1
 62
2
  6
CONTINUOUS
 10
97.242272
 20
75.879014
 11
97.275483
 21
76.141364
  0
LINE
  8
1
 62
2
  6
CONTINUOUS
 10
97.275483
 20
76.141364
 11
97.275483
 21
76.405811
  0
LINE
  8
1
 62
2
  6
CONTINUOUS
 10
97.275483
 20
76.405811
 11
97.242272
 21
76.668161
  0
LINE
  8
1
 62
2
  6
CONTINUOUS
 10
97.242272
 20
76.668161
 11
97.239153
 21
76.684151
  0
LINE
  8
1
 62
2
  6
CONTINUOUS
 10
97.239153
 20
76.684151
 11
97.190104
 21
76.880743
  0
LINE
  8
1
 62
2
  6
CONTINUOUS
 10
97.190104
 20
76.880743
 11
97.176486
 21
76.924253
  0
LINE
  8
1
 62
2
  6
CONTINUOUS
 10
97.176486
 20
76.924253
 11
97.078955
 21
77.170033
  0
LINE
  8
1
 62
2
  6
CONTINUOUS
 10
97.078955
 20
77.170033
 11
97.042620
 21
77.242912
  0
LINE
  8
1
 62
2
  6
CONTINUOUS
 10
89.979717
 20
76.273587
 11
89.985107
 21
76.141240
  0
LINE
  8
1
 62
2
  6
CONTINUOUS
 10
89.985107
 20
76.141240
 11
90.024172
 21
75.894369
  0
LINE
  8
1
 62
2
  6
CONTINUOUS
 10
90.024172
 20
75.894369
 11
90.027877
 21
75.878971
  0
LINE
  8
1
 62
2
  6
CONTINUOUS
 10
90.027877
 20
75.878971
 11
90.112033
 21
75.622813
  0
LINE
  8
1
 62
2
  6
CONTINUOUS
 10
90.112033
 20
75.622813
 11
90.112748
 21
75.621086
  0
LINE
  8
1
 62
2
  6
CONTINUOUS
 10
90.112748
 20
75.621086
 11
90.167730
 21
75.500551
  0
LINE
  8
1
 62
2
  6
CONTINUOUS
 10
90.167730
 20
75.500551
 11
90.223487
 21
75.396529
  0
LINE
  8
1
 62
2
  6
CONTINUOUS
 10
90.223487
 20
75.396529
 11
90.234762
 21
75.377141
  0
LINE
  8
1
 62
2
  6
CONTINUOUS
 10
90.234762
 20
75.377141
 11
90.279717
 21
75.304262
  0
LINE
  8
1
 62
2
  6
CONTINUOUS
 10
90.279717
 20
77.242912
 11
90.234762
 21
77.170033
  0
LINE
  8
1
 62
2
  6
CONTINUOUS
 10
90.234762
 20
77.170033
 11
90.223487
 21
77.150645
  0
LINE
  8
1
 62
2
  6
CONTINUOUS
 10
90.223487
 20
77.150645
 11
90.167729
 21
77.046621
  0
LINE
  8
1
 62
2
  6
CONTINUOUS
 10
90.167729
 20
77.046621
 11
90.112747
 21
76.926084
  0
LINE
  8
1
 62
2
  6
CONTINUOUS
 10
90.112747
 20
76.926084
 11
90.112032
 21
76.924358
  0
LINE
  8
1
 62
2
  6
CONTINUOUS
 10
90.112032
 20
76.924358
 11
90.027877
 21
76.668203
  0
LINE
  8
1
 62
2
  6
CONTINUOUS
 10
90.027877
 20
76.668203
 11
90.024172
 21
76.652805
  0
LINE
  8
1
 62
2
  6
CONTINUOUS
 10
90.024172
 20
76.652805
 11
89.985107
 21
76.405934
  0
LINE
  8
1
 62
2
  6
CONTINUOUS
 10
89.985107
 20
76.405934
 11
89.979717
 21
76.273587
  0
LINE
  8
1
 62
2
  6
CONTINUOUS
 10
97.479717
 20
78.966170
 11
97.235275
 21
78.214736
  0
LINE
  8
1
 62
2
  6
CONTINUOUS
 10
97.235275
 20
78.214736
 11
97.066268
 21
77.409719
  0
LINE
  8
1
 62
2
  6
CONTINUOUS
 10
97.066268
 20
77.409719
 11
97.042620
 21
77.242912
  0
LINE
  8
1
 62
2
  6
CONTINUOUS
 10
100.479717
 20
78.966170
 11
100.479717
 21
79.152675
  0
LINE
  8
1
 62
2
  6
CONTINUOUS
 10
90.279717
 20
77.242912
 11
90.279717
 21
79.152675
  0
LINE
  8
1
 62
2
  6
CONTINUOUS
 10
90.279717
 20
80.831596
 11
90.279717
 21
82.229639
  0
LINE
  8
1
 62
2
  6
CONTINUOUS
 10
100.479717
 20
80.831596
 11
100.479717
 21
82.229639
  0
LINE
  8
1
 62
2
  6
CONTINUOUS
 10
87.709717
 20
70.023587
 11
87.709717
 21
82.523587
  0
LINE
  8
1
 62
2
  6
CONTINUOUS
 10
72.209717
 20
73.958420
 11
72.209717
 21
69.373587
  0
LINE
  8
1
 62
2
  6
CONTINUOUS
 10
72.209717
 20
73.958420
 11
72.435138
 21
73.986747
  0
LINE
  8
1
 62
2
  6
CONTINUOUS
 10
72.435138
 20
73.986747
 11
72.660519
 21
74.015386
  0
LINE
  8
1
 62
2
  6
CONTINUOUS
 10
72.660519
 20
74.015386
 11
72.885859
 21
74.044346
  0
LINE
  8
1
 62
2
  6
CONTINUOUS
 10
72.885859
 20
74.044346
 11
73.111156
 21
74.073642
  0
LINE
  8
1
 62
2
  6
CONTINUOUS
 10
73.111156
 20
74.073642
 11
73.336407
 21
74.103286
  0
LINE
  8
1
 62
2
  6
CONTINUOUS
 10
73.336407
 20
74.103286
 11
73.561611
 21
74.133293
  0
LINE
  8
1
 62
2
  6
CONTINUOUS
 10
73.561611
 20
74.133293
 11
73.786764
 21
74.163677
  0
LINE
  8
1
 62
2
  6
CONTINUOUS
 10
73.786764
 20
74.163677
 11
74.011863
 21
74.194455
  0
LINE
  8
1
 62
2
  6
CONTINUOUS
 10
74.011863
 20
74.194455
 11
74.236906
 21
74.225644
  0
LINE
  8
1
 62
2
  6
CONTINUOUS
 10
74.236906
 20
74.225644
 11
74.461889
 21
74.257262
  0
LINE
  8
1
 62
2
  6
CONTINUOUS
 10
74.461889
 20
74.257262
 11
74.686809
 21
74.289331
  0
LINE
  8
1
 62
2
  6
CONTINUOUS
 10
74.686809
 20
74.289331
 11
74.911661
 21
74.321871
  0
LINE
  8
1
 62
2
  6
CONTINUOUS
 10
74.911661
 20
74.321871
 11
75.136440
 21
74.354905
  0
LINE
  8
1
 62
2
  6
CONTINUOUS
 10
75.136440
 20
74.354905
 11
75.361143
 21
74.388460
  0
LINE
  8
1
 62
2
  6
CONTINUOUS
 10
75.361143
 20
74.388460
 11
75.585764
 21
74.422562
  0
LINE
  8
1
 62
2
  6
CONTINUOUS
 10
75.585764
 20
74.422562
 11
75.810296
 21
74.457242
  0
LINE
  8
1
 62
2
  6
CONTINUOUS
 10
75.810296
 20
74.457242
 11
76.034733
 21
74.492532
  0
LINE
  8
1
 62
2
  6
CONTINUOUS
 10
76.034733
 20
74.492532
 11
76.259068
 21
74.528469
  0
LINE
  8
1
 62
2
  6
CONTINUOUS
 10
76.259068
 20
74.528469
 11
76.280574
 21
74.531950
  0
LINE
  8
1
 62
2
  6
CONTINUOUS
 10
76.280574
 20
74.531950
 11
76.483292
 21
74.565091
  0
LINE
  8
1
 62
2
  6
CONTINUOUS
 10
76.483292
 20
74.565091
 11
76.707396
 21
74.602442
  0
LINE
  8
1
 62
2
  6
CONTINUOUS
 10
76.707396
 20
74.602442
 11
76.931368
 21
74.640571
  0
LINE
  8
1
 62
2
  6
CONTINUOUS
 10
76.931368
 20
74.640571
 11
77.155199
 21
74.679531
  0
LINE
  8
1
 62
2
  6
CONTINUOUS
 10
77.155199
 20
74.679531
 11
77.378872
 21
74.719383
  0
LINE
  8
1
 62
2
  6
CONTINUOUS
 10
77.378872
 20
74.719383
 11
77.602372
 21
74.760194
  0
LINE
  8
1
 62
2
  6
CONTINUOUS
 10
77.602372
 20
74.760194
 11
77.825681
 21
74.802040
  0
LINE
  8
1
 62
2
  6
CONTINUOUS
 10
77.825681
 20
74.802040
 11
78.048777
 21
74.845008
  0
LINE
  8
1
 62
2
  6
CONTINUOUS
 10
78.048777
 20
74.845008
 11
78.271635
 21
74.889198
  0
LINE
  8
1
 62
2
  6
CONTINUOUS
 10
78.271635
 20
74.889198
 11
78.494223
 21
74.934725
  0
LINE
  8
1
 62
2
  6
CONTINUOUS
 10
78.494223
 20
74.934725
 11
78.716506
 21
74.981723
  0
LINE
  8
1
 62
2
  6
CONTINUOUS
 10
78.716506
 20
74.981723
 11
78.938439
 21
75.030348
  0
LINE
  8
1
 62
2
  6
CONTINUOUS
 10
78.938439
 20
75.030348
 11
79.159967
 21
75.080787
  0
LINE
  8
1
 62
2
  6
CONTINUOUS
 10
79.159967
 20
75.080787
 11
79.381022
 21
75.133264
  0
LINE
  8
1
 62
2
  6
CONTINUOUS
 10
79.381022
 20
75.133264
 11
79.601515
 21
75.188054
  0
LINE
  8
1
 62
2
  6
CONTINUOUS
 10
79.601515
 20
75.188054
 11
79.821333
 21
75.245496
  0
LINE
  8
1
 62
2
  6
CONTINUOUS
 10
79.821333
 20
75.245496
 11
80.040323
 21
75.306020
  0
LINE
  8
1
 62
2
  6
CONTINUOUS
 10
80.040323
 20
75.306020
 11
80.258275
 21
75.370182
  0
LINE
  8
1
 62
2
  6
CONTINUOUS
 10
80.258275
 20
75.370182
 11
80.410669
 21
75.417839
  0
LINE
  8
1
 62
2
  6
CONTINUOUS
 10
80.410669
 20
75.417839
 11
80.474890
 21
75.438722
  0
LINE
  8
1
 62
2
  6
CONTINUOUS
 10
80.474890
 20
75.438722
 11
80.689720
 21
75.512666
  0
LINE
  8
1
 62
2
  6
CONTINUOUS
 10
80.689720
 20
75.512666
 11
80.902054
 21
75.593489
  0
LINE
  8
1
 62
2
  6
CONTINUOUS
 10
80.902054
 20
75.593489
 11
81.110673
 21
75.683453
  0
LINE
  8
1
 62
2
  6
CONTINUOUS
 10
81.110673
 20
75.683453
 11
81.313226
 21
75.786296
  0
LINE
  8
1
 62
2
  6
CONTINUOUS
 10
81.313226
 20
75.786296
 11
81.504374
 21
75.908872
  0
LINE
  8
1
 62
2
  6
CONTINUOUS
 10
81.504374
 20
75.908872
 11
81.668461
 21
76.065092
  0
LINE
  8
1
 62
2
  6
CONTINUOUS
 10
81.668461
 20
76.065092
 11
81.748178
 21
76.273585
  0
LINE
  8
1
 62
2
  6
CONTINUOUS
 10
81.748178
 20
76.273585
 11
81.668461
 21
76.482081
  0
LINE
  8
1
 62
2
  6
CONTINUOUS
 10
81.668461
 20
76.482081
 11
81.504375
 21
76.638303
  0
LINE
  8
1
 62
2
  6
CONTINUOUS
 10
81.504375
 20
76.638303
 11
81.313226
 21
76.760878
  0
LINE
  8
1
 62
2
  6
CONTINUOUS
 10
81.313226
 20
76.760878
 11
81.110673
 21
76.863722
  0
LINE
  8
1
 62
2
  6
CONTINUOUS
 10
81.110673
 20
76.863722
 11
80.902054
 21
76.953685
  0
LINE
  8
1
 62
2
  6
CONTINUOUS
 10
80.902054
 20
76.953685
 11
80.689719
 21
77.034508
  0
LINE
  8
1
 62
2
  6
CONTINUOUS
 10
80.689719
 20
77.034508
 11
80.474889
 21
77.108452
  0
LINE
  8
1
 62
2
  6
CONTINUOUS
 10
80.474889
 20
77.108452
 11
80.410669
 21
77.129335
  0
LINE
  8
1
 62
2
  6
CONTINUOUS
 10
80.410669
 20
77.129335
 11
80.258275
 21
77.176993
  0
LINE
  8
1
 62
2
  6
CONTINUOUS
 10
80.258275
 20
77.176993
 11
80.040323
 21
77.241154
  0
LINE
  8
1
 62
2
  6
CONTINUOUS
 10
80.040323
 20
77.241154
 11
79.821333
 21
77.301678
  0
LINE
  8
1
 62
2
  6
CONTINUOUS
 10
79.821333
 20
77.301678
 11
79.601515
 21
77.359120
  0
LINE
  8
1
 62
2
  6
CONTINUOUS
 10
79.601515
 20
77.359120
 11
79.381022
 21
77.413910
  0
LINE
  8
1
 62
2
  6
CONTINUOUS
 10
79.381022
 20
77.413910
 11
79.159967
 21
77.466388
  0
LINE
  8
1
 62
2
  6
CONTINUOUS
 10
79.159967
 20
77.466388
 11
78.938439
 21
77.516827
  0
LINE
  8
1
 62
2
  6
CONTINUOUS
 10
78.938439
 20
77.516827
 11
78.716506
 21
77.565452
  0
LINE
  8
1
 62
2
  6
CONTINUOUS
 10
78.716506
 20
77.565452
 11
78.494223
 21
77.612449
  0
LINE
  8
1
 62
2
  6
CONTINUOUS
 10
78.494223
 20
77.612449
 11
78.271634
 21
77.657976
  0
LINE
  8
1
 62
2
  6
CONTINUOUS
 10
78.271634
 20
77.657976
 11
78.048777
 21
77.702166
  0
LINE
  8
1
 62
2
  6
CONTINUOUS
 10
78.048777
 20
77.702166
 11
77.825681
 21
77.745134
  0
LINE
  8
1
 62
2
  6
CONTINUOUS
 10
77.825681
 20
77.745134
 11
77.602372
 21
77.786981
  0
LINE
  8
1
 62
2
  6
CONTINUOUS
 10
77.602372
 20
77.786981
 11
77.378872
 21
77.827791
  0
LINE
  8
1
 62
2
  6
CONTINUOUS
 10
77.378872
 20
77.827791
 11
77.155198
 21
77.867643
  0
LINE
  8
1
 62
2
  6
CONTINUOUS
 10
77.155198
 20
77.867643
 11
76.931368
 21
77.906603
  0
LINE
  8
1
 62
2
  6
CONTINUOUS
 10
76.931368
 20
77.906603
 11
76.707396
 21
77.944732
  0
LINE
  8
1
 62
2
  6
CONTINUOUS
 10
76.707396
 20
77.944732
 11
76.483292
 21
77.982083
  0
LINE
  8
1
 62
2
  6
CONTINUOUS
 10
76.483292
 20
77.982083
 11
76.280574
 21
78.015224
  0
LINE
  8
1
 62
2
  6
CONTINUOUS
 10
76.280574
 20
78.015224
 11
76.259068
 21
78.018706
  0
LINE
  8
1
 62
2
  6
CONTINUOUS
 10
76.259068
 20
78.018706
 11
76.034733
 21
78.054642
  0
LINE
  8
1
 62
2
  6
CONTINUOUS
 10
76.034733
 20
78.054642
 11
75.810296
 21
78.089932
  0
LINE
  8
1
 62
2
  6
CONTINUOUS
 10
75.810296
 20
78.089932
 11
75.585764
 21
78.124612
  0
LINE
  8
1
 62
2
  6
CONTINUOUS
 10
75.585764
 20
78.124612
 11
75.810296
 21
78.089932
  0
LINE
  8
1
 62
2
  6
CONTINUOUS
 10
75.810296
 20
78.089932
 11
75.585593
 21
78.123487
  0
LINE
  8
1
 62
2
  6
CONTINUOUS
 10
75.585593
 20
78.123487
 11
75.360813
 21
78.156522
  0
LINE
  8
1
 62
2
  6
CONTINUOUS
 10
75.360813
 20
78.156522
 11
75.135961
 21
78.189061
  0
LINE
  8
1
 62
2
  6
CONTINUOUS
 10
75.135961
 20
78.189061
 11
74.911042
 21
78.221130
  0
LINE
  8
1
 62
2
  6
CONTINUOUS
 10
74.911042
 20
78.221130
 11
74.236906
 21
78.321531
  0
LINE
  8
1
 62
2
  6
CONTINUOUS
 10
74.236906
 20
78.321531
 11
74.011863
 21
78.352720
  0
LINE
  8
1
 62
2
  6
CONTINUOUS
 10
74.011863
 20
78.352720
 11
73.786764
 21
78.383497
  0
LINE
  8
1
 62
2
  6
CONTINUOUS
 10
73.786764
 20
78.383497
 11
73.561611
 21
78.413882
  0
LINE
  8
1
 62
2
  6
CONTINUOUS
 10
73.561611
 20
78.413882
 11
73.336407
 21
78.443888
  0
LINE
  8
1
 62
2
  6
CONTINUOUS
 10
73.336407
 20
78.443888
 11
73.111156
 21
78.473532
  0
LINE
  8
1
 62
2
  6
CONTINUOUS
 10
73.111156
 20
78.473532
 11
72.885859
 21
78.502828
  0
LINE
  8
1
 62
2
  6
CONTINUOUS
 10
72.885859
 20
78.502828
 11
72.660519
 21
78.531789
  0
LINE
  8
1
 62
2
  6
CONTINUOUS
 10
72.660519
 20
78.531789
 11
72.435138
 21
78.560427
  0
LINE
  8
1
 62
2
  6
CONTINUOUS
 10
72.435138
 20
78.560427
 11
72.209717
 21
78.588755
  0
LINE
  8
1
 62
2
  6
CONTINUOUS
 10
72.209717
 20
83.173587
 11
72.209717
 21
78.588755
  0
LINE
  8
1
 62
2
  6
CONTINUOUS
 10
68.709717
 20
78.588755
 11
72.209717
 21
78.588755
  0
LINE
  8
1
 62
2
  6
CONTINUOUS
 10
68.709717
 20
83.173587
 11
68.709717
 21
78.588755
  0
LINE
  8
1
 62
2
  6
CONTINUOUS
 10
68.709717
 20
73.958420
 11
72.209717
 21
73.958420
  0
LINE
  8
1
 62
2
  6
CONTINUOUS
 10
68.709717
 20
78.588755
 11
68.539042
 21
78.015371
  0
LINE
  8
1
 62
2
  6
CONTINUOUS
 10
68.539042
 20
78.015371
 11
68.365806
 21
77.129332
  0
LINE
  8
1
 62
2
  6
CONTINUOUS
 10
68.365806
 20
77.129332
 11
68.309717
 21
76.273622
  0
LINE
  8
1
 62
2
  6
CONTINUOUS
 10
68.309717
 20
76.273622
 11
68.365806
 21
75.417843
  0
LINE
  8
1
 62
2
  6
CONTINUOUS
 10
68.365806
 20
75.417843
 11
68.539042
 21
74.531803
  0
LINE
  8
1
 62
2
  6
CONTINUOUS
 10
68.539042
 20
74.531803
 11
68.709717
 21
73.958420
  0
LINE
  8
1
 62
2
  6
CONTINUOUS
 10
68.209717
 20
69.189745
 11
68.209717
 21
69.173587
  0
LINE
  8
1
 62
2
  6
CONTINUOUS
 10
68.209717
 20
69.307218
 11
68.209717
 21
69.189745
  0
LINE
  8
1
 62
2
  6
CONTINUOUS
 10
68.209717
 20
69.555023
 11
68.209717
 21
69.307218
  0
LINE
  8
1
 62
2
  6
CONTINUOUS
 10
68.209717
 20
69.899438
 11
68.209717
 21
69.555023
  0
LINE
  8
1
 62
2
  6
CONTINUOUS
 10
68.209717
 20
70.378161
 11
68.209717
 21
69.899438
  0
LINE
  8
1
 62
2
  6
CONTINUOUS
 10
68.209717
 20
70.926046
 11
68.209717
 21
70.378161
  0
LINE
  8
1
 62
2
  6
CONTINUOUS
 10
68.209717
 20
71.603062
 11
68.209717
 21
70.926046
  0
LINE
  8
1
 62
2
  6
CONTINUOUS
 10
68.209717
 20
72.317080
 11
68.209717
 21
71.603062
  0
LINE
  8
1
 62
2
  6
CONTINUOUS
 10
68.209717
 20
73.146252
 11
68.209717
 21
72.317080
  0
LINE
  8
1
 62
2
  6
CONTINUOUS
 10
68.209717
 20
73.977743
 11
68.209717
 21
73.146252
  0
LINE
  8
1
 62
2
  6
CONTINUOUS
 10
68.209717
 20
74.902564
 11
68.209717
 21
73.977743
  0
LINE
  8
1
 62
2
  6
CONTINUOUS
 10
68.209717
 20
75.794865
 11
68.209717
 21
74.902564
  0
LINE
  8
1
 62
2
  6
CONTINUOUS
 10
68.209717
 20
76.273587
 11
68.209717
 21
75.794865
  0
LINE
  8
1
 62
2
  6
CONTINUOUS
 10
68.209717
 20
76.752310
 11
68.209717
 21
76.273587
  0
LINE
  8
1
 62
2
  6
CONTINUOUS
 10
68.209717
 20
77.644610
 11
68.209717
 21
76.752310
  0
LINE
  8
1
 62
2
  6
CONTINUOUS
 10
68.209717
 20
78.569431
 11
68.209717
 21
77.644610
  0
LINE
  8
1
 62
2
  6
CONTINUOUS
 10
68.209717
 20
79.400923
 11
68.209717
 21
78.569431
  0
LINE
  8
1
 62
2
  6
CONTINUOUS
 10
68.209717
 20
80.230094
 11
68.209717
 21
79.400923
  0
LINE
  8
1
 62
2
  6
CONTINUOUS
 10
68.209717
 20
80.944112
 11
68.209717
 21
80.230094
  0
LINE
  8
1
 62
2
  6
CONTINUOUS
 10
68.209717
 20
81.621128
 11
68.209717
 21
80.944112
  0
LINE
  8
1
 62
2
  6
CONTINUOUS
 10
68.209717
 20
82.169013
 11
68.209717
 21
81.621128
  0
LINE
  8
1
 62
2
  6
CONTINUOUS
 10
68.209717
 20
82.661075
 11
68.209717
 21
82.169013
  0
LINE
  8
1
 62
2
  6
CONTINUOUS
 10
68.209717
 20
83.373587
 11
68.209717
 21
82.661075
  0
LINE
  8
1
 62
2
  6
CONTINUOUS
 10
60.459717
 20
82.169013
 11
60.459717
 21
82.661075
  0
LINE
  8
1
 62
2
  6
CONTINUOUS
 10
60.459717
 20
81.621128
 11
60.459717
 21
82.169013
  0
LINE
  8
1
 62
2
  6
CONTINUOUS
 10
60.459717
 20
80.944112
 11
60.459717
 21
81.621128
  0
LINE
  8
1
 62
2
  6
CONTINUOUS
 10
60.459717
 20
80.230094
 11
60.459717
 21
80.944112
  0
LINE
  8
1
 62
2
  6
CONTINUOUS
 10
60.459717
 20
79.400923
 11
60.459717
 21
80.230094
  0
LINE
  8
1
 62
2
  6
CONTINUOUS
 10
60.459717
 20
78.569431
 11
60.459717
 21
79.400923
  0
LINE
  8
1
 62
2
  6
CONTINUOUS
 10
60.459717
 20
77.644610
 11
60.459717
 21
78.569431
  0
LINE
  8
1
 62
2
  6
CONTINUOUS
 10
60.459717
 20
76.752310
 11
60.459717
 21
77.644610
  0
LINE
  8
1
 62
2
  6
CONTINUOUS
 10
60.459717
 20
76.273587
 11
60.459717
 21
76.752310
  0
LINE
  8
1
 62
2
  6
CONTINUOUS
 10
60.459717
 20
75.794865
 11
60.459717
 21
76.273587
  0
LINE
  8
1
 62
2
  6
CONTINUOUS
 10
60.459717
 20
74.902564
 11
60.459717
 21
75.794865
  0
LINE
  8
1
 62
2
  6
CONTINUOUS
 10
60.459717
 20
73.977743
 11
60.459717
 21
74.902564
  0
LINE
  8
1
 62
2
  6
CONTINUOUS
 10
60.459717
 20
73.146252
 11
60.459717
 21
73.977743
  0
LINE
  8
1
 62
2
  6
CONTINUOUS
 10
60.459717
 20
72.317080
 11
60.459717
 21
73.146252
  0
LINE
  8
1
 62
2
  6
CONTINUOUS
 10
60.459717
 20
71.603062
 11
60.459717
 21
72.317080
  0
LINE
  8
1
 62
2
  6
CONTINUOUS
 10
60.459717
 20
70.926046
 11
60.459717
 21
71.603062
  0
LINE
  8
1
 62
2
  6
CONTINUOUS
 10
60.459717
 20
70.378161
 11
60.459717
 21
70.926046
  0
LINE
  8
1
 62
2
  6
CONTINUOUS
 10
60.459717
 20
69.899438
 11
60.459717
 21
70.378161
  0
LINE
  8
1
 62
2
  6
CONTINUOUS
 10
60.459717
 20
69.555023
 11
60.459717
 21
69.899438
  0
LINE
  8
1
 62
2
  6
CONTINUOUS
 10
60.459717
 20
69.307218
 11
60.459717
 21
69.555023
  0
LINE
  8
1
 62
2
  6
CONTINUOUS
 10
60.459717
 20
69.189745
 11
60.459717
 21
69.307218
  0
LINE
  8
1
 62
2
  6
CONTINUOUS
 10
60.459717
 20
69.173587
 11
60.459717
 21
69.189745
  0
LINE
  8
1
 62
2
  6
CONTINUOUS
 10
60.459717
 20
82.661075
 11
60.459717
 21
83.373587
  0
LINE
  8
1
 62
2
  6
CONTINUOUS
 10
60.759717
 20
82.407479
 11
60.609716
 21
82.288251
  0
LINE
  8
1
 62
2
  6
CONTINUOUS
 10
60.609716
 20
82.288251
 11
60.459717
 21
82.169013
  0
LINE
  8
1
 62
2
  6
CONTINUOUS
 10
60.759717
 20
82.407479
 11
60.759717
 21
81.859594
  0
LINE
  8
1
 62
2
  6
CONTINUOUS
 10
60.459717
 20
81.621128
 11
60.609716
 21
81.740365
  0
LINE
  8
1
 62
2
  6
CONTINUOUS
 10
60.609716
 20
81.740365
 11
60.759717
 21
81.859594
  0
LINE
  8
1
 62
2
  6
CONTINUOUS
 10
67.909717
 20
82.407479
 11
60.759717
 21
82.407479
  0
LINE
  8
1
 62
2
  6
CONTINUOUS
 10
68.209717
 20
82.169013
 11
68.059718
 21
82.288251
  0
LINE
  8
1
 62
2
  6
CONTINUOUS
 10
68.059718
 20
82.288251
 11
67.909717
 21
82.407479
  0
LINE
  8
1
 62
2
  6
CONTINUOUS
 10
67.909717
 20
81.859594
 11
60.759717
 21
81.859594
  0
LINE
  8
1
 62
2
  6
CONTINUOUS
 10
67.909717
 20
81.859594
 11
67.909717
 21
82.407479
  0
LINE
  8
1
 62
2
  6
CONTINUOUS
 10
67.909717
 20
81.859594
 11
68.059718
 21
81.740365
  0
LINE
  8
1
 62
2
  6
CONTINUOUS
 10
68.059718
 20
81.740365
 11
68.209717
 21
81.621128
  0
LINE
  8
1
 62
2
  6
CONTINUOUS
 10
60.459717
 20
81.621128
 11
68.209717
 21
81.621128
  0
LINE
  8
1
 62
2
  6
CONTINUOUS
 10
60.759717
 20
81.127094
 11
60.609716
 21
81.035606
  0
LINE
  8
1
 62
2
  6
CONTINUOUS
 10
60.609716
 20
81.035606
 11
60.459717
 21
80.944112
  0
LINE
  8
1
 62
2
  6
CONTINUOUS
 10
60.759717
 20
81.127094
 11
60.759717
 21
80.413076
  0
LINE
  8
1
 62
2
  6
CONTINUOUS
 10
60.459717
 20
80.230094
 11
60.609716
 21
80.321588
  0
LINE
  8
1
 62
2
  6
CONTINUOUS
 10
60.609716
 20
80.321588
 11
60.759717
 21
80.413076
  0
LINE
  8
1
 62
2
  6
CONTINUOUS
 10
60.759717
 20
79.515949
 11
60.609716
 21
79.458438
  0
LINE
  8
1
 62
2
  6
CONTINUOUS
 10
60.609716
 20
79.458438
 11
60.459717
 21
79.400923
  0
LINE
  8
1
 62
2
  6
CONTINUOUS
 10
60.759717
 20
79.515949
 11
60.759717
 21
78.684458
  0
LINE
  8
1
 62
2
  6
CONTINUOUS
 10
60.459717
 20
78.569431
 11
60.609716
 21
78.626946
  0
LINE
  8
1
 62
2
  6
CONTINUOUS
 10
60.609716
 20
78.626946
 11
60.759717
 21
78.684458
  0
LINE
  8
1
 62
2
  6
CONTINUOUS
 10
60.759717
 20
77.683844
 11
60.609716
 21
77.664228
  0
LINE
  8
1
 62
2
  6
CONTINUOUS
 10
60.609716
 20
77.664228
 11
60.459717
 21
77.644610
  0
LINE
  8
1
 62
2
  6
CONTINUOUS
 10
60.759717
 20
77.683844
 11
60.759717
 21
76.791543
  0
LINE
  8
1
 62
2
  6
CONTINUOUS
 10
60.459717
 20
76.752310
 11
60.609716
 21
76.771927
  0
LINE
  8
1
 62
2
  6
CONTINUOUS
 10
60.609716
 20
76.771927
 11
60.759717
 21
76.791543
  0
LINE
  8
1
 62
2
  6
CONTINUOUS
 10
67.909717
 20
77.683844
 11
60.759717
 21
77.683844
  0
LINE
  8
1
 62
2
  6
CONTINUOUS
 10
68.209717
 20
77.644610
 11
68.059718
 21
77.664228
  0
LINE
  8
1
 62
2
  6
CONTINUOUS
 10
68.059718
 20
77.664228
 11
67.909717
 21
77.683844
  0
LINE
  8
1
 62
2
  6
CONTINUOUS
 10
67.909717
 20
76.791543
 11
60.759717
 21
76.791543
  0
LINE
  8
1
 62
2
  6
CONTINUOUS
 10
67.909717
 20
76.791543
 11
67.909717
 21
77.683844
  0
LINE
  8
1
 62
2
  6
CONTINUOUS
 10
67.909717
 20
76.791543
 11
68.059718
 21
76.771927
  0
LINE
  8
1
 62
2
  6
CONTINUOUS
 10
68.059718
 20
76.771927
 11
68.209717
 21
76.752310
  0
LINE
  8
1
 62
2
  6
CONTINUOUS
 10
60.459717
 20
76.752310
 11
68.209717
 21
76.752310
  0
LINE
  8
1
 62
2
  6
CONTINUOUS
 10
60.459717
 20
75.794865
 11
68.209717
 21
75.794865
  0
LINE
  8
1
 62
2
  6
CONTINUOUS
 10
60.759717
 20
75.755631
 11
60.609716
 21
75.775247
  0
LINE
  8
1
 62
2
  6
CONTINUOUS
 10
60.609716
 20
75.775247
 11
60.459717
 21
75.794865
  0
LINE
  8
1
 62
2
  6
CONTINUOUS
 10
60.759717
 20
75.755631
 11
60.759717
 21
74.863331
  0
LINE
  8
1
 62
2
  6
CONTINUOUS
 10
60.459717
 20
74.902564
 11
60.609716
 21
74.882947
  0
LINE
  8
1
 62
2
  6
CONTINUOUS
 10
60.609716
 20
74.882947
 11
60.759717
 21
74.863331
  0
LINE
  8
1
 62
2
  6
CONTINUOUS
 10
60.759717
 20
73.862716
 11
60.609716
 21
73.920228
  0
LINE
  8
1
 62
2
  6
CONTINUOUS
 10
60.609716
 20
73.920228
 11
60.459717
 21
73.977743
  0
LINE
  8
1
 62
2
  6
CONTINUOUS
 10
60.759717
 20
73.862716
 11
60.759717
 21
73.031225
  0
LINE
  8
1
 62
2
  6
CONTINUOUS
 10
60.459717
 20
73.146252
 11
60.609716
 21
73.088736
  0
LINE
  8
1
 62
2
  6
CONTINUOUS
 10
60.609716
 20
73.088736
 11
60.759717
 21
73.031225
  0
LINE
  8
1
 62
2
  6
CONTINUOUS
 10
67.909717
 20
73.862716
 11
60.759717
 21
73.862716
  0
LINE
  8
1
 62
2
  6
CONTINUOUS
 10
60.459717
 20
73.977743
 11
68.209717
 21
73.977743
  0
LINE
  8
1
 62
2
  6
CONTINUOUS
 10
68.209717
 20
73.977743
 11
68.059718
 21
73.920228
  0
LINE
  8
1
 62
2
  6
CONTINUOUS
 10
68.059718
 20
73.920228
 11
67.909717
 21
73.862716
  0
LINE
  8
1
 62
2
  6
CONTINUOUS
 10
67.909717
 20
73.031225
 11
60.759717
 21
73.031225
  0
LINE
  8
1
 62
2
  6
CONTINUOUS
 10
67.909717
 20
73.031225
 11
67.909717
 21
73.862716
  0
LINE
  8
1
 62
2
  6
CONTINUOUS
 10
67.909717
 20
73.031225
 11
68.059718
 21
73.088736
  0
LINE
  8
1
 62
2
  6
CONTINUOUS
 10
68.059718
 20
73.088736
 11
68.209717
 21
73.146252
  0
LINE
  8
1
 62
2
  6
CONTINUOUS
 10
60.459717
 20
72.317080
 11
68.209717
 21
72.317080
  0
LINE
  8
1
 62
2
  6
CONTINUOUS
 10
60.759717
 20
72.134099
 11
60.609716
 21
72.225586
  0
LINE
  8
1
 62
2
  6
CONTINUOUS
 10
60.609716
 20
72.225586
 11
60.459717
 21
72.317080
  0
LINE
  8
1
 62
2
  6
CONTINUOUS
 10
60.759717
 20
72.134099
 11
60.759717
 21
71.420081
  0
LINE
  8
1
 62
2
  6
CONTINUOUS
 10
60.459717
 20
71.603062
 11
60.609716
 21
71.511568
  0
LINE
  8
1
 62
2
  6
CONTINUOUS
 10
60.609716
 20
71.511568
 11
60.759717
 21
71.420081
  0
LINE
  8
1
 62
2
  6
CONTINUOUS
 10
60.759717
 20
70.687580
 11
60.609716
 21
70.806809
  0
LINE
  8
1
 62
2
  6
CONTINUOUS
 10
60.609716
 20
70.806809
 11
60.459717
 21
70.926046
  0
LINE
  8
1
 62
2
  6
CONTINUOUS
 10
60.759717
 20
70.687580
 11
60.759717
 21
70.139695
  0
LINE
  8
1
 62
2
  6
CONTINUOUS
 10
60.459717
 20
70.378161
 11
60.609716
 21
70.258924
  0
LINE
  8
1
 62
2
  6
CONTINUOUS
 10
60.609716
 20
70.258924
 11
60.759717
 21
70.139695
  0
LINE
  8
1
 62
2
  6
CONTINUOUS
 10
67.909717
 20
70.139695
 11
68.059718
 21
70.258924
  0
LINE
  8
1
 62
2
  6
CONTINUOUS
 10
68.059718
 20
70.258924
 11
68.209717
 21
70.378161
  0
LINE
  8
1
 62
2
  6
CONTINUOUS
 10
67.909717
 20
70.139695
 11
67.909717
 21
70.687580
  0
LINE
  8
1
 62
2
  6
CONTINUOUS
 10
68.209717
 20
70.926046
 11
68.059718
 21
70.806809
  0
LINE
  8
1
 62
2
  6
CONTINUOUS
 10
68.059718
 20
70.806809
 11
67.909717
 21
70.687580
  0
LINE
  8
1
 62
2
  6
CONTINUOUS
 10
67.909717
 20
70.687580
 11
60.759717
 21
70.687580
  0
LINE
  8
1
 62
2
  6
CONTINUOUS
 10
60.459717
 20
70.926046
 11
68.209717
 21
70.926046
  0
LINE
  8
1
 62
2
  6
CONTINUOUS
 10
67.909717
 20
70.139695
 11
60.759717
 21
70.139695
  0
LINE
  8
1
 62
2
  6
CONTINUOUS
 10
60.459717
 20
69.899438
 11
68.209717
 21
69.899438
  0
LINE
  8
1
 62
2
  6
CONTINUOUS
 10
67.909717
 20
69.621739
 11
60.759717
 21
69.621739
  0
LINE
  8
1
 62
2
  6
CONTINUOUS
 10
60.759717
 20
69.621739
 11
60.609716
 21
69.760584
  0
LINE
  8
1
 62
2
  6
CONTINUOUS
 10
60.609716
 20
69.760584
 11
60.459717
 21
69.899438
  0
LINE
  8
1
 62
2
  6
CONTINUOUS
 10
68.209717
 20
69.899438
 11
68.059718
 21
69.760584
  0
LINE
  8
1
 62
2
  6
CONTINUOUS
 10
68.059718
 20
69.760584
 11
67.909717
 21
69.621739
  0
LINE
  8
1
 62
2
  6
CONTINUOUS
 10
60.459717
 20
69.555023
 11
60.609716
 21
69.416169
  0
LINE
  8
1
 62
2
  6
CONTINUOUS
 10
60.609716
 20
69.416169
 11
60.759717
 21
69.277324
  0
LINE
  8
1
 62
2
  6
CONTINUOUS
 10
67.909717
 20
69.277324
 11
60.759717
 21
69.277324
  0
LINE
  8
1
 62
2
  6
CONTINUOUS
 10
67.909717
 20
69.277324
 11
68.059718
 21
69.416169
  0
LINE
  8
1
 62
2
  6
CONTINUOUS
 10
68.059718
 20
69.416169
 11
68.209717
 21
69.555023
  0
LINE
  8
1
 62
2
  6
CONTINUOUS
 10
60.759717
 20
69.621739
 11
60.759717
 21
69.277324
  0
LINE
  8
1
 62
2
  6
CONTINUOUS
 10
67.909717
 20
69.277324
 11
67.909717
 21
69.621739
  0
LINE
  8
1
 62
2
  6
CONTINUOUS
 10
67.909717
 20
71.420081
 11
68.059718
 21
71.511568
  0
LINE
  8
1
 62
2
  6
CONTINUOUS
 10
68.059718
 20
71.511568
 11
68.209717
 21
71.603062
  0
LINE
  8
1
 62
2
  6
CONTINUOUS
 10
67.909717
 20
71.420081
 11
67.909717
 21
72.134099
  0
LINE
  8
1
 62
2
  6
CONTINUOUS
 10
68.209717
 20
72.317080
 11
68.059718
 21
72.225586
  0
LINE
  8
1
 62
2
  6
CONTINUOUS
 10
68.059718
 20
72.225586
 11
67.909717
 21
72.134099
  0
LINE
  8
1
 62
2
  6
CONTINUOUS
 10
67.909717
 20
72.134099
 11
60.759717
 21
72.134099
  0
LINE
  8
1
 62
2
  6
CONTINUOUS
 10
67.909717
 20
71.420081
 11
60.759717
 21
71.420081
  0
LINE
  8
1
 62
2
  6
CONTINUOUS
 10
67.909717
 20
69.009210
 11
60.759717
 21
69.009210
  0
LINE
  8
1
 62
2
  6
CONTINUOUS
 10
60.759717
 20
69.009210
 11
60.609716
 21
69.158209
  0
LINE
  8
1
 62
2
  6
CONTINUOUS
 10
60.609716
 20
69.158209
 11
60.459717
 21
69.307218
  0
LINE
  8
1
 62
2
  6
CONTINUOUS
 10
67.942013
 20
69.307218
 11
68.209717
 21
69.307218
  0
LINE
  8
1
 62
2
  6
CONTINUOUS
 10
60.459717
 20
69.307218
 11
60.727421
 21
69.307218
  0
LINE
  8
1
 62
2
  6
CONTINUOUS
 10
68.209717
 20
69.307218
 11
68.059718
 21
69.158209
  0
LINE
  8
1
 62
2
  6
CONTINUOUS
 10
68.059718
 20
69.158209
 11
67.909717
 21
69.009210
  0
LINE
  8
1
 62
2
  6
CONTINUOUS
 10
60.759717
 20
69.009210
 11
60.759717
 21
68.891736
  0
LINE
  8
1
 62
2
  6
CONTINUOUS
 10
60.459717
 20
69.189745
 11
60.609716
 21
69.040735
  0
LINE
  8
1
 62
2
  6
CONTINUOUS
 10
60.609716
 20
69.040735
 11
60.759717
 21
68.891736
  0
LINE
  8
1
 62
2
  6
CONTINUOUS
 10
67.909717
 20
68.891736
 11
60.759717
 21
68.891736
  0
LINE
  8
1
 62
2
  6
CONTINUOUS
 10
67.909717
 20
68.891736
 11
67.909717
 21
69.009210
  0
LINE
  8
1
 62
2
  6
CONTINUOUS
 10
67.909717
 20
68.891736
 11
68.059718
 21
69.040735
  0
LINE
  8
1
 62
2
  6
CONTINUOUS
 10
68.059718
 20
69.040735
 11
68.209717
 21
69.189745
  0
LINE
  8
1
 62
2
  6
CONTINUOUS
 10
60.759717
 20
68.891736
 11
60.609716
 21
69.040735
  0
LINE
  8
1
 62
2
  6
CONTINUOUS
 10
60.609716
 20
69.040735
 11
60.475982
 21
69.173587
  0
LINE
  8
1
 62
2
  6
CONTINUOUS
 10
67.909717
 20
74.863331
 11
68.059718
 21
74.882947
  0
LINE
  8
1
 62
2
  6
CONTINUOUS
 10
68.059718
 20
74.882947
 11
68.209717
 21
74.902564
  0
LINE
  8
1
 62
2
  6
CONTINUOUS
 10
67.909717
 20
74.863331
 11
67.909717
 21
75.755631
  0
LINE
  8
1
 62
2
  6
CONTINUOUS
 10
68.209717
 20
75.794865
 11
68.059718
 21
75.775247
  0
LINE
  8
1
 62
2
  6
CONTINUOUS
 10
68.059718
 20
75.775247
 11
67.909717
 21
75.755631
  0
LINE
  8
1
 62
2
  6
CONTINUOUS
 10
67.909717
 20
75.755631
 11
60.759717
 21
75.755631
  0
LINE
  8
1
 62
2
  6
CONTINUOUS
 10
67.909717
 20
74.863331
 11
60.759717
 21
74.863331
  0
LINE
  8
1
 62
2
  6
CONTINUOUS
 10
60.459717
 20
78.569431
 11
68.209717
 21
78.569431
  0
LINE
  8
1
 62
2
  6
CONTINUOUS
 10
67.909717
 20
78.684458
 11
68.059718
 21
78.626946
  0
LINE
  8
1
 62
2
  6
CONTINUOUS
 10
68.059718
 20
78.626946
 11
68.209717
 21
78.569431
  0
LINE
  8
1
 62
2
  6
CONTINUOUS
 10
67.909717
 20
78.684458
 11
67.909717
 21
79.515949
  0
LINE
  8
1
 62
2
  6
CONTINUOUS
 10
68.209717
 20
79.400923
 11
68.059718
 21
79.458438
  0
LINE
  8
1
 62
2
  6
CONTINUOUS
 10
68.059718
 20
79.458438
 11
67.909717
 21
79.515949
  0
LINE
  8
1
 62
2
  6
CONTINUOUS
 10
67.909717
 20
79.515949
 11
60.759717
 21
79.515949
  0
LINE
  8
1
 62
2
  6
CONTINUOUS
 10
67.909717
 20
78.684458
 11
60.759717
 21
78.684458
  0
LINE
  8
1
 62
2
  6
CONTINUOUS
 10
60.459717
 20
80.230094
 11
68.209717
 21
80.230094
  0
LINE
  8
1
 62
2
  6
CONTINUOUS
 10
67.909717
 20
80.413076
 11
68.059718
 21
80.321588
  0
LINE
  8
1
 62
2
  6
CONTINUOUS
 10
68.059718
 20
80.321588
 11
68.209717
 21
80.230094
  0
LINE
  8
1
 62
2
  6
CONTINUOUS
 10
67.909717
 20
80.413076
 11
67.909717
 21
81.127094
  0
LINE
  8
1
 62
2
  6
CONTINUOUS
 10
68.209717
 20
80.944112
 11
68.059718
 21
81.035606
  0
LINE
  8
1
 62
2
  6
CONTINUOUS
 10
68.059718
 20
81.035606
 11
67.909717
 21
81.127094
  0
LINE
  8
1
 62
2
  6
CONTINUOUS
 10
67.909717
 20
81.127094
 11
60.759717
 21
81.127094
  0
LINE
  8
1
 62
2
  6
CONTINUOUS
 10
67.909717
 20
80.413076
 11
60.759717
 21
80.413076
  0
LINE
  8
1
 62
2
  6
CONTINUOUS
 10
60.459717
 20
82.661075
 11
68.209717
 21
82.661075
  0
LINE
  8
1
 62
2
  6
CONTINUOUS
 10
60.459717
 20
82.661075
 11
60.609679
 21
82.827360
  0
LINE
  8
1
 62
2
  6
CONTINUOUS
 10
60.609679
 20
82.827360
 11
60.759717
 21
82.992962
  0
LINE
  8
1
 62
2
  6
CONTINUOUS
 10
60.759717
 20
82.992962
 11
67.909717
 21
82.992962
  0
LINE
  8
1
 62
2
  6
CONTINUOUS
 10
67.909717
 20
82.992962
 11
68.059755
 21
82.827360
  0
LINE
  8
1
 62
2
  6
CONTINUOUS
 10
68.059755
 20
82.827360
 11
68.209717
 21
82.661075
  0
LINE
  8
1
 62
2
  6
CONTINUOUS
 10
67.909717
 20
82.992962
 11
67.909717
 21
83.673587
  0
LINE
  8
1
 62
2
  6
CONTINUOUS
 10
60.759717
 20
83.673587
 11
60.759717
 21
82.992962
  0
LINE
  8
1
 62
2
  6
CONTINUOUS
 10
65.559717
 20
83.519966
 11
65.559717
 21
83.656676
  0
LINE
  8
1
 62
2
  6
CONTINUOUS
 10
64.059717
 20
83.656676
 11
65.559717
 21
83.656676
  0
LINE
  8
1
 62
2
  6
CONTINUOUS
 10
64.059717
 20
83.656676
 11
64.059717
 21
83.673587
  0
LINE
  8
1
 62
2
  6
CONTINUOUS
 10
63.559717
 20
83.519966
 11
64.059717
 21
83.604250
  0
LINE
  8
1
 62
2
  6
CONTINUOUS
 10
63.059717
 20
83.604250
 11
63.559717
 21
83.519966
  0
LINE
  8
1
 62
2
  6
CONTINUOUS
 10
62.559717
 20
83.656676
 11
63.018131
 21
83.611260
  0
LINE
  8
1
 62
2
  6
CONTINUOUS
 10
63.059717
 20
83.673587
 11
63.059717
 21
83.519966
  0
LINE
  8
1
 62
2
  6
CONTINUOUS
 10
63.059717
 20
83.519966
 11
65.559717
 21
83.519966
  0
LINE
  8
1
 62
2
  6
CONTINUOUS
 10
64.059717
 20
83.656676
 11
64.059717
 21
83.519966
  0
LINE
  8
1
 62
2
  6
CONTINUOUS
 10
59.679717
 20
71.698587
 11
59.679717
 21
80.786693
  0
LINE
  8
1
 62
2
  6
CONTINUOUS
 10
59.879717
 20
81.016806
 11
59.779648
 21
80.903100
  0
LINE
  8
1
 62
2
  6
CONTINUOUS
 10
59.779648
 20
80.903100
 11
59.679717
 21
80.786693
  0
LINE
  8
1
 62
2
  6
CONTINUOUS
 10
60.459717
 20
81.016806
 11
59.879717
 21
81.016806
  0
LINE
  8
1
 62
2
  6
CONTINUOUS
 10
68.709717
 20
73.958420
 11
68.709717
 21
69.373587
  0
LINE
  8
1
 62
2
  6
CONTINUOUS
 10
59.879717
 20
81.016806
 11
59.879717
 21
71.498587
  0
LINE
  8
1
 62
132
  6
CONTINUOUS
 10
101.479717
 20
79.773587
 11
130.366491
 21
79.773556
  0
LINE
  8
1
 62
132
  6
DASHDOT
 10
54.572576
 20
76.273587
 11
129.199825
 21
76.273556
  0
LINE
  8
1
 62
132
  6
CONTINUOUS
 10
101.479717
 20
72.773587
 11
128.033159
 21
72.773559
  0
LINE
  8
1
 62
7
  6
CONTINUOUS
 10
201.909894
 20
69.643587
 11
201.509894
 21
69.643587
  0
LINE
  8
1
 62
7
  6
CONTINUOUS
 10
201.909894
 20
68.903587
 11
201.909894
 21
69.643587
  0
LINE
  8
1
 62
7
  6
CONTINUOUS
 10
201.509894
 20
68.903587
 11
201.909894
 21
68.903587
  0
LINE
  8
1
 62
7
  6
CONTINUOUS
 10
201.509894
 20
69.643587
 11
201.509894
 21
68.903587
  0
LINE
  8
1
 62
7
  6
CONTINUOUS
 10
201.909894
 20
71.643587
 11
201.509894
 21
71.643587
  0
LINE
  8
1
 62
7
  6
CONTINUOUS
 10
201.909894
 20
70.903587
 11
201.909894
 21
71.643587
  0
LINE
  8
1
 62
7
  6
CONTINUOUS
 10
201.509894
 20
70.903587
 11
201.909894
 21
70.903587
  0
LINE
  8
1
 62
7
  6
CONTINUOUS
 10
201.509894
 20
71.643587
 11
201.509894
 21
70.903587
  0
LINE
  8
1
 62
7
  6
CONTINUOUS
 10
201.909894
 20
73.643587
 11
201.509894
 21
73.643587
  0
LINE
  8
1
 62
7
  6
CONTINUOUS
 10
201.909894
 20
72.903587
 11
201.909894
 21
73.643587
  0
LINE
  8
1
 62
7
  6
CONTINUOUS
 10
201.509894
 20
72.903587
 11
201.909894
 21
72.903587
  0
LINE
  8
1
 62
7
  6
CONTINUOUS
 10
201.509894
 20
73.643587
 11
201.509894
 21
72.903587
  0
LINE
  8
1
 62
7
  6
CONTINUOUS
 10
201.909894
 20
75.643587
 11
201.509894
 21
75.643587
  0
LINE
  8
1
 62
7
  6
CONTINUOUS
 10
201.909894
 20
74.903587
 11
201.909894
 21
75.643587
  0
LINE
  8
1
 62
7
  6
CONTINUOUS
 10
201.509894
 20
74.903587
 11
201.909894
 21
74.903587
  0
LINE
  8
1
 62
7
  6
CONTINUOUS
 10
201.509894
 20
75.643587
 11
201.509894
 21
74.903587
  0
LINE
  8
1
 62
7
  6
CONTINUOUS
 10
201.909894
 20
77.643587
 11
201.509894
 21
77.643587
  0
LINE
  8
1
 62
7
  6
CONTINUOUS
 10
201.909894
 20
76.903587
 11
201.909894
 21
77.643587
  0
LINE
  8
1
 62
7
  6
CONTINUOUS
 10
201.509894
 20
76.903587
 11
201.909894
 21
76.903587
  0
LINE
  8
1
 62
7
  6
CONTINUOUS
 10
201.509894
 20
77.643587
 11
201.509894
 21
76.903587
  0
LINE
  8
1
 62
7
  6
CONTINUOUS
 10
201.909894
 20
79.643587
 11
201.509894
 21
79.643587
  0
LINE
  8
1
 62
7
  6
CONTINUOUS
 10
201.909894
 20
78.903587
 11
201.909894
 21
79.643587
  0
LINE
  8
1
 62
7
  6
CONTINUOUS
 10
201.509894
 20
78.903587
 11
201.909894
 21
78.903587
  0
LINE
  8
1
 62
7
  6
CONTINUOUS
 10
201.509894
 20
79.643587
 11
201.509894
 21
78.903587
  0
LINE
  8
1
 62
7
  6
CONTINUOUS
 10
201.909894
 20
81.643587
 11
201.509894
 21
81.643587
  0
LINE
  8
1
 62
7
  6
CONTINUOUS
 10
201.909894
 20
80.903587
 11
201.909894
 21
81.643587
  0
LINE
  8
1
 62
7
  6
CONTINUOUS
 10
201.509894
 20
80.903587
 11
201.909894
 21
80.903587
  0
LINE
  8
1
 62
7
  6
CONTINUOUS
 10
201.509894
 20
81.643587
 11
201.509894
 21
80.903587
  0
LINE
  8
1
 62
7
  6
CONTINUOUS
 10
201.909894
 20
83.643587
 11
201.509894
 21
83.643587
  0
LINE
  8
1
 62
7
  6
CONTINUOUS
 10
201.909894
 20
82.903587
 11
201.909894
 21
83.643587
  0
LINE
  8
1
 62
7
  6
CONTINUOUS
 10
201.509894
 20
82.903587
 11
201.909894
 21
82.903587
  0
LINE
  8
1
 62
7
  6
CONTINUOUS
 10
201.509894
 20
83.643587
 11
201.509894
 21
82.903587
  0
LINE
  8
1
 62
7
  6
CONTINUOUS
 10
200.009894
 20
84.873587
 11
203.409894
 21
84.873587
  0
LINE
  8
1
 62
7
  6
CONTINUOUS
 10
200.009894
 20
67.673587
 11
200.009894
 21
84.873587
  0
LINE
  8
1
 62
7
  6
CONTINUOUS
 10
203.409894
 20
67.673587
 11
200.009894
 21
67.673587
  0
LINE
  8
1
 62
7
  6
CONTINUOUS
 10
203.409894
 20
84.873587
 11
203.409894
 21
67.673587
  0
LINE
  8
1
 62
7
  6
CONTINUOUS
 10
203.409894
 20
90.796679
 11
200.009894
 21
90.796679
  0
LINE
  8
1
 62
7
  6
CONTINUOUS
 10
203.409894
 20
86.823587
 11
203.409894
 21
90.796679
  0
LINE
  8
1
 62
7
  6
CONTINUOUS
 10
200.009894
 20
86.823587
 11
200.009894
 21
90.796679
  0
LINE
  8
1
 62
7
  6
DASHDOT
 10
200.612635
 20
69.273587
 11
202.802264
 21
69.273587
  0
LINE
  8
1
 62
7
  6
DASHDOT
 10
200.612635
 20
71.273587
 11
202.802264
 21
71.273587
  0
LINE
  8
1
 62
7
  6
DASHDOT
 10
200.612635
 20
73.273587
 11
202.802264
 21
73.273587
  0
LINE
  8
1
 62
7
  6
DASHDOT
 10
200.612635
 20
75.273587
 11
202.802264
 21
75.273587
  0
LINE
  8
1
 62
7
  6
DASHDOT
 10
200.612635
 20
77.273587
 11
202.802264
 21
77.273587
  0
LINE
  8
1
 62
7
  6
DASHDOT
 10
200.612635
 20
79.273587
 11
202.802264
 21
79.273587
  0
LINE
  8
1
 62
7
  6
DASHDOT
 10
200.612635
 20
81.273587
 11
202.802264
 21
81.273587
  0
LINE
  8
1
 62
7
  6
DASHDOT
 10
200.612635
 20
83.273587
 11
202.802264
 21
83.273587
  0
LINE
  8
1
 62
7
  6
CONTINUOUS
 10
204.709894
 20
66.323587
 11
204.709894
 21
89.023587
  0
LINE
  8
1
 62
7
  6
CONTINUOUS
 10
198.709894
 20
89.023587
 11
198.709894
 21
66.323587
  0
LINE
  8
1
 62
7
  6
CONTINUOUS
 10
203.409894
 20
89.023587
 11
204.709894
 21
89.023587
  0
LINE
  8
1
 62
7
  6
CONTINUOUS
 10
200.009894
 20
89.023587
 11
198.709894
 21
89.023587
  0
LINE
  8
1
 62
7
  6
CONTINUOUS
 10
204.709894
 20
86.823587
 11
203.409894
 21
86.823587
  0
LINE
  8
1
 62
7
  6
CONTINUOUS
 10
198.709894
 20
86.823587
 11
200.009894
 21
86.823587
  0
LINE
  8
1
 62
7
  6
CONTINUOUS
 10
160.466541
 20
74.846091
 11
163.940326
 21
73.873587
  0
LINE
  8
1
 62
7
  6
CONTINUOUS
 10
160.515402
 20
73.629004
 11
163.915835
 21
72.673587
  0
LINE
  8
1
 62
7
  6
CONTINUOUS
 10
157.606197
 20
75.046811
 11
163.940326
 21
71.873587
  0
LINE
  8
1
 62
7
  6
CONTINUOUS
 10
160.201906
 20
72.540902
 11
163.915835
 21
70.673587
  0
LINE
  8
1
 62
7
  6
CONTINUOUS
 10
157.153525
 20
76.273587
 11
163.940326
 21
75.873587
  0
LINE
  8
1
 62
7
  6
CONTINUOUS
 10
157.153525
 20
75.073587
 11
163.915835
 21
74.673587
  0
LINE
  8
1
 62
7
  6
CONTINUOUS
 10
157.153525
 20
75.073587
 11
155.685872
 21
75.073587
  0
LINE
  8
1
 62
7
  6
CONTINUOUS
 10
160.466541
 20
77.701083
 11
163.940326
 21
78.673587
  0
LINE
  8
1
 62
7
  6
CONTINUOUS
 10
160.515402
 20
78.918171
 11
163.915835
 21
79.873587
  0
LINE
  8
1
 62
7
  6
CONTINUOUS
 10
157.606197
 20
77.500363
 11
163.940326
 21
80.673587
  0
LINE
  8
1
 62
7
  6
CONTINUOUS
 10
160.201906
 20
80.006273
 11
163.915835
 21
81.873587
  0
LINE
  8
1
 62
7
  6
CONTINUOUS
 10
157.153525
 20
76.273587
 11
163.940326
 21
76.673587
  0
LINE
  8
1
 62
7
  6
CONTINUOUS
 10
157.153525
 20
77.473587
 11
163.915835
 21
77.873587
  0
LINE
  8
1
 62
7
  6
CONTINUOUS
 10
157.153525
 20
77.473587
 11
155.685872
 21
77.473587
  0
LINE
  8
1
 62
7
  6
CONTINUOUS
 10
157.153525
 20
74.673587
 11
163.940326
 21
69.873587
  0
LINE
  8
1
 62
7
  6
CONTINUOUS
 10
157.153525
 20
73.473587
 11
163.915835
 21
68.673587
  0
LINE
  8
1
 62
7
  6
CONTINUOUS
 10
157.153525
 20
74.673587
 11
155.685872
 21
74.673587
  0
LINE
  8
1
 62
7
  6
CONTINUOUS
 10
157.153525
 20
73.473587
 11
155.685872
 21
73.473587
  0
LINE
  8
1
 62
7
  6
CONTINUOUS
 10
157.153525
 20
77.873587
 11
163.940326
 21
82.673587
  0
LINE
  8
1
 62
7
  6
CONTINUOUS
 10
157.153525
 20
79.073587
 11
163.915835
 21
83.873587
  0
LINE
  8
1
 62
7
  6
CONTINUOUS
 10
157.153525
 20
77.873587
 11
155.685872
 21
77.873587
  0
LINE
  8
1
 62
7
  6
CONTINUOUS
 10
157.153525
 20
79.073587
 11
155.685872
 21
79.073587
  0
LINE
  8
1
 62
7
  6
CONTINUOUS
 10
155.685872
 20
79.773587
 11
155.685872
 21
72.773587
  0
LINE
  8
1
 62
7
  6
DASHDOT
 10
196.061948
 20
76.273587
 11
207.056530
 21
76.273587
  0
LINE
  8
1
 62
7
  6
CONTINUOUS
 10
198.709894
 20
66.323587
 11
204.709894
 21
66.323587
  0
LINE
  8
1
 62
7
  6
DASHDOT
 10
201.709894
 20
95.504433
 11
201.709894
 21
62.477172
  0
LINE
  8
1
 62
7
  6
CONTINUOUS
 10
157.153525
 20
76.273587
 11
155.685872
 21
76.273587
  0
DIMENSION
  8
2
 62
134
  6
CONTINUOUS
  2
*D13
 10
147.346758
 20
72.773587
 11
147.346758
 21
85.985615
 70
     0
  1
φ7
 13
147.346758
 23
72.773587
 14
147.346758
 24
79.773587
 50
90.000000
  0
DIMENSION
  8
2
 62
134
  6
CONTINUOUS
  2
*D14
 10
198.709894
 20
97.733352
 11
201.709894
 21
97.733352
 70
     0
  1
6
 13
198.709894
 23
91.023587
 14
204.709894
 24
91.023587
 50
0.000000
  0
LINE
  8
3
 62
134
  6
CONTINUOUS
 10
181.471311
 20
66.523587
 11
185.738984
 21
56.627626
  0
LINE
  8
3
 62
134
  6
CONTINUOUS
 10
185.738984
 20
56.627626
 11
206.077189
 21
56.627626
  0
TEXT
  8
3
 62
134
  6
CONTINUOUS
 10
186.077189
 20
56.627626
 40
4.000000
 41
1.000000
  1
　出力ｺﾈｸﾀ
  7
KANJI
 50
0.000000
 51
30.000000
  0
LINE
  8
3
 62
134
  6
CONTINUOUS
 10
181.471311
 20
66.523587
 11
182.711644
 21
64.954647
  0
LINE
  8
3
 62
134
  6
CONTINUOUS
 10
181.471311
 20
66.523587
 11
181.761001
 21
64.544679
  0
LINE
  8
3
 62
134
  6
CONTINUOUS
 10
182.711644
 20
64.954647
 11
181.761001
 21
64.544679
  0
LINE
  8
3
 62
134
  6
CONTINUOUS
 10
181.662564
 20
66.080106
 11
182.282731
 21
65.295636
  0
LINE
  8
3
 62
134
  6
CONTINUOUS
 10
181.662564
 20
66.080106
 11
181.807409
 21
65.090652
  0
LINE
  8
3
 62
134
  6
CONTINUOUS
 10
182.282731
 20
65.295636
 11
181.807409
 21
65.090652
  0
TEXT
  8
3
 62
7
  6
CONTINUOUS
 10
189.270233
 20
50.758223
 40
3.999900
 41
1.000000
  1
e-CON コネクタ　8ピン
  7
KANJI
 50
0.000000
 51
0.000000
  0
LINE
  8
1
 62
7
  6
CONTINUOUS
 10
132.483536
 20
79.773556
 11
155.685872
 21
79.773587
  0
LINE
  8
1
 62
7
  6
DASHDOT
 10
131.316870
 20
76.273556
 11
188.998458
 21
76.273587
  0
LINE
  8
1
 62
7
  6
CONTINUOUS
 10
155.685872
 20
72.773587
 11
130.150204
 21
72.773559
  0
LINE
  8
1
 62
7
  6
DASHDOT
 10
52.579717
 20
76.273587
 11
109.199825
 21
76.273556
  0
ARC
  8
1
 62
7
  6
CONTINUOUS
 10
183.452043
 20
86.724073
 40
0.200000
 50
49.347308
 51
86.000000
  0
ARC
  8
1
 62
7
  6
CONTINUOUS
 10
169.852043
 20
88.373585
 40
0.200000
 50
-90.000000
 51
0.000000
  0
ARC
  8
1
 62
7
  6
CONTINUOUS
 10
167.552043
 20
87.773585
 40
0.400000
 50
90.000000
 51
180.000000
  0
ARC
  8
1
 62
7
  6
CONTINUOUS
 10
168.749726
 20
89.873585
 40
0.500000
 50
90.000000
 51
162.817149
  0
ARC
  8
1
 62
7
  6
CONTINUOUS
 10
168.952043
 20
89.873585
 40
0.500000
 50
33.507719
 51
90.000000
  0
ARC
  8
1
 62
7
  6
CONTINUOUS
 10
170.052043
 20
90.023585
 40
0.500000
 50
-146.492281
 51
-90.000000
  0
ARC
  8
1
 62
7
  6
CONTINUOUS
 10
167.652043
 20
86.973585
 40
0.500000
 50
180.000000
 51
-109.144553
  0
ARC
  8
1
 62
7
  6
CONTINUOUS
 10
175.052043
 20
87.373585
 40
0.500000
 50
180.000000
 51
-90.000000
  0
ARC
  8
1
 62
7
  6
CONTINUOUS
 10
185.052043
 20
67.123585
 40
0.600000
 50
-90.000000
 51
0.000000
  0
ARC
  8
1
 62
7
  6
CONTINUOUS
 10
185.052043
 20
86.273585
 40
0.600000
 50
0.000000
 51
90.000000
  0
ARC
  8
1
 62
7
  6
CONTINUOUS
 10
170.952043
 20
88.623585
 40
0.900000
 50
90.000000
 51
180.000000
  0
ARC
  8
1
 62
7
  6
CONTINUOUS
 10
184.652043
 20
87.073585
 40
1.000000
 50
0.000000
 51
90.000000
  0
ARC
  8
1
 62
7
  6
CONTINUOUS
 10
173.552043
 20
88.523585
 40
1.000000
 50
0.000000
 51
90.000000
  0
ARC
  8
1
 62
7
  6
CONTINUOUS
 10
181.523312
 20
92.753585
 40
4.680000
 50
-109.747638
 51
-90.000000
  0
LINE
  8
1
 62
7
  6
CONTINUOUS
 10
171.452043
 20
66.323585
 11
170.052043
 21
66.323585
  0
LINE
  8
1
 62
7
  6
CONTINUOUS
 10
185.052043
 20
66.523585
 11
171.452043
 21
66.523585
  0
LINE
  8
1
 62
7
  6
CONTINUOUS
 10
185.652043
 20
67.223585
 11
170.052043
 21
67.223585
  0
LINE
  8
1
 62
7
  6
CONTINUOUS
 10
170.052043
 20
67.573585
 11
180.052043
 21
67.573585
  0
LINE
  8
1
 62
7
  6
CONTINUOUS
 10
167.152043
 20
86.973585
 11
167.152043
 21
87.773585
  0
LINE
  8
1
 62
7
  6
CONTINUOUS
 10
169.152043
 20
85.523585
 11
169.152043
 21
85.923585
  0
LINE
  8
1
 62
7
  6
CONTINUOUS
 10
170.052043
 20
85.023585
 11
170.052043
 21
66.323585
  0
LINE
  8
1
 62
7
  6
CONTINUOUS
 10
170.052043
 20
88.373585
 11
170.052043
 21
88.623585
  0
LINE
  8
1
 62
7
  6
CONTINUOUS
 10
171.452043
 20
66.523585
 11
171.452043
 21
66.323585
  0
LINE
  8
1
 62
7
  6
CONTINUOUS
 10
174.552043
 20
88.523585
 11
174.552043
 21
87.373585
  0
LINE
  8
1
 62
7
  6
CONTINUOUS
 10
169.368949
 20
90.149610
 11
169.635137
 21
89.747561
  0
LINE
  8
1
 62
7
  6
CONTINUOUS
 10
176.502043
 20
86.873585
 11
176.502043
 21
84.973585
  0
LINE
  8
1
 62
7
  6
CONTINUOUS
 10
177.482043
 20
88.595257
 11
177.482043
 21
89.045257
  0
LINE
  8
1
 62
7
  6
CONTINUOUS
 10
170.052043
 20
85.023585
 11
169.152043
 21
85.523585
  0
LINE
  8
1
 62
7
  6
CONTINUOUS
 10
180.052043
 20
68.834162
 11
180.052043
 21
67.573585
  0
LINE
  8
1
 62
7
  6
CONTINUOUS
 10
180.052043
 20
69.695701
 11
180.052043
 21
68.851470
  0
LINE
  8
1
 62
7
  6
CONTINUOUS
 10
180.052043
 20
70.834162
 11
180.052043
 21
69.713008
  0
LINE
  8
1
 62
7
  6
CONTINUOUS
 10
180.052043
 20
71.695701
 11
180.052043
 21
70.851470
  0
LINE
  8
1
 62
7
  6
CONTINUOUS
 10
180.052043
 20
72.834162
 11
180.052043
 21
71.713008
  0
LINE
  8
1
 62
7
  6
CONTINUOUS
 10
180.052043
 20
73.695701
 11
180.052043
 21
72.851470
  0
LINE
  8
1
 62
7
  6
CONTINUOUS
 10
180.052043
 20
74.834162
 11
180.052043
 21
73.713008
  0
LINE
  8
1
 62
7
  6
CONTINUOUS
 10
180.052043
 20
75.695701
 11
180.052043
 21
74.851470
  0
LINE
  8
1
 62
7
  6
CONTINUOUS
 10
180.052043
 20
76.834162
 11
180.052043
 21
75.713008
  0
LINE
  8
1
 62
7
  6
CONTINUOUS
 10
180.052043
 20
77.695701
 11
180.052043
 21
76.851470
  0
LINE
  8
1
 62
7
  6
CONTINUOUS
 10
180.052043
 20
78.834162
 11
180.052043
 21
77.713008
  0
LINE
  8
1
 62
7
  6
CONTINUOUS
 10
180.052043
 20
79.695701
 11
180.052043
 21
78.851470
  0
LINE
  8
1
 62
7
  6
CONTINUOUS
 10
180.052043
 20
80.834162
 11
180.052043
 21
79.713008
  0
LINE
  8
1
 62
7
  6
CONTINUOUS
 10
180.052043
 20
81.695701
 11
180.052043
 21
80.851470
  0
LINE
  8
1
 62
7
  6
CONTINUOUS
 10
180.052043
 20
82.834162
 11
180.052043
 21
81.713008
  0
LINE
  8
1
 62
7
  6
CONTINUOUS
 10
180.052043
 20
83.695701
 11
180.052043
 21
82.851470
  0
LINE
  8
1
 62
7
  6
CONTINUOUS
 10
180.052043
 20
84.973585
 11
180.052043
 21
83.713008
  0
LINE
  8
1
 62
7
  6
CONTINUOUS
 10
169.152043
 20
85.923585
 11
167.488067
 21
86.501238
  0
LINE
  8
1
 62
7
  6
CONTINUOUS
 10
170.052043
 20
84.973585
 11
180.052043
 21
84.973585
  0
LINE
  8
1
 62
7
  6
CONTINUOUS
 10
176.502043
 20
85.323585
 11
169.512043
 21
85.323585
  0
LINE
  8
1
 62
7
  6
CONTINUOUS
 10
185.652043
 20
85.573585
 11
176.502043
 21
85.573585
  0
LINE
  8
1
 62
7
  6
CONTINUOUS
 10
185.052043
 20
86.873585
 11
175.052043
 21
86.873585
  0
LINE
  8
1
 62
7
  6
CONTINUOUS
 10
174.498273
 20
88.829954
 11
175.152043
 21
88.595257
  0
LINE
  8
1
 62
7
  6
CONTINUOUS
 10
185.652043
 20
87.073585
 11
185.652043
 21
67.123585
  0
LINE
  8
1
 62
7
  6
CONTINUOUS
 10
181.523312
 20
88.073585
 11
184.652043
 21
88.073585
  0
LINE
  8
1
 62
7
  6
CONTINUOUS
 10
167.552043
 20
88.173585
 11
169.852043
 21
88.173585
  0
LINE
  8
1
 62
7
  6
CONTINUOUS
 10
183.465994
 20
86.923585
 11
174.552043
 21
87.546910
  0
LINE
  8
1
 62
7
  6
CONTINUOUS
 10
178.002043
 20
89.045257
 11
179.942043
 21
88.348816
  0
LINE
  8
1
 62
7
  6
CONTINUOUS
 10
175.152043
 20
88.595257
 11
177.482043
 21
88.595257
  0
LINE
  8
1
 62
7
  6
CONTINUOUS
 10
177.482043
 20
89.045257
 11
178.002043
 21
89.045257
  0
LINE
  8
1
 62
7
  6
CONTINUOUS
 10
167.700687
 20
88.173585
 11
168.272043
 21
90.021296
  0
LINE
  8
1
 62
7
  6
CONTINUOUS
 10
170.052043
 20
89.523585
 11
173.552043
 21
89.523585
  0
LINE
  8
1
 62
7
  6
CONTINUOUS
 10
168.749726
 20
90.373585
 11
168.952043
 21
90.373585
  0
LINE
  8
1
 62
7
  6
CONTINUOUS
 10
170.052043
 20
71.873587
 11
163.940326
 21
71.873587
  0
LINE
  8
1
 62
7
  6
CONTINUOUS
 10
170.052043
 20
70.673587
 11
163.915835
 21
70.673587
  0
LINE
  8
1
 62
7
  6
CONTINUOUS
 10
170.052043
 20
73.873587
 11
163.940326
 21
73.873587
  0
LINE
  8
1
 62
7
  6
CONTINUOUS
 10
170.052043
 20
72.673587
 11
163.915835
 21
72.673587
  0
LINE
  8
1
 62
7
  6
CONTINUOUS
 10
170.052043
 20
75.873587
 11
163.940326
 21
75.873587
  0
LINE
  8
1
 62
7
  6
CONTINUOUS
 10
170.052043
 20
74.673587
 11
163.915835
 21
74.673587
  0
LINE
  8
1
 62
7
  6
CONTINUOUS
 10
170.052043
 20
80.673587
 11
163.940326
 21
80.673587
  0
LINE
  8
1
 62
7
  6
CONTINUOUS
 10
170.052043
 20
81.873587
 11
163.915835
 21
81.873587
  0
LINE
  8
1
 62
7
  6
CONTINUOUS
 10
170.052043
 20
78.673587
 11
163.940326
 21
78.673587
  0
LINE
  8
1
 62
7
  6
CONTINUOUS
 10
170.052043
 20
79.873587
 11
163.915835
 21
79.873587
  0
LINE
  8
1
 62
7
  6
CONTINUOUS
 10
170.052043
 20
76.673587
 11
163.940326
 21
76.673587
  0
LINE
  8
1
 62
7
  6
CONTINUOUS
 10
170.052043
 20
77.873587
 11
163.915835
 21
77.873587
  0
LINE
  8
1
 62
7
  6
CONTINUOUS
 10
170.052043
 20
69.873587
 11
163.940326
 21
69.873587
  0
LINE
  8
1
 62
7
  6
CONTINUOUS
 10
170.052043
 20
68.673587
 11
163.915835
 21
68.673587
  0
LINE
  8
1
 62
7
  6
CONTINUOUS
 10
170.052043
 20
82.673587
 11
163.940326
 21
82.673587
  0
LINE
  8
1
 62
7
  6
CONTINUOUS
 10
170.052043
 20
83.873587
 11
163.915835
 21
83.873587
  0
DIMENSION
  8
3
 62
134
  6
CONTINUOUS
  2
*D15
 10
101.479717
 20
97.754434
 11
135.765880
 21
97.754434
 70
     0
  1
ｹｰﾌﾞﾙ長（標準2m）
 13
101.479717
 23
81.773556
 14
170.052043
 24
85.873587
 50
0.000000
  0
TEXT
  8
2
 62
134
  6
CONTINUOUS
 10
69.977140
 20
11.627753
 40
4.000000
 41
1.000000
  1
XN2A-1870（オムロン）表記削除　2021/7/7　保田
  7
KANJI
 50
0.000000
 51
30.000000
  0
TEXT
  8
2
 62
7
  6
DOT
 10
180.218937
 20
51.768305
 40
5.000000
 41
1.000000
  1
1
  7
KANJI
 50
0.000000
 51
0.000000
  0
LINE
  8
2
 62
134
  6
CONTINUOUS
 10
181.419439
 20
56.553487
 11
179.023588
 21
52.403751
  0
LINE
  8
2
 62
134
  6
CONTINUOUS
 10
179.023588
 20
52.403751
 11
183.815290
 21
52.403751
  0
LINE
  8
2
 62
134
  6
CONTINUOUS
 10
183.815290
 20
52.403751
 11
181.419439
 21
56.553487
  0
ENDSEC
  0
EOF
