  0
SECTION
  2
HEADER
  9
$ACADVER
  1
AC1009
  9
$INSBASE
 10
0.000000
 20
0.000000
  9
$EXTMIN
 10
0.000000
 20
0.000000
  9
$EXTMAX
 10
210.000000
 20
297.000000
  9
$LIMMIN
 10
0.000000
 20
0.000000
  9
$LIMMAX
 10
210.000000
 20
297.000000
  9
$VIEWCTR
 10
105.000000
 20
148.500000
  9
$VIEWSIZE
 40
297.000000
  9
$PEXTMIN
 10
0.000000
 20
0.000000
 30
0.000000
  9
$PEXTMAX
 10
210.000000
 20
297.000000
 30
0.000000
  9
$SNAPMODE
 70
     0
  9
$SNAPUNIT
 10
1.000000
 20
1.000000
  9
$SNAPBASE
 10
0.000000
 20
0.000000
  9
$SNAPANG
 50
0.000000
  9
$SNAPISOPAIR
 70
     0
  9
$SNAPSTYLE
 70
     0
  9
$GRIDMODE
 70
     0
  9
$GRIDUNIT
 10
0.000000
 20
0.000000
  9
$ORTHOMODE
 70
     0
  9
$REGENMODE
 70
     1
  9
$FILLMODE
 70
     1
  9
$QTEXTMODE
 70
     0
  9
$DRAGMODE
 70
     2
  9
$LTSCALE
 40
0.250000
  9
$OSMODE
 70
     0
  9
$ATTMODE
 70
     1
  9
$TEXTSIZE
 40
4.000000
  9
$TRACEWID
 40
0.050000
  9
$TEXTSTYLE
  7
STANDARD
  9
$CLAYER
  8
0
  9
$CELTYPE
  6
BYLAYER
  9
$CECOLOR
 62
   256
  9
$DIMSCALE
 40
1.000000
  9
$DIMASZ
 40
1.000000
  9
$DIMEXO
 40
0.000000
  9
$DIMDLI
 40
0.500000
  9
$DIMRND
 40
0.000000
  9
$DIMDLE
 40
0.000000
  9
$DIMEXE
 40
0.000000
  9
$DIMTP
 40
0.000000
  9
$DIMTM
 40
0.000000
  9
$DIMTXT
 40
4.000000
  9
$DIMCEN
 40
0.000000
  9
$DIMTSZ
 40
0.000000
  9
$DIMTOL
 70
     0
  9
$DIMLIM
 70
     0
  9
$DIMTIH
 70
     1
  9
$DIMTOH
 70
     1
  9
$DIMSE1
 70
     0
  9
$DIMSE2
 70
     0
  9
$DIMTAD
 70
     0
  9
$DIMZIN
 70
     0
  9
$DIMBLK
  1

  9
$DIMASO
 70
     0
  9
$DIMSHO
 70
     0
  9
$DIMPOST
  1

  9
$DIMAPOST
  1

  9
$DIMALT
 70
     0
  9
$DIMALTD
 70
     0
  9
$DIMALTF
 40
25.400000
  9
$DIMLFAC
 40
1.000000
  9
$DIMTOFL
 70
     0
  9
$DIMTVP
 40
0.000000
  9
$DIMTIX
 70
     0
  9
$DIMSOXD
 70
     0
  9
$DIMSAH
 70
     0
  9
$DIMBLKL
  1

  9
$DIMBLKR
  1

  9
$LUNITS
 70
     2
  9
$LUPREC
 70
     2
  9
$AXISMODE
 70
     0
  9
$AXISUNIT
 10
1.000000
 20
1.000000
  9
$SKETCHINC
 40
0.000000
  9
$FILLETRAD
 40
0.000000
  9
$AUNITS
 70
     1
  9
$AUPREC
 70
     2
  9
$MENU
  1
ACAD
  9
$ELEVATION
 40
0.000000
  9
$THICKNESS
 40
0.000000
  9
$VIEWDIR
 10
0.000000
 20
0.000000
 30
1.000000
  9
$LIMCHECK
 70
     1
  9
$BLIPMODE
 70
     1
  9
$CHAMFERA
 40
0.000000
  9
$CHAMFERB
 40
0.000000
  9
$FASTZOOM
 70
     1
  9
$SKPOLY
 70
     0
  9
$TDCREATE
 40
0.000000
  9
$TDUPDATE
 40
0.000000
  9
$TDINDWG
 40
0.000000
  9
$TDUSRTIMER
 40
0.000000
  9
$USRTIMER
 70
     1
  9
$ANGBASE
 50
0.000000
  9
$ANGDIR
 70
     0
  9
$PDMODE
 70
     0
  9
$PDSIZE
 40
0.000000
  9
$PLINEWID
 40
0.000000
  9
$COORDS
 70
     2
  9
$USERI1
 70
     0
  9
$USERI2
 70
     0
  9
$USERI3
 70
     0
  9
$USERI4
 70
     0
  9
$USERI5
 70
     0
  9
$USERR1
 40
0.000000
  9
$USERR2
 40
0.000000
  9
$USERR3
 40
0.000000
  9
$USERR4
 40
0.000000
  9
$USERR5
 40
0.000000
  0
ENDSEC
  0
SECTION
  2
TABLES
  0
TABLE
  2
LTYPE
 70
     5
  0
LTYPE
  2
CONTINUOUS
 70
    64
  3
Solid line
 72
    65
 73
     0
 40
0.0
  0
LTYPE
  2
HIDDEN
 70
    64
  3
------------------------
 72
    65
 73
     2
 40
12.6
 49
8.4
 49
-4.2
  0
LTYPE
  2
DOT
 70
    64
  3
････････････････････････
 72
    65
 73
     2
 40
8.0
 49
6.0
 49
-2.0
  0
LTYPE
  2
DASHDOT
 70
    64
  3
--･--･--･--･--･--･--･--
 72
    65
 73
     4
 40
50.5
 49
30.0
 49
-9.0
 49
2.5
 49
-9.0
  0
LTYPE
  2
DIVIDE
 70
    64
  3
--･･--･･--･･--･･--･･--
 72
    65
 73
     6
 40
58.0
 49
30.0
 49
-9.0
 49
2.5
 49
-5.0
 49
2.5
 49
-9.0
  0
LTYPE
  2
ACAD_ISO06W100
 70
    64
  3
____ ... ____ ... ____
 72
    65
 73
     8
 40
37.5
 49
24.0
 49
-3.0
 49
0.5
 49
-3.0
 49
0.5
 49
-3.0
 49
0.5
 49
-3.0
  0
LTYPE
  2
ACAD_ISO14W100
 70
    64
  3
__ . . . __ . . . __ . . . 
 72
    65
 73
     8
 40
25.5
 49
12.0
 49
-3.0
 49
0.5
 49
-3.0
 49
0.5
 49
-3.0
 49
0.5
 49
-3.0
  0
ENDTAB
  0
TABLE
  2
LAYER
 70
5
  0
LAYER
  2
1
 70
64
 62
7
  6
CONTINUOUS
  0
LAYER
  2
2
 70
64
 62
134
  6
CONTINUOUS
  0
LAYER
  2
3
 70
64
 62
214
  6
CONTINUOUS
  0
LAYER
  2
5
 70
64
 62
94
  6
CONTINUOUS
  0
LAYER
  2
10
 70
64
 62
3
  6
CONTINUOUS
  0
ENDTAB
  0
TABLE
  2
STYLE
 70
     2
  0
STYLE
  2
STANDARD
 70
    64
 40
0.0
 41
1.0
 50
0.0
 71
     0
 42
0.2
  3
TXT
  4

  0
STYLE
  2
KANJI
 70
    64
 40
0.0
 41
1.0
 50
0.0
 71
     0
 42
0.2
  3
TXT
  4
BIGFONT
  0
ENDTAB
  0
TABLE
  2
VIEW
 70
     0
  0
ENDTAB
  0
ENDSEC
  0
SECTION
  2
BLOCKS
  0
BLOCK
  8
2
 62
134
  6
CONTINUOUS
  2
*D1
 70
    65
 10
0.0
 20
0.0
  0
LINE
  8
2
 62
134
  6
CONTINUOUS
 10
78.000000
 20
162.838322
 11
98.000000
 21
162.838322
  0
LINE
  8
2
 62
134
  6
CONTINUOUS
 10
86.000000
 20
160.838322
 11
86.000000
 21
169.000000
  0
LINE
  8
2
 62
134
  6
CONTINUOUS
 10
90.000000
 20
160.838322
 11
90.000000
 21
179.010921
  0
LINE
  8
2
 62
134
  6
CONTINUOUS
 10
86.000000
 20
162.838322
 11
84.068148
 21
162.320684
  0
LINE
  8
2
 62
134
  6
CONTINUOUS
 10
86.000000
 20
162.838322
 11
84.068148
 21
163.355960
  0
LINE
  8
2
 62
134
  6
CONTINUOUS
 10
84.068148
 20
162.320684
 11
84.068148
 21
163.355960
  0
LINE
  8
2
 62
134
  6
CONTINUOUS
 10
85.517037
 20
162.838322
 11
84.551111
 21
162.579503
  0
LINE
  8
2
 62
134
  6
CONTINUOUS
 10
85.517037
 20
162.838322
 11
84.551111
 21
163.097141
  0
LINE
  8
2
 62
134
  6
CONTINUOUS
 10
84.551111
 20
162.579503
 11
84.551111
 21
163.097141
  0
LINE
  8
2
 62
134
  6
CONTINUOUS
 10
90.000000
 20
162.838322
 11
91.931852
 21
163.355960
  0
LINE
  8
2
 62
134
  6
CONTINUOUS
 10
90.000000
 20
162.838322
 11
91.931852
 21
162.320684
  0
LINE
  8
2
 62
134
  6
CONTINUOUS
 10
91.931852
 20
163.355960
 11
91.931852
 21
162.320684
  0
LINE
  8
2
 62
134
  6
CONTINUOUS
 10
90.482963
 20
162.838322
 11
91.448889
 21
163.097141
  0
LINE
  8
2
 62
134
  6
CONTINUOUS
 10
90.482963
 20
162.838322
 11
91.448889
 21
162.579503
  0
LINE
  8
2
 62
134
  6
CONTINUOUS
 10
91.448889
 20
163.097141
 11
91.448889
 21
162.579503
  0
TEXT
  8
2
 62
134
  6
CONTINUOUS
 10
86.814374
 20
162.838322
 40
4.000000
 41
1.000000
  1
4
  7
KANJI
 50
0.000000
 51
30.000000
  0
ENDBLK
  0
BLOCK
  8
2
 62
134
  6
CONTINUOUS
  2
*D2
 70
    65
 10
0.0
 20
0.0
  0
LINE
  8
2
 62
134
  6
CONTINUOUS
 10
90.000000
 20
162.838322
 11
110.000000
 21
162.838322
  0
LINE
  8
2
 62
134
  6
CONTINUOUS
 10
90.000000
 20
160.838322
 11
90.000000
 21
179.010921
  0
LINE
  8
2
 62
134
  6
CONTINUOUS
 10
110.000000
 20
160.838322
 11
110.000000
 21
179.198825
  0
LINE
  8
2
 62
134
  6
CONTINUOUS
 10
90.000000
 20
162.838322
 11
91.931852
 21
163.355960
  0
LINE
  8
2
 62
134
  6
CONTINUOUS
 10
90.000000
 20
162.838322
 11
91.931852
 21
162.320684
  0
LINE
  8
2
 62
134
  6
CONTINUOUS
 10
91.931852
 20
163.355960
 11
91.931852
 21
162.320684
  0
LINE
  8
2
 62
134
  6
CONTINUOUS
 10
90.482963
 20
162.838322
 11
91.448889
 21
163.097141
  0
LINE
  8
2
 62
134
  6
CONTINUOUS
 10
90.482963
 20
162.838322
 11
91.448889
 21
162.579503
  0
LINE
  8
2
 62
134
  6
CONTINUOUS
 10
91.448889
 20
163.097141
 11
91.448889
 21
162.579503
  0
LINE
  8
2
 62
134
  6
CONTINUOUS
 10
110.000000
 20
162.838322
 11
108.068148
 21
162.320684
  0
LINE
  8
2
 62
134
  6
CONTINUOUS
 10
110.000000
 20
162.838322
 11
108.068148
 21
163.355960
  0
LINE
  8
2
 62
134
  6
CONTINUOUS
 10
108.068148
 20
162.320684
 11
108.068148
 21
163.355960
  0
LINE
  8
2
 62
134
  6
CONTINUOUS
 10
109.517037
 20
162.838322
 11
108.551111
 21
162.579503
  0
LINE
  8
2
 62
134
  6
CONTINUOUS
 10
109.517037
 20
162.838322
 11
108.551111
 21
163.097141
  0
LINE
  8
2
 62
134
  6
CONTINUOUS
 10
108.551111
 20
162.579503
 11
108.551111
 21
163.097141
  0
TEXT
  8
2
 62
134
  6
CONTINUOUS
 10
97.934143
 20
162.838322
 40
4.000000
 41
1.000000
  1
20
  7
KANJI
 50
0.000000
 51
30.000000
  0
ENDBLK
  0
BLOCK
  8
2
 62
134
  6
CONTINUOUS
  2
*D3
 70
    65
 10
0.0
 20
0.0
  0
LINE
  8
2
 62
134
  6
CONTINUOUS
 10
34.000000
 20
202.948641
 11
46.000000
 21
202.948641
  0
LINE
  8
2
 62
134
  6
CONTINUOUS
 10
34.000000
 20
204.948641
 11
34.000000
 21
197.000000
  0
LINE
  8
2
 62
134
  6
CONTINUOUS
 10
46.000000
 20
204.948641
 11
46.000000
 21
197.000000
  0
LINE
  8
2
 62
134
  6
CONTINUOUS
 10
34.000000
 20
202.948641
 11
35.931852
 21
203.466279
  0
LINE
  8
2
 62
134
  6
CONTINUOUS
 10
34.000000
 20
202.948641
 11
35.931852
 21
202.431003
  0
LINE
  8
2
 62
134
  6
CONTINUOUS
 10
35.931852
 20
203.466279
 11
35.931852
 21
202.431003
  0
LINE
  8
2
 62
134
  6
CONTINUOUS
 10
34.482963
 20
202.948641
 11
35.448889
 21
203.207460
  0
LINE
  8
2
 62
134
  6
CONTINUOUS
 10
34.482963
 20
202.948641
 11
35.448889
 21
202.689822
  0
LINE
  8
2
 62
134
  6
CONTINUOUS
 10
35.448889
 20
203.207460
 11
35.448889
 21
202.689822
  0
LINE
  8
2
 62
134
  6
CONTINUOUS
 10
46.000000
 20
202.948641
 11
44.068148
 21
202.431003
  0
LINE
  8
2
 62
134
  6
CONTINUOUS
 10
46.000000
 20
202.948641
 11
44.068148
 21
203.466279
  0
LINE
  8
2
 62
134
  6
CONTINUOUS
 10
44.068148
 20
202.431003
 11
44.068148
 21
203.466279
  0
LINE
  8
2
 62
134
  6
CONTINUOUS
 10
45.517037
 20
202.948641
 11
44.551111
 21
202.689822
  0
LINE
  8
2
 62
134
  6
CONTINUOUS
 10
45.517037
 20
202.948641
 11
44.551111
 21
203.207460
  0
LINE
  8
2
 62
134
  6
CONTINUOUS
 10
44.551111
 20
202.689822
 11
44.551111
 21
203.207460
  0
TEXT
  8
2
 62
134
  6
CONTINUOUS
 10
37.523205
 20
202.948641
 40
4.000000
 41
1.000000
  1
12
  7
KANJI
 50
0.000000
 51
30.000000
  0
ENDBLK
  0
BLOCK
  8
2
 62
134
  6
CONTINUOUS
  2
*D4
 70
    65
 10
0.0
 20
0.0
  0
LINE
  8
2
 62
134
  6
CONTINUOUS
 10
54.367572
 20
171.000000
 11
54.367572
 21
190.000000
  0
LINE
  8
2
 62
134
  6
CONTINUOUS
 10
56.367572
 20
171.000000
 11
47.000000
 21
171.000000
  0
LINE
  8
2
 62
134
  6
CONTINUOUS
 10
56.367572
 20
190.000000
 11
48.000000
 21
190.000000
  0
LINE
  8
2
 62
134
  6
CONTINUOUS
 10
54.367572
 20
171.000000
 11
53.849934
 21
172.931852
  0
LINE
  8
2
 62
134
  6
CONTINUOUS
 10
54.367572
 20
171.000000
 11
54.885210
 21
172.931852
  0
LINE
  8
2
 62
134
  6
CONTINUOUS
 10
53.849934
 20
172.931852
 11
54.885210
 21
172.931852
  0
LINE
  8
2
 62
134
  6
CONTINUOUS
 10
54.367572
 20
171.482963
 11
54.108753
 21
172.448889
  0
LINE
  8
2
 62
134
  6
CONTINUOUS
 10
54.367572
 20
171.482963
 11
54.626391
 21
172.448889
  0
LINE
  8
2
 62
134
  6
CONTINUOUS
 10
54.108753
 20
172.448889
 11
54.626391
 21
172.448889
  0
LINE
  8
2
 62
134
  6
CONTINUOUS
 10
54.367572
 20
190.000000
 11
54.885210
 21
188.068148
  0
LINE
  8
2
 62
134
  6
CONTINUOUS
 10
54.367572
 20
190.000000
 11
53.849934
 21
188.068148
  0
LINE
  8
2
 62
134
  6
CONTINUOUS
 10
54.885210
 20
188.068148
 11
53.849934
 21
188.068148
  0
LINE
  8
2
 62
134
  6
CONTINUOUS
 10
54.367572
 20
189.517037
 11
54.626391
 21
188.551111
  0
LINE
  8
2
 62
134
  6
CONTINUOUS
 10
54.367572
 20
189.517037
 11
54.108753
 21
188.551111
  0
LINE
  8
2
 62
134
  6
CONTINUOUS
 10
54.626391
 20
188.551111
 11
54.108753
 21
188.551111
  0
TEXT
  8
2
 62
134
  6
CONTINUOUS
 10
54.367572
 20
177.900235
 40
4.000000
 41
1.000000
  1
19
  7
KANJI
 50
90.000000
 51
30.000000
  0
ENDBLK
  0
BLOCK
  8
2
 62
134
  6
CONTINUOUS
  2
*D5
 70
    65
 10
0.0
 20
0.0
  0
LINE
  8
2
 62
134
  6
CONTINUOUS
 10
54.367572
 20
190.000000
 11
54.367572
 21
196.000000
  0
LINE
  8
2
 62
134
  6
CONTINUOUS
 10
56.367572
 20
190.000000
 11
48.000000
 21
190.000000
  0
LINE
  8
2
 62
134
  6
CONTINUOUS
 10
56.367572
 20
196.000000
 11
47.000000
 21
196.000000
  0
LINE
  8
2
 62
134
  6
CONTINUOUS
 10
54.367572
 20
190.000000
 11
53.849934
 21
191.931852
  0
LINE
  8
2
 62
134
  6
CONTINUOUS
 10
54.367572
 20
190.000000
 11
54.885210
 21
191.931852
  0
LINE
  8
2
 62
134
  6
CONTINUOUS
 10
53.849934
 20
191.931852
 11
54.885210
 21
191.931852
  0
LINE
  8
2
 62
134
  6
CONTINUOUS
 10
54.367572
 20
190.482963
 11
54.108753
 21
191.448889
  0
LINE
  8
2
 62
134
  6
CONTINUOUS
 10
54.367572
 20
190.482963
 11
54.626391
 21
191.448889
  0
LINE
  8
2
 62
134
  6
CONTINUOUS
 10
54.108753
 20
191.448889
 11
54.626391
 21
191.448889
  0
LINE
  8
2
 62
134
  6
CONTINUOUS
 10
54.367572
 20
196.000000
 11
54.885210
 21
194.068148
  0
LINE
  8
2
 62
134
  6
CONTINUOUS
 10
54.367572
 20
196.000000
 11
53.849934
 21
194.068148
  0
LINE
  8
2
 62
134
  6
CONTINUOUS
 10
54.885210
 20
194.068148
 11
53.849934
 21
194.068148
  0
LINE
  8
2
 62
134
  6
CONTINUOUS
 10
54.367572
 20
195.517037
 11
54.626391
 21
194.551111
  0
LINE
  8
2
 62
134
  6
CONTINUOUS
 10
54.367572
 20
195.517037
 11
54.108753
 21
194.551111
  0
LINE
  8
2
 62
134
  6
CONTINUOUS
 10
54.626391
 20
194.551111
 11
54.108753
 21
194.551111
  0
TEXT
  8
2
 62
134
  6
CONTINUOUS
 10
54.367572
 20
191.391226
 40
4.000000
 41
1.000000
  1
6
  7
KANJI
 50
90.000000
 51
30.000000
  0
ENDBLK
  0
BLOCK
  8
2
 62
134
  6
CONTINUOUS
  2
*D6
 70
    65
 10
0.0
 20
0.0
  0
LINE
  8
2
 62
134
  6
CONTINUOUS
 10
86.000000
 20
205.338784
 11
126.000000
 21
205.338784
  0
LINE
  8
2
 62
134
  6
CONTINUOUS
 10
86.000000
 20
207.338784
 11
86.000000
 21
197.000000
  0
LINE
  8
2
 62
134
  6
CONTINUOUS
 10
126.000000
 20
207.338784
 11
126.000000
 21
197.000000
  0
LINE
  8
2
 62
134
  6
CONTINUOUS
 10
86.000000
 20
205.338784
 11
87.931852
 21
205.856422
  0
LINE
  8
2
 62
134
  6
CONTINUOUS
 10
86.000000
 20
205.338784
 11
87.931852
 21
204.821146
  0
LINE
  8
2
 62
134
  6
CONTINUOUS
 10
87.931852
 20
205.856422
 11
87.931852
 21
204.821146
  0
LINE
  8
2
 62
134
  6
CONTINUOUS
 10
86.482963
 20
205.338784
 11
87.448889
 21
205.597603
  0
LINE
  8
2
 62
134
  6
CONTINUOUS
 10
86.482963
 20
205.338784
 11
87.448889
 21
205.079965
  0
LINE
  8
2
 62
134
  6
CONTINUOUS
 10
87.448889
 20
205.597603
 11
87.448889
 21
205.079965
  0
LINE
  8
2
 62
134
  6
CONTINUOUS
 10
126.000000
 20
205.338784
 11
124.068148
 21
204.821146
  0
LINE
  8
2
 62
134
  6
CONTINUOUS
 10
126.000000
 20
205.338784
 11
124.068148
 21
205.856422
  0
LINE
  8
2
 62
134
  6
CONTINUOUS
 10
124.068148
 20
204.821146
 11
124.068148
 21
205.856422
  0
LINE
  8
2
 62
134
  6
CONTINUOUS
 10
125.517037
 20
205.338784
 11
124.551111
 21
205.079965
  0
LINE
  8
2
 62
134
  6
CONTINUOUS
 10
125.517037
 20
205.338784
 11
124.551111
 21
205.597603
  0
LINE
  8
2
 62
134
  6
CONTINUOUS
 10
124.551111
 20
205.079965
 11
124.551111
 21
205.597603
  0
TEXT
  8
2
 62
134
  6
CONTINUOUS
 10
104.157026
 20
205.338784
 40
4.000000
 41
1.000000
  1
40
  7
KANJI
 50
0.000000
 51
30.000000
  0
ENDBLK
  0
BLOCK
  8
2
 62
134
  6
CONTINUOUS
  2
*D7
 70
    65
 10
0.0
 20
0.0
  0
LINE
  8
2
 62
134
  6
CONTINUOUS
 10
125.995733
 20
205.329297
 11
155.745739
 21
205.329297
  0
LINE
  8
2
 62
134
  6
CONTINUOUS
 10
125.995733
 20
206.329297
 11
125.995733
 21
201.990513
  0
LINE
  8
2
 62
134
  6
CONTINUOUS
 10
155.745739
 20
206.329297
 11
155.745739
 21
195.500062
  0
LINE
  8
2
 62
134
  6
CONTINUOUS
 10
125.995733
 20
205.329297
 11
127.927585
 21
205.846935
  0
LINE
  8
2
 62
134
  6
CONTINUOUS
 10
125.995733
 20
205.329297
 11
127.927585
 21
204.811659
  0
LINE
  8
2
 62
134
  6
CONTINUOUS
 10
127.927585
 20
205.846935
 11
127.927585
 21
204.811659
  0
LINE
  8
2
 62
134
  6
CONTINUOUS
 10
126.478696
 20
205.329297
 11
127.444622
 21
205.588116
  0
LINE
  8
2
 62
134
  6
CONTINUOUS
 10
126.478696
 20
205.329297
 11
127.444622
 21
205.070478
  0
LINE
  8
2
 62
134
  6
CONTINUOUS
 10
127.444622
 20
205.588116
 11
127.444622
 21
205.070478
  0
LINE
  8
2
 62
134
  6
CONTINUOUS
 10
155.745739
 20
205.329297
 11
153.813887
 21
204.811659
  0
LINE
  8
2
 62
134
  6
CONTINUOUS
 10
155.745739
 20
205.329297
 11
153.813887
 21
205.846935
  0
LINE
  8
2
 62
134
  6
CONTINUOUS
 10
153.813887
 20
204.811659
 11
153.813887
 21
205.846935
  0
LINE
  8
2
 62
134
  6
CONTINUOUS
 10
155.262776
 20
205.329297
 11
154.296850
 21
205.070478
  0
LINE
  8
2
 62
134
  6
CONTINUOUS
 10
155.262776
 20
205.329297
 11
154.296850
 21
205.588116
  0
LINE
  8
2
 62
134
  6
CONTINUOUS
 10
154.296850
 20
205.070478
 11
154.296850
 21
205.588116
  0
TEXT
  8
2
 62
134
  6
CONTINUOUS
 10
138.837955
 20
205.329297
 40
4.000000
 41
1.000000
  1
30
  7
KANJI
 50
0.000000
 51
0.000000
  0
ENDBLK
  0
BLOCK
  8
2
 62
134
  6
CONTINUOUS
  2
*D8
 70
    65
 10
0.0
 20
0.0
  0
LINE
  8
2
 62
134
  6
CONTINUOUS
 10
135.131295
 20
174.566851
 11
135.131295
 21
200.000000
  0
LINE
  8
2
 62
134
  6
CONTINUOUS
 10
135.131295
 20
184.000000
 11
135.648933
 21
182.068148
  0
LINE
  8
2
 62
134
  6
CONTINUOUS
 10
135.131295
 20
184.000000
 11
134.613657
 21
182.068148
  0
LINE
  8
2
 62
134
  6
CONTINUOUS
 10
135.648933
 20
182.068148
 11
134.613657
 21
182.068148
  0
LINE
  8
2
 62
134
  6
CONTINUOUS
 10
135.131295
 20
183.517037
 11
135.390114
 21
182.551111
  0
LINE
  8
2
 62
134
  6
CONTINUOUS
 10
135.131295
 20
183.517037
 11
134.872476
 21
182.551111
  0
LINE
  8
2
 62
134
  6
CONTINUOUS
 10
135.390114
 20
182.551111
 11
134.872476
 21
182.551111
  0
LINE
  8
2
 62
134
  6
CONTINUOUS
 10
135.131295
 20
196.000000
 11
134.613657
 21
197.931852
  0
LINE
  8
2
 62
134
  6
CONTINUOUS
 10
135.131295
 20
196.000000
 11
135.648933
 21
197.931852
  0
LINE
  8
2
 62
134
  6
CONTINUOUS
 10
134.613657
 20
197.931852
 11
135.648933
 21
197.931852
  0
LINE
  8
2
 62
134
  6
CONTINUOUS
 10
135.131295
 20
196.482963
 11
134.872476
 21
197.448889
  0
LINE
  8
2
 62
134
  6
CONTINUOUS
 10
135.131295
 20
196.482963
 11
135.390114
 21
197.448889
  0
LINE
  8
2
 62
134
  6
CONTINUOUS
 10
134.872476
 20
197.448889
 11
135.390114
 21
197.448889
  0
TEXT
  8
2
 62
134
  6
CONTINUOUS
 10
135.131295
 20
174.566851
 40
4.000000
 41
1.000000
  1
φ12
  7
KANJI
 50
90.000000
 51
0.000000
  0
ENDBLK
  0
BLOCK
  8
2
 62
134
  6
CONTINUOUS
  2
*D9
 70
    65
 10
0.0
 20
0.0
  0
LINE
  8
2
 62
134
  6
CONTINUOUS
 10
149.394568
 20
181.500000
 11
149.394568
 21
202.715822
  0
LINE
  8
2
 62
134
  6
CONTINUOUS
 10
149.394568
 20
185.500000
 11
149.912206
 21
183.568148
  0
LINE
  8
2
 62
134
  6
CONTINUOUS
 10
149.394568
 20
185.500000
 11
148.876930
 21
183.568148
  0
LINE
  8
2
 62
134
  6
CONTINUOUS
 10
149.912206
 20
183.568148
 11
148.876930
 21
183.568148
  0
LINE
  8
2
 62
134
  6
CONTINUOUS
 10
149.394568
 20
185.017037
 11
149.653387
 21
184.051111
  0
LINE
  8
2
 62
134
  6
CONTINUOUS
 10
149.394568
 20
185.017037
 11
149.135749
 21
184.051111
  0
LINE
  8
2
 62
134
  6
CONTINUOUS
 10
149.653387
 20
184.051111
 11
149.135749
 21
184.051111
  0
LINE
  8
2
 62
134
  6
CONTINUOUS
 10
149.394568
 20
194.500062
 11
148.876930
 21
196.431914
  0
LINE
  8
2
 62
134
  6
CONTINUOUS
 10
149.394568
 20
194.500062
 11
149.912206
 21
196.431914
  0
LINE
  8
2
 62
134
  6
CONTINUOUS
 10
148.876930
 20
196.431914
 11
149.912206
 21
196.431914
  0
LINE
  8
2
 62
134
  6
CONTINUOUS
 10
149.394568
 20
194.983025
 11
149.135749
 21
195.948951
  0
LINE
  8
2
 62
134
  6
CONTINUOUS
 10
149.394568
 20
194.983025
 11
149.653387
 21
195.948951
  0
LINE
  8
2
 62
134
  6
CONTINUOUS
 10
149.135749
 20
195.948951
 11
149.653387
 21
195.948951
  0
TEXT
  8
2
 62
134
  6
CONTINUOUS
 10
149.394568
 20
196.715822
 40
4.000000
 41
1.000000
  1
φ9
  7
KANJI
 50
90.000000
 51
0.000000
  0
ENDBLK
  0
BLOCK
  8
2
 62
134
  6
CONTINUOUS
  2
*D10
 70
    65
 10
0.0
 20
0.0
  0
LINE
  8
2
 62
134
  6
CONTINUOUS
 10
166.745739
 20
183.400000
 11
166.745739
 21
204.455081
  0
LINE
  8
2
 62
134
  6
CONTINUOUS
 10
165.745739
 20
187.400000
 11
168.745739
 21
187.400000
  0
LINE
  8
2
 62
134
  6
CONTINUOUS
 10
165.745739
 20
192.600000
 11
167.745739
 21
192.600000
  0
LINE
  8
2
 62
134
  6
CONTINUOUS
 10
166.745739
 20
187.400000
 11
167.263377
 21
185.468148
  0
LINE
  8
2
 62
134
  6
CONTINUOUS
 10
166.745739
 20
187.400000
 11
166.228101
 21
185.468148
  0
LINE
  8
2
 62
134
  6
CONTINUOUS
 10
167.263377
 20
185.468148
 11
166.228101
 21
185.468148
  0
LINE
  8
2
 62
134
  6
CONTINUOUS
 10
166.745739
 20
186.917037
 11
167.004558
 21
185.951111
  0
LINE
  8
2
 62
134
  6
CONTINUOUS
 10
166.745739
 20
186.917037
 11
166.486920
 21
185.951111
  0
LINE
  8
2
 62
134
  6
CONTINUOUS
 10
167.004558
 20
185.951111
 11
166.486920
 21
185.951111
  0
LINE
  8
2
 62
134
  6
CONTINUOUS
 10
166.745739
 20
192.600000
 11
166.228101
 21
194.531852
  0
LINE
  8
2
 62
134
  6
CONTINUOUS
 10
166.745739
 20
192.600000
 11
167.263377
 21
194.531852
  0
LINE
  8
2
 62
134
  6
CONTINUOUS
 10
166.228101
 20
194.531852
 11
167.263377
 21
194.531852
  0
LINE
  8
2
 62
134
  6
CONTINUOUS
 10
166.745739
 20
193.082963
 11
166.486920
 21
194.048889
  0
LINE
  8
2
 62
134
  6
CONTINUOUS
 10
166.745739
 20
193.082963
 11
167.004558
 21
194.048889
  0
LINE
  8
2
 62
134
  6
CONTINUOUS
 10
166.486920
 20
194.048889
 11
167.004558
 21
194.048889
  0
TEXT
  8
2
 62
134
  6
CONTINUOUS
 10
166.745739
 20
194.455081
 40
4.000000
 41
1.000000
  1
φ5.2
  7
KANJI
 50
90.000000
 51
0.000000
  0
ENDBLK
  0
BLOCK
  8
2
 62
134
  6
CONTINUOUS
  2
*D11
 70
    65
 10
0.0
 20
0.0
  0
LINE
  8
2
 62
134
  6
CONTINUOUS
 10
76.987929
 20
171.000000
 11
76.987929
 21
183.000000
  0
LINE
  8
2
 62
134
  6
CONTINUOUS
 10
74.987929
 20
171.000000
 11
84.000000
 21
171.000000
  0
LINE
  8
2
 62
134
  6
CONTINUOUS
 10
74.987929
 20
183.000000
 11
85.037425
 21
183.000000
  0
LINE
  8
2
 62
134
  6
CONTINUOUS
 10
76.987929
 20
171.000000
 11
76.470291
 21
172.931852
  0
LINE
  8
2
 62
134
  6
CONTINUOUS
 10
76.987929
 20
171.000000
 11
77.505567
 21
172.931852
  0
LINE
  8
2
 62
134
  6
CONTINUOUS
 10
76.470291
 20
172.931852
 11
77.505567
 21
172.931852
  0
LINE
  8
2
 62
134
  6
CONTINUOUS
 10
76.987929
 20
171.482963
 11
76.729110
 21
172.448889
  0
LINE
  8
2
 62
134
  6
CONTINUOUS
 10
76.987929
 20
171.482963
 11
77.246748
 21
172.448889
  0
LINE
  8
2
 62
134
  6
CONTINUOUS
 10
76.729110
 20
172.448889
 11
77.246748
 21
172.448889
  0
LINE
  8
2
 62
134
  6
CONTINUOUS
 10
76.987929
 20
183.000000
 11
77.505567
 21
181.068148
  0
LINE
  8
2
 62
134
  6
CONTINUOUS
 10
76.987929
 20
183.000000
 11
76.470291
 21
181.068148
  0
LINE
  8
2
 62
134
  6
CONTINUOUS
 10
77.505567
 20
181.068148
 11
76.470291
 21
181.068148
  0
LINE
  8
2
 62
134
  6
CONTINUOUS
 10
76.987929
 20
182.517037
 11
77.246748
 21
181.551111
  0
LINE
  8
2
 62
134
  6
CONTINUOUS
 10
76.987929
 20
182.517037
 11
76.729110
 21
181.551111
  0
LINE
  8
2
 62
134
  6
CONTINUOUS
 10
77.246748
 20
181.551111
 11
76.729110
 21
181.551111
  0
TEXT
  8
2
 62
134
  6
CONTINUOUS
 10
76.987929
 20
174.519470
 40
4.000000
 41
1.000000
  1
12
  7
KANJI
 50
90.000000
 51
0.000000
  0
ENDBLK
  0
BLOCK
  8
2
 62
134
  6
CONTINUOUS
  2
*D12
 70
    65
 10
0.0
 20
0.0
  0
LINE
  8
2
 62
134
  6
CONTINUOUS
 10
114.167627
 20
176.500000
 11
114.167627
 21
171.000000
  0
LINE
  8
2
 62
134
  6
CONTINUOUS
 10
116.167627
 20
176.500000
 11
114.757695
 21
176.500000
  0
LINE
  8
2
 62
134
  6
CONTINUOUS
 10
116.167627
 20
171.000000
 11
114.757695
 21
171.000000
  0
LINE
  8
2
 62
134
  6
CONTINUOUS
 10
114.167627
 20
176.500000
 11
114.685265
 21
174.568148
  0
LINE
  8
2
 62
134
  6
CONTINUOUS
 10
114.167627
 20
176.500000
 11
113.649989
 21
174.568148
  0
LINE
  8
2
 62
134
  6
CONTINUOUS
 10
114.685265
 20
174.568148
 11
113.649989
 21
174.568148
  0
LINE
  8
2
 62
134
  6
CONTINUOUS
 10
114.167627
 20
176.017037
 11
114.426446
 21
175.051111
  0
LINE
  8
2
 62
134
  6
CONTINUOUS
 10
114.167627
 20
176.017037
 11
113.908808
 21
175.051111
  0
LINE
  8
2
 62
134
  6
CONTINUOUS
 10
114.426446
 20
175.051111
 11
113.908808
 21
175.051111
  0
LINE
  8
2
 62
134
  6
CONTINUOUS
 10
114.167627
 20
171.000000
 11
113.649989
 21
172.931852
  0
LINE
  8
2
 62
134
  6
CONTINUOUS
 10
114.167627
 20
171.000000
 11
114.685265
 21
172.931852
  0
LINE
  8
2
 62
134
  6
CONTINUOUS
 10
113.649989
 20
172.931852
 11
114.685265
 21
172.931852
  0
LINE
  8
2
 62
134
  6
CONTINUOUS
 10
114.167627
 20
171.482963
 11
113.908808
 21
172.448889
  0
LINE
  8
2
 62
134
  6
CONTINUOUS
 10
114.167627
 20
171.482963
 11
114.426446
 21
172.448889
  0
LINE
  8
2
 62
134
  6
CONTINUOUS
 10
113.908808
 20
172.448889
 11
114.426446
 21
172.448889
  0
TEXT
  8
2
 62
134
  6
CONTINUOUS
 10
114.167627
 20
170.854925
 40
4.000000
 41
1.000000
  1
5.5
  7
KANJI
 50
90.000000
 51
0.000000
  0
ENDBLK
  0
ENDSEC
  0
SECTION
  2
ENTITIES
  0
TEXT
  8
5
 62
7
  6
CONTINUOUS
 10
123.572985
 20
23.251884
 40
1.750000
 41
4.000000
  1
製図
  7
KANJI
 50
-90.000000
 51
0.000000
  0
TEXT
  8
5
 62
7
  6
CONTINUOUS
 10
143.405766
 20
23.087976
 40
1.750000
 41
4.000000
  1
図番
  7
KANJI
 50
-90.000000
 51
0.000000
  0
TEXT
  8
5
 62
7
  6
CONTINUOUS
 10
143.405766
 20
36.364467
 40
1.750000
 41
4.000000
  1
図　名
  7
KANJI
 50
-90.000000
 51
0.000000
  0
TEXT
  8
5
 62
7
  6
CONTINUOUS
 10
78.498481
 20
30.955526
 40
1.750000
 41
4.000000
  1
日付
  7
KANJI
 50
-90.000000
 51
0.000000
  0
TEXT
  8
5
 62
7
  6
CONTINUOUS
 10
113.574640
 20
31.119433
 40
1.750000
 41
4.000000
  1
図法
  7
KANJI
 50
-90.000000
 51
0.000000
  0
TEXT
  8
5
 62
7
  6
CONTINUOUS
 10
113.410733
 20
39.150890
 40
1.750000
 41
4.000000
  1
尺度
  7
KANJI
 50
-90.000000
 51
0.000000
  0
TEXT
  8
5
 62
7
  6
CONTINUOUS
 10
78.498481
 20
38.986983
 40
1.750000
 41
4.000000
  1
公差
  7
KANJI
 50
-90.000000
 51
0.000000
  0
TEXT
  8
5
 62
7
  6
CONTINUOUS
 10
78.498481
 20
23.087976
 40
1.750000
 41
4.000000
  1
承認
  7
KANJI
 50
-90.000000
 51
0.000000
  0
TEXT
  8
5
 62
7
  6
CONTINUOUS
 10
103.576296
 20
23.087976
 40
1.750000
 41
4.000000
  1
設計
  7
KANJI
 50
-90.000000
 51
0.000000
  0
TEXT
  8
5
 62
7
  6
CONTINUOUS
 10
97.020004
 20
9.155857
 40
4.500000
 41
1.888889
  1
ジャパンセンサー株式会社
  7
KANJI
 50
0.000000
 51
0.000000
  0
LINE
  8
5
 62
7
  6
CONTINUOUS
 10
197.610236
 20
7.600394
 11
197.610236
 21
282.600394
  0
LINE
  8
5
 62
7
  6
CONTINUOUS
 10
197.610236
 20
282.600394
 11
12.610236
 21
282.600394
  0
LINE
  8
5
 62
7
  6
CONTINUOUS
 10
12.610236
 20
282.600394
 11
12.610236
 21
7.600394
  0
LINE
  8
5
 62
7
  6
CONTINUOUS
 10
12.610236
 20
7.600394
 11
197.610236
 21
7.600394
  0
LINE
  8
5
 62
7
  6
CONTINUOUS
 10
77.610236
 20
39.600394
 11
197.610236
 21
39.600394
  0
LINE
  8
5
 62
7
  6
CONTINUOUS
 10
77.610236
 20
7.600394
 11
77.610236
 21
39.600394
  0
LINE
  8
5
 62
7
  6
CONTINUOUS
 10
197.610236
 20
15.600394
 11
77.610236
 21
15.600394
  0
LINE
  8
5
 62
7
  6
CONTINUOUS
 10
142.610236
 20
39.600394
 11
142.610236
 21
15.600394
  0
LINE
  8
5
 62
7
  6
CONTINUOUS
 10
197.610236
 20
23.600394
 11
77.610236
 21
23.600394
  0
LINE
  8
5
 62
7
  6
CONTINUOUS
 10
147.610236
 20
15.600394
 11
147.610236
 21
39.600394
  0
LINE
  8
5
 62
7
  6
CONTINUOUS
 10
117.610236
 20
39.600394
 11
117.610236
 21
23.600394
  0
LINE
  8
5
 62
7
  6
CONTINUOUS
 10
82.610236
 20
15.600394
 11
82.610236
 21
39.600394
  0
LINE
  8
5
 62
7
  6
CONTINUOUS
 10
77.610236
 20
31.600394
 11
142.610236
 21
31.600394
  0
LINE
  8
5
 62
7
  6
CONTINUOUS
 10
112.610236
 20
39.600394
 11
112.610236
 21
23.600394
  0
LINE
  8
5
 62
7
  6
CONTINUOUS
 10
102.610236
 20
15.600394
 11
102.610236
 21
23.600394
  0
LINE
  8
5
 62
7
  6
CONTINUOUS
 10
122.610236
 20
15.600394
 11
122.610236
 21
23.600394
  0
LINE
  8
5
 62
7
  6
CONTINUOUS
 10
107.610236
 20
23.600394
 11
107.610236
 21
15.600394
  0
LINE
  8
5
 62
7
  6
CONTINUOUS
 10
127.610236
 20
23.600394
 11
127.610236
 21
15.600394
  0
TEXT
  8
5
 62
7
  6
CONTINUOUS
 10
122.589541
 20
33.250228
 40
4.000000
 41
1.000000
  1
１／１
  7
KANJI
 50
0.000000
 51
0.000000
  0
TEXT
  8
5
 62
7
  6
CONTINUOUS
 10
121.606097
 20
24.890957
 40
4.000000
 41
1.000000
  1
三角法
  7
KANJI
 50
0.000000
 51
0.000000
  0
TEXT
  8
5
 62
7
  6
CONTINUOUS
 10
111.119218
 20
17.598748
 40
4.000000
 41
1.000000
  1
須藤
  7
KANJI
 50
0.000000
 51
0.000000
  0
TEXT
  8
5
 62
7
  6
CONTINUOUS
 10
131.119218
 20
17.598748
 40
4.000000
 41
1.000000
  1
須藤
  7
KANJI
 50
0.000000
 51
0.000000
  0
TEXT
  8
5
 62
7
  6
DOT
 10
148.573081
 20
17.393209
 40
4.000000
 41
1.000000
  1
０１５－８７９－Ａ１０４
  7
KANJI
 50
0.000000
 51
0.000000
  0
TEXT
  8
5
 62
7
  6
CONTINUOUS
 10
87.148745
 20
25.637626
 40
4.000000
 41
1.000000
  1
2016/06/10
  7
KANJI
 50
0.000000
 51
0.000000
  0
TEXT
  8
5
 62
7
  6
CONTINUOUS
 10
150.609559
 20
32.539202
 40
4.000000
 41
1.000000
  1
FTKX φ6角ﾍｯﾄﾞ　外形図
  7
KANJI
 50
0.000000
 51
0.000000
  0
TEXT
  8
5
 62
7
  6
CONTINUOUS
 10
150.609559
 20
25.027341
 40
4.000000
 41
1.000000
  1
ＦＴＨＸ－Ｓ
  7
KANJI
 50
0.000000
 51
0.000000
  0
LINE
  8
10
 62
7
  6
CONTINUOUS
 10
103.373566
 20
122.131259
 11
35.874255
 21
122.131259
  0
LINE
  8
10
 62
7
  6
CONTINUOUS
 10
35.874255
 20
126.797809
 11
103.373566
 21
126.797809
  0
LINE
  8
10
 62
7
  6
CONTINUOUS
 10
35.874255
 20
131.464359
 11
103.373566
 21
131.464359
  0
TEXT
  8
10
 62
7
  6
CONTINUOUS
 10
36.159527
 20
132.195207
 40
3.999900
 41
1.000000
  1
該当機種
  7
KANJI
 50
0.000000
 51
0.000000
  0
LINE
  8
10
 62
7
  6
CONTINUOUS
 10
35.874255
 20
117.464709
 11
103.373566
 21
117.464709
  0
LINE
  8
10
 62
7
  6
CONTINUOUS
 10
103.088295
 20
112.798159
 11
35.588983
 21
112.798159
  0
LINE
  8
10
 62
7
  6
CONTINUOUS
 10
35.588983
 20
108.131609
 11
103.088295
 21
108.131609
  0
LINE
  8
10
 62
7
  6
CONTINUOUS
 10
103.373566
 20
103.465059
 11
35.874255
 21
103.465059
  0
LINE
  8
10
 62
7
  6
CONTINUOUS
 10
35.874255
 20
131.464359
 11
35.874255
 21
103.465059
  0
LINE
  8
10
 62
134
  6
CONTINUOUS
 10
103.373566
 20
131.464359
 11
103.373566
 21
103.465059
  0
TEXT
  8
10
 62
7
  6
CONTINUOUS
 10
38.142611
 20
126.785875
 40
3.999900
 41
1.000000
  1
FTHX-0050S
  7
KANJI
 50
0.000000
 51
0.000000
  0
TEXT
  8
10
 62
7
  6
CONTINUOUS
 10
38.142611
 20
122.119325
 40
3.999900
 41
1.000000
  1
FTHX-0100S
  7
KANJI
 50
0.000000
 51
0.000000
  0
TEXT
  8
10
 62
7
  6
CONTINUOUS
 10
38.142611
 20
117.452775
 40
3.999900
 41
1.000000
  1
FTHX-0200S
  7
KANJI
 50
0.000000
 51
0.000000
  0
TEXT
  8
10
 62
7
  6
CONTINUOUS
 10
37.857339
 20
112.786225
 40
3.999900
 41
1.000000
  1
FTHX-0300S
  7
KANJI
 50
0.000000
 51
0.000000
  0
TEXT
  8
10
 62
7
  6
CONTINUOUS
 10
37.857339
 20
108.119675
 40
3.999900
 41
1.000000
  1
FTHX-0500S
  7
KANJI
 50
0.000000
 51
0.000000
  0
TEXT
  8
10
 62
7
  6
CONTINUOUS
 10
38.142611
 20
103.453125
 40
3.999900
 41
1.000000
  1
FTHX-1000S
  7
KANJI
 50
0.000000
 51
0.000000
  0
LINE
  8
1
 62
7
  6
DASHDOT
 10
40.000000
 20
199.402067
 11
40.000000
 21
166.661909
  0
LINE
  8
1
 62
7
  6
CONTINUOUS
 10
45.000000
 20
196.000000
 11
46.000000
 21
195.000000
  0
LINE
  8
1
 62
7
  6
CONTINUOUS
 10
46.000000
 20
195.000000
 11
46.000000
 21
172.000000
  0
LINE
  8
1
 62
7
  6
CONTINUOUS
 10
46.000000
 20
172.000000
 11
45.000000
 21
171.000000
  0
LINE
  8
1
 62
7
  6
CONTINUOUS
 10
45.000000
 20
171.000000
 11
35.000000
 21
171.000000
  0
LINE
  8
1
 62
7
  6
CONTINUOUS
 10
35.000000
 20
171.000000
 11
34.000000
 21
172.000000
  0
LINE
  8
1
 62
7
  6
CONTINUOUS
 10
34.000000
 20
172.000000
 11
34.000000
 21
195.000000
  0
LINE
  8
1
 62
7
  6
CONTINUOUS
 10
45.000000
 20
196.000000
 11
35.000000
 21
196.000000
  0
LINE
  8
1
 62
7
  6
CONTINUOUS
 10
34.000000
 20
195.000000
 11
35.000000
 21
196.000000
  0
LINE
  8
1
 62
7
  6
DASHDOT
 10
31.766035
 20
184.000000
 11
47.764764
 21
184.000000
  0
DIMENSION
  8
2
 62
134
  6
CONTINUOUS
  2
*D1
 10
86.000000
 20
162.838322
 11
87.814374
 21
162.838322
 70
     0
  1
4
 13
86.000000
 23
169.000000
 14
90.000000
 24
179.010921
 50
0.000000
  0
DIMENSION
  8
2
 62
134
  6
CONTINUOUS
  2
*D2
 10
90.000000
 20
162.838322
 11
99.934143
 21
162.838322
 70
     0
  1
20
 13
90.000000
 23
179.010921
 14
110.000000
 24
179.198825
 50
0.000000
  0
DIMENSION
  8
2
 62
134
  6
CONTINUOUS
  2
*D3
 10
34.000000
 20
202.948641
 11
39.523205
 21
202.948641
 70
     0
  1
12
 13
34.000000
 23
197.000000
 14
46.000000
 24
197.000000
 50
0.000000
  0
LINE
  8
2
 62
134
  6
CONTINUOUS
 10
86.000000
 20
162.838322
 11
84.068148
 21
162.320684
  0
LINE
  8
2
 62
134
  6
CONTINUOUS
 10
84.068148
 20
162.320684
 11
84.068148
 21
163.355960
  0
LINE
  8
2
 62
134
  6
CONTINUOUS
 10
84.068148
 20
163.355960
 11
86.000000
 21
162.838322
  0
LINE
  8
2
 62
134
  6
CONTINUOUS
 10
86.000000
 20
162.838322
 11
49.955141
 21
162.838322
  0
TEXT
  8
2
 62
134
  6
CONTINUOUS
 10
130.945446
 20
158.339418
 40
4.000000
 41
1.000000
  1
2-φ3.5
  7
KANJI
 50
0.000000
 51
0.000000
  0
LINE
  8
2
 62
134
  6
CONTINUOUS
 10
126.000000
 20
210.548913
 11
127.931852
 21
211.066551
  0
LINE
  8
2
 62
134
  6
CONTINUOUS
 10
127.931852
 20
211.066551
 11
127.931852
 21
210.031274
  0
LINE
  8
2
 62
134
  6
CONTINUOUS
 10
127.931852
 20
210.031274
 11
126.000000
 21
210.548913
  0
LINE
  8
2
 62
134
  6
CONTINUOUS
 10
126.000000
 20
212.548913
 11
126.000000
 21
197.000000
  0
LINE
  8
2
 62
134
  6
CONTINUOUS
 10
126.000000
 20
210.548913
 11
170.651728
 21
210.548913
  0
TEXT
  8
3
 62
134
  6
CONTINUOUS
 10
140.084116
 20
210.548913
 40
4.000000
 41
1.000000
  1
ﾌｧｲﾊﾞ長
  7
KANJI
 50
0.000000
 51
30.000000
  0
TEXT
  8
3
 62
134
  6
CONTINUOUS
 10
52.970360
 20
162.838322
 40
4.000000
 41
1.000000
  1
測定距離
  7
KANJI
 50
0.000000
 51
30.000000
  0
TEXT
  8
3
 62
134
  6
CONTINUOUS
 10
43.489986
 20
211.935752
 40
4.000000
 41
1.000000
  1
ｵﾌﾟｼﾖﾝ
  7
KANJI
 50
0.000000
 51
0.000000
  0
TEXT
  8
3
 62
7
  6
CONTINUOUS
 10
104.270865
 20
148.524729
 40
4.000000
 41
1.000000
  1
重量３０ｇ
  7
KANJI
 50
0.000000
 51
0.000000
  0
LINE
  8
3
 62
14
  6
CONTINUOUS
 10
113.416558
 20
196.080734
 11
123.998379
 21
215.333916
  0
LINE
  8
3
 62
14
  6
CONTINUOUS
 10
123.998379
 20
215.333916
 11
137.928681
 21
215.333916
  0
TEXT
  8
3
 62
14
  6
CONTINUOUS
 10
123.928681
 20
215.156216
 40
4.000000
 41
1.000000
  1
ｾﾝｻﾍｯﾄﾞ
  7
KANJI
 50
0.000000
 51
30.000000
  0
LINE
  8
3
 62
14
  6
CONTINUOUS
 10
113.416558
 20
196.080734
 11
113.893415
 21
198.023054
  0
LINE
  8
3
 62
14
  6
CONTINUOUS
 10
113.416558
 20
196.080734
 11
114.800689
 21
197.524404
  0
LINE
  8
3
 62
14
  6
CONTINUOUS
 10
113.893415
 20
198.023054
 11
114.800689
 21
197.524404
  0
LINE
  8
3
 62
14
  6
CONTINUOUS
 10
113.649181
 20
196.503983
 11
113.887610
 21
197.475143
  0
LINE
  8
3
 62
14
  6
CONTINUOUS
 10
113.649181
 20
196.503983
 11
114.341247
 21
197.225818
  0
LINE
  8
3
 62
14
  6
CONTINUOUS
 10
113.887610
 20
197.475143
 11
114.341247
 21
197.225818
  0
LINE
  8
1
 62
7
  6
DASHDOT
 10
34.294291
 20
190.000000
 11
59.287894
 21
190.000000
  0
LINE
  8
2
 62
7
  6
CONTINUOUS
 10
52.000000
 20
190.000000
 11
58.995571
 21
190.000000
  0
CIRCLE
  8
1
 62
7
  6
CONTINUOUS
 10
40.000000
 20
190.000000
 40
3.050000
  0
CIRCLE
  8
1
 62
7
  6
CONTINUOUS
 10
40.000000
 20
190.000000
 40
3.500000
  0
CIRCLE
  8
1
 62
7
  6
CONTINUOUS
 10
40.000000
 20
190.000000
 40
4.000000
  0
DIMENSION
  8
2
 62
134
  6
CONTINUOUS
  2
*D4
 10
54.367572
 20
171.000000
 11
54.367572
 21
179.900235
 70
     0
  1
19
 13
47.000000
 23
171.000000
 14
48.000000
 24
190.000000
 50
90.000000
  0
DIMENSION
  8
2
 62
134
  6
CONTINUOUS
  2
*D5
 10
54.367572
 20
190.000000
 11
54.367572
 21
192.391226
 70
     0
  1
6
 13
48.000000
 23
190.000000
 14
47.000000
 24
196.000000
 50
90.000000
  0
DIMENSION
  8
2
 62
134
  6
CONTINUOUS
  2
*D6
 10
86.000000
 20
205.338784
 11
106.157026
 21
205.338784
 70
     0
  1
40
 13
86.000000
 23
197.000000
 14
126.000000
 24
197.000000
 50
0.000000
  0
LINE
  8
3
 62
134
  6
CONTINUOUS
 10
105.669873
 20
192.500000
 11
96.308026
 21
215.285372
  0
LINE
  8
3
 62
134
  6
CONTINUOUS
 10
96.308026
 20
215.285372
 11
87.053416
 21
215.285372
  0
TEXT
  8
3
 62
134
  6
CONTINUOUS
 10
87.053416
 20
215.285372
 40
4.000000
 41
1.000000
  1
ﾚﾝｽﾞ
  7
KANJI
 50
0.000000
 51
30.000000
  0
LINE
  8
3
 62
134
  6
CONTINUOUS
 10
105.669873
 20
192.500000
 11
104.456888
 21
194.090178
  0
LINE
  8
3
 62
134
  6
CONTINUOUS
 10
105.669873
 20
192.500000
 11
105.414486
 21
194.483627
  0
LINE
  8
3
 62
134
  6
CONTINUOUS
 10
104.456888
 20
194.090178
 11
105.414486
 21
194.483627
  0
LINE
  8
3
 62
134
  6
CONTINUOUS
 10
105.486326
 20
192.946726
 11
104.879834
 21
193.741815
  0
LINE
  8
3
 62
134
  6
CONTINUOUS
 10
105.486326
 20
192.946726
 11
105.358633
 21
193.938539
  0
LINE
  8
3
 62
134
  6
CONTINUOUS
 10
104.879834
 20
193.741815
 11
105.358633
 21
193.938539
  0
LINE
  8
3
 62
134
  6
CONTINUOUS
 10
76.039148
 20
194.750000
 11
67.935337
 21
216.174831
  0
LINE
  8
3
 62
134
  6
CONTINUOUS
 10
67.935337
 20
216.174831
 11
37.685537
 21
216.174831
  0
TEXT
  8
3
 62
134
  6
CONTINUOUS
 10
37.685537
 20
215.892225
 40
4.000000
 41
1.000000
  1
φ6ｴｱﾊﾟｰｼﾞﾌｰﾄﾞ
  7
KANJI
 50
0.000000
 51
30.000000
  0
LINE
  8
3
 62
134
  6
CONTINUOUS
 10
76.039148
 20
194.750000
 11
74.871533
 21
196.373784
  0
LINE
  8
3
 62
134
  6
CONTINUOUS
 10
76.039148
 20
194.750000
 11
75.839855
 21
196.740046
  0
LINE
  8
3
 62
134
  6
CONTINUOUS
 10
74.871533
 20
196.373784
 11
75.839855
 21
196.740046
  0
LINE
  8
3
 62
134
  6
CONTINUOUS
 10
75.868285
 20
195.201729
 11
75.284477
 21
196.013621
  0
LINE
  8
3
 62
134
  6
CONTINUOUS
 10
75.868285
 20
195.201729
 11
75.768638
 21
196.196752
  0
LINE
  8
3
 62
134
  6
CONTINUOUS
 10
75.284477
 20
196.013621
 11
75.768638
 21
196.196752
  0
ARC
  8
1
 62
7
  6
DOT
 10
102.000000
 20
190.000000
 40
5.000000
 50
-36.869898
 51
36.869898
  0
ARC
  8
1
 62
7
  6
DOT
 10
110.000000
 20
190.000000
 40
5.000000
 50
143.130102
 51
-143.130102
  0
LINE
  8
1
 62
7
  6
DOT
 10
106.330127
 20
192.500000
 11
126.000000
 21
190.000000
  0
LINE
  8
1
 62
7
  6
DOT
 10
106.330127
 20
187.500000
 11
126.000000
 21
190.000000
  0
LINE
  8
1
 62
7
  6
DOT
 10
105.669873
 20
192.500000
 11
94.683440
 21
192.500000
  0
LINE
  8
1
 62
7
  6
DOT
 10
105.669873
 20
187.500000
 11
94.683440
 21
187.500000
  0
LINE
  8
3
 62
134
  6
CONTINUOUS
 10
160.921374
 20
186.990513
 11
166.695592
 21
177.933030
  0
LINE
  8
3
 62
134
  6
CONTINUOUS
 10
166.695592
 20
177.933030
 11
180.667731
 21
177.933030
  0
TEXT
  8
3
 62
134
  6
CONTINUOUS
 10
170.667731
 20
178.026112
 40
4.000000
 41
1.000000
  1
ﾌｧｲﾊﾞ
  7
KANJI
 50
0.000000
 51
30.000000
  0
LINE
  8
3
 62
134
  6
CONTINUOUS
 10
160.921374
 20
186.990513
 11
162.396349
 21
185.639792
  0
LINE
  8
3
 62
134
  6
CONTINUOUS
 10
160.921374
 20
186.990513
 11
161.523379
 21
185.083267
  0
LINE
  8
3
 62
134
  6
CONTINUOUS
 10
162.396349
 20
185.639792
 11
161.523379
 21
185.083267
  0
LINE
  8
3
 62
134
  6
CONTINUOUS
 10
161.180996
 20
186.583267
 11
161.918484
 21
185.907907
  0
LINE
  8
3
 62
134
  6
CONTINUOUS
 10
161.180996
 20
186.583267
 11
161.481999
 21
185.629644
  0
LINE
  8
3
 62
134
  6
CONTINUOUS
 10
161.918484
 20
185.907907
 11
161.481999
 21
185.629644
  0
LINE
  8
1
 62
7
  6
CONTINUOUS
 10
156.745739
 20
192.600000
 11
157.745739
 21
192.600000
  0
LINE
  8
1
 62
7
  6
CONTINUOUS
 10
158.745739
 20
192.600000
 11
159.745739
 21
192.600000
  0
LINE
  8
1
 62
7
  6
CONTINUOUS
 10
160.745739
 20
192.600000
 11
161.745739
 21
192.600000
  0
LINE
  8
1
 62
7
  6
CONTINUOUS
 10
162.745739
 20
192.600000
 11
163.745739
 21
192.600000
  0
LINE
  8
1
 62
7
  6
CONTINUOUS
 10
164.745739
 20
192.600000
 11
165.745739
 21
192.600000
  0
LINE
  8
1
 62
7
  6
CONTINUOUS
 10
166.745739
 20
192.600000
 11
167.745739
 21
192.600000
  0
LINE
  8
1
 62
7
  6
CONTINUOUS
 10
168.745739
 20
192.600000
 11
169.745739
 21
192.600000
  0
LINE
  8
1
 62
7
  6
CONTINUOUS
 10
170.745739
 20
192.600000
 11
171.745739
 21
192.600000
  0
LINE
  8
1
 62
7
  6
CONTINUOUS
 10
172.745739
 20
192.600000
 11
173.745739
 21
192.600000
  0
LINE
  8
1
 62
7
  6
CONTINUOUS
 10
174.745739
 20
192.100000
 11
174.745739
 21
192.600000
  0
LINE
  8
1
 62
7
  6
CONTINUOUS
 10
155.745739
 20
192.100000
 11
156.829072
 21
192.100000
  0
LINE
  8
1
 62
7
  6
CONTINUOUS
 10
157.829072
 20
192.100000
 11
158.829072
 21
192.100000
  0
LINE
  8
1
 62
7
  6
CONTINUOUS
 10
159.829072
 20
192.100000
 11
160.829072
 21
192.100000
  0
LINE
  8
1
 62
7
  6
CONTINUOUS
 10
161.829072
 20
192.100000
 11
162.829072
 21
192.100000
  0
LINE
  8
1
 62
7
  6
CONTINUOUS
 10
163.829072
 20
192.100000
 11
164.829072
 21
192.100000
  0
LINE
  8
1
 62
7
  6
CONTINUOUS
 10
165.829072
 20
192.100000
 11
166.829072
 21
192.100000
  0
LINE
  8
1
 62
7
  6
CONTINUOUS
 10
167.829072
 20
192.100000
 11
168.829072
 21
192.100000
  0
LINE
  8
1
 62
7
  6
CONTINUOUS
 10
169.829072
 20
192.100000
 11
170.829072
 21
192.100000
  0
LINE
  8
1
 62
7
  6
CONTINUOUS
 10
171.829072
 20
192.100000
 11
172.829072
 21
192.100000
  0
LINE
  8
1
 62
7
  6
CONTINUOUS
 10
173.829072
 20
192.100000
 11
174.745739
 21
192.100000
  0
LINE
  8
1
 62
7
  6
CONTINUOUS
 10
157.745739
 20
187.400000
 11
158.745739
 21
187.400000
  0
LINE
  8
1
 62
7
  6
CONTINUOUS
 10
159.745739
 20
187.400000
 11
160.745739
 21
187.400000
  0
LINE
  8
1
 62
7
  6
CONTINUOUS
 10
161.745739
 20
187.400000
 11
162.745739
 21
187.400000
  0
LINE
  8
1
 62
7
  6
CONTINUOUS
 10
163.745739
 20
187.400000
 11
164.745739
 21
187.400000
  0
LINE
  8
1
 62
7
  6
CONTINUOUS
 10
165.745739
 20
187.400000
 11
166.745739
 21
187.400000
  0
LINE
  8
1
 62
7
  6
CONTINUOUS
 10
167.745739
 20
187.400000
 11
168.745739
 21
187.400000
  0
LINE
  8
1
 62
7
  6
CONTINUOUS
 10
169.745739
 20
187.400000
 11
170.745739
 21
187.400000
  0
LINE
  8
1
 62
7
  6
CONTINUOUS
 10
171.745739
 20
187.400000
 11
172.745739
 21
187.400000
  0
LINE
  8
1
 62
7
  6
CONTINUOUS
 10
173.745739
 20
187.400000
 11
174.745739
 21
187.400000
  0
LINE
  8
1
 62
7
  6
CONTINUOUS
 10
172.662405
 20
187.900000
 11
173.662405
 21
187.900000
  0
LINE
  8
1
 62
7
  6
CONTINUOUS
 10
170.662405
 20
187.900000
 11
171.662405
 21
187.900000
  0
LINE
  8
1
 62
7
  6
CONTINUOUS
 10
168.761979
 20
187.900000
 11
169.662405
 21
187.900000
  0
LINE
  8
1
 62
7
  6
CONTINUOUS
 10
166.662405
 20
187.900000
 11
167.662405
 21
187.900000
  0
LINE
  8
1
 62
7
  6
CONTINUOUS
 10
164.662405
 20
187.900000
 11
165.662405
 21
187.900000
  0
LINE
  8
1
 62
7
  6
CONTINUOUS
 10
162.662405
 20
187.900000
 11
163.662405
 21
187.900000
  0
LINE
  8
1
 62
7
  6
CONTINUOUS
 10
160.662405
 20
187.900000
 11
161.662405
 21
187.900000
  0
LINE
  8
1
 62
7
  6
CONTINUOUS
 10
158.662405
 20
187.900000
 11
159.662405
 21
187.900000
  0
LINE
  8
1
 62
7
  6
CONTINUOUS
 10
156.761979
 20
187.900000
 11
157.662405
 21
187.900000
  0
LINE
  8
1
 62
7
  6
CONTINUOUS
 10
155.745739
 20
187.900000
 11
155.832357
 21
187.400000
  0
LINE
  8
1
 62
7
  6
CONTINUOUS
 10
155.832357
 20
187.400000
 11
156.845739
 21
187.400000
  0
LINE
  8
1
 62
7
  6
CONTINUOUS
 10
156.737003
 20
187.900000
 11
156.745739
 21
187.900000
  0
LINE
  8
1
 62
7
  6
CONTINUOUS
 10
156.745739
 20
192.600000
 11
157.745739
 21
187.400000
  0
LINE
  8
1
 62
7
  6
CONTINUOUS
 10
157.745739
 20
192.600000
 11
158.745739
 21
187.400000
  0
LINE
  8
1
 62
7
  6
CONTINUOUS
 10
158.745739
 20
192.600000
 11
159.745739
 21
187.400000
  0
LINE
  8
1
 62
7
  6
CONTINUOUS
 10
159.745739
 20
192.600000
 11
160.745739
 21
187.400000
  0
LINE
  8
1
 62
7
  6
CONTINUOUS
 10
160.745739
 20
192.600000
 11
161.745739
 21
187.400000
  0
LINE
  8
1
 62
7
  6
CONTINUOUS
 10
161.745739
 20
192.600000
 11
162.745739
 21
187.400000
  0
LINE
  8
1
 62
7
  6
CONTINUOUS
 10
162.745739
 20
192.600000
 11
163.745739
 21
187.400000
  0
LINE
  8
1
 62
7
  6
CONTINUOUS
 10
163.745739
 20
192.600000
 11
164.745739
 21
187.400000
  0
LINE
  8
1
 62
7
  6
CONTINUOUS
 10
164.745739
 20
192.600000
 11
165.745739
 21
187.400000
  0
LINE
  8
1
 62
7
  6
CONTINUOUS
 10
165.745739
 20
192.600000
 11
166.745739
 21
187.400000
  0
LINE
  8
1
 62
7
  6
CONTINUOUS
 10
166.745739
 20
192.600000
 11
167.745739
 21
187.400000
  0
LINE
  8
1
 62
7
  6
CONTINUOUS
 10
167.745739
 20
192.600000
 11
168.745739
 21
187.400000
  0
LINE
  8
1
 62
7
  6
CONTINUOUS
 10
168.745739
 20
192.600000
 11
169.745739
 21
187.400000
  0
LINE
  8
1
 62
7
  6
CONTINUOUS
 10
169.745739
 20
192.600000
 11
170.745739
 21
187.400000
  0
LINE
  8
1
 62
7
  6
CONTINUOUS
 10
170.745739
 20
192.600000
 11
171.745739
 21
187.400000
  0
LINE
  8
1
 62
7
  6
CONTINUOUS
 10
171.745739
 20
192.600000
 11
172.745739
 21
187.400000
  0
LINE
  8
1
 62
7
  6
CONTINUOUS
 10
172.745739
 20
192.600000
 11
173.745739
 21
187.400000
  0
LINE
  8
1
 62
7
  6
CONTINUOUS
 10
173.745739
 20
192.600000
 11
174.745739
 21
187.400000
  0
LINE
  8
1
 62
7
  6
CONTINUOUS
 10
174.745739
 20
192.100000
 11
174.745739
 21
187.400000
  0
LINE
  8
1
 62
7
  6
CONTINUOUS
 10
155.745739
 20
192.100000
 11
156.846526
 21
187.396063
  0
LINE
  8
1
 62
7
  6
CONTINUOUS
 10
155.745739
 20
187.400000
 11
155.745739
 21
192.600000
  0
LINE
  8
1
 62
7
  6
DASHDOT
 10
154.046901
 20
190.000000
 11
176.827716
 21
190.000000
  0
DIMENSION
  8
2
 62
134
  6
CONTINUOUS
  2
*D7
 10
125.995733
 20
205.329297
 11
140.837955
 21
205.329297
 70
     0
  1
30
 13
125.995733
 23
201.990513
 14
155.745739
 24
195.500062
 50
0.000000
  0
LINE
  8
1
 62
14
  6
CONTINUOUS
 10
140.745739
 20
192.450000
 11
140.745739
 21
193.000000
  0
LINE
  8
1
 62
14
  6
CONTINUOUS
 10
140.745739
 20
192.450000
 11
140.745739
 21
187.000000
  0
LINE
  8
1
 62
7
  6
CONTINUOUS
 10
155.745739
 20
194.500062
 11
155.745739
 21
185.500000
  0
LINE
  8
1
 62
7
  6
DASHDOT
 10
152.745739
 20
188.462974
 11
152.745739
 21
191.501064
  0
LINE
  8
1
 62
14
  6
CONTINUOUS
 10
147.545739
 20
192.828588
 11
147.545739
 21
187.171536
  0
LINE
  8
1
 62
14
  6
CONTINUOUS
 10
147.545739
 20
187.171536
 11
144.745739
 21
192.828588
  0
LINE
  8
1
 62
14
  6
CONTINUOUS
 10
144.745739
 20
187.171536
 11
147.545739
 21
192.828588
  0
LINE
  8
1
 62
14
  6
CONTINUOUS
 10
144.745739
 20
187.171536
 11
147.545739
 21
187.171536
  0
LINE
  8
1
 62
14
  6
CONTINUOUS
 10
144.745739
 20
192.828588
 11
147.545739
 21
192.828588
  0
LINE
  8
1
 62
14
  6
CONTINUOUS
 10
144.745739
 20
192.828588
 11
144.745739
 21
187.171536
  0
LINE
  8
1
 62
14
  6
CONTINUOUS
 10
142.745739
 20
187.171536
 11
142.745739
 21
192.828588
  0
LINE
  8
1
 62
14
  6
CONTINUOUS
 10
140.745739
 20
192.450000
 11
142.745739
 21
193.000000
  0
LINE
  8
1
 62
14
  6
CONTINUOUS
 10
140.745739
 20
187.550000
 11
142.745739
 21
187.000000
  0
LINE
  8
1
 62
14
  6
CONTINUOUS
 10
142.745739
 20
185.500000
 11
142.745739
 21
187.171536
  0
LINE
  8
1
 62
14
  6
CONTINUOUS
 10
142.745739
 20
194.500062
 11
142.745739
 21
192.828588
  0
LINE
  8
1
 62
7
  6
CONTINUOUS
 10
155.745739
 20
185.500000
 11
142.745739
 21
185.500000
  0
LINE
  8
1
 62
7
  6
CONTINUOUS
 10
155.745739
 20
194.500062
 11
142.745739
 21
194.500062
  0
CIRCLE
  8
1
 62
7
  6
CONTINUOUS
 10
152.745739
 20
190.000062
 40
0.782631
  0
CIRCLE
  8
1
 62
7
  6
CONTINUOUS
 10
152.745739
 20
190.000062
 40
1.000000
  0
LINE
  8
1
 62
14
  6
CONTINUOUS
 10
140.500000
 20
192.450000
 11
140.745739
 21
192.450000
  0
LINE
  8
1
 62
14
  6
CONTINUOUS
 10
140.500000
 20
187.550000
 11
140.745739
 21
187.550000
  0
LINE
  8
1
 62
14
  6
CONTINUOUS
 10
140.500000
 20
193.000000
 11
142.745739
 21
193.000000
  0
LINE
  8
1
 62
14
  6
CONTINUOUS
 10
140.500000
 20
187.000000
 11
142.745739
 21
187.000000
  0
LINE
  8
1
 62
7
  6
DASHDOT
 10
138.634031
 20
190.000000
 11
156.798085
 21
190.000000
  0
LINE
  8
1
 62
214
  6
CONTINUOUS
 10
126.000000
 20
195.086540
 11
127.000000
 21
195.086540
  0
LINE
  8
1
 62
7
  6
DASHDOT
 10
120.838863
 20
190.000000
 11
142.134056
 21
190.000000
  0
LINE
  8
1
 62
214
  6
CONTINUOUS
 10
127.000000
 20
184.000000
 11
140.200000
 21
184.000000
  0
LINE
  8
1
 62
214
  6
CONTINUOUS
 10
140.500000
 20
184.300000
 11
140.200000
 21
184.000000
  0
LINE
  8
1
 62
7
  6
CONTINUOUS
 10
127.000000
 20
188.304134
 11
140.500000
 21
188.304134
  0
LINE
  8
1
 62
7
  6
CONTINUOUS
 10
127.000000
 20
187.621813
 11
140.500000
 21
187.621813
  0
LINE
  8
1
 62
7
  6
CONTINUOUS
 10
127.000000
 20
186.966317
 11
140.500000
 21
186.966317
  0
LINE
  8
1
 62
7
  6
CONTINUOUS
 10
127.000000
 20
186.350404
 11
140.500000
 21
186.350404
  0
LINE
  8
1
 62
7
  6
CONTINUOUS
 10
127.000000
 20
185.786062
 11
140.500000
 21
185.786062
  0
LINE
  8
1
 62
7
  6
CONTINUOUS
 10
127.000000
 20
185.284276
 11
140.500000
 21
185.284276
  0
LINE
  8
1
 62
7
  6
CONTINUOUS
 10
127.000000
 20
184.854813
 11
140.500000
 21
184.854813
  0
LINE
  8
1
 62
7
  6
CONTINUOUS
 10
127.000000
 20
184.506030
 11
140.500000
 21
184.506030
  0
LINE
  8
1
 62
7
  6
CONTINUOUS
 10
127.000000
 20
184.244718
 11
140.500000
 21
184.244718
  0
LINE
  8
1
 62
214
  6
CONTINUOUS
 10
127.000000
 20
196.000000
 11
127.000000
 21
195.086540
  0
LINE
  8
1
 62
214
  6
CONTINUOUS
 10
127.000000
 20
196.000000
 11
140.200000
 21
196.000000
  0
LINE
  8
1
 62
214
  6
CONTINUOUS
 10
140.500000
 20
193.100000
 11
140.500000
 21
195.700000
  0
LINE
  8
1
 62
214
  6
CONTINUOUS
 10
140.200000
 20
196.000000
 11
140.500000
 21
195.700000
  0
LINE
  8
1
 62
214
  6
CONTINUOUS
 10
140.500000
 20
193.100000
 11
140.500000
 21
184.300000
  0
LINE
  8
1
 62
214
  6
CONTINUOUS
 10
126.000000
 20
184.913460
 11
127.000000
 21
184.913460
  0
LINE
  8
1
 62
7
  6
CONTINUOUS
 10
127.000000
 20
189.325871
 11
140.500000
 21
189.325871
  0
LINE
  8
1
 62
7
  6
CONTINUOUS
 10
127.000000
 20
191.695866
 11
140.500000
 21
191.695866
  0
LINE
  8
1
 62
7
  6
CONTINUOUS
 10
127.000000
 20
192.378187
 11
140.500000
 21
192.378187
  0
LINE
  8
1
 62
7
  6
CONTINUOUS
 10
127.000000
 20
193.033683
 11
140.500000
 21
193.033683
  0
LINE
  8
1
 62
7
  6
CONTINUOUS
 10
127.000000
 20
193.649596
 11
140.500000
 21
193.649596
  0
LINE
  8
1
 62
7
  6
CONTINUOUS
 10
127.000000
 20
194.213938
 11
140.500000
 21
194.213938
  0
LINE
  8
1
 62
7
  6
CONTINUOUS
 10
127.000000
 20
194.715724
 11
140.500000
 21
194.715724
  0
LINE
  8
1
 62
7
  6
CONTINUOUS
 10
127.000000
 20
195.145187
 11
140.500000
 21
195.145187
  0
LINE
  8
1
 62
7
  6
CONTINUOUS
 10
127.000000
 20
195.493970
 11
140.500000
 21
195.493970
  0
LINE
  8
1
 62
7
  6
CONTINUOUS
 10
127.000000
 20
195.755282
 11
140.500000
 21
195.755282
  0
LINE
  8
1
 62
7
  6
CONTINUOUS
 10
127.000000
 20
190.674129
 11
140.500000
 21
190.674129
  0
LINE
  8
1
 62
214
  6
CONTINUOUS
 10
127.000000
 20
184.000000
 11
127.000000
 21
195.086540
  0
LINE
  8
1
 62
214
  6
CONTINUOUS
 10
126.000000
 20
195.086540
 11
126.000000
 21
184.913460
  0
DIMENSION
  8
2
 62
134
  6
CONTINUOUS
  2
*D8
 10
135.131295
 20
184.000000
 11
135.131295
 21
178.566851
 70
     0
  1
φ12
 13
135.131295
 23
184.000000
 14
135.131295
 24
196.000000
 50
90.000000
  0
DIMENSION
  8
2
 62
134
  6
CONTINUOUS
  2
*D9
 10
149.394568
 20
185.500000
 11
149.394568
 21
199.715822
 70
     0
  1
φ9
 13
149.394568
 23
185.500000
 14
149.394568
 24
194.500062
 50
90.000000
  0
DIMENSION
  8
2
 62
134
  6
CONTINUOUS
  2
*D10
 10
166.745739
 20
187.400000
 11
166.745739
 21
199.455081
 70
     0
  1
φ5.2
 13
168.745739
 23
187.400000
 14
167.745739
 24
192.600000
 50
90.000000
  0
LINE
  8
1
 62
7
  6
DASHDOT
 10
85.196112
 20
190.000000
 11
127.656004
 21
190.000000
  0
LINE
  8
1
 62
3
  6
DASHDOT
 10
119.531741
 20
193.700000
 11
127.267679
 21
193.700000
  0
LINE
  8
1
 62
7
  6
DOT
 10
86.000000
 20
186.000000
 11
93.000000
 21
186.000000
  0
LINE
  8
1
 62
7
  6
DOT
 10
86.000000
 20
186.406000
 11
93.000000
 21
186.406000
  0
LINE
  8
1
 62
7
  6
DOT
 10
86.000000
 20
193.594000
 11
93.000000
 21
193.594000
  0
LINE
  8
1
 62
7
  6
DOT
 10
86.000000
 20
194.000000
 11
93.000000
 21
194.000000
  0
LINE
  8
1
 62
7
  6
DOT
 10
117.500005
 20
187.500000
 11
115.000000
 21
187.500000
  0
LINE
  8
1
 62
7
  6
DOT
 10
117.500005
 20
192.500000
 11
115.000000
 21
192.500000
  0
LINE
  8
1
 62
7
  6
DOT
 10
97.800000
 20
186.950000
 11
115.000000
 21
186.950000
  0
LINE
  8
1
 62
7
  6
DOT
 10
97.800000
 20
193.050000
 11
115.000000
 21
193.050000
  0
LINE
  8
1
 62
7
  6
DOT
 10
97.800000
 20
193.500000
 11
97.000000
 21
193.500000
  0
LINE
  8
1
 62
7
  6
DOT
 10
97.800000
 20
186.500000
 11
97.800000
 21
193.500000
  0
LINE
  8
1
 62
7
  6
DOT
 10
97.000000
 20
186.500000
 11
97.800000
 21
186.500000
  0
LINE
  8
1
 62
7
  6
DOT
 10
94.000000
 20
186.500000
 11
97.000000
 21
186.500000
  0
LINE
  8
1
 62
7
  6
DOT
 10
94.000000
 20
186.950000
 11
97.000000
 21
186.950000
  0
LINE
  8
1
 62
7
  6
DOT
 10
94.000000
 20
193.050000
 11
97.000000
 21
193.050000
  0
LINE
  8
1
 62
7
  6
DOT
 10
94.000000
 20
193.500000
 11
97.000000
 21
193.500000
  0
LINE
  8
1
 62
7
  6
DOT
 10
93.000000
 20
186.000000
 11
94.000000
 21
186.000000
  0
LINE
  8
1
 62
7
  6
DOT
 10
93.000000
 20
194.000000
 11
94.000000
 21
194.000000
  0
LINE
  8
1
 62
7
  6
DOT
 10
94.000000
 20
194.000000
 11
94.000000
 21
185.234910
  0
LINE
  8
1
 62
7
  6
DOT
 10
93.000000
 20
186.013796
 11
93.000000
 21
194.000000
  0
LINE
  8
1
 62
7
  6
DOT
 10
115.000000
 20
193.050000
 11
115.000000
 21
186.950000
  0
LINE
  8
1
 62
7
  6
DOT
 10
97.000000
 20
193.500000
 11
97.000000
 21
186.500000
  0
LINE
  8
1
 62
7
  6
DOT
 10
122.700005
 20
184.913460
 11
126.000005
 21
184.913460
  0
LINE
  8
1
 62
7
  6
DOT
 10
122.700005
 20
184.500001
 11
126.000005
 21
184.500001
  0
LINE
  8
1
 62
7
  6
DOT
 10
122.700005
 20
195.086541
 11
126.000005
 21
195.086541
  0
LINE
  8
1
 62
7
  6
DOT
 10
122.700005
 20
195.500001
 11
126.000005
 21
195.500001
  0
DIMENSION
  8
2
 62
134
  6
CONTINUOUS
  2
*D11
 10
76.987929
 20
171.000000
 11
76.987929
 21
176.519470
 70
     0
  1
12
 13
84.000000
 23
171.000000
 14
85.037425
 24
183.000000
 50
90.000000
  0
DIMENSION
  8
2
 62
134
  6
CONTINUOUS
  2
*D12
 10
114.167627
 20
176.500000
 11
114.167627
 21
173.854925
 70
     0
  1
5.5
 13
114.757695
 23
176.500000
 14
114.757695
 24
171.000000
 50
-90.000000
  0
CIRCLE
  8
1
 62
7
  6
CONTINUOUS
 10
90.000000
 20
183.000000
 40
1.750000
  0
CIRCLE
  8
1
 62
7
  6
CONTINUOUS
 10
110.000000
 20
183.000000
 40
1.750000
  0
LINE
  8
1
 62
7
  6
DASHDOT
 10
107.704970
 20
183.000000
 11
112.528297
 21
183.000000
  0
LINE
  8
1
 62
7
  6
DASHDOT
 10
87.037425
 20
183.000000
 11
92.431102
 21
183.000000
  0
LINE
  8
1
 62
7
  6
CONTINUOUS
 10
86.000000
 20
196.000000
 11
86.000000
 21
171.000000
  0
LINE
  8
1
 62
7
  6
CONTINUOUS
 10
86.000000
 20
171.000000
 11
126.000000
 21
171.000000
  0
LINE
  8
1
 62
7
  6
CONTINUOUS
 10
126.000000
 20
171.000000
 11
126.000000
 21
196.000000
  0
LINE
  8
1
 62
7
  6
CONTINUOUS
 10
126.000000
 20
196.000000
 11
86.000000
 21
196.000000
  0
LINE
  8
1
 62
7
  6
DASHDOT
 10
90.000000
 20
185.691991
 11
90.000000
 21
179.687597
  0
LINE
  8
1
 62
7
  6
DASHDOT
 10
110.000000
 20
185.691991
 11
110.000000
 21
179.687597
  0
LINE
  8
1
 62
7
  6
DOT
 10
115.664559
 20
180.783000
 11
126.000000
 21
180.783000
  0
LINE
  8
1
 62
7
  6
DOT
 10
115.664559
 20
172.217000
 11
126.000000
 21
172.217000
  0
LINE
  8
1
 62
7
  6
DOT
 10
115.664559
 20
181.364000
 11
126.000000
 21
181.364000
  0
LINE
  8
1
 62
7
  6
DOT
 10
115.664559
 20
181.364000
 11
115.664559
 21
171.636000
  0
LINE
  8
1
 62
7
  6
DOT
 10
115.664559
 20
171.636000
 11
126.000000
 21
171.636000
  0
LINE
  8
1
 62
7
  6
DASHDOT
 10
92.998339
 20
176.500000
 11
129.884966
 21
176.500000
  0
LINE
  8
1
 62
7
  6
DASHDOT
 10
93.000000
 20
189.000000
 11
92.998339
 21
176.500000
  0
LINE
  8
3
 62
7
  6
CONTINUOUS
 10
111.500250
 20
182.099029
 11
131.004552
 21
162.861713
  0
LINE
  8
3
 62
7
  6
CONTINUOUS
 10
131.004552
 20
162.861713
 11
155.183338
 21
162.861713
  0
TEXT
  8
3
 62
7
  6
CONTINUOUS
 10
131.183338
 20
162.861713
 40
4.000000
 41
1.000000
  1
　ﾍｯﾄﾞ取付穴
  7
KANJI
 50
0.000000
 51
30.000000
  0
LINE
  8
3
 62
7
  6
CONTINUOUS
 10
111.500250
 20
182.099029
 11
113.239151
 21
181.110989
  0
LINE
  8
3
 62
7
  6
CONTINUOUS
 10
111.500250
 20
182.099029
 11
112.512163
 21
180.373911
  0
LINE
  8
3
 62
7
  6
CONTINUOUS
 10
113.239151
 20
181.110989
 11
112.512163
 21
180.373911
  0
LINE
  8
3
 62
7
  6
CONTINUOUS
 10
111.844102
 20
181.759884
 11
112.713553
 21
181.265864
  0
LINE
  8
3
 62
7
  6
CONTINUOUS
 10
111.844102
 20
181.759884
 11
112.350058
 21
180.897325
  0
LINE
  8
3
 62
7
  6
CONTINUOUS
 10
112.713553
 20
181.265864
 11
112.350058
 21
180.897325
  0
LINE
  8
3
 62
7
  6
CONTINUOUS
 10
126.000000
 20
176.500000
 11
132.798208
 21
170.507544
  0
LINE
  8
3
 62
7
  6
CONTINUOUS
 10
132.798208
 20
170.507544
 11
166.203926
 21
170.507544
  0
TEXT
  8
3
 62
7
  6
CONTINUOUS
 10
138.203926
 20
170.872947
 40
4.000000
 41
1.000000
  1
R1/8計装エアー
  7
KANJI
 50
0.000000
 51
30.000000
  0
LINE
  8
3
 62
7
  6
CONTINUOUS
 10
126.000000
 20
176.500000
 11
127.791495
 21
175.610874
  0
LINE
  8
3
 62
7
  6
CONTINUOUS
 10
126.000000
 20
176.500000
 11
127.106917
 21
174.834246
  0
LINE
  8
3
 62
7
  6
CONTINUOUS
 10
127.791495
 20
175.610874
 11
127.106917
 21
174.834246
  0
LINE
  8
3
 62
7
  6
CONTINUOUS
 10
126.362301
 20
176.180640
 11
127.258049
 21
175.736077
  0
LINE
  8
3
 62
7
  6
CONTINUOUS
 10
126.362301
 20
176.180640
 11
126.915760
 21
175.347763
  0
LINE
  8
3
 62
7
  6
CONTINUOUS
 10
127.258049
 20
175.736077
 11
126.915760
 21
175.347763
  0
LINE
  8
1
 62
7
  6
DOT
 10
62.000000
 20
195.000000
 11
61.000000
 21
194.000000
  0
LINE
  8
1
 62
7
  6
DOT
 10
61.000000
 20
194.000000
 11
61.000000
 21
186.000000
  0
LINE
  8
1
 62
7
  6
DOT
 10
61.000000
 20
186.000000
 11
62.000000
 21
185.000000
  0
LINE
  8
1
 62
7
  6
DOT
 10
62.000000
 20
195.000000
 11
62.000000
 21
185.000000
  0
LINE
  8
1
 62
7
  6
DOT
 10
86.000000
 20
195.000000
 11
62.000000
 21
195.000000
  0
LINE
  8
1
 62
7
  6
DOT
 10
86.000000
 20
185.000000
 11
62.000000
 21
185.000000
  0
ENDSEC
  0
EOF
