  0
SECTION
  2
HEADER
  9
$ACADVER
  1
AC1009
  9
$INSBASE
 10
0.000000
 20
0.000000
  9
$EXTMIN
 10
0.000000
 20
0.000000
  9
$EXTMAX
 10
297.000000
 20
210.000000
  9
$LIMMIN
 10
0.000000
 20
0.000000
  9
$LIMMAX
 10
297.000000
 20
210.000000
  9
$VIEWCTR
 10
148.500000
 20
105.000000
  9
$VIEWSIZE
 40
210.000000
  9
$PEXTMIN
 10
0.000000
 20
0.000000
 30
0.000000
  9
$PEXTMAX
 10
297.000000
 20
210.000000
 30
0.000000
  9
$SNAPMODE
 70
     0
  9
$SNAPUNIT
 10
1.000000
 20
1.000000
  9
$SNAPBASE
 10
0.000000
 20
0.000000
  9
$SNAPANG
 50
0.000000
  9
$SNAPISOPAIR
 70
     0
  9
$SNAPSTYLE
 70
     0
  9
$GRIDMODE
 70
     0
  9
$GRIDUNIT
 10
0.000000
 20
0.000000
  9
$ORTHOMODE
 70
     0
  9
$REGENMODE
 70
     1
  9
$FILLMODE
 70
     1
  9
$QTEXTMODE
 70
     0
  9
$DRAGMODE
 70
     2
  9
$LTSCALE
 40
0.250000
  9
$OSMODE
 70
     0
  9
$ATTMODE
 70
     1
  9
$TEXTSIZE
 40
4.000000
  9
$TRACEWID
 40
0.050000
  9
$TEXTSTYLE
  7
STANDARD
  9
$CLAYER
  8
0
  9
$CELTYPE
  6
BYLAYER
  9
$CECOLOR
 62
   256
  9
$DIMSCALE
 40
1.000000
  9
$DIMASZ
 40
1.000000
  9
$DIMEXO
 40
0.000000
  9
$DIMDLI
 40
0.500000
  9
$DIMRND
 40
0.000000
  9
$DIMDLE
 40
0.000000
  9
$DIMEXE
 40
0.000000
  9
$DIMTP
 40
0.000000
  9
$DIMTM
 40
0.000000
  9
$DIMTXT
 40
4.000000
  9
$DIMCEN
 40
0.000000
  9
$DIMTSZ
 40
0.000000
  9
$DIMTOL
 70
     0
  9
$DIMLIM
 70
     0
  9
$DIMTIH
 70
     1
  9
$DIMTOH
 70
     1
  9
$DIMSE1
 70
     0
  9
$DIMSE2
 70
     0
  9
$DIMTAD
 70
     0
  9
$DIMZIN
 70
     0
  9
$DIMBLK
  1

  9
$DIMASO
 70
     0
  9
$DIMSHO
 70
     0
  9
$DIMPOST
  1

  9
$DIMAPOST
  1

  9
$DIMALT
 70
     0
  9
$DIMALTD
 70
     0
  9
$DIMALTF
 40
25.400000
  9
$DIMLFAC
 40
1.000000
  9
$DIMTOFL
 70
     0
  9
$DIMTVP
 40
0.000000
  9
$DIMTIX
 70
     0
  9
$DIMSOXD
 70
     0
  9
$DIMSAH
 70
     0
  9
$DIMBLKL
  1

  9
$DIMBLKR
  1

  9
$LUNITS
 70
     2
  9
$LUPREC
 70
     2
  9
$AXISMODE
 70
     0
  9
$AXISUNIT
 10
1.000000
 20
1.000000
  9
$SKETCHINC
 40
0.000000
  9
$FILLETRAD
 40
0.000000
  9
$AUNITS
 70
     1
  9
$AUPREC
 70
     2
  9
$MENU
  1
ACAD
  9
$ELEVATION
 40
0.000000
  9
$THICKNESS
 40
0.000000
  9
$VIEWDIR
 10
0.000000
 20
0.000000
 30
1.000000
  9
$LIMCHECK
 70
     1
  9
$BLIPMODE
 70
     1
  9
$CHAMFERA
 40
0.000000
  9
$CHAMFERB
 40
0.000000
  9
$FASTZOOM
 70
     1
  9
$SKPOLY
 70
     0
  9
$TDCREATE
 40
0.000000
  9
$TDUPDATE
 40
0.000000
  9
$TDINDWG
 40
0.000000
  9
$TDUSRTIMER
 40
0.000000
  9
$USRTIMER
 70
     1
  9
$ANGBASE
 50
0.000000
  9
$ANGDIR
 70
     0
  9
$PDMODE
 70
     0
  9
$PDSIZE
 40
0.000000
  9
$PLINEWID
 40
0.000000
  9
$COORDS
 70
     2
  9
$USERI1
 70
     0
  9
$USERI2
 70
     0
  9
$USERI3
 70
     0
  9
$USERI4
 70
     0
  9
$USERI5
 70
     0
  9
$USERR1
 40
0.000000
  9
$USERR2
 40
0.000000
  9
$USERR3
 40
0.000000
  9
$USERR4
 40
0.000000
  9
$USERR5
 40
0.000000
  0
ENDSEC
  0
SECTION
  2
TABLES
  0
TABLE
  2
LTYPE
 70
     5
  0
LTYPE
  2
CONTINUOUS
 70
    64
  3
Solid line
 72
    65
 73
     0
 40
0.0
  0
LTYPE
  2
HIDDEN
 70
    64
  3
------------------------
 72
    65
 73
     2
 40
12.6
 49
8.4
 49
-4.2
  0
LTYPE
  2
DOT
 70
    64
  3
････････････････････････
 72
    65
 73
     2
 40
8.0
 49
6.0
 49
-2.0
  0
LTYPE
  2
DASHDOT
 70
    64
  3
--･--･--･--･--･--･--･--
 72
    65
 73
     4
 40
50.5
 49
30.0
 49
-9.0
 49
2.5
 49
-9.0
  0
LTYPE
  2
DIVIDE
 70
    64
  3
--･･--･･--･･--･･--･･--
 72
    65
 73
     6
 40
58.0
 49
30.0
 49
-9.0
 49
2.5
 49
-5.0
 49
2.5
 49
-9.0
  0
LTYPE
  2
ACAD_ISO06W100
 70
    64
  3
____ ... ____ ... ____
 72
    65
 73
     8
 40
37.5
 49
24.0
 49
-3.0
 49
0.5
 49
-3.0
 49
0.5
 49
-3.0
 49
0.5
 49
-3.0
  0
LTYPE
  2
ACAD_ISO14W100
 70
    64
  3
__ . . . __ . . . __ . . . 
 72
    65
 73
     8
 40
25.5
 49
12.0
 49
-3.0
 49
0.5
 49
-3.0
 49
0.5
 49
-3.0
 49
0.5
 49
-3.0
  0
ENDTAB
  0
TABLE
  2
LAYER
 70
5
  0
LAYER
  2
1
 70
64
 62
7
  6
CONTINUOUS
  0
LAYER
  2
2
 70
64
 62
134
  6
CONTINUOUS
  0
LAYER
  2
4
 70
64
 62
54
  6
CONTINUOUS
  0
LAYER
  2
5
 70
64
 62
94
  6
CONTINUOUS
  0
LAYER
  2
10
 70
64
 62
3
  6
CONTINUOUS
  0
ENDTAB
  0
TABLE
  2
STYLE
 70
     2
  0
STYLE
  2
STANDARD
 70
    64
 40
0.0
 41
1.0
 50
0.0
 71
     0
 42
0.2
  3
TXT
  4

  0
STYLE
  2
KANJI
 70
    64
 40
0.0
 41
1.0
 50
0.0
 71
     0
 42
0.2
  3
TXT
  4
BIGFONT
  0
ENDTAB
  0
TABLE
  2
VIEW
 70
     0
  0
ENDTAB
  0
ENDSEC
  0
SECTION
  2
BLOCKS
  0
BLOCK
  8
2
 62
134
  6
CONTINUOUS
  2
*D1
 70
    65
 10
0.0
 20
0.0
  0
LINE
  8
2
 62
134
  6
CONTINUOUS
 10
28.583011
 20
104.804840
 11
52.083011
 21
104.804840
  0
LINE
  8
2
 62
134
  6
CONTINUOUS
 10
36.583011
 20
103.804840
 11
36.583011
 21
127.049998
  0
LINE
  8
2
 62
134
  6
CONTINUOUS
 10
44.083011
 20
103.804840
 11
44.083011
 21
123.500000
  0
LINE
  8
2
 62
134
  6
CONTINUOUS
 10
36.583011
 20
104.804840
 11
34.651159
 21
104.287202
  0
LINE
  8
2
 62
134
  6
CONTINUOUS
 10
36.583011
 20
104.804840
 11
34.651159
 21
105.322479
  0
LINE
  8
2
 62
134
  6
CONTINUOUS
 10
34.651159
 20
104.287202
 11
34.651159
 21
105.322479
  0
LINE
  8
2
 62
134
  6
CONTINUOUS
 10
36.100048
 20
104.804840
 11
35.134122
 21
104.546021
  0
LINE
  8
2
 62
134
  6
CONTINUOUS
 10
36.100048
 20
104.804840
 11
35.134122
 21
105.063659
  0
LINE
  8
2
 62
134
  6
CONTINUOUS
 10
35.134122
 20
104.546021
 11
35.134122
 21
105.063659
  0
LINE
  8
2
 62
134
  6
CONTINUOUS
 10
44.083011
 20
104.804840
 11
46.014863
 21
105.322479
  0
LINE
  8
2
 62
134
  6
CONTINUOUS
 10
44.083011
 20
104.804840
 11
46.014863
 21
104.287202
  0
LINE
  8
2
 62
134
  6
CONTINUOUS
 10
46.014863
 20
105.322479
 11
46.014863
 21
104.287202
  0
LINE
  8
2
 62
134
  6
CONTINUOUS
 10
44.565974
 20
104.804840
 11
45.531900
 21
105.063659
  0
LINE
  8
2
 62
134
  6
CONTINUOUS
 10
44.565974
 20
104.804840
 11
45.531900
 21
104.546021
  0
LINE
  8
2
 62
134
  6
CONTINUOUS
 10
45.531900
 20
105.063659
 11
45.531900
 21
104.546021
  0
TEXT
  8
2
 62
134
  6
CONTINUOUS
 10
37.264408
 20
104.804840
 40
4.000000
 41
1.000000
  1
7.5
  7
KANJI
 50
0.000000
 51
0.000000
  0
ENDBLK
  0
BLOCK
  8
2
 62
134
  6
CONTINUOUS
  2
*D2
 70
    65
 10
0.0
 20
0.0
  0
LINE
  8
2
 62
134
  6
CONTINUOUS
 10
56.556658
 20
116.000000
 11
56.556658
 21
146.856915
  0
LINE
  8
2
 62
134
  6
CONTINUOUS
 10
56.556658
 20
124.000000
 11
57.074296
 21
122.068148
  0
LINE
  8
2
 62
134
  6
CONTINUOUS
 10
56.556658
 20
124.000000
 11
56.039020
 21
122.068148
  0
LINE
  8
2
 62
134
  6
CONTINUOUS
 10
57.074296
 20
122.068148
 11
56.039020
 21
122.068148
  0
LINE
  8
2
 62
134
  6
CONTINUOUS
 10
56.556658
 20
123.517037
 11
56.815477
 21
122.551111
  0
LINE
  8
2
 62
134
  6
CONTINUOUS
 10
56.556658
 20
123.517037
 11
56.297839
 21
122.551111
  0
LINE
  8
2
 62
134
  6
CONTINUOUS
 10
56.815477
 20
122.551111
 11
56.297839
 21
122.551111
  0
LINE
  8
2
 62
134
  6
CONTINUOUS
 10
56.556658
 20
136.000000
 11
56.039020
 21
137.931852
  0
LINE
  8
2
 62
134
  6
CONTINUOUS
 10
56.556658
 20
136.000000
 11
57.074296
 21
137.931852
  0
LINE
  8
2
 62
134
  6
CONTINUOUS
 10
56.039020
 20
137.931852
 11
57.074296
 21
137.931852
  0
LINE
  8
2
 62
134
  6
CONTINUOUS
 10
56.556658
 20
136.482963
 11
56.297839
 21
137.448889
  0
LINE
  8
2
 62
134
  6
CONTINUOUS
 10
56.556658
 20
136.482963
 11
56.815477
 21
137.448889
  0
LINE
  8
2
 62
134
  6
CONTINUOUS
 10
56.297839
 20
137.448889
 11
56.815477
 21
137.448889
  0
TEXT
  8
2
 62
134
  6
CONTINUOUS
 10
56.556658
 20
138.856915
 40
4.000000
 41
1.000000
  1
φ12
  7
KANJI
 50
90.000000
 51
0.000000
  0
ENDBLK
  0
BLOCK
  8
2
 62
134
  6
CONTINUOUS
  2
*D3
 70
    65
 10
0.0
 20
0.0
  0
LINE
  8
2
 62
134
  6
CONTINUOUS
 10
157.807724
 20
117.500000
 11
157.807724
 21
145.621915
  0
LINE
  8
2
 62
134
  6
CONTINUOUS
 10
157.807724
 20
125.500000
 11
158.325362
 21
123.568148
  0
LINE
  8
2
 62
134
  6
CONTINUOUS
 10
157.807724
 20
125.500000
 11
157.290086
 21
123.568148
  0
LINE
  8
2
 62
134
  6
CONTINUOUS
 10
158.325362
 20
123.568148
 11
157.290086
 21
123.568148
  0
LINE
  8
2
 62
134
  6
CONTINUOUS
 10
157.807724
 20
125.017037
 11
158.066543
 21
124.051111
  0
LINE
  8
2
 62
134
  6
CONTINUOUS
 10
157.807724
 20
125.017037
 11
157.548905
 21
124.051111
  0
LINE
  8
2
 62
134
  6
CONTINUOUS
 10
158.066543
 20
124.051111
 11
157.548905
 21
124.051111
  0
LINE
  8
2
 62
134
  6
CONTINUOUS
 10
157.807724
 20
134.500062
 11
157.290086
 21
136.431914
  0
LINE
  8
2
 62
134
  6
CONTINUOUS
 10
157.807724
 20
134.500062
 11
158.325362
 21
136.431914
  0
LINE
  8
2
 62
134
  6
CONTINUOUS
 10
157.290086
 20
136.431914
 11
158.325362
 21
136.431914
  0
LINE
  8
2
 62
134
  6
CONTINUOUS
 10
157.807724
 20
134.983025
 11
157.548905
 21
135.948951
  0
LINE
  8
2
 62
134
  6
CONTINUOUS
 10
157.807724
 20
134.983025
 11
158.066543
 21
135.948951
  0
LINE
  8
2
 62
134
  6
CONTINUOUS
 10
157.548905
 20
135.948951
 11
158.066543
 21
135.948951
  0
TEXT
  8
2
 62
134
  6
CONTINUOUS
 10
157.807724
 20
139.621915
 40
4.000000
 41
1.000000
  1
φ9
  7
KANJI
 50
90.000000
 51
0.000000
  0
ENDBLK
  0
BLOCK
  8
2
 62
134
  6
CONTINUOUS
  2
*D4
 70
    65
 10
0.0
 20
0.0
  0
LINE
  8
2
 62
134
  6
CONTINUOUS
 10
44.083011
 20
110.668473
 11
58.583011
 21
110.668473
  0
LINE
  8
2
 62
134
  6
CONTINUOUS
 10
44.083011
 20
109.668473
 11
44.083011
 21
123.500000
  0
LINE
  8
2
 62
134
  6
CONTINUOUS
 10
58.583011
 20
109.668473
 11
58.583011
 21
123.300000
  0
LINE
  8
2
 62
134
  6
CONTINUOUS
 10
44.083011
 20
110.668473
 11
46.014863
 21
111.186111
  0
LINE
  8
2
 62
134
  6
CONTINUOUS
 10
44.083011
 20
110.668473
 11
46.014863
 21
110.150835
  0
LINE
  8
2
 62
134
  6
CONTINUOUS
 10
46.014863
 20
111.186111
 11
46.014863
 21
110.150835
  0
LINE
  8
2
 62
134
  6
CONTINUOUS
 10
44.565974
 20
110.668473
 11
45.531900
 21
110.927292
  0
LINE
  8
2
 62
134
  6
CONTINUOUS
 10
44.565974
 20
110.668473
 11
45.531900
 21
110.409654
  0
LINE
  8
2
 62
134
  6
CONTINUOUS
 10
45.531900
 20
110.927292
 11
45.531900
 21
110.409654
  0
LINE
  8
2
 62
134
  6
CONTINUOUS
 10
58.583011
 20
110.668473
 11
56.651159
 21
110.150835
  0
LINE
  8
2
 62
134
  6
CONTINUOUS
 10
58.583011
 20
110.668473
 11
56.651159
 21
111.186111
  0
LINE
  8
2
 62
134
  6
CONTINUOUS
 10
56.651159
 20
110.150835
 11
56.651159
 21
111.186111
  0
LINE
  8
2
 62
134
  6
CONTINUOUS
 10
58.100048
 20
110.668473
 11
57.134122
 21
110.409654
  0
LINE
  8
2
 62
134
  6
CONTINUOUS
 10
58.100048
 20
110.668473
 11
57.134122
 21
110.927292
  0
LINE
  8
2
 62
134
  6
CONTINUOUS
 10
57.134122
 20
110.409654
 11
57.134122
 21
110.927292
  0
TEXT
  8
2
 62
134
  6
CONTINUOUS
 10
47.277318
 20
110.668473
 40
4.000000
 41
1.000000
  1
14.5
  7
KANJI
 50
0.000000
 51
0.000000
  0
ENDBLK
  0
BLOCK
  8
2
 62
134
  6
CONTINUOUS
  2
*D5
 70
    65
 10
0.0
 20
0.0
  0
LINE
  8
2
 62
134
  6
CONTINUOUS
 10
135.000000
 20
111.626606
 11
165.000000
 21
111.626606
  0
LINE
  8
2
 62
134
  6
CONTINUOUS
 10
135.000000
 20
110.626606
 11
135.000000
 21
124.500000
  0
LINE
  8
2
 62
134
  6
CONTINUOUS
 10
165.000000
 20
110.626606
 11
165.000000
 21
124.500000
  0
LINE
  8
2
 62
134
  6
CONTINUOUS
 10
135.000000
 20
111.626606
 11
136.931852
 21
112.144244
  0
LINE
  8
2
 62
134
  6
CONTINUOUS
 10
135.000000
 20
111.626606
 11
136.931852
 21
111.108968
  0
LINE
  8
2
 62
134
  6
CONTINUOUS
 10
136.931852
 20
112.144244
 11
136.931852
 21
111.108968
  0
LINE
  8
2
 62
134
  6
CONTINUOUS
 10
135.482963
 20
111.626606
 11
136.448889
 21
111.885425
  0
LINE
  8
2
 62
134
  6
CONTINUOUS
 10
135.482963
 20
111.626606
 11
136.448889
 21
111.367787
  0
LINE
  8
2
 62
134
  6
CONTINUOUS
 10
136.448889
 20
111.885425
 11
136.448889
 21
111.367787
  0
LINE
  8
2
 62
134
  6
CONTINUOUS
 10
165.000000
 20
111.626606
 11
163.068148
 21
111.108968
  0
LINE
  8
2
 62
134
  6
CONTINUOUS
 10
165.000000
 20
111.626606
 11
163.068148
 21
112.144244
  0
LINE
  8
2
 62
134
  6
CONTINUOUS
 10
163.068148
 20
111.108968
 11
163.068148
 21
112.144244
  0
LINE
  8
2
 62
134
  6
CONTINUOUS
 10
164.517037
 20
111.626606
 11
163.551111
 21
111.367787
  0
LINE
  8
2
 62
134
  6
CONTINUOUS
 10
164.517037
 20
111.626606
 11
163.551111
 21
111.885425
  0
LINE
  8
2
 62
134
  6
CONTINUOUS
 10
163.551111
 20
111.367787
 11
163.551111
 21
111.885425
  0
TEXT
  8
2
 62
134
  6
CONTINUOUS
 10
147.767764
 20
111.626606
 40
4.000000
 41
1.000000
  1
30
  7
KANJI
 50
0.000000
 51
0.000000
  0
ENDBLK
  0
BLOCK
  8
2
 62
134
  6
CONTINUOUS
  2
*D6
 70
    65
 10
0.0
 20
0.0
  0
LINE
  8
2
 62
134
  6
CONTINUOUS
 10
183.187673
 20
94.584728
 11
208.236639
 21
119.633694
  0
LINE
  8
2
 62
134
  6
CONTINUOUS
 10
208.236639
 20
119.633694
 11
207.236639
 21
117.901643
  0
LINE
  8
2
 62
134
  6
CONTINUOUS
 10
208.236639
 20
119.633694
 11
206.504588
 21
118.633694
  0
LINE
  8
2
 62
134
  6
CONTINUOUS
 10
207.236639
 20
117.901643
 11
206.504588
 21
118.633694
  0
LINE
  8
2
 62
134
  6
CONTINUOUS
 10
207.895132
 20
119.292187
 11
207.395132
 21
118.426162
  0
LINE
  8
2
 62
134
  6
CONTINUOUS
 10
207.895132
 20
119.292187
 11
207.029107
 21
118.792187
  0
LINE
  8
2
 62
134
  6
CONTINUOUS
 10
207.395132
 20
118.426162
 11
207.029107
 21
118.792187
  0
TEXT
  8
2
 62
134
  6
CONTINUOUS
 10
196.081187
 20
107.478242
 40
4.000000
 41
1.000000
  1
R
  7
KANJI
 50
45.000000
 51
30.000000
  0
ENDBLK
  0
BLOCK
  8
2
 62
134
  6
CONTINUOUS
  2
*D7
 70
    65
 10
0.0
 20
0.0
  0
LINE
  8
2
 62
134
  6
CONTINUOUS
 10
79.833011
 20
119.400000
 11
79.833011
 21
148.528341
  0
LINE
  8
2
 62
134
  6
CONTINUOUS
 10
79.833011
 20
127.400000
 11
80.350649
 21
125.468148
  0
LINE
  8
2
 62
134
  6
CONTINUOUS
 10
79.833011
 20
127.400000
 11
79.315373
 21
125.468148
  0
LINE
  8
2
 62
134
  6
CONTINUOUS
 10
80.350649
 20
125.468148
 11
79.315373
 21
125.468148
  0
LINE
  8
2
 62
134
  6
CONTINUOUS
 10
79.833011
 20
126.917037
 11
80.091830
 21
125.951111
  0
LINE
  8
2
 62
134
  6
CONTINUOUS
 10
79.833011
 20
126.917037
 11
79.574192
 21
125.951111
  0
LINE
  8
2
 62
134
  6
CONTINUOUS
 10
80.091830
 20
125.951111
 11
79.574192
 21
125.951111
  0
LINE
  8
2
 62
134
  6
CONTINUOUS
 10
79.833011
 20
132.600000
 11
79.315373
 21
134.531852
  0
LINE
  8
2
 62
134
  6
CONTINUOUS
 10
79.833011
 20
132.600000
 11
80.350649
 21
134.531852
  0
LINE
  8
2
 62
134
  6
CONTINUOUS
 10
79.315373
 20
134.531852
 11
80.350649
 21
134.531852
  0
LINE
  8
2
 62
134
  6
CONTINUOUS
 10
79.833011
 20
133.082963
 11
79.574192
 21
134.048889
  0
LINE
  8
2
 62
134
  6
CONTINUOUS
 10
79.833011
 20
133.082963
 11
80.091830
 21
134.048889
  0
LINE
  8
2
 62
134
  6
CONTINUOUS
 10
79.574192
 20
134.048889
 11
80.091830
 21
134.048889
  0
TEXT
  8
2
 62
134
  6
CONTINUOUS
 10
79.833011
 20
138.528341
 40
4.000000
 41
1.000000
  1
φ5.2
  7
KANJI
 50
90.000000
 51
0.000000
  0
ENDBLK
  0
BLOCK
  8
2
 62
134
  6
CONTINUOUS
  2
*D8
 70
    65
 10
0.0
 20
0.0
  0
LINE
  8
2
 62
134
  6
CONTINUOUS
 10
68.301011
 20
117.500000
 11
68.301011
 21
144.685661
  0
LINE
  8
2
 62
134
  6
CONTINUOUS
 10
68.301011
 20
125.500000
 11
68.818649
 21
123.568148
  0
LINE
  8
2
 62
134
  6
CONTINUOUS
 10
68.301011
 20
125.500000
 11
67.783373
 21
123.568148
  0
LINE
  8
2
 62
134
  6
CONTINUOUS
 10
68.818649
 20
123.568148
 11
67.783373
 21
123.568148
  0
LINE
  8
2
 62
134
  6
CONTINUOUS
 10
68.301011
 20
125.017037
 11
68.559830
 21
124.051111
  0
LINE
  8
2
 62
134
  6
CONTINUOUS
 10
68.301011
 20
125.017037
 11
68.042192
 21
124.051111
  0
LINE
  8
2
 62
134
  6
CONTINUOUS
 10
68.559830
 20
124.051111
 11
68.042192
 21
124.051111
  0
LINE
  8
2
 62
134
  6
CONTINUOUS
 10
68.301011
 20
134.500062
 11
67.783373
 21
136.431914
  0
LINE
  8
2
 62
134
  6
CONTINUOUS
 10
68.301011
 20
134.500062
 11
68.818649
 21
136.431914
  0
LINE
  8
2
 62
134
  6
CONTINUOUS
 10
67.783373
 20
136.431914
 11
68.818649
 21
136.431914
  0
LINE
  8
2
 62
134
  6
CONTINUOUS
 10
68.301011
 20
134.983025
 11
68.042192
 21
135.948951
  0
LINE
  8
2
 62
134
  6
CONTINUOUS
 10
68.301011
 20
134.983025
 11
68.559830
 21
135.948951
  0
LINE
  8
2
 62
134
  6
CONTINUOUS
 10
68.042192
 20
135.948951
 11
68.559830
 21
135.948951
  0
TEXT
  8
2
 62
134
  6
CONTINUOUS
 10
68.301011
 20
138.685661
 40
4.000000
 41
1.000000
  1
φ9
  7
KANJI
 50
90.000000
 51
0.000000
  0
ENDBLK
  0
BLOCK
  8
2
 62
134
  6
CONTINUOUS
  2
*D9
 70
    65
 10
0.0
 20
0.0
  0
LINE
  8
2
 62
134
  6
CONTINUOUS
 10
58.583011
 20
110.668473
 11
73.833011
 21
110.668473
  0
LINE
  8
2
 62
134
  6
CONTINUOUS
 10
58.583011
 20
109.668473
 11
58.583011
 21
123.300000
  0
LINE
  8
2
 62
134
  6
CONTINUOUS
 10
73.833011
 20
109.668473
 11
73.833011
 21
124.500000
  0
LINE
  8
2
 62
134
  6
CONTINUOUS
 10
58.583011
 20
110.668473
 11
60.514863
 21
111.186111
  0
LINE
  8
2
 62
134
  6
CONTINUOUS
 10
58.583011
 20
110.668473
 11
60.514863
 21
110.150835
  0
LINE
  8
2
 62
134
  6
CONTINUOUS
 10
60.514863
 20
111.186111
 11
60.514863
 21
110.150835
  0
LINE
  8
2
 62
134
  6
CONTINUOUS
 10
59.065974
 20
110.668473
 11
60.031900
 21
110.927292
  0
LINE
  8
2
 62
134
  6
CONTINUOUS
 10
59.065974
 20
110.668473
 11
60.031900
 21
110.409654
  0
LINE
  8
2
 62
134
  6
CONTINUOUS
 10
60.031900
 20
110.927292
 11
60.031900
 21
110.409654
  0
LINE
  8
2
 62
134
  6
CONTINUOUS
 10
73.833011
 20
110.668473
 11
71.901159
 21
110.150835
  0
LINE
  8
2
 62
134
  6
CONTINUOUS
 10
73.833011
 20
110.668473
 11
71.901159
 21
111.186111
  0
LINE
  8
2
 62
134
  6
CONTINUOUS
 10
71.901159
 20
110.150835
 11
71.901159
 21
111.186111
  0
LINE
  8
2
 62
134
  6
CONTINUOUS
 10
73.350048
 20
110.668473
 11
72.384122
 21
110.409654
  0
LINE
  8
2
 62
134
  6
CONTINUOUS
 10
73.350048
 20
110.668473
 11
72.384122
 21
110.927292
  0
LINE
  8
2
 62
134
  6
CONTINUOUS
 10
72.384122
 20
110.409654
 11
72.384122
 21
110.927292
  0
TEXT
  8
2
 62
134
  6
CONTINUOUS
 10
61.834103
 20
110.668473
 40
4.000000
 41
1.000000
  1
15.3
  7
KANJI
 50
0.000000
 51
0.000000
  0
ENDBLK
  0
BLOCK
  8
2
 62
134
  6
CONTINUOUS
  2
*D10
 70
    65
 10
0.0
 20
0.0
  0
LINE
  8
2
 62
134
  6
CONTINUOUS
 10
262.590264
 20
104.804840
 11
255.090264
 21
104.804840
  0
LINE
  8
2
 62
134
  6
CONTINUOUS
 10
262.590264
 20
103.804840
 11
262.590264
 21
127.400000
  0
LINE
  8
2
 62
134
  6
CONTINUOUS
 10
255.090264
 20
103.804840
 11
255.090264
 21
103.804841
  0
LINE
  8
2
 62
134
  6
CONTINUOUS
 10
262.590264
 20
104.804840
 11
260.658413
 21
104.287202
  0
LINE
  8
2
 62
134
  6
CONTINUOUS
 10
262.590264
 20
104.804840
 11
260.658413
 21
105.322479
  0
LINE
  8
2
 62
134
  6
CONTINUOUS
 10
260.658413
 20
104.287202
 11
260.658413
 21
105.322479
  0
LINE
  8
2
 62
134
  6
CONTINUOUS
 10
262.107301
 20
104.804840
 11
261.141376
 21
104.546021
  0
LINE
  8
2
 62
134
  6
CONTINUOUS
 10
262.107301
 20
104.804840
 11
261.141376
 21
105.063659
  0
LINE
  8
2
 62
134
  6
CONTINUOUS
 10
261.141376
 20
104.546021
 11
261.141376
 21
105.063659
  0
LINE
  8
2
 62
134
  6
CONTINUOUS
 10
255.090264
 20
104.804840
 11
257.022116
 21
105.322479
  0
LINE
  8
2
 62
134
  6
CONTINUOUS
 10
255.090264
 20
104.804840
 11
257.022116
 21
104.287202
  0
LINE
  8
2
 62
134
  6
CONTINUOUS
 10
257.022116
 20
105.322479
 11
257.022116
 21
104.287202
  0
LINE
  8
2
 62
134
  6
CONTINUOUS
 10
255.573227
 20
104.804840
 11
256.539153
 21
105.063659
  0
LINE
  8
2
 62
134
  6
CONTINUOUS
 10
255.573227
 20
104.804840
 11
256.539153
 21
104.546021
  0
LINE
  8
2
 62
134
  6
CONTINUOUS
 10
256.539153
 20
105.063659
 11
256.539153
 21
104.546021
  0
TEXT
  8
2
 62
134
  6
CONTINUOUS
 10
255.864250
 20
104.804840
 40
4.000000
 41
1.000000
  1
7.5
  7
KANJI
 50
0.000000
 51
0.000000
  0
ENDBLK
  0
BLOCK
  8
2
 62
134
  6
CONTINUOUS
  2
*D11
 70
    65
 10
0.0
 20
0.0
  0
LINE
  8
2
 62
134
  6
CONTINUOUS
 10
44.083011
 20
104.804840
 11
255.090264
 21
104.804840
  0
LINE
  8
2
 62
134
  6
CONTINUOUS
 10
44.083011
 20
103.804840
 11
44.083011
 21
123.500000
  0
LINE
  8
2
 62
134
  6
CONTINUOUS
 10
255.090264
 20
103.804840
 11
255.090264
 21
121.000000
  0
LINE
  8
2
 62
134
  6
CONTINUOUS
 10
44.083011
 20
104.804840
 11
46.014863
 21
105.322479
  0
LINE
  8
2
 62
134
  6
CONTINUOUS
 10
44.083011
 20
104.804840
 11
46.014863
 21
104.287202
  0
LINE
  8
2
 62
134
  6
CONTINUOUS
 10
46.014863
 20
105.322479
 11
46.014863
 21
104.287202
  0
LINE
  8
2
 62
134
  6
CONTINUOUS
 10
44.565974
 20
104.804840
 11
45.531900
 21
105.063659
  0
LINE
  8
2
 62
134
  6
CONTINUOUS
 10
44.565974
 20
104.804840
 11
45.531900
 21
104.546021
  0
LINE
  8
2
 62
134
  6
CONTINUOUS
 10
45.531900
 20
105.063659
 11
45.531900
 21
104.546021
  0
LINE
  8
2
 62
134
  6
CONTINUOUS
 10
255.090264
 20
104.804840
 11
253.158413
 21
104.287202
  0
LINE
  8
2
 62
134
  6
CONTINUOUS
 10
255.090264
 20
104.804840
 11
253.158413
 21
105.322479
  0
LINE
  8
2
 62
134
  6
CONTINUOUS
 10
253.158413
 20
104.287202
 11
253.158413
 21
105.322479
  0
LINE
  8
2
 62
134
  6
CONTINUOUS
 10
254.607301
 20
104.804840
 11
253.641376
 21
104.546021
  0
LINE
  8
2
 62
134
  6
CONTINUOUS
 10
254.607301
 20
104.804840
 11
253.641376
 21
105.063659
  0
LINE
  8
2
 62
134
  6
CONTINUOUS
 10
253.641376
 20
104.546021
 11
253.641376
 21
105.063659
  0
TEXT
  8
2
 62
134
  6
CONTINUOUS
 10
104.805916
 20
104.804840
 40
4.000000
 41
1.000000
  1
ﾌｧｲﾊﾞ長
  7
KANJI
 50
0.000000
 51
0.000000
  0
ENDBLK
  0
BLOCK
  8
2
 62
134
  6
CONTINUOUS
  2
*D12
 70
    65
 10
0.0
 20
0.0
  0
LINE
  8
2
 62
134
  6
CONTINUOUS
 10
240.586003
 20
109.546737
 11
255.090264
 21
109.546737
  0
LINE
  8
2
 62
134
  6
CONTINUOUS
 10
240.586003
 20
108.546737
 11
240.586003
 21
122.000000
  0
LINE
  8
2
 62
134
  6
CONTINUOUS
 10
255.090264
 20
108.546737
 11
255.090264
 21
121.000000
  0
LINE
  8
2
 62
134
  6
CONTINUOUS
 10
240.586003
 20
109.546737
 11
242.517855
 21
110.064375
  0
LINE
  8
2
 62
134
  6
CONTINUOUS
 10
240.586003
 20
109.546737
 11
242.517855
 21
109.029099
  0
LINE
  8
2
 62
134
  6
CONTINUOUS
 10
242.517855
 20
110.064375
 11
242.517855
 21
109.029099
  0
LINE
  8
2
 62
134
  6
CONTINUOUS
 10
241.068966
 20
109.546737
 11
242.034892
 21
109.805556
  0
LINE
  8
2
 62
134
  6
CONTINUOUS
 10
241.068966
 20
109.546737
 11
242.034892
 21
109.287918
  0
LINE
  8
2
 62
134
  6
CONTINUOUS
 10
242.034892
 20
109.805556
 11
242.034892
 21
109.287918
  0
LINE
  8
2
 62
134
  6
CONTINUOUS
 10
255.090264
 20
109.546737
 11
253.158413
 21
109.029099
  0
LINE
  8
2
 62
134
  6
CONTINUOUS
 10
255.090264
 20
109.546737
 11
253.158413
 21
110.064375
  0
LINE
  8
2
 62
134
  6
CONTINUOUS
 10
253.158413
 20
109.029099
 11
253.158413
 21
110.064375
  0
LINE
  8
2
 62
134
  6
CONTINUOUS
 10
254.607301
 20
109.546737
 11
253.641376
 21
109.287918
  0
LINE
  8
2
 62
134
  6
CONTINUOUS
 10
254.607301
 20
109.546737
 11
253.641376
 21
109.805556
  0
LINE
  8
2
 62
134
  6
CONTINUOUS
 10
253.641376
 20
109.287918
 11
253.641376
 21
109.805556
  0
TEXT
  8
2
 62
134
  6
CONTINUOUS
 10
243.587239
 20
109.546737
 40
4.000000
 41
1.000000
  1
14.5
  7
KANJI
 50
0.000000
 51
0.000000
  0
ENDBLK
  0
BLOCK
  8
2
 62
134
  6
CONTINUOUS
  2
*D13
 70
    65
 10
0.0
 20
0.0
  0
LINE
  8
2
 62
134
  6
CONTINUOUS
 10
225.340264
 20
109.546737
 11
240.586003
 21
109.546737
  0
LINE
  8
2
 62
134
  6
CONTINUOUS
 10
225.340264
 20
108.546737
 11
225.340264
 21
124.499938
  0
LINE
  8
2
 62
134
  6
CONTINUOUS
 10
240.586003
 20
108.546737
 11
240.586003
 21
122.000000
  0
LINE
  8
2
 62
134
  6
CONTINUOUS
 10
225.340264
 20
109.546737
 11
227.272116
 21
110.064375
  0
LINE
  8
2
 62
134
  6
CONTINUOUS
 10
225.340264
 20
109.546737
 11
227.272116
 21
109.029099
  0
LINE
  8
2
 62
134
  6
CONTINUOUS
 10
227.272116
 20
110.064375
 11
227.272116
 21
109.029099
  0
LINE
  8
2
 62
134
  6
CONTINUOUS
 10
225.823227
 20
109.546737
 11
226.789153
 21
109.805556
  0
LINE
  8
2
 62
134
  6
CONTINUOUS
 10
225.823227
 20
109.546737
 11
226.789153
 21
109.287918
  0
LINE
  8
2
 62
134
  6
CONTINUOUS
 10
226.789153
 20
109.805556
 11
226.789153
 21
109.287918
  0
LINE
  8
2
 62
134
  6
CONTINUOUS
 10
240.586003
 20
109.546737
 11
238.654151
 21
109.029099
  0
LINE
  8
2
 62
134
  6
CONTINUOUS
 10
240.586003
 20
109.546737
 11
238.654151
 21
110.064375
  0
LINE
  8
2
 62
134
  6
CONTINUOUS
 10
238.654151
 20
109.029099
 11
238.654151
 21
110.064375
  0
LINE
  8
2
 62
134
  6
CONTINUOUS
 10
240.103040
 20
109.546737
 11
239.137114
 21
109.287918
  0
LINE
  8
2
 62
134
  6
CONTINUOUS
 10
240.103040
 20
109.546737
 11
239.137114
 21
109.805556
  0
LINE
  8
2
 62
134
  6
CONTINUOUS
 10
239.137114
 20
109.287918
 11
239.137114
 21
109.805556
  0
TEXT
  8
2
 62
134
  6
CONTINUOUS
 10
228.633978
 20
109.546737
 40
4.000000
 41
1.000000
  1
10.5
  7
KANJI
 50
0.000000
 51
0.000000
  0
ENDBLK
  0
BLOCK
  8
2
 62
134
  6
CONTINUOUS
  2
*D14
 70
    65
 10
0.0
 20
0.0
  0
LINE
  8
2
 62
134
  6
CONTINUOUS
 10
243.662497
 20
114.000000
 11
243.662497
 21
147.278244
  0
LINE
  8
2
 62
134
  6
CONTINUOUS
 10
243.662497
 20
122.000000
 11
244.180135
 21
120.068148
  0
LINE
  8
2
 62
134
  6
CONTINUOUS
 10
243.662497
 20
122.000000
 11
243.144859
 21
120.068148
  0
LINE
  8
2
 62
134
  6
CONTINUOUS
 10
244.180135
 20
120.068148
 11
243.144859
 21
120.068148
  0
LINE
  8
2
 62
134
  6
CONTINUOUS
 10
243.662497
 20
121.517037
 11
243.921316
 21
120.551111
  0
LINE
  8
2
 62
134
  6
CONTINUOUS
 10
243.662497
 20
121.517037
 11
243.403678
 21
120.551111
  0
LINE
  8
2
 62
134
  6
CONTINUOUS
 10
243.921316
 20
120.551111
 11
243.403678
 21
120.551111
  0
LINE
  8
2
 62
134
  6
CONTINUOUS
 10
243.662497
 20
138.000000
 11
243.144859
 21
139.931852
  0
LINE
  8
2
 62
134
  6
CONTINUOUS
 10
243.662497
 20
138.000000
 11
244.180135
 21
139.931852
  0
LINE
  8
2
 62
134
  6
CONTINUOUS
 10
243.144859
 20
139.931852
 11
244.180135
 21
139.931852
  0
LINE
  8
2
 62
134
  6
CONTINUOUS
 10
243.662497
 20
138.482963
 11
243.403678
 21
139.448889
  0
LINE
  8
2
 62
134
  6
CONTINUOUS
 10
243.662497
 20
138.482963
 11
243.921316
 21
139.448889
  0
LINE
  8
2
 62
134
  6
CONTINUOUS
 10
243.403678
 20
139.448889
 11
243.921316
 21
139.448889
  0
TEXT
  8
2
 62
134
  6
CONTINUOUS
 10
243.662497
 20
139.278244
 40
4.000000
 41
1.000000
  1
φ16
  7
KANJI
 50
90.000000
 51
0.000000
  0
ENDBLK
  0
BLOCK
  8
2
 62
134
  6
CONTINUOUS
  2
*D15
 70
    65
 10
0.0
 20
0.0
  0
LINE
  8
2
 62
134
  6
CONTINUOUS
 10
228.340264
 20
117.499938
 11
228.340264
 21
144.289890
  0
LINE
  8
2
 62
134
  6
CONTINUOUS
 10
228.340264
 20
125.499938
 11
228.857902
 21
123.568086
  0
LINE
  8
2
 62
134
  6
CONTINUOUS
 10
228.340264
 20
125.499938
 11
227.822626
 21
123.568086
  0
LINE
  8
2
 62
134
  6
CONTINUOUS
 10
228.857902
 20
123.568086
 11
227.822626
 21
123.568086
  0
LINE
  8
2
 62
134
  6
CONTINUOUS
 10
228.340264
 20
125.016975
 11
228.599083
 21
124.051049
  0
LINE
  8
2
 62
134
  6
CONTINUOUS
 10
228.340264
 20
125.016975
 11
228.081445
 21
124.051049
  0
LINE
  8
2
 62
134
  6
CONTINUOUS
 10
228.599083
 20
124.051049
 11
228.081445
 21
124.051049
  0
LINE
  8
2
 62
134
  6
CONTINUOUS
 10
228.340264
 20
134.500000
 11
227.822626
 21
136.431852
  0
LINE
  8
2
 62
134
  6
CONTINUOUS
 10
228.340264
 20
134.500000
 11
228.857902
 21
136.431852
  0
LINE
  8
2
 62
134
  6
CONTINUOUS
 10
227.822626
 20
136.431852
 11
228.857902
 21
136.431852
  0
LINE
  8
2
 62
134
  6
CONTINUOUS
 10
228.340264
 20
134.982963
 11
228.081445
 21
135.948889
  0
LINE
  8
2
 62
134
  6
CONTINUOUS
 10
228.340264
 20
134.982963
 11
228.599083
 21
135.948889
  0
LINE
  8
2
 62
134
  6
CONTINUOUS
 10
228.081445
 20
135.948889
 11
228.599083
 21
135.948889
  0
TEXT
  8
2
 62
134
  6
CONTINUOUS
 10
228.340264
 20
138.289890
 40
4.000000
 41
1.000000
  1
φ9
  7
KANJI
 50
90.000000
 51
0.000000
  0
ENDBLK
  0
ENDSEC
  0
SECTION
  2
ENTITIES
  0
LINE
  8
5
 62
7
  6
CONTINUOUS
 10
285.385475
 20
195.784916
 11
10.385475
 21
195.784916
  0
LINE
  8
5
 62
7
  6
CONTINUOUS
 10
10.385475
 20
195.784916
 11
10.385475
 21
10.784916
  0
LINE
  8
5
 62
7
  6
CONTINUOUS
 10
10.385475
 20
10.784916
 11
285.385475
 21
10.784916
  0
LINE
  8
5
 62
7
  6
CONTINUOUS
 10
285.385475
 20
10.784916
 11
285.385475
 21
195.784916
  0
TEXT
  8
5
 62
7
  6
CONTINUOUS
 10
211.348223
 20
26.436406
 40
1.750000
 41
4.000000
  1
製図
  7
KANJI
 50
-90.000000
 51
0.000000
  0
TEXT
  8
5
 62
7
  6
CONTINUOUS
 10
231.181005
 20
26.272499
 40
1.750000
 41
4.000000
  1
図番
  7
KANJI
 50
-90.000000
 51
0.000000
  0
TEXT
  8
5
 62
7
  6
CONTINUOUS
 10
231.181005
 20
39.548989
 40
1.750000
 41
4.000000
  1
図　名
  7
KANJI
 50
-90.000000
 51
0.000000
  0
TEXT
  8
5
 62
7
  6
CONTINUOUS
 10
166.273720
 20
34.140049
 40
1.750000
 41
4.000000
  1
日付
  7
KANJI
 50
-90.000000
 51
0.000000
  0
TEXT
  8
5
 62
7
  6
CONTINUOUS
 10
201.349879
 20
34.303956
 40
1.750000
 41
4.000000
  1
図法
  7
KANJI
 50
-90.000000
 51
0.000000
  0
TEXT
  8
5
 62
7
  6
CONTINUOUS
 10
201.185972
 20
42.335413
 40
1.750000
 41
4.000000
  1
尺度
  7
KANJI
 50
-90.000000
 51
0.000000
  0
TEXT
  8
5
 62
7
  6
CONTINUOUS
 10
166.273720
 20
26.272499
 40
1.750000
 41
4.000000
  1
承認
  7
KANJI
 50
-90.000000
 51
0.000000
  0
TEXT
  8
5
 62
7
  6
CONTINUOUS
 10
191.351534
 20
26.272499
 40
1.750000
 41
4.000000
  1
設計
  7
KANJI
 50
-90.000000
 51
0.000000
  0
TEXT
  8
5
 62
7
  6
CONTINUOUS
 10
184.795243
 20
12.340380
 40
4.500000
 41
1.888889
  1
ジャパンセンサー株式会社
  7
KANJI
 50
0.000000
 51
0.000000
  0
LINE
  8
5
 62
7
  6
CONTINUOUS
 10
165.385475
 20
42.784916
 11
285.385475
 21
42.784916
  0
LINE
  8
5
 62
7
  6
CONTINUOUS
 10
165.385475
 20
10.784916
 11
165.385475
 21
42.784916
  0
LINE
  8
5
 62
7
  6
CONTINUOUS
 10
285.385475
 20
18.784916
 11
165.385475
 21
18.784916
  0
LINE
  8
5
 62
7
  6
CONTINUOUS
 10
230.385475
 20
42.784916
 11
230.385475
 21
18.784916
  0
LINE
  8
5
 62
7
  6
CONTINUOUS
 10
285.385475
 20
26.784916
 11
165.385475
 21
26.784916
  0
LINE
  8
5
 62
7
  6
CONTINUOUS
 10
235.385475
 20
18.784916
 11
235.385475
 21
42.784916
  0
LINE
  8
5
 62
7
  6
CONTINUOUS
 10
205.385475
 20
42.784916
 11
205.385475
 21
26.784916
  0
LINE
  8
5
 62
7
  6
CONTINUOUS
 10
170.385475
 20
18.784916
 11
170.385475
 21
42.784916
  0
LINE
  8
5
 62
7
  6
CONTINUOUS
 10
165.385475
 20
34.784916
 11
230.385475
 21
34.784916
  0
LINE
  8
5
 62
7
  6
CONTINUOUS
 10
200.385475
 20
42.784916
 11
200.385475
 21
26.784916
  0
LINE
  8
5
 62
7
  6
CONTINUOUS
 10
190.385475
 20
18.784916
 11
190.385475
 21
26.784916
  0
LINE
  8
5
 62
7
  6
CONTINUOUS
 10
210.385475
 20
18.784916
 11
210.385475
 21
26.784916
  0
LINE
  8
5
 62
7
  6
CONTINUOUS
 10
195.385475
 20
26.784916
 11
195.385475
 21
18.784916
  0
LINE
  8
5
 62
7
  6
CONTINUOUS
 10
215.385475
 20
26.784916
 11
215.385475
 21
18.784916
  0
TEXT
  8
5
 62
7
  6
CONTINUOUS
 10
209.381336
 20
28.075479
 40
4.000000
 41
1.000000
  1
三角法
  7
KANJI
 50
0.000000
 51
0.000000
  0
TEXT
  8
5
 62
7
  6
CONTINUOUS
 10
196.596568
 20
20.535744
 40
4.000000
 41
1.000000
  1
須藤
  7
KANJI
 50
0.810149
 51
0.000000
  0
TEXT
  8
5
 62
7
  6
CONTINUOUS
 10
216.593256
 20
20.699651
 40
4.000000
 41
1.000000
  1
須藤
  7
KANJI
 50
-0.112820
 51
0.000000
  0
TEXT
  8
5
 62
7
  6
CONTINUOUS
 10
166.273720
 20
42.171506
 40
1.750000
 41
4.000000
  1
公差
  7
KANJI
 50
-90.000000
 51
0.000000
  0
TEXT
  8
5
 62
7
  6
CONTINUOUS
 10
210.364779
 20
36.434751
 40
4.000000
 41
1.000000
  1
１／１
  7
KANJI
 50
0.000000
 51
0.000000
  0
TEXT
  8
2
 62
134
  6
CONTINUOUS
 10
97.492314
 20
95.894118
 40
4.000000
 41
1.000000
  1
指定長
  7
KANJI
 50
0.000000
 51
0.000000
  0
TEXT
  8
2
 62
134
  6
CONTINUOUS
 10
112.307924
 20
97.497234
 40
4.000000
 41
1.000000
  1
+2%
  7
KANJI
 50
0.000000
 51
0.000000
  0
TEXT
  8
2
 62
134
  6
CONTINUOUS
 10
112.551763
 20
93.920929
 40
4.000000
 41
1.000000
  1
-0%
  7
KANJI
 50
0.000000
 51
0.000000
  0
TEXT
  8
2
 62
134
  6
CONTINUOUS
 10
120.354611
 20
95.709082
 40
4.000000
 41
1.000000
  1
+0.2m
  7
KANJI
 50
0.000000
 51
0.000000
  0
LINE
  8
2
 62
134
  6
CONTINUOUS
 10
143.957523
 20
62.297976
 11
93.957523
 21
62.297976
  0
LINE
  8
2
 62
134
  6
CONTINUOUS
 10
93.957523
 20
86.297976
 11
143.957523
 21
86.297976
  0
LINE
  8
2
 62
134
  6
CONTINUOUS
 10
93.957523
 20
80.297976
 11
143.957523
 21
80.297976
  0
LINE
  8
2
 62
134
  6
CONTINUOUS
 10
93.957523
 20
74.297976
 11
143.957523
 21
74.297976
  0
LINE
  8
2
 62
134
  6
CONTINUOUS
 10
93.957523
 20
68.297976
 11
143.957523
 21
68.297976
  0
LINE
  8
2
 62
134
  6
CONTINUOUS
 10
93.957523
 20
87.297976
 11
143.957523
 21
87.297976
  0
LINE
  8
2
 62
134
  6
CONTINUOUS
 10
93.957523
 20
93.297976
 11
143.957523
 21
93.297976
  0
TEXT
  8
2
 62
134
  6
CONTINUOUS
 10
95.456040
 20
87.297976
 40
4.000000
 41
1.000000
  1
指定長
  7
KANJI
 50
0.000000
 51
0.000000
  0
LINE
  8
2
 62
134
  6
CONTINUOUS
 10
143.957523
 20
56.297976
 11
93.957523
 21
56.297976
  0
TEXT
  8
2
 62
134
  6
CONTINUOUS
 10
100.595442
 20
80.297976
 40
4.000000
 41
1.000000
  1
1m
  7
KANJI
 50
0.000000
 51
0.000000
  0
TEXT
  8
2
 62
134
  6
CONTINUOUS
 10
100.595442
 20
74.297976
 40
4.000000
 41
1.000000
  1
2m
  7
KANJI
 50
0.000000
 51
0.000000
  0
TEXT
  8
2
 62
134
  6
CONTINUOUS
 10
100.595442
 20
68.297976
 40
4.000000
 41
1.000000
  1
3m
  7
KANJI
 50
0.000000
 51
0.000000
  0
TEXT
  8
2
 62
134
  6
CONTINUOUS
 10
100.595442
 20
62.297976
 40
4.000000
 41
1.000000
  1
5m
  7
KANJI
 50
0.000000
 51
0.000000
  0
TEXT
  8
2
 62
134
  6
CONTINUOUS
 10
98.276734
 20
56.297976
 40
4.000000
 41
1.000000
  1
10m
  7
KANJI
 50
0.000000
 51
0.000000
  0
TEXT
  8
2
 62
134
  6
CONTINUOUS
 10
120.139788
 20
87.297976
 40
4.000000
 41
1.000000
  1
公差
  7
KANJI
 50
0.000000
 51
0.000000
  0
TEXT
  8
2
 62
134
  6
CONTINUOUS
 10
113.126465
 20
80.297976
 40
4.000000
 41
1.000000
  1
+0.22m -0m
  7
KANJI
 50
0.000000
 51
0.000000
  0
LINE
  8
2
 62
134
  6
CONTINUOUS
 10
93.957523
 20
56.297976
 11
93.957523
 21
93.297976
  0
LINE
  8
2
 62
134
  6
CONTINUOUS
 10
108.957523
 20
93.297976
 11
108.957523
 21
56.297976
  0
LINE
  8
2
 62
134
  6
CONTINUOUS
 10
143.957523
 20
93.297976
 11
143.957523
 21
56.297976
  0
TEXT
  8
2
 62
134
  6
CONTINUOUS
 10
113.126465
 20
74.297976
 40
4.000000
 41
1.000000
  1
+0.24m -0m
  7
KANJI
 50
0.000000
 51
0.000000
  0
TEXT
  8
2
 62
134
  6
CONTINUOUS
 10
113.126465
 20
68.297976
 40
4.000000
 41
1.000000
  1
+0.26m -0m
  7
KANJI
 50
0.000000
 51
0.000000
  0
TEXT
  8
2
 62
134
  6
CONTINUOUS
 10
113.126465
 20
62.297976
 40
4.000000
 41
1.000000
  1
+0.30m -0m
  7
KANJI
 50
0.000000
 51
0.000000
  0
TEXT
  8
2
 62
134
  6
CONTINUOUS
 10
113.126465
 20
56.297976
 40
4.000000
 41
1.000000
  1
+0.40m -0m
  7
KANJI
 50
0.000000
 51
0.000000
  0
TEXT
  8
2
 62
134
  6
CONTINUOUS
 10
183.795390
 20
85.313545
 40
4.000000
 41
1.000000
  1
ファイバ径
  7
KANJI
 50
0.000000
 51
0.000000
  0
LINE
  8
2
 62
134
  6
CONTINUOUS
 10
182.296872
 20
66.313545
 11
182.296872
 21
91.313545
  0
LINE
  8
2
 62
134
  6
CONTINUOUS
 10
204.852624
 20
91.313545
 11
204.852624
 21
66.313545
  0
TEXT
  8
2
 62
134
  6
CONTINUOUS
 10
185.255004
 20
78.313545
 40
4.000000
 41
1.000000
  1
φ0.1mm
  7
KANJI
 50
0.000000
 51
0.000000
  0
TEXT
  8
2
 62
134
  6
CONTINUOUS
 10
185.255004
 20
72.313545
 40
4.000000
 41
1.000000
  1
φ0.2mm
  7
KANJI
 50
0.000000
 51
0.000000
  0
TEXT
  8
2
 62
134
  6
CONTINUOUS
 10
185.255004
 20
66.313545
 40
4.000000
 41
1.000000
  1
φ0.6mm
  7
KANJI
 50
0.000000
 51
0.000000
  0
TEXT
  8
2
 62
134
  6
CONTINUOUS
 10
212.416528
 20
66.313545
 40
4.000000
 41
1.000000
  1
150mm
  7
KANJI
 50
0.000000
 51
0.000000
  0
LINE
  8
2
 62
134
  6
CONTINUOUS
 10
242.280566
 20
91.313545
 11
242.280566
 21
66.313545
  0
TEXT
  8
2
 62
134
  6
CONTINUOUS
 10
208.365405
 20
85.313545
 40
4.000000
 41
1.000000
  1
許容曲げ半径 R
  7
KANJI
 50
0.000000
 51
0.000000
  0
LINE
  8
1
 62
7
  6
CONTINUOUS
 10
166.000000
 20
132.600000
 11
167.000000
 21
132.600000
  0
LINE
  8
1
 62
7
  6
CONTINUOUS
 10
168.000000
 20
132.600000
 11
169.000000
 21
132.600000
  0
LINE
  8
1
 62
7
  6
CONTINUOUS
 10
170.000000
 20
132.600000
 11
171.000000
 21
132.600000
  0
LINE
  8
1
 62
7
  6
CONTINUOUS
 10
172.000000
 20
132.600000
 11
173.000000
 21
132.600000
  0
LINE
  8
1
 62
7
  6
CONTINUOUS
 10
174.000000
 20
132.600000
 11
175.000000
 21
132.600000
  0
LINE
  8
1
 62
7
  6
CONTINUOUS
 10
176.000000
 20
132.600000
 11
177.000000
 21
132.600000
  0
LINE
  8
1
 62
7
  6
CONTINUOUS
 10
178.000000
 20
132.600000
 11
179.000000
 21
132.600000
  0
LINE
  8
1
 62
7
  6
CONTINUOUS
 10
180.000000
 20
132.600000
 11
181.000000
 21
132.600000
  0
LINE
  8
1
 62
7
  6
CONTINUOUS
 10
182.000000
 20
132.600000
 11
183.000000
 21
132.600000
  0
LINE
  8
1
 62
7
  6
CONTINUOUS
 10
184.000000
 20
132.100000
 11
184.000000
 21
132.600000
  0
LINE
  8
1
 62
7
  6
CONTINUOUS
 10
165.000000
 20
132.100000
 11
166.083333
 21
132.100000
  0
LINE
  8
1
 62
7
  6
CONTINUOUS
 10
167.083333
 20
132.100000
 11
168.083333
 21
132.100000
  0
LINE
  8
1
 62
7
  6
CONTINUOUS
 10
169.083333
 20
132.100000
 11
170.083333
 21
132.100000
  0
LINE
  8
1
 62
7
  6
CONTINUOUS
 10
171.083333
 20
132.100000
 11
172.083333
 21
132.100000
  0
LINE
  8
1
 62
7
  6
CONTINUOUS
 10
173.083333
 20
132.100000
 11
174.083333
 21
132.100000
  0
LINE
  8
1
 62
7
  6
CONTINUOUS
 10
175.083333
 20
132.100000
 11
176.083333
 21
132.100000
  0
LINE
  8
1
 62
7
  6
CONTINUOUS
 10
177.083333
 20
132.100000
 11
178.083333
 21
132.100000
  0
LINE
  8
1
 62
7
  6
CONTINUOUS
 10
179.083333
 20
132.100000
 11
180.083333
 21
132.100000
  0
LINE
  8
1
 62
7
  6
CONTINUOUS
 10
181.083333
 20
132.100000
 11
182.083333
 21
132.100000
  0
LINE
  8
1
 62
7
  6
CONTINUOUS
 10
183.083333
 20
132.100000
 11
184.000000
 21
132.100000
  0
LINE
  8
1
 62
7
  6
CONTINUOUS
 10
167.000000
 20
127.400000
 11
168.000000
 21
127.400000
  0
LINE
  8
1
 62
7
  6
CONTINUOUS
 10
169.000000
 20
127.400000
 11
170.000000
 21
127.400000
  0
LINE
  8
1
 62
7
  6
CONTINUOUS
 10
171.000000
 20
127.400000
 11
172.000000
 21
127.400000
  0
LINE
  8
1
 62
7
  6
CONTINUOUS
 10
173.000000
 20
127.400000
 11
174.000000
 21
127.400000
  0
LINE
  8
1
 62
7
  6
CONTINUOUS
 10
175.000000
 20
127.400000
 11
176.000000
 21
127.400000
  0
LINE
  8
1
 62
7
  6
CONTINUOUS
 10
177.000000
 20
127.400000
 11
178.000000
 21
127.400000
  0
LINE
  8
1
 62
7
  6
CONTINUOUS
 10
179.000000
 20
127.400000
 11
180.000000
 21
127.400000
  0
LINE
  8
1
 62
7
  6
CONTINUOUS
 10
181.000000
 20
127.400000
 11
182.000000
 21
127.400000
  0
LINE
  8
1
 62
7
  6
CONTINUOUS
 10
183.000000
 20
127.400000
 11
184.000000
 21
127.400000
  0
LINE
  8
1
 62
7
  6
CONTINUOUS
 10
181.916667
 20
127.900000
 11
182.916667
 21
127.900000
  0
LINE
  8
1
 62
7
  6
CONTINUOUS
 10
179.916667
 20
127.900000
 11
180.916667
 21
127.900000
  0
LINE
  8
1
 62
7
  6
CONTINUOUS
 10
178.016240
 20
127.900000
 11
178.916667
 21
127.900000
  0
LINE
  8
1
 62
7
  6
CONTINUOUS
 10
175.916667
 20
127.900000
 11
176.916667
 21
127.900000
  0
LINE
  8
1
 62
7
  6
CONTINUOUS
 10
173.916667
 20
127.900000
 11
174.916667
 21
127.900000
  0
LINE
  8
1
 62
7
  6
CONTINUOUS
 10
171.916667
 20
127.900000
 11
172.916667
 21
127.900000
  0
LINE
  8
1
 62
7
  6
CONTINUOUS
 10
169.916667
 20
127.900000
 11
170.916667
 21
127.900000
  0
LINE
  8
1
 62
7
  6
CONTINUOUS
 10
167.916667
 20
127.900000
 11
168.916667
 21
127.900000
  0
LINE
  8
1
 62
7
  6
CONTINUOUS
 10
166.016240
 20
127.900000
 11
166.916667
 21
127.900000
  0
LINE
  8
1
 62
7
  6
CONTINUOUS
 10
165.000000
 20
127.900000
 11
165.086618
 21
127.400000
  0
LINE
  8
1
 62
7
  6
CONTINUOUS
 10
165.086618
 20
127.400000
 11
166.100000
 21
127.400000
  0
LINE
  8
1
 62
7
  6
CONTINUOUS
 10
165.991265
 20
127.900000
 11
166.000000
 21
127.900000
  0
LINE
  8
1
 62
7
  6
CONTINUOUS
 10
166.000000
 20
132.600000
 11
167.000000
 21
127.400000
  0
LINE
  8
1
 62
7
  6
CONTINUOUS
 10
167.000000
 20
132.600000
 11
168.000000
 21
127.400000
  0
LINE
  8
1
 62
7
  6
CONTINUOUS
 10
168.000000
 20
132.600000
 11
169.000000
 21
127.400000
  0
LINE
  8
1
 62
7
  6
CONTINUOUS
 10
169.000000
 20
132.600000
 11
170.000000
 21
127.400000
  0
LINE
  8
1
 62
7
  6
CONTINUOUS
 10
170.000000
 20
132.600000
 11
171.000000
 21
127.400000
  0
LINE
  8
1
 62
7
  6
CONTINUOUS
 10
171.000000
 20
132.600000
 11
172.000000
 21
127.400000
  0
LINE
  8
1
 62
7
  6
CONTINUOUS
 10
172.000000
 20
132.600000
 11
173.000000
 21
127.400000
  0
LINE
  8
1
 62
7
  6
CONTINUOUS
 10
173.000000
 20
132.600000
 11
174.000000
 21
127.400000
  0
LINE
  8
1
 62
7
  6
CONTINUOUS
 10
174.000000
 20
132.600000
 11
175.000000
 21
127.400000
  0
LINE
  8
1
 62
7
  6
CONTINUOUS
 10
175.000000
 20
132.600000
 11
176.000000
 21
127.400000
  0
LINE
  8
1
 62
7
  6
CONTINUOUS
 10
176.000000
 20
132.600000
 11
177.000000
 21
127.400000
  0
LINE
  8
1
 62
7
  6
CONTINUOUS
 10
177.000000
 20
132.600000
 11
178.000000
 21
127.400000
  0
LINE
  8
1
 62
7
  6
CONTINUOUS
 10
178.000000
 20
132.600000
 11
179.000000
 21
127.400000
  0
LINE
  8
1
 62
7
  6
CONTINUOUS
 10
179.000000
 20
132.600000
 11
180.000000
 21
127.400000
  0
LINE
  8
1
 62
7
  6
CONTINUOUS
 10
180.000000
 20
132.600000
 11
181.000000
 21
127.400000
  0
LINE
  8
1
 62
7
  6
CONTINUOUS
 10
181.000000
 20
132.600000
 11
182.000000
 21
127.400000
  0
LINE
  8
1
 62
7
  6
CONTINUOUS
 10
182.000000
 20
132.600000
 11
183.000000
 21
127.400000
  0
LINE
  8
1
 62
7
  6
CONTINUOUS
 10
183.000000
 20
132.600000
 11
184.000000
 21
127.400000
  0
LINE
  8
1
 62
7
  6
CONTINUOUS
 10
184.000000
 20
132.100000
 11
184.000000
 21
127.400000
  0
LINE
  8
1
 62
7
  6
CONTINUOUS
 10
165.000000
 20
132.100000
 11
166.100787
 21
127.396063
  0
LINE
  8
1
 62
7
  6
CONTINUOUS
 10
165.000000
 20
127.400000
 11
165.000000
 21
132.600000
  0
LINE
  8
1
 62
7
  6
DASHDOT
 10
163.301162
 20
130.000000
 11
186.081978
 21
130.000000
  0
DIMENSION
  8
2
 62
134
  6
CONTINUOUS
  2
*D1
 10
36.583011
 20
104.804840
 11
40.264408
 21
104.804840
 70
     0
  1
7.5
 13
36.583011
 23
127.049998
 14
44.083011
 24
123.500000
 50
0.000000
  0
LINE
  8
2
 62
134
  6
CONTINUOUS
 10
141.948257
 20
135.000000
 11
155.899227
 21
159.780565
  0
LINE
  8
2
 62
134
  6
CONTINUOUS
 10
155.899227
 20
159.780565
 11
175.789840
 21
159.780565
  0
TEXT
  8
2
 62
134
  6
CONTINUOUS
 10
155.789840
 20
159.988788
 40
4.000000
 41
1.000000
  1
蛇管ｼﾞｮｲﾝﾄ
  7
KANJI
 50
0.000000
 51
30.000000
  0
LINE
  8
2
 62
134
  6
CONTINUOUS
 10
141.948257
 20
135.000000
 11
142.444915
 21
136.937351
  0
LINE
  8
2
 62
134
  6
CONTINUOUS
 10
141.948257
 20
135.000000
 11
143.347051
 21
136.429467
  0
LINE
  8
2
 62
134
  6
CONTINUOUS
 10
142.444915
 20
136.937351
 11
143.347051
 21
136.429467
  0
LINE
  8
2
 62
134
  6
CONTINUOUS
 10
142.185189
 20
135.420852
 11
142.433518
 21
136.389528
  0
LINE
  8
2
 62
134
  6
CONTINUOUS
 10
142.185189
 20
135.420852
 11
142.884586
 21
136.135586
  0
LINE
  8
2
 62
134
  6
CONTINUOUS
 10
142.433518
 20
136.389528
 11
142.884586
 21
136.135586
  0
TEXT
  8
2
 62
134
  6
CONTINUOUS
 10
156.003339
 20
155.564040
 40
4.000000
 41
1.000000
  1
ﾌｧｲﾊﾞ長10m以下なし
  7
KANJI
 50
0.000000
 51
0.000000
  0
TEXT
  8
2
 62
134
  6
CONTINUOUS
 10
156.003339
 20
151.651550
 40
4.000000
 41
1.000000
  1
10m超で10m毎に1ｹ
  7
KANJI
 50
0.000000
 51
0.000000
  0
LINE
  8
2
 62
134
  6
CONTINUOUS
 10
47.690688
 20
136.247903
 11
56.677134
 21
155.339747
  0
LINE
  8
2
 62
134
  6
CONTINUOUS
 10
56.677134
 20
155.339747
 11
77.186706
 21
155.339747
  0
TEXT
  8
2
 62
134
  6
CONTINUOUS
 10
57.186706
 20
155.187435
 40
4.000000
 41
1.000000
  1
ﾌｧｲﾊﾞﾌﾟﾗｸﾞ
  7
KANJI
 50
0.000000
 51
30.000000
  0
LINE
  8
2
 62
134
  6
CONTINUOUS
 10
47.690688
 20
136.247903
 11
48.045069
 21
138.216256
  0
LINE
  8
2
 62
134
  6
CONTINUOUS
 10
47.690688
 20
136.247903
 11
48.981768
 21
137.775357
  0
LINE
  8
2
 62
134
  6
CONTINUOUS
 10
48.045069
 20
138.216256
 11
48.981768
 21
137.775357
  0
LINE
  8
2
 62
134
  6
CONTINUOUS
 10
47.896371
 20
136.684879
 11
48.073561
 21
137.669056
  0
LINE
  8
2
 62
134
  6
CONTINUOUS
 10
47.896371
 20
136.684879
 11
48.541910
 21
137.448606
  0
LINE
  8
2
 62
134
  6
CONTINUOUS
 10
48.073561
 20
137.669056
 11
48.541910
 21
137.448606
  0
TEXT
  8
2
 62
134
  6
CONTINUOUS
 10
57.370844
 20
151.075874
 40
4.000000
 41
1.000000
  1
ｾﾝｻﾍｯﾄﾞ側
  7
KANJI
 50
0.000000
 51
0.000000
  0
DIMENSION
  8
2
 62
134
  6
CONTINUOUS
  2
*D2
 10
56.556658
 20
124.000000
 11
56.556658
 21
142.856915
 70
     0
  1
φ12
 13
56.556658
 23
124.000000
 14
56.556658
 24
136.000000
 50
90.000000
  0
DIMENSION
  8
2
 62
134
  6
CONTINUOUS
  2
*D3
 10
157.807724
 20
125.500000
 11
157.807724
 21
142.621915
 70
     0
  1
φ9
 13
157.807724
 23
125.500000
 14
157.807724
 24
134.500062
 50
90.000000
  0
DIMENSION
  8
2
 62
134
  6
CONTINUOUS
  2
*D4
 10
44.083011
 20
110.668473
 11
51.277318
 21
110.668473
 70
     0
  1
14.5
 13
44.083011
 23
123.500000
 14
58.583011
 24
123.300000
 50
0.000000
  0
DIMENSION
  8
2
 62
134
  6
CONTINUOUS
  2
*D5
 10
135.000000
 20
111.626606
 11
149.767764
 21
111.626606
 70
     0
  1
30
 13
135.000000
 23
124.500000
 14
165.000000
 24
124.500000
 50
0.000000
  0
ARC
  8
1
 62
7
  6
DASHDOT
 10
183.187673
 20
94.584728
 40
35.424587
 50
0.000000
 51
90.000000
  0
DIMENSION
  8
2
 62
134
  6
CONTINUOUS
  2
*D6
 10
183.187673
 20
94.584728
 11
196.788294
 21
108.185349
 70
     4
  1
R
 15
208.236639
 25
119.633694
  0
LINE
  8
1
 62
7
  6
CONTINUOUS
 10
117.000000
 20
132.600000
 11
118.000000
 21
132.600000
  0
LINE
  8
1
 62
7
  6
CONTINUOUS
 10
119.000000
 20
132.600000
 11
120.000000
 21
132.600000
  0
LINE
  8
1
 62
7
  6
CONTINUOUS
 10
121.000000
 20
132.600000
 11
122.000000
 21
132.600000
  0
LINE
  8
1
 62
7
  6
CONTINUOUS
 10
123.000000
 20
132.600000
 11
124.000000
 21
132.600000
  0
LINE
  8
1
 62
7
  6
CONTINUOUS
 10
125.000000
 20
132.600000
 11
126.000000
 21
132.600000
  0
LINE
  8
1
 62
7
  6
CONTINUOUS
 10
127.000000
 20
132.600000
 11
128.000000
 21
132.600000
  0
LINE
  8
1
 62
7
  6
CONTINUOUS
 10
129.000000
 20
132.600000
 11
130.000000
 21
132.600000
  0
LINE
  8
1
 62
7
  6
CONTINUOUS
 10
131.000000
 20
132.600000
 11
132.000000
 21
132.600000
  0
LINE
  8
1
 62
7
  6
CONTINUOUS
 10
133.000000
 20
132.600000
 11
134.000000
 21
132.600000
  0
LINE
  8
1
 62
7
  6
CONTINUOUS
 10
135.000000
 20
132.100000
 11
135.000000
 21
132.600000
  0
LINE
  8
1
 62
7
  6
CONTINUOUS
 10
116.000000
 20
132.100000
 11
117.083334
 21
132.100000
  0
LINE
  8
1
 62
7
  6
CONTINUOUS
 10
118.083334
 20
132.100000
 11
119.083334
 21
132.100000
  0
LINE
  8
1
 62
7
  6
CONTINUOUS
 10
120.083334
 20
132.100000
 11
121.083334
 21
132.100000
  0
LINE
  8
1
 62
7
  6
CONTINUOUS
 10
122.083334
 20
132.100000
 11
123.083334
 21
132.100000
  0
LINE
  8
1
 62
7
  6
CONTINUOUS
 10
124.083334
 20
132.100000
 11
125.083334
 21
132.100000
  0
LINE
  8
1
 62
7
  6
CONTINUOUS
 10
126.083334
 20
132.100000
 11
127.083334
 21
132.100000
  0
LINE
  8
1
 62
7
  6
CONTINUOUS
 10
128.083334
 20
132.100000
 11
129.083334
 21
132.100000
  0
LINE
  8
1
 62
7
  6
CONTINUOUS
 10
130.083334
 20
132.100000
 11
131.083334
 21
132.100000
  0
LINE
  8
1
 62
7
  6
CONTINUOUS
 10
132.083334
 20
132.100000
 11
133.083334
 21
132.100000
  0
LINE
  8
1
 62
7
  6
CONTINUOUS
 10
134.083334
 20
132.100000
 11
135.000000
 21
132.100000
  0
LINE
  8
1
 62
7
  6
CONTINUOUS
 10
118.000000
 20
127.400000
 11
119.000000
 21
127.400000
  0
LINE
  8
1
 62
7
  6
CONTINUOUS
 10
120.000000
 20
127.400000
 11
121.000000
 21
127.400000
  0
LINE
  8
1
 62
7
  6
CONTINUOUS
 10
122.000000
 20
127.400000
 11
123.000000
 21
127.400000
  0
LINE
  8
1
 62
7
  6
CONTINUOUS
 10
124.000000
 20
127.400000
 11
125.000000
 21
127.400000
  0
LINE
  8
1
 62
7
  6
CONTINUOUS
 10
126.000000
 20
127.400000
 11
127.000000
 21
127.400000
  0
LINE
  8
1
 62
7
  6
CONTINUOUS
 10
128.000000
 20
127.400000
 11
129.000000
 21
127.400000
  0
LINE
  8
1
 62
7
  6
CONTINUOUS
 10
130.000000
 20
127.400000
 11
131.000000
 21
127.400000
  0
LINE
  8
1
 62
7
  6
CONTINUOUS
 10
132.000000
 20
127.400000
 11
133.000000
 21
127.400000
  0
LINE
  8
1
 62
7
  6
CONTINUOUS
 10
134.000000
 20
127.400000
 11
135.000000
 21
127.400000
  0
LINE
  8
1
 62
7
  6
CONTINUOUS
 10
132.916667
 20
127.900000
 11
133.916667
 21
127.900000
  0
LINE
  8
1
 62
7
  6
CONTINUOUS
 10
130.916667
 20
127.900000
 11
131.916667
 21
127.900000
  0
LINE
  8
1
 62
7
  6
CONTINUOUS
 10
129.016240
 20
127.900000
 11
129.916667
 21
127.900000
  0
LINE
  8
1
 62
7
  6
CONTINUOUS
 10
126.916667
 20
127.900000
 11
127.916667
 21
127.900000
  0
LINE
  8
1
 62
7
  6
CONTINUOUS
 10
124.916667
 20
127.900000
 11
125.916667
 21
127.900000
  0
LINE
  8
1
 62
7
  6
CONTINUOUS
 10
122.916667
 20
127.900000
 11
123.916667
 21
127.900000
  0
LINE
  8
1
 62
7
  6
CONTINUOUS
 10
120.916667
 20
127.900000
 11
121.916667
 21
127.900000
  0
LINE
  8
1
 62
7
  6
CONTINUOUS
 10
118.916667
 20
127.900000
 11
119.916667
 21
127.900000
  0
LINE
  8
1
 62
7
  6
CONTINUOUS
 10
117.016240
 20
127.900000
 11
117.916667
 21
127.900000
  0
LINE
  8
1
 62
7
  6
CONTINUOUS
 10
116.000000
 20
127.900000
 11
116.086619
 21
127.400000
  0
LINE
  8
1
 62
7
  6
CONTINUOUS
 10
116.086619
 20
127.400000
 11
117.100000
 21
127.400000
  0
LINE
  8
1
 62
7
  6
CONTINUOUS
 10
116.991265
 20
127.900000
 11
117.000000
 21
127.900000
  0
LINE
  8
1
 62
7
  6
CONTINUOUS
 10
117.000000
 20
132.600000
 11
118.000000
 21
127.400000
  0
LINE
  8
1
 62
7
  6
CONTINUOUS
 10
118.000000
 20
132.600000
 11
119.000000
 21
127.400000
  0
LINE
  8
1
 62
7
  6
CONTINUOUS
 10
119.000000
 20
132.600000
 11
120.000000
 21
127.400000
  0
LINE
  8
1
 62
7
  6
CONTINUOUS
 10
120.000000
 20
132.600000
 11
121.000000
 21
127.400000
  0
LINE
  8
1
 62
7
  6
CONTINUOUS
 10
121.000000
 20
132.600000
 11
122.000000
 21
127.400000
  0
LINE
  8
1
 62
7
  6
CONTINUOUS
 10
122.000000
 20
132.600000
 11
123.000000
 21
127.400000
  0
LINE
  8
1
 62
7
  6
CONTINUOUS
 10
123.000000
 20
132.600000
 11
124.000000
 21
127.400000
  0
LINE
  8
1
 62
7
  6
CONTINUOUS
 10
124.000000
 20
132.600000
 11
125.000000
 21
127.400000
  0
LINE
  8
1
 62
7
  6
CONTINUOUS
 10
125.000000
 20
132.600000
 11
126.000000
 21
127.400000
  0
LINE
  8
1
 62
7
  6
CONTINUOUS
 10
126.000000
 20
132.600000
 11
127.000000
 21
127.400000
  0
LINE
  8
1
 62
7
  6
CONTINUOUS
 10
127.000000
 20
132.600000
 11
128.000000
 21
127.400000
  0
LINE
  8
1
 62
7
  6
CONTINUOUS
 10
128.000000
 20
132.600000
 11
129.000000
 21
127.400000
  0
LINE
  8
1
 62
7
  6
CONTINUOUS
 10
129.000000
 20
132.600000
 11
130.000000
 21
127.400000
  0
LINE
  8
1
 62
7
  6
CONTINUOUS
 10
130.000000
 20
132.600000
 11
131.000000
 21
127.400000
  0
LINE
  8
1
 62
7
  6
CONTINUOUS
 10
131.000000
 20
132.600000
 11
132.000000
 21
127.400000
  0
LINE
  8
1
 62
7
  6
CONTINUOUS
 10
132.000000
 20
132.600000
 11
133.000000
 21
127.400000
  0
LINE
  8
1
 62
7
  6
CONTINUOUS
 10
133.000000
 20
132.600000
 11
134.000000
 21
127.400000
  0
LINE
  8
1
 62
7
  6
CONTINUOUS
 10
134.000000
 20
132.600000
 11
135.000000
 21
127.400000
  0
LINE
  8
1
 62
7
  6
CONTINUOUS
 10
135.000000
 20
132.100000
 11
135.000000
 21
127.400000
  0
LINE
  8
1
 62
7
  6
CONTINUOUS
 10
116.000000
 20
132.100000
 11
117.100788
 21
127.396063
  0
LINE
  8
1
 62
7
  6
CONTINUOUS
 10
116.000000
 20
127.400000
 11
116.000000
 21
132.600000
  0
LINE
  8
1
 62
7
  6
DASHDOT
 10
89.914989
 20
130.000000
 11
137.081978
 21
130.000000
  0
LINE
  8
4
 62
7
  6
DASHDOT
 10
35.348514
 20
130.000000
 11
42.687557
 21
130.000000
  0
LINE
  8
2
 62
134
  6
CONTINUOUS
 10
80.833011
 20
133.000000
 11
90.143299
 21
148.459480
  0
LINE
  8
2
 62
134
  6
CONTINUOUS
 10
90.143299
 20
148.459480
 11
106.197143
 21
148.459480
  0
TEXT
  8
2
 62
134
  6
CONTINUOUS
 10
92.197143
 20
148.459480
 40
4.000000
 41
1.000000
  1
SUS蛇管
  7
KANJI
 50
0.000000
 51
30.000000
  0
LINE
  8
2
 62
134
  6
CONTINUOUS
 10
80.833011
 20
133.000000
 11
81.386230
 21
134.921965
  0
LINE
  8
2
 62
134
  6
CONTINUOUS
 10
80.833011
 20
133.000000
 11
82.273095
 21
134.387861
  0
LINE
  8
2
 62
134
  6
CONTINUOUS
 10
81.386230
 20
134.921965
 11
82.273095
 21
134.387861
  0
LINE
  8
2
 62
134
  6
CONTINUOUS
 10
81.082174
 20
133.413728
 11
81.358784
 21
134.374711
  0
LINE
  8
2
 62
134
  6
CONTINUOUS
 10
81.082174
 20
133.413728
 11
81.802216
 21
134.107659
  0
LINE
  8
2
 62
134
  6
CONTINUOUS
 10
81.358784
 20
134.374711
 11
81.802216
 21
134.107659
  0
LINE
  8
1
 62
7
  6
CONTINUOUS
 10
74.833011
 20
132.600000
 11
75.833011
 21
132.600000
  0
LINE
  8
1
 62
7
  6
CONTINUOUS
 10
76.833011
 20
132.600000
 11
77.833011
 21
132.600000
  0
LINE
  8
1
 62
7
  6
CONTINUOUS
 10
78.833011
 20
132.600000
 11
79.833011
 21
132.600000
  0
LINE
  8
1
 62
7
  6
CONTINUOUS
 10
80.833011
 20
132.600000
 11
81.833011
 21
132.600000
  0
LINE
  8
1
 62
7
  6
CONTINUOUS
 10
82.833011
 20
132.600000
 11
83.833011
 21
132.600000
  0
LINE
  8
1
 62
7
  6
CONTINUOUS
 10
84.833011
 20
132.600000
 11
85.833011
 21
132.600000
  0
LINE
  8
1
 62
7
  6
CONTINUOUS
 10
86.833011
 20
132.600000
 11
87.833011
 21
132.600000
  0
LINE
  8
1
 62
7
  6
CONTINUOUS
 10
88.833011
 20
132.600000
 11
89.833011
 21
132.600000
  0
LINE
  8
1
 62
7
  6
CONTINUOUS
 10
90.833011
 20
132.600000
 11
91.833011
 21
132.600000
  0
LINE
  8
1
 62
7
  6
CONTINUOUS
 10
92.833011
 20
132.100000
 11
92.833011
 21
132.600000
  0
LINE
  8
1
 62
7
  6
CONTINUOUS
 10
73.833011
 20
132.100000
 11
74.916344
 21
132.100000
  0
LINE
  8
1
 62
7
  6
CONTINUOUS
 10
75.916344
 20
132.100000
 11
76.916344
 21
132.100000
  0
LINE
  8
1
 62
7
  6
CONTINUOUS
 10
77.916344
 20
132.100000
 11
78.916344
 21
132.100000
  0
LINE
  8
1
 62
7
  6
CONTINUOUS
 10
79.916344
 20
132.100000
 11
80.916344
 21
132.100000
  0
LINE
  8
1
 62
7
  6
CONTINUOUS
 10
81.916344
 20
132.100000
 11
82.916344
 21
132.100000
  0
LINE
  8
1
 62
7
  6
CONTINUOUS
 10
83.916344
 20
132.100000
 11
84.916344
 21
132.100000
  0
LINE
  8
1
 62
7
  6
CONTINUOUS
 10
85.916344
 20
132.100000
 11
86.916344
 21
132.100000
  0
LINE
  8
1
 62
7
  6
CONTINUOUS
 10
87.916344
 20
132.100000
 11
88.916344
 21
132.100000
  0
LINE
  8
1
 62
7
  6
CONTINUOUS
 10
89.916344
 20
132.100000
 11
90.916344
 21
132.100000
  0
LINE
  8
1
 62
7
  6
CONTINUOUS
 10
91.916344
 20
132.100000
 11
92.833011
 21
132.100000
  0
LINE
  8
1
 62
7
  6
CONTINUOUS
 10
75.833011
 20
127.400000
 11
76.833011
 21
127.400000
  0
LINE
  8
1
 62
7
  6
CONTINUOUS
 10
77.833011
 20
127.400000
 11
78.833011
 21
127.400000
  0
LINE
  8
1
 62
7
  6
CONTINUOUS
 10
79.833011
 20
127.400000
 11
80.833011
 21
127.400000
  0
LINE
  8
1
 62
7
  6
CONTINUOUS
 10
81.833011
 20
127.400000
 11
82.833011
 21
127.400000
  0
LINE
  8
1
 62
7
  6
CONTINUOUS
 10
83.833011
 20
127.400000
 11
84.833011
 21
127.400000
  0
LINE
  8
1
 62
7
  6
CONTINUOUS
 10
85.833011
 20
127.400000
 11
86.833011
 21
127.400000
  0
LINE
  8
1
 62
7
  6
CONTINUOUS
 10
87.833011
 20
127.400000
 11
88.833011
 21
127.400000
  0
LINE
  8
1
 62
7
  6
CONTINUOUS
 10
89.833011
 20
127.400000
 11
90.833011
 21
127.400000
  0
LINE
  8
1
 62
7
  6
CONTINUOUS
 10
91.833011
 20
127.400000
 11
92.833011
 21
127.400000
  0
LINE
  8
1
 62
7
  6
CONTINUOUS
 10
90.749678
 20
127.900000
 11
91.749678
 21
127.900000
  0
LINE
  8
1
 62
7
  6
CONTINUOUS
 10
88.749678
 20
127.900000
 11
89.749678
 21
127.900000
  0
LINE
  8
1
 62
7
  6
CONTINUOUS
 10
86.849251
 20
127.900000
 11
87.749678
 21
127.900000
  0
LINE
  8
1
 62
7
  6
CONTINUOUS
 10
84.749678
 20
127.900000
 11
85.749678
 21
127.900000
  0
LINE
  8
1
 62
7
  6
CONTINUOUS
 10
82.749678
 20
127.900000
 11
83.749678
 21
127.900000
  0
LINE
  8
1
 62
7
  6
CONTINUOUS
 10
80.749678
 20
127.900000
 11
81.749678
 21
127.900000
  0
LINE
  8
1
 62
7
  6
CONTINUOUS
 10
78.749678
 20
127.900000
 11
79.749678
 21
127.900000
  0
LINE
  8
1
 62
7
  6
CONTINUOUS
 10
76.749678
 20
127.900000
 11
77.749678
 21
127.900000
  0
LINE
  8
1
 62
7
  6
CONTINUOUS
 10
74.849251
 20
127.900000
 11
75.749678
 21
127.900000
  0
LINE
  8
1
 62
7
  6
CONTINUOUS
 10
73.833011
 20
127.900000
 11
73.919629
 21
127.400000
  0
LINE
  8
1
 62
7
  6
CONTINUOUS
 10
73.919629
 20
127.400000
 11
74.933011
 21
127.400000
  0
LINE
  8
1
 62
7
  6
CONTINUOUS
 10
74.824276
 20
127.900000
 11
74.833011
 21
127.900000
  0
LINE
  8
1
 62
7
  6
CONTINUOUS
 10
74.833011
 20
132.600000
 11
75.833011
 21
127.400000
  0
LINE
  8
1
 62
7
  6
CONTINUOUS
 10
75.833011
 20
132.600000
 11
76.833011
 21
127.400000
  0
LINE
  8
1
 62
7
  6
CONTINUOUS
 10
76.833011
 20
132.600000
 11
77.833011
 21
127.400000
  0
LINE
  8
1
 62
7
  6
CONTINUOUS
 10
77.833011
 20
132.600000
 11
78.833011
 21
127.400000
  0
LINE
  8
1
 62
7
  6
CONTINUOUS
 10
78.833011
 20
132.600000
 11
79.833011
 21
127.400000
  0
LINE
  8
1
 62
7
  6
CONTINUOUS
 10
79.833011
 20
132.600000
 11
80.833011
 21
127.400000
  0
LINE
  8
1
 62
7
  6
CONTINUOUS
 10
80.833011
 20
132.600000
 11
81.833011
 21
127.400000
  0
LINE
  8
1
 62
7
  6
CONTINUOUS
 10
81.833011
 20
132.600000
 11
82.833011
 21
127.400000
  0
LINE
  8
1
 62
7
  6
CONTINUOUS
 10
82.833011
 20
132.600000
 11
83.833011
 21
127.400000
  0
LINE
  8
1
 62
7
  6
CONTINUOUS
 10
83.833011
 20
132.600000
 11
84.833011
 21
127.400000
  0
LINE
  8
1
 62
7
  6
CONTINUOUS
 10
84.833011
 20
132.600000
 11
85.833011
 21
127.400000
  0
LINE
  8
1
 62
7
  6
CONTINUOUS
 10
85.833011
 20
132.600000
 11
86.833011
 21
127.400000
  0
LINE
  8
1
 62
7
  6
CONTINUOUS
 10
86.833011
 20
132.600000
 11
87.833011
 21
127.400000
  0
LINE
  8
1
 62
7
  6
CONTINUOUS
 10
87.833011
 20
132.600000
 11
88.833011
 21
127.400000
  0
LINE
  8
1
 62
7
  6
CONTINUOUS
 10
88.833011
 20
132.600000
 11
89.833011
 21
127.400000
  0
LINE
  8
1
 62
7
  6
CONTINUOUS
 10
89.833011
 20
132.600000
 11
90.833011
 21
127.400000
  0
LINE
  8
1
 62
7
  6
CONTINUOUS
 10
90.833011
 20
132.600000
 11
91.833011
 21
127.400000
  0
LINE
  8
1
 62
7
  6
CONTINUOUS
 10
91.833011
 20
132.600000
 11
92.833011
 21
127.400000
  0
LINE
  8
1
 62
7
  6
CONTINUOUS
 10
92.833011
 20
132.100000
 11
92.833011
 21
127.400000
  0
LINE
  8
1
 62
7
  6
CONTINUOUS
 10
73.833011
 20
132.100000
 11
74.933798
 21
127.396063
  0
LINE
  8
1
 62
7
  6
CONTINUOUS
 10
73.833011
 20
127.400000
 11
73.833011
 21
132.600000
  0
LINE
  8
1
 62
7
  6
DASHDOT
 10
72.134173
 20
130.000000
 11
94.914989
 21
130.000000
  0
DIMENSION
  8
2
 62
134
  6
CONTINUOUS
  2
*D7
 10
79.833011
 20
127.400000
 11
79.833011
 21
143.528341
 70
     0
  1
φ5.2
 13
79.833011
 23
127.400000
 14
79.833011
 24
132.600000
 50
90.000000
  0
DIMENSION
  8
2
 62
134
  6
CONTINUOUS
  2
*D8
 10
68.301011
 20
125.500000
 11
68.301011
 21
141.685661
 70
     0
  1
φ9
 13
68.301011
 23
125.500000
 14
68.301011
 24
134.500062
 50
90.000000
  0
DIMENSION
  8
2
 62
134
  6
CONTINUOUS
  2
*D9
 10
58.583011
 20
110.668473
 11
65.834103
 21
110.668473
 70
     0
  1
15.3
 13
58.583011
 23
123.300000
 14
73.833011
 24
124.500000
 50
0.000000
  0
LINE
  8
4
 62
54
  6
CONTINUOUS
 10
262.590264
 20
128.400000
 11
262.590264
 21
128.049998
  0
LINE
  8
4
 62
7
  6
DASHDOT
 10
263.824761
 20
130.000000
 11
254.083588
 21
130.000000
  0
DIMENSION
  8
2
 62
134
  6
CONTINUOUS
  2
*D10
 10
262.590264
 20
104.804840
 11
258.864250
 21
104.804840
 70
     0
  1
7.5
 13
262.590264
 23
127.400000
 14
255.090264
 24
103.804841
 50
180.000000
  0
DIMENSION
  8
2
 62
134
  6
CONTINUOUS
  2
*D11
 10
44.083011
 20
104.804840
 11
111.805916
 21
104.804840
 70
     0
  1
ﾌｧｲﾊﾞ長
 13
44.083011
 23
123.500000
 14
255.090264
 24
121.000000
 50
0.000000
  0
DIMENSION
  8
2
 62
134
  6
CONTINUOUS
  2
*D12
 10
240.586003
 20
109.546737
 11
247.587239
 21
109.546737
 70
     0
  1
14.5
 13
240.586003
 23
122.000000
 14
255.090264
 24
121.000000
 50
0.000000
  0
DIMENSION
  8
2
 62
134
  6
CONTINUOUS
  2
*D13
 10
225.340264
 20
109.546737
 11
232.633978
 21
109.546737
 70
     0
  1
10.5
 13
225.340264
 23
124.499938
 14
240.586003
 24
122.000000
 50
0.000000
  0
LINE
  8
1
 62
7
  6
CONTINUOUS
 10
207.340264
 20
132.600000
 11
208.340264
 21
132.600000
  0
LINE
  8
1
 62
7
  6
CONTINUOUS
 10
209.340264
 20
132.600000
 11
210.340264
 21
132.600000
  0
LINE
  8
1
 62
7
  6
CONTINUOUS
 10
211.340264
 20
132.600000
 11
212.340264
 21
132.600000
  0
LINE
  8
1
 62
7
  6
CONTINUOUS
 10
213.340264
 20
132.600000
 11
214.340264
 21
132.600000
  0
LINE
  8
1
 62
7
  6
CONTINUOUS
 10
215.340264
 20
132.600000
 11
216.340264
 21
132.600000
  0
LINE
  8
1
 62
7
  6
CONTINUOUS
 10
217.340264
 20
132.600000
 11
218.340264
 21
132.600000
  0
LINE
  8
1
 62
7
  6
CONTINUOUS
 10
219.340264
 20
132.600000
 11
220.340264
 21
132.600000
  0
LINE
  8
1
 62
7
  6
CONTINUOUS
 10
221.340264
 20
132.600000
 11
222.340264
 21
132.600000
  0
LINE
  8
1
 62
7
  6
CONTINUOUS
 10
223.340264
 20
132.600000
 11
224.340264
 21
132.600000
  0
LINE
  8
1
 62
7
  6
CONTINUOUS
 10
225.340264
 20
132.100000
 11
225.340264
 21
132.600000
  0
LINE
  8
1
 62
7
  6
CONTINUOUS
 10
206.340264
 20
132.100000
 11
207.423598
 21
132.100000
  0
LINE
  8
1
 62
7
  6
CONTINUOUS
 10
208.423598
 20
132.100000
 11
209.423598
 21
132.100000
  0
LINE
  8
1
 62
7
  6
CONTINUOUS
 10
210.423598
 20
132.100000
 11
211.423598
 21
132.100000
  0
LINE
  8
1
 62
7
  6
CONTINUOUS
 10
212.423598
 20
132.100000
 11
213.423598
 21
132.100000
  0
LINE
  8
1
 62
7
  6
CONTINUOUS
 10
214.423598
 20
132.100000
 11
215.423598
 21
132.100000
  0
LINE
  8
1
 62
7
  6
CONTINUOUS
 10
216.423598
 20
132.100000
 11
217.423598
 21
132.100000
  0
LINE
  8
1
 62
7
  6
CONTINUOUS
 10
218.423598
 20
132.100000
 11
219.423598
 21
132.100000
  0
LINE
  8
1
 62
7
  6
CONTINUOUS
 10
220.423598
 20
132.100000
 11
221.423598
 21
132.100000
  0
LINE
  8
1
 62
7
  6
CONTINUOUS
 10
222.423598
 20
132.100000
 11
223.423598
 21
132.100000
  0
LINE
  8
1
 62
7
  6
CONTINUOUS
 10
224.423598
 20
132.100000
 11
225.340264
 21
132.100000
  0
LINE
  8
1
 62
7
  6
CONTINUOUS
 10
208.340264
 20
127.400000
 11
209.340264
 21
127.400000
  0
LINE
  8
1
 62
7
  6
CONTINUOUS
 10
210.340264
 20
127.400000
 11
211.340264
 21
127.400000
  0
LINE
  8
1
 62
7
  6
CONTINUOUS
 10
212.340264
 20
127.400000
 11
213.340264
 21
127.400000
  0
LINE
  8
1
 62
7
  6
CONTINUOUS
 10
214.340264
 20
127.400000
 11
215.340264
 21
127.400000
  0
LINE
  8
1
 62
7
  6
CONTINUOUS
 10
216.340264
 20
127.400000
 11
217.340264
 21
127.400000
  0
LINE
  8
1
 62
7
  6
CONTINUOUS
 10
218.340264
 20
127.400000
 11
219.340264
 21
127.400000
  0
LINE
  8
1
 62
7
  6
CONTINUOUS
 10
220.340264
 20
127.400000
 11
221.340264
 21
127.400000
  0
LINE
  8
1
 62
7
  6
CONTINUOUS
 10
222.340264
 20
127.400000
 11
223.340264
 21
127.400000
  0
LINE
  8
1
 62
7
  6
CONTINUOUS
 10
224.340264
 20
127.400000
 11
225.340264
 21
127.400000
  0
LINE
  8
1
 62
7
  6
CONTINUOUS
 10
223.256931
 20
127.900000
 11
224.256931
 21
127.900000
  0
LINE
  8
1
 62
7
  6
CONTINUOUS
 10
221.256931
 20
127.900000
 11
222.256931
 21
127.900000
  0
LINE
  8
1
 62
7
  6
CONTINUOUS
 10
219.356504
 20
127.900000
 11
220.256931
 21
127.900000
  0
LINE
  8
1
 62
7
  6
CONTINUOUS
 10
217.256931
 20
127.900000
 11
218.256931
 21
127.900000
  0
LINE
  8
1
 62
7
  6
CONTINUOUS
 10
215.256931
 20
127.900000
 11
216.256931
 21
127.900000
  0
LINE
  8
1
 62
7
  6
CONTINUOUS
 10
213.256931
 20
127.900000
 11
214.256931
 21
127.900000
  0
LINE
  8
1
 62
7
  6
CONTINUOUS
 10
211.256931
 20
127.900000
 11
212.256931
 21
127.900000
  0
LINE
  8
1
 62
7
  6
CONTINUOUS
 10
209.256931
 20
127.900000
 11
210.256931
 21
127.900000
  0
LINE
  8
1
 62
7
  6
CONTINUOUS
 10
207.356504
 20
127.900000
 11
208.256931
 21
127.900000
  0
LINE
  8
1
 62
7
  6
CONTINUOUS
 10
206.340264
 20
127.900000
 11
206.426883
 21
127.400000
  0
LINE
  8
1
 62
7
  6
CONTINUOUS
 10
206.426883
 20
127.400000
 11
207.440264
 21
127.400000
  0
LINE
  8
1
 62
7
  6
CONTINUOUS
 10
207.331529
 20
127.900000
 11
207.340264
 21
127.900000
  0
LINE
  8
1
 62
7
  6
CONTINUOUS
 10
207.340264
 20
132.600000
 11
208.340264
 21
127.400000
  0
LINE
  8
1
 62
7
  6
CONTINUOUS
 10
208.340264
 20
132.600000
 11
209.340264
 21
127.400000
  0
LINE
  8
1
 62
7
  6
CONTINUOUS
 10
209.340264
 20
132.600000
 11
210.340264
 21
127.400000
  0
LINE
  8
1
 62
7
  6
CONTINUOUS
 10
210.340264
 20
132.600000
 11
211.340264
 21
127.400000
  0
LINE
  8
1
 62
7
  6
CONTINUOUS
 10
211.340264
 20
132.600000
 11
212.340264
 21
127.400000
  0
LINE
  8
1
 62
7
  6
CONTINUOUS
 10
212.340264
 20
132.600000
 11
213.340264
 21
127.400000
  0
LINE
  8
1
 62
7
  6
CONTINUOUS
 10
213.340264
 20
132.600000
 11
214.340264
 21
127.400000
  0
LINE
  8
1
 62
7
  6
CONTINUOUS
 10
214.340264
 20
132.600000
 11
215.340264
 21
127.400000
  0
LINE
  8
1
 62
7
  6
CONTINUOUS
 10
215.340264
 20
132.600000
 11
216.340264
 21
127.400000
  0
LINE
  8
1
 62
7
  6
CONTINUOUS
 10
216.340264
 20
132.600000
 11
217.340264
 21
127.400000
  0
LINE
  8
1
 62
7
  6
CONTINUOUS
 10
217.340264
 20
132.600000
 11
218.340264
 21
127.400000
  0
LINE
  8
1
 62
7
  6
CONTINUOUS
 10
218.340264
 20
132.600000
 11
219.340264
 21
127.400000
  0
LINE
  8
1
 62
7
  6
CONTINUOUS
 10
219.340264
 20
132.600000
 11
220.340264
 21
127.400000
  0
LINE
  8
1
 62
7
  6
CONTINUOUS
 10
220.340264
 20
132.600000
 11
221.340264
 21
127.400000
  0
LINE
  8
1
 62
7
  6
CONTINUOUS
 10
221.340264
 20
132.600000
 11
222.340264
 21
127.400000
  0
LINE
  8
1
 62
7
  6
CONTINUOUS
 10
222.340264
 20
132.600000
 11
223.340264
 21
127.400000
  0
LINE
  8
1
 62
7
  6
CONTINUOUS
 10
223.340264
 20
132.600000
 11
224.340264
 21
127.400000
  0
LINE
  8
1
 62
7
  6
CONTINUOUS
 10
224.340264
 20
132.600000
 11
225.340264
 21
127.400000
  0
LINE
  8
1
 62
7
  6
CONTINUOUS
 10
225.340264
 20
132.100000
 11
225.340264
 21
127.400000
  0
LINE
  8
1
 62
7
  6
CONTINUOUS
 10
206.340264
 20
132.100000
 11
207.441052
 21
127.396063
  0
LINE
  8
1
 62
7
  6
CONTINUOUS
 10
206.340264
 20
127.400000
 11
206.340264
 21
132.600000
  0
LINE
  8
1
 62
7
  6
DASHDOT
 10
183.073120
 20
130.000000
 11
222.422242
 21
130.000000
  0
LINE
  8
2
 62
134
  6
CONTINUOUS
 10
39.830213
 20
133.098877
 11
35.446967
 21
142.387540
  0
LINE
  8
2
 62
134
  6
CONTINUOUS
 10
35.446967
 20
142.387540
 11
24.422305
 21
142.387540
  0
TEXT
  8
2
 62
134
  6
CONTINUOUS
 10
24.422305
 20
142.259356
 40
4.000000
 41
1.000000
  1
Oﾘﾝｸﾞ
  7
KANJI
 50
0.000000
 51
0.000000
  0
LINE
  8
2
 62
134
  6
CONTINUOUS
 10
39.830213
 20
133.098877
 11
38.537639
 21
134.625066
  0
LINE
  8
2
 62
134
  6
CONTINUOUS
 10
39.830213
 20
133.098877
 11
39.473905
 21
135.066883
  0
LINE
  8
2
 62
134
  6
CONTINUOUS
 10
38.537639
 20
134.625066
 11
39.473905
 21
135.066883
  0
LINE
  8
2
 62
134
  6
CONTINUOUS
 10
39.624103
 20
133.535652
 11
38.977816
 21
134.298746
  0
LINE
  8
2
 62
134
  6
CONTINUOUS
 10
39.624103
 20
133.535652
 11
39.445949
 21
134.519654
  0
LINE
  8
2
 62
134
  6
CONTINUOUS
 10
38.977816
 20
134.298746
 11
39.445949
 21
134.519654
  0
LINE
  8
2
 62
134
  6
CONTINUOUS
 10
41.510224
 20
134.300002
 11
34.293308
 21
148.796755
  0
LINE
  8
2
 62
134
  6
CONTINUOUS
 10
34.293308
 20
148.796755
 11
24.207001
 21
148.796755
  0
TEXT
  8
2
 62
134
  6
CONTINUOUS
 10
24.207001
 20
148.606558
 40
4.000000
 41
1.000000
  1
ｷｰ溝
  7
KANJI
 50
0.000000
 51
0.000000
  0
LINE
  8
2
 62
134
  6
CONTINUOUS
 10
41.510224
 20
134.300002
 11
40.185886
 21
135.798711
  0
LINE
  8
2
 62
134
  6
CONTINUOUS
 10
41.510224
 20
134.300002
 11
41.112668
 21
136.260091
  0
LINE
  8
2
 62
134
  6
CONTINUOUS
 10
40.185886
 20
135.798711
 11
41.112668
 21
136.260091
  0
LINE
  8
2
 62
134
  6
CONTINUOUS
 10
41.294987
 20
134.732352
 11
40.632818
 21
135.481706
  0
LINE
  8
2
 62
134
  6
CONTINUOUS
 10
41.294987
 20
134.732352
 11
41.096209
 21
135.712396
  0
LINE
  8
2
 62
134
  6
CONTINUOUS
 10
40.632818
 20
135.481706
 11
41.096209
 21
135.712396
  0
LINE
  8
2
 62
134
  6
CONTINUOUS
 10
259.279271
 20
133.098877
 11
263.662517
 21
142.387540
  0
LINE
  8
2
 62
134
  6
CONTINUOUS
 10
263.662517
 20
142.387540
 11
274.687179
 21
142.387540
  0
TEXT
  8
2
 62
134
  6
CONTINUOUS
 10
264.687179
 20
142.259356
 40
4.000000
 41
1.000000
  1
Oﾘﾝｸﾞ
  7
KANJI
 50
0.000000
 51
0.000000
  0
LINE
  8
2
 62
134
  6
CONTINUOUS
 10
259.279271
 20
133.098877
 11
259.635579
 21
135.066883
  0
LINE
  8
2
 62
134
  6
CONTINUOUS
 10
259.279271
 20
133.098877
 11
260.571845
 21
134.625066
  0
LINE
  8
2
 62
134
  6
CONTINUOUS
 10
259.635579
 20
135.066883
 11
260.571845
 21
134.625066
  0
LINE
  8
2
 62
134
  6
CONTINUOUS
 10
259.485381
 20
133.535652
 11
259.663535
 21
134.519654
  0
LINE
  8
2
 62
134
  6
CONTINUOUS
 10
259.485381
 20
133.535652
 11
260.131668
 21
134.298746
  0
LINE
  8
2
 62
134
  6
CONTINUOUS
 10
259.663535
 20
134.519654
 11
260.131668
 21
134.298746
  0
LINE
  8
2
 62
134
  6
CONTINUOUS
 10
257.599261
 20
134.300002
 11
264.816176
 21
148.796755
  0
LINE
  8
2
 62
134
  6
CONTINUOUS
 10
264.816176
 20
148.796755
 11
274.902483
 21
148.796755
  0
TEXT
  8
2
 62
134
  6
CONTINUOUS
 10
266.902483
 20
148.606558
 40
4.000000
 41
1.000000
  1
ｷｰ溝
  7
KANJI
 50
0.000000
 51
0.000000
  0
LINE
  8
2
 62
134
  6
CONTINUOUS
 10
257.599261
 20
134.300002
 11
257.996816
 21
136.260091
  0
LINE
  8
2
 62
134
  6
CONTINUOUS
 10
257.599261
 20
134.300002
 11
258.923598
 21
135.798711
  0
LINE
  8
2
 62
134
  6
CONTINUOUS
 10
257.996816
 20
136.260091
 11
258.923598
 21
135.798711
  0
LINE
  8
2
 62
134
  6
CONTINUOUS
 10
257.814497
 20
134.732352
 11
258.013275
 21
135.712396
  0
LINE
  8
2
 62
134
  6
CONTINUOUS
 10
257.814497
 20
134.732352
 11
258.476666
 21
135.481706
  0
LINE
  8
2
 62
134
  6
CONTINUOUS
 10
258.013275
 20
135.712396
 11
258.476666
 21
135.481706
  0
LINE
  8
2
 62
134
  6
CONTINUOUS
 10
248.478699
 20
138.000000
 11
239.492254
 21
157.091844
  0
LINE
  8
2
 62
134
  6
CONTINUOUS
 10
239.492254
 20
157.091844
 11
218.982681
 21
157.091844
  0
TEXT
  8
2
 62
134
  6
CONTINUOUS
 10
218.982681
 20
156.939532
 40
4.000000
 41
1.000000
  1
ﾌｧｲﾊﾞﾌﾟﾗｸﾞ
  7
KANJI
 50
0.000000
 51
30.000000
  0
LINE
  8
2
 62
134
  6
CONTINUOUS
 10
248.478699
 20
138.000000
 11
247.187620
 21
139.527453
  0
LINE
  8
2
 62
134
  6
CONTINUOUS
 10
248.478699
 20
138.000000
 11
248.124318
 21
139.968353
  0
LINE
  8
2
 62
134
  6
CONTINUOUS
 10
247.187620
 20
139.527453
 11
248.124318
 21
139.968353
  0
LINE
  8
2
 62
134
  6
CONTINUOUS
 10
248.273017
 20
138.436976
 11
247.627477
 21
139.200702
  0
LINE
  8
2
 62
134
  6
CONTINUOUS
 10
248.273017
 20
138.436976
 11
248.095826
 21
139.421152
  0
LINE
  8
2
 62
134
  6
CONTINUOUS
 10
247.627477
 20
139.200702
 11
248.095826
 21
139.421152
  0
DIMENSION
  8
2
 62
134
  6
CONTINUOUS
  2
*D14
 10
243.662497
 20
122.000000
 11
243.662497
 21
143.278244
 70
     0
  1
φ16
 13
243.662497
 23
122.000000
 14
243.662497
 24
138.000000
 50
90.000000
  0
LINE
  8
2
 62
134
  6
CONTINUOUS
 10
255.090264
 20
114.958402
 11
263.942452
 21
121.559383
  0
LINE
  8
2
 62
134
  6
CONTINUOUS
 10
263.942452
 20
121.559383
 11
282.219506
 21
121.559383
  0
TEXT
  8
2
 62
134
  6
CONTINUOUS
 10
264.219506
 20
121.648585
 40
4.000000
 41
1.000000
  1
ﾌｧｲﾊﾞ端面
  7
KANJI
 50
0.000000
 51
0.000000
  0
LINE
  8
2
 62
134
  6
CONTINUOUS
 10
255.090264
 20
114.958402
 11
256.329507
 21
116.528203
  0
LINE
  8
2
 62
134
  6
CONTINUOUS
 10
255.090264
 20
114.958402
 11
256.948381
 21
115.698268
  0
LINE
  8
2
 62
134
  6
CONTINUOUS
 10
256.329507
 20
116.528203
 11
256.948381
 21
115.698268
  0
LINE
  8
2
 62
134
  6
CONTINUOUS
 10
255.477434
 20
115.247110
 11
256.097056
 21
116.032011
  0
LINE
  8
2
 62
134
  6
CONTINUOUS
 10
255.477434
 20
115.247110
 11
256.406493
 21
115.617044
  0
LINE
  8
2
 62
134
  6
CONTINUOUS
 10
256.097056
 20
116.032011
 11
256.406493
 21
115.617044
  0
LINE
  8
2
 62
134
  6
CONTINUOUS
 10
44.019220
 20
114.958402
 11
35.167033
 21
121.559383
  0
LINE
  8
2
 62
134
  6
CONTINUOUS
 10
35.167033
 20
121.559383
 11
16.889979
 21
121.559383
  0
TEXT
  8
2
 62
134
  6
CONTINUOUS
 10
16.889979
 20
121.648585
 40
4.000000
 41
1.000000
  1
ﾌｧｲﾊﾞ端面
  7
KANJI
 50
0.000000
 51
0.000000
  0
LINE
  8
2
 62
134
  6
CONTINUOUS
 10
44.019220
 20
114.958402
 11
42.161103
 21
115.698268
  0
LINE
  8
2
 62
134
  6
CONTINUOUS
 10
44.019220
 20
114.958402
 11
42.779977
 21
116.528203
  0
LINE
  8
2
 62
134
  6
CONTINUOUS
 10
42.161103
 20
115.698268
 11
42.779977
 21
116.528203
  0
LINE
  8
2
 62
134
  6
CONTINUOUS
 10
43.632050
 20
115.247110
 11
42.702992
 21
115.617044
  0
LINE
  8
2
 62
134
  6
CONTINUOUS
 10
43.632050
 20
115.247110
 11
43.012428
 21
116.032011
  0
LINE
  8
2
 62
134
  6
CONTINUOUS
 10
42.702992
 20
115.617044
 11
43.012428
 21
116.032011
  0
LINE
  8
4
 62
54
  6
DOT
 10
44.083011
 20
131.500000
 11
44.083011
 21
128.500000
  0
LINE
  8
2
 62
134
  6
CONTINUOUS
 10
182.296872
 20
78.313545
 11
242.280566
 21
78.313545
  0
TEXT
  8
2
 62
134
  6
CONTINUOUS
 10
247.009468
 20
67.657547
 40
4.000000
 41
1.000000
  1
10m
  7
KANJI
 50
0.000000
 51
0.000000
  0
TEXT
  8
2
 62
134
  6
CONTINUOUS
 10
247.146530
 20
76.566596
 40
4.000000
 41
1.000000
  1
30m
  7
KANJI
 50
0.000000
 51
0.000000
  0
DIMENSION
  8
2
 62
134
  6
CONTINUOUS
  2
*D15
 10
228.340264
 20
125.499938
 11
228.340264
 21
141.289890
 70
     0
  1
φ9
 13
228.340264
 23
125.499938
 14
228.340264
 24
134.500000
 50
90.000000
  0
TEXT
  8
2
 62
134
  6
CONTINUOUS
 10
214.171211
 20
152.581746
 40
4.000000
 41
1.000000
  1
温度変換器側
  7
KANJI
 50
0.000000
 51
0.000000
  0
TEXT
  8
2
 62
134
  6
CONTINUOUS
 10
243.384569
 20
85.861794
 40
4.000000
 41
1.000000
  1
ﾌｧｲﾊﾞ最大長
  7
KANJI
 50
0.000000
 51
0.000000
  0
LINE
  8
2
 62
134
  6
CONTINUOUS
 10
266.640672
 20
91.313545
 11
266.640672
 21
66.313545
  0
LINE
  8
2
 62
134
  6
CONTINUOUS
 10
182.296872
 20
91.313545
 11
266.640672
 21
91.313545
  0
LINE
  8
2
 62
134
  6
CONTINUOUS
 10
182.296872
 20
85.313545
 11
266.640672
 21
85.313545
  0
LINE
  8
2
 62
134
  6
CONTINUOUS
 10
182.296872
 20
84.313545
 11
266.640672
 21
84.313545
  0
LINE
  8
2
 62
134
  6
CONTINUOUS
 10
182.296872
 20
72.313545
 11
266.640672
 21
72.313545
  0
LINE
  8
2
 62
134
  6
CONTINUOUS
 10
182.296872
 20
66.313545
 11
266.640672
 21
66.313545
  0
LINE
  8
1
 62
14
  6
CONTINUOUS
 10
58.828750
 20
132.450000
 11
58.828750
 21
133.000000
  0
LINE
  8
1
 62
14
  6
CONTINUOUS
 10
58.828750
 20
132.450000
 11
58.828750
 21
127.000000
  0
LINE
  8
1
 62
7
  6
CONTINUOUS
 10
73.828750
 20
134.500062
 11
73.828750
 21
125.500000
  0
LINE
  8
1
 62
7
  6
DASHDOT
 10
70.828750
 20
128.462974
 11
70.828750
 21
131.501064
  0
LINE
  8
1
 62
14
  6
CONTINUOUS
 10
65.628750
 20
132.828588
 11
65.628750
 21
127.171536
  0
LINE
  8
1
 62
14
  6
CONTINUOUS
 10
65.628750
 20
127.171536
 11
62.828750
 21
132.828588
  0
LINE
  8
1
 62
14
  6
CONTINUOUS
 10
62.828750
 20
127.171536
 11
65.628750
 21
132.828588
  0
LINE
  8
1
 62
14
  6
CONTINUOUS
 10
62.828750
 20
127.171536
 11
65.628750
 21
127.171536
  0
LINE
  8
1
 62
14
  6
CONTINUOUS
 10
62.828750
 20
132.828588
 11
65.628750
 21
132.828588
  0
LINE
  8
1
 62
14
  6
CONTINUOUS
 10
62.828750
 20
132.828588
 11
62.828750
 21
127.171536
  0
LINE
  8
1
 62
14
  6
CONTINUOUS
 10
60.828750
 20
127.171536
 11
60.828750
 21
132.828588
  0
LINE
  8
1
 62
14
  6
CONTINUOUS
 10
58.828750
 20
132.450000
 11
60.828750
 21
133.000000
  0
LINE
  8
1
 62
14
  6
CONTINUOUS
 10
58.828750
 20
127.550000
 11
60.828750
 21
127.000000
  0
LINE
  8
1
 62
14
  6
CONTINUOUS
 10
60.828750
 20
125.500000
 11
60.828750
 21
127.171536
  0
LINE
  8
1
 62
14
  6
CONTINUOUS
 10
60.828750
 20
134.500062
 11
60.828750
 21
132.828588
  0
LINE
  8
1
 62
7
  6
CONTINUOUS
 10
73.828750
 20
125.500000
 11
60.828750
 21
125.500000
  0
LINE
  8
1
 62
7
  6
CONTINUOUS
 10
73.828750
 20
134.500062
 11
60.828750
 21
134.500062
  0
CIRCLE
  8
1
 62
7
  6
CONTINUOUS
 10
70.828750
 20
130.000062
 40
0.782631
  0
CIRCLE
  8
1
 62
7
  6
CONTINUOUS
 10
70.828750
 20
130.000062
 40
1.000000
  0
LINE
  8
1
 62
14
  6
CONTINUOUS
 10
58.583011
 20
132.450000
 11
58.828750
 21
132.450000
  0
LINE
  8
1
 62
14
  6
CONTINUOUS
 10
58.583011
 20
127.550000
 11
58.828750
 21
127.550000
  0
LINE
  8
1
 62
14
  6
CONTINUOUS
 10
58.583011
 20
133.000000
 11
60.828750
 21
133.000000
  0
LINE
  8
1
 62
14
  6
CONTINUOUS
 10
58.583011
 20
127.000000
 11
60.828750
 21
127.000000
  0
LINE
  8
1
 62
7
  6
DASHDOT
 10
56.717042
 20
130.000000
 11
74.881096
 21
130.000000
  0
LINE
  8
1
 62
214
  6
CONTINUOUS
 10
44.083011
 20
135.086540
 11
44.083011
 21
135.500000
  0
LINE
  8
1
 62
214
  6
CONTINUOUS
 10
44.083011
 20
135.086540
 11
45.083011
 21
135.086540
  0
LINE
  8
1
 62
7
  6
CONTINUOUS
 10
44.083011
 20
135.086540
 11
41.987272
 21
135.086540
  0
LINE
  8
1
 62
214
  6
CONTINUOUS
 10
44.083011
 20
135.500000
 11
42.187272
 21
135.500000
  0
LINE
  8
1
 62
214
  6
CONTINUOUS
 10
41.987272
 20
135.300000
 11
42.187272
 21
135.500000
  0
LINE
  8
1
 62
7
  6
DASHDOT
 10
38.921874
 20
130.000000
 11
59.217067
 21
130.000000
  0
LINE
  8
1
 62
7
  6
CONTINUOUS
 10
44.083011
 20
124.913460
 11
41.987272
 21
124.913460
  0
LINE
  8
1
 62
214
  6
CONTINUOUS
 10
41.987272
 20
125.350000
 11
41.987272
 21
135.300000
  0
LINE
  8
1
 62
214
  6
CONTINUOUS
 10
41.987272
 20
125.350000
 11
41.987272
 21
124.700000
  0
LINE
  8
1
 62
214
  6
CONTINUOUS
 10
44.083011
 20
124.500000
 11
42.187272
 21
124.500000
  0
LINE
  8
1
 62
214
  6
CONTINUOUS
 10
41.987272
 20
124.700000
 11
42.187272
 21
124.500000
  0
LINE
  8
1
 62
214
  6
CONTINUOUS
 10
45.083011
 20
124.000000
 11
58.283011
 21
124.000000
  0
LINE
  8
1
 62
214
  6
CONTINUOUS
 10
58.583011
 20
124.300000
 11
58.283011
 21
124.000000
  0
LINE
  8
1
 62
7
  6
CONTINUOUS
 10
45.083011
 20
128.304134
 11
58.583011
 21
128.304134
  0
LINE
  8
1
 62
7
  6
CONTINUOUS
 10
45.083011
 20
127.621813
 11
58.583011
 21
127.621813
  0
LINE
  8
1
 62
7
  6
CONTINUOUS
 10
45.083011
 20
126.966317
 11
58.583011
 21
126.966317
  0
LINE
  8
1
 62
7
  6
CONTINUOUS
 10
45.083011
 20
126.350404
 11
58.583011
 21
126.350404
  0
LINE
  8
1
 62
7
  6
CONTINUOUS
 10
45.083011
 20
125.786062
 11
58.583011
 21
125.786062
  0
LINE
  8
1
 62
7
  6
CONTINUOUS
 10
45.083011
 20
125.284276
 11
58.583011
 21
125.284276
  0
LINE
  8
1
 62
7
  6
CONTINUOUS
 10
45.083011
 20
124.854813
 11
58.583011
 21
124.854813
  0
LINE
  8
1
 62
7
  6
CONTINUOUS
 10
45.083011
 20
124.506030
 11
58.583011
 21
124.506030
  0
LINE
  8
1
 62
7
  6
CONTINUOUS
 10
45.083011
 20
124.244718
 11
58.583011
 21
124.244718
  0
LINE
  8
1
 62
214
  6
CONTINUOUS
 10
45.083011
 20
136.000000
 11
45.083011
 21
135.086540
  0
LINE
  8
1
 62
214
  6
CONTINUOUS
 10
45.083011
 20
136.000000
 11
58.283011
 21
136.000000
  0
LINE
  8
1
 62
214
  6
CONTINUOUS
 10
58.583011
 20
133.100000
 11
58.583011
 21
135.700000
  0
LINE
  8
1
 62
214
  6
CONTINUOUS
 10
58.283011
 20
136.000000
 11
58.583011
 21
135.700000
  0
LINE
  8
1
 62
214
  6
CONTINUOUS
 10
58.583011
 20
133.100000
 11
58.583011
 21
124.300000
  0
LINE
  8
1
 62
214
  6
CONTINUOUS
 10
44.083011
 20
124.913460
 11
45.083011
 21
124.913460
  0
LINE
  8
1
 62
214
  6
CONTINUOUS
 10
44.083011
 20
135.086540
 11
44.083011
 21
124.500000
  0
LINE
  8
1
 62
214
  6
CONTINUOUS
 10
45.083011
 20
124.000000
 11
45.083011
 21
135.086540
  0
LINE
  8
1
 62
7
  6
CONTINUOUS
 10
45.083011
 20
131.695866
 11
58.583011
 21
131.695866
  0
LINE
  8
1
 62
7
  6
CONTINUOUS
 10
45.083011
 20
132.378187
 11
58.583011
 21
132.378187
  0
LINE
  8
1
 62
7
  6
CONTINUOUS
 10
45.083011
 20
133.033683
 11
58.583011
 21
133.033683
  0
LINE
  8
1
 62
7
  6
CONTINUOUS
 10
45.083011
 20
133.649596
 11
58.583011
 21
133.649596
  0
LINE
  8
1
 62
7
  6
CONTINUOUS
 10
45.083011
 20
134.213938
 11
58.583011
 21
134.213938
  0
LINE
  8
1
 62
7
  6
CONTINUOUS
 10
45.083011
 20
134.715724
 11
58.583011
 21
134.715724
  0
LINE
  8
1
 62
7
  6
CONTINUOUS
 10
45.083011
 20
135.145187
 11
58.583011
 21
135.145187
  0
LINE
  8
1
 62
7
  6
CONTINUOUS
 10
45.083011
 20
135.493970
 11
58.583011
 21
135.493970
  0
LINE
  8
1
 62
7
  6
CONTINUOUS
 10
45.083011
 20
135.755282
 11
58.583011
 21
135.755282
  0
LINE
  8
1
 62
54
  6
DOT
 10
36.583011
 20
128.500000
 11
44.083011
 21
128.500000
  0
LINE
  8
1
 62
54
  6
DOT
 10
36.583011
 20
131.500000
 11
44.083011
 21
131.500000
  0
LINE
  8
1
 62
54
  6
CONTINUOUS
 10
39.782086
 20
127.749998
 11
36.883011
 21
127.749998
  0
LINE
  8
1
 62
54
  6
CONTINUOUS
 10
39.782086
 20
132.250002
 11
36.883011
 21
132.250002
  0
LINE
  8
1
 62
54
  6
CONTINUOUS
 10
40.782086
 20
127.749998
 11
40.782086
 21
134.300002
  0
LINE
  8
1
 62
54
  6
CONTINUOUS
 10
40.782086
 20
125.699998
 11
41.987272
 21
125.699998
  0
LINE
  8
1
 62
7
  6
CONTINUOUS
 10
40.782086
 20
133.100002
 11
41.987272
 21
133.100002
  0
LINE
  8
1
 62
54
  6
CONTINUOUS
 10
40.782086
 20
134.300002
 11
41.987272
 21
134.300002
  0
LINE
  8
1
 62
54
  6
CONTINUOUS
 10
40.782086
 20
127.749998
 11
40.782086
 21
125.699998
  0
LINE
  8
1
 62
54
  6
CONTINUOUS
 10
36.583011
 20
131.600000
 11
36.583011
 21
128.049998
  0
LINE
  8
1
 62
54
  6
CONTINUOUS
 10
36.583011
 20
128.049998
 11
36.883011
 21
127.749998
  0
LINE
  8
1
 62
54
  6
CONTINUOUS
 10
36.583011
 20
131.600000
 11
36.583011
 21
131.950002
  0
LINE
  8
1
 62
54
  6
CONTINUOUS
 10
36.583011
 20
131.950002
 11
36.883011
 21
132.250002
  0
LINE
  8
1
 62
251
  6
CONTINUOUS
 10
39.782086
 20
132.884842
 11
39.782086
 21
127.115158
  0
LINE
  8
1
 62
251
  6
CONTINUOUS
 10
40.782086
 20
132.884842
 11
40.782086
 21
127.115158
  0
ARC
  8
1
 62
251
  6
CONTINUOUS
 10
40.282086
 20
132.884842
 40
0.500000
 50
-6.140728
 51
180.000000
  0
ARC
  8
1
 62
251
  6
CONTINUOUS
 10
40.282086
 20
127.115158
 40
0.500000
 50
180.000000
 51
0.000000
  0
LINE
  8
1
 62
14
  6
CONTINUOUS
 10
240.340264
 20
127.550000
 11
240.340264
 21
127.000000
  0
LINE
  8
1
 62
14
  6
CONTINUOUS
 10
240.340264
 20
127.550000
 11
240.340264
 21
133.000000
  0
LINE
  8
1
 62
7
  6
CONTINUOUS
 10
225.340264
 20
125.499938
 11
225.340264
 21
134.500000
  0
LINE
  8
1
 62
7
  6
DASHDOT
 10
228.340264
 20
131.537026
 11
228.340264
 21
128.498936
  0
LINE
  8
1
 62
14
  6
CONTINUOUS
 10
233.540264
 20
127.171412
 11
233.540264
 21
132.828464
  0
LINE
  8
1
 62
14
  6
CONTINUOUS
 10
233.540264
 20
132.828464
 11
236.340264
 21
127.171412
  0
LINE
  8
1
 62
14
  6
CONTINUOUS
 10
236.340264
 20
132.828464
 11
233.540264
 21
127.171412
  0
LINE
  8
1
 62
14
  6
CONTINUOUS
 10
236.340264
 20
132.828464
 11
233.540264
 21
132.828464
  0
LINE
  8
1
 62
14
  6
CONTINUOUS
 10
236.340264
 20
127.171412
 11
233.540264
 21
127.171412
  0
LINE
  8
1
 62
14
  6
CONTINUOUS
 10
236.340264
 20
127.171412
 11
236.340264
 21
132.828464
  0
LINE
  8
1
 62
14
  6
CONTINUOUS
 10
238.340264
 20
132.828464
 11
238.340264
 21
127.171412
  0
LINE
  8
1
 62
14
  6
CONTINUOUS
 10
240.340264
 20
127.550000
 11
238.340264
 21
127.000000
  0
LINE
  8
1
 62
14
  6
CONTINUOUS
 10
240.340264
 20
132.450000
 11
238.340264
 21
133.000000
  0
LINE
  8
1
 62
14
  6
CONTINUOUS
 10
238.340264
 20
134.500000
 11
238.340264
 21
132.828464
  0
LINE
  8
1
 62
14
  6
CONTINUOUS
 10
238.340264
 20
125.499938
 11
238.340264
 21
127.171412
  0
LINE
  8
1
 62
7
  6
CONTINUOUS
 10
225.340264
 20
134.500000
 11
238.340264
 21
134.500000
  0
LINE
  8
1
 62
7
  6
CONTINUOUS
 10
225.340264
 20
125.499938
 11
238.340264
 21
125.499938
  0
CIRCLE
  8
1
 62
7
  6
CONTINUOUS
 10
228.340264
 20
129.999938
 40
0.782631
  0
CIRCLE
  8
1
 62
7
  6
CONTINUOUS
 10
228.340264
 20
129.999938
 40
1.000000
  0
LINE
  8
1
 62
14
  6
CONTINUOUS
 10
240.586003
 20
127.550000
 11
240.340264
 21
127.550000
  0
LINE
  8
1
 62
14
  6
CONTINUOUS
 10
240.586003
 20
132.450000
 11
240.340264
 21
132.450000
  0
LINE
  8
1
 62
14
  6
CONTINUOUS
 10
240.586003
 20
127.000000
 11
238.340264
 21
127.000000
  0
LINE
  8
1
 62
14
  6
CONTINUOUS
 10
240.586003
 20
133.000000
 11
238.340264
 21
133.000000
  0
LINE
  8
1
 62
7
  6
DASHDOT
 10
242.451972
 20
130.000000
 11
224.287918
 21
130.000000
  0
LINE
  8
1
 62
14
  6
CONTINUOUS
 10
135.000000
 20
134.500062
 11
135.000000
 21
125.500000
  0
LINE
  8
1
 62
14
  6
CONTINUOUS
 10
135.000000
 20
125.500000
 11
165.000000
 21
125.500000
  0
LINE
  8
1
 62
14
  6
CONTINUOUS
 10
165.000000
 20
125.500000
 11
165.000000
 21
134.500062
  0
LINE
  8
1
 62
14
  6
CONTINUOUS
 10
165.000000
 20
134.500062
 11
135.000000
 21
134.500062
  0
LINE
  8
1
 62
7
  6
CONTINUOUS
 10
252.088134
 20
122.090689
 11
241.586003
 21
122.090689
  0
LINE
  8
1
 62
7
  6
CONTINUOUS
 10
252.088134
 20
122.391549
 11
241.586003
 21
122.391549
  0
LINE
  8
1
 62
7
  6
CONTINUOUS
 10
252.088134
 20
122.809648
 11
241.586003
 21
122.809648
  0
LINE
  8
1
 62
7
  6
CONTINUOUS
 10
252.088134
 20
128.886613
 11
241.586003
 21
128.886613
  0
LINE
  8
1
 62
7
  6
CONTINUOUS
 10
252.088134
 20
127.794898
 11
241.586003
 21
127.794898
  0
LINE
  8
1
 62
7
  6
CONTINUOUS
 10
252.088134
 20
126.746103
 11
241.586003
 21
126.746103
  0
LINE
  8
1
 62
7
  6
CONTINUOUS
 10
252.088134
 20
125.760642
 11
241.586003
 21
125.760642
  0
LINE
  8
1
 62
7
  6
CONTINUOUS
 10
252.088134
 20
124.857696
 11
241.586003
 21
124.857696
  0
LINE
  8
1
 62
7
  6
CONTINUOUS
 10
252.088134
 20
124.054839
 11
241.586003
 21
124.054839
  0
LINE
  8
1
 62
7
  6
CONTINUOUS
 10
252.088134
 20
123.367699
 11
241.586003
 21
123.367699
  0
LINE
  8
1
 62
214
  6
CONTINUOUS
 10
241.586003
 20
122.000000
 11
241.586003
 21
130.000000
  0
LINE
  8
1
 62
214
  6
CONTINUOUS
 10
240.586003
 20
123.000000
 11
241.586003
 21
122.000000
  0
LINE
  8
1
 62
214
  6
CONTINUOUS
 10
252.088134
 20
122.000000
 11
241.586003
 21
122.000000
  0
LINE
  8
1
 62
214
  6
CONTINUOUS
 10
240.586003
 20
133.100000
 11
240.586003
 21
123.000000
  0
LINE
  8
1
 62
214
  6
CONTINUOUS
 10
241.586003
 20
138.000000
 11
240.586003
 21
137.000000
  0
LINE
  8
1
 62
214
  6
CONTINUOUS
 10
240.586003
 20
133.100000
 11
240.586003
 21
137.000000
  0
LINE
  8
1
 62
214
  6
CONTINUOUS
 10
252.088134
 20
138.000000
 11
241.586003
 21
138.000000
  0
LINE
  8
1
 62
214
  6
CONTINUOUS
 10
253.088134
 20
123.082500
 11
252.088134
 21
123.082500
  0
LINE
  8
1
 62
214
  6
CONTINUOUS
 10
252.088134
 20
138.000000
 11
252.088134
 21
136.917500
  0
LINE
  8
1
 62
214
  6
CONTINUOUS
 10
253.088134
 20
136.917500
 11
253.088134
 21
138.000000
  0
LINE
  8
1
 62
214
  6
CONTINUOUS
 10
253.088134
 20
136.917500
 11
252.088134
 21
136.917500
  0
LINE
  8
1
 62
7
  6
CONTINUOUS
 10
253.088134
 20
136.917500
 11
255.386003
 21
136.917500
  0
LINE
  8
1
 62
7
  6
CONTINUOUS
 10
253.088134
 20
123.082500
 11
255.386003
 21
123.082500
  0
LINE
  8
1
 62
7
  6
DASHDOT
 10
259.249271
 20
130.000000
 11
238.951947
 21
130.000000
  0
LINE
  8
1
 62
214
  6
CONTINUOUS
 10
255.386003
 20
126.400000
 11
255.386003
 21
137.500000
  0
LINE
  8
1
 62
214
  6
CONTINUOUS
 10
253.088134
 20
138.000000
 11
254.886003
 21
138.000000
  0
LINE
  8
1
 62
214
  6
CONTINUOUS
 10
255.386003
 20
137.500000
 11
254.886003
 21
138.000000
  0
LINE
  8
1
 62
214
  6
CONTINUOUS
 10
255.386003
 20
126.400000
 11
255.386003
 21
122.500000
  0
LINE
  8
1
 62
214
  6
CONTINUOUS
 10
253.088134
 20
122.000000
 11
254.886003
 21
122.000000
  0
LINE
  8
1
 62
214
  6
CONTINUOUS
 10
255.386003
 20
122.500000
 11
254.886003
 21
122.000000
  0
LINE
  8
1
 62
214
  6
CONTINUOUS
 10
241.586003
 20
130.000000
 11
241.586003
 21
138.000000
  0
LINE
  8
1
 62
7
  6
CONTINUOUS
 10
252.088134
 20
137.608451
 11
241.586003
 21
137.608451
  0
LINE
  8
1
 62
7
  6
CONTINUOUS
 10
252.088134
 20
137.190352
 11
241.586003
 21
137.190352
  0
LINE
  8
1
 62
7
  6
CONTINUOUS
 10
252.088134
 20
131.113387
 11
241.586003
 21
131.113387
  0
LINE
  8
1
 62
7
  6
CONTINUOUS
 10
252.088134
 20
132.205102
 11
241.586003
 21
132.205102
  0
LINE
  8
1
 62
7
  6
CONTINUOUS
 10
252.088134
 20
133.253897
 11
241.586003
 21
133.253897
  0
LINE
  8
1
 62
7
  6
CONTINUOUS
 10
252.088134
 20
134.239358
 11
241.586003
 21
134.239358
  0
LINE
  8
1
 62
7
  6
CONTINUOUS
 10
252.088134
 20
135.142304
 11
241.586003
 21
135.142304
  0
LINE
  8
1
 62
7
  6
CONTINUOUS
 10
252.088134
 20
135.945161
 11
241.586003
 21
135.945161
  0
LINE
  8
1
 62
7
  6
CONTINUOUS
 10
252.088134
 20
136.632301
 11
241.586003
 21
136.632301
  0
LINE
  8
1
 62
214
  6
CONTINUOUS
 10
252.088134
 20
122.000000
 11
252.088134
 21
136.917500
  0
LINE
  8
1
 62
214
  6
CONTINUOUS
 10
253.088134
 20
136.917500
 11
253.088134
 21
122.000000
  0
LINE
  8
1
 62
54
  6
DOT
 10
255.090264
 20
128.500000
 11
262.590264
 21
128.500000
  0
LINE
  8
1
 62
54
  6
DOT
 10
255.090264
 20
131.500000
 11
255.090264
 21
128.500000
  0
LINE
  8
1
 62
54
  6
DOT
 10
262.590264
 20
131.500000
 11
255.090264
 21
131.500000
  0
LINE
  8
1
 62
7
  6
CONTINUOUS
 10
258.391189
 20
133.100002
 11
255.388134
 21
133.100002
  0
LINE
  8
1
 62
54
  6
CONTINUOUS
 10
258.391189
 20
134.300002
 11
255.388134
 21
134.300002
  0
LINE
  8
1
 62
54
  6
CONTINUOUS
 10
258.391189
 20
125.699998
 11
255.388134
 21
125.699998
  0
LINE
  8
1
 62
54
  6
CONTINUOUS
 10
259.391189
 20
127.749998
 11
262.290264
 21
127.749998
  0
LINE
  8
1
 62
54
  6
CONTINUOUS
 10
259.391189
 20
132.250002
 11
262.290264
 21
132.250002
  0
LINE
  8
1
 62
54
  6
CONTINUOUS
 10
258.391189
 20
132.250002
 11
258.391189
 21
125.699998
  0
LINE
  8
1
 62
54
  6
CONTINUOUS
 10
258.391189
 20
132.250002
 11
258.391189
 21
134.300002
  0
LINE
  8
1
 62
54
  6
CONTINUOUS
 10
262.590264
 20
128.400000
 11
262.590264
 21
131.950002
  0
LINE
  8
1
 62
54
  6
CONTINUOUS
 10
262.590264
 20
131.950002
 11
262.290264
 21
132.250002
  0
LINE
  8
1
 62
54
  6
CONTINUOUS
 10
262.590264
 20
128.049998
 11
262.290264
 21
127.749998
  0
LINE
  8
1
 62
251
  6
CONTINUOUS
 10
258.391189
 20
132.884842
 11
258.391189
 21
127.115158
  0
LINE
  8
1
 62
251
  6
CONTINUOUS
 10
259.391189
 20
132.884842
 11
259.391189
 21
127.115158
  0
ARC
  8
1
 62
251
  6
CONTINUOUS
 10
258.891189
 20
132.884842
 40
0.500000
 50
-6.140728
 51
180.000000
  0
ARC
  8
1
 62
251
  6
CONTINUOUS
 10
258.891189
 20
127.115158
 40
0.500000
 50
180.000000
 51
0.000000
  0
LINE
  8
4
 62
7
  6
DASHDOT
 10
31.364982
 20
260.599109
 11
38.704025
 21
260.599109
  0
LINE
  8
1
 62
7
  6
CONTINUOUS
 10
70.849479
 20
263.199109
 11
71.849479
 21
263.199109
  0
LINE
  8
1
 62
7
  6
CONTINUOUS
 10
72.849479
 20
263.199109
 11
73.849479
 21
263.199109
  0
LINE
  8
1
 62
7
  6
CONTINUOUS
 10
74.849479
 20
263.199109
 11
75.849479
 21
263.199109
  0
LINE
  8
1
 62
7
  6
CONTINUOUS
 10
76.849479
 20
263.199109
 11
77.849479
 21
263.199109
  0
LINE
  8
1
 62
7
  6
CONTINUOUS
 10
78.849479
 20
263.199109
 11
79.849479
 21
263.199109
  0
LINE
  8
1
 62
7
  6
CONTINUOUS
 10
80.849479
 20
263.199109
 11
81.849479
 21
263.199109
  0
LINE
  8
1
 62
7
  6
CONTINUOUS
 10
82.849479
 20
263.199109
 11
83.849479
 21
263.199109
  0
LINE
  8
1
 62
7
  6
CONTINUOUS
 10
84.849479
 20
263.199109
 11
85.849479
 21
263.199109
  0
LINE
  8
1
 62
7
  6
CONTINUOUS
 10
86.849479
 20
263.199109
 11
87.849479
 21
263.199109
  0
LINE
  8
1
 62
7
  6
CONTINUOUS
 10
88.849479
 20
262.699109
 11
88.849479
 21
263.199109
  0
LINE
  8
1
 62
7
  6
CONTINUOUS
 10
69.849479
 20
262.699109
 11
70.932812
 21
262.699109
  0
LINE
  8
1
 62
7
  6
CONTINUOUS
 10
71.932812
 20
262.699109
 11
72.932812
 21
262.699109
  0
LINE
  8
1
 62
7
  6
CONTINUOUS
 10
73.932812
 20
262.699109
 11
74.932812
 21
262.699109
  0
LINE
  8
1
 62
7
  6
CONTINUOUS
 10
75.932812
 20
262.699109
 11
76.932812
 21
262.699109
  0
LINE
  8
1
 62
7
  6
CONTINUOUS
 10
77.932812
 20
262.699109
 11
78.932812
 21
262.699109
  0
LINE
  8
1
 62
7
  6
CONTINUOUS
 10
79.932812
 20
262.699109
 11
80.932812
 21
262.699109
  0
LINE
  8
1
 62
7
  6
CONTINUOUS
 10
81.932812
 20
262.699109
 11
82.932812
 21
262.699109
  0
LINE
  8
1
 62
7
  6
CONTINUOUS
 10
83.932812
 20
262.699109
 11
84.932812
 21
262.699109
  0
LINE
  8
1
 62
7
  6
CONTINUOUS
 10
85.932812
 20
262.699109
 11
86.932812
 21
262.699109
  0
LINE
  8
1
 62
7
  6
CONTINUOUS
 10
87.932812
 20
262.699109
 11
88.849479
 21
262.699109
  0
LINE
  8
1
 62
7
  6
CONTINUOUS
 10
71.849479
 20
257.999109
 11
72.849479
 21
257.999109
  0
LINE
  8
1
 62
7
  6
CONTINUOUS
 10
73.849479
 20
257.999109
 11
74.849479
 21
257.999109
  0
LINE
  8
1
 62
7
  6
CONTINUOUS
 10
75.849479
 20
257.999109
 11
76.849479
 21
257.999109
  0
LINE
  8
1
 62
7
  6
CONTINUOUS
 10
77.849479
 20
257.999109
 11
78.849479
 21
257.999109
  0
LINE
  8
1
 62
7
  6
CONTINUOUS
 10
79.849479
 20
257.999109
 11
80.849479
 21
257.999109
  0
LINE
  8
1
 62
7
  6
CONTINUOUS
 10
81.849479
 20
257.999109
 11
82.849479
 21
257.999109
  0
LINE
  8
1
 62
7
  6
CONTINUOUS
 10
83.849479
 20
257.999109
 11
84.849479
 21
257.999109
  0
LINE
  8
1
 62
7
  6
CONTINUOUS
 10
85.849479
 20
257.999109
 11
86.849479
 21
257.999109
  0
LINE
  8
1
 62
7
  6
CONTINUOUS
 10
87.849479
 20
257.999109
 11
88.849479
 21
257.999109
  0
LINE
  8
1
 62
7
  6
CONTINUOUS
 10
86.766146
 20
258.499109
 11
87.766146
 21
258.499109
  0
LINE
  8
1
 62
7
  6
CONTINUOUS
 10
84.766146
 20
258.499109
 11
85.766146
 21
258.499109
  0
LINE
  8
1
 62
7
  6
CONTINUOUS
 10
82.865719
 20
258.499109
 11
83.766146
 21
258.499109
  0
LINE
  8
1
 62
7
  6
CONTINUOUS
 10
80.766146
 20
258.499109
 11
81.766146
 21
258.499109
  0
LINE
  8
1
 62
7
  6
CONTINUOUS
 10
78.766146
 20
258.499109
 11
79.766146
 21
258.499109
  0
LINE
  8
1
 62
7
  6
CONTINUOUS
 10
76.766146
 20
258.499109
 11
77.766146
 21
258.499109
  0
LINE
  8
1
 62
7
  6
CONTINUOUS
 10
74.766146
 20
258.499109
 11
75.766146
 21
258.499109
  0
LINE
  8
1
 62
7
  6
CONTINUOUS
 10
72.766146
 20
258.499109
 11
73.766146
 21
258.499109
  0
LINE
  8
1
 62
7
  6
CONTINUOUS
 10
70.865719
 20
258.499109
 11
71.766146
 21
258.499109
  0
LINE
  8
1
 62
7
  6
CONTINUOUS
 10
69.849479
 20
258.499109
 11
69.936098
 21
257.999109
  0
LINE
  8
1
 62
7
  6
CONTINUOUS
 10
69.936098
 20
257.999109
 11
70.949479
 21
257.999109
  0
LINE
  8
1
 62
7
  6
CONTINUOUS
 10
70.840744
 20
258.499109
 11
70.849479
 21
258.499109
  0
LINE
  8
1
 62
7
  6
CONTINUOUS
 10
70.849479
 20
263.199109
 11
71.849479
 21
257.999109
  0
LINE
  8
1
 62
7
  6
CONTINUOUS
 10
71.849479
 20
263.199109
 11
72.849479
 21
257.999109
  0
LINE
  8
1
 62
7
  6
CONTINUOUS
 10
72.849479
 20
263.199109
 11
73.849479
 21
257.999109
  0
LINE
  8
1
 62
7
  6
CONTINUOUS
 10
73.849479
 20
263.199109
 11
74.849479
 21
257.999109
  0
LINE
  8
1
 62
7
  6
CONTINUOUS
 10
74.849479
 20
263.199109
 11
75.849479
 21
257.999109
  0
LINE
  8
1
 62
7
  6
CONTINUOUS
 10
75.849479
 20
263.199109
 11
76.849479
 21
257.999109
  0
LINE
  8
1
 62
7
  6
CONTINUOUS
 10
76.849479
 20
263.199109
 11
77.849479
 21
257.999109
  0
LINE
  8
1
 62
7
  6
CONTINUOUS
 10
77.849479
 20
263.199109
 11
78.849479
 21
257.999109
  0
LINE
  8
1
 62
7
  6
CONTINUOUS
 10
78.849479
 20
263.199109
 11
79.849479
 21
257.999109
  0
LINE
  8
1
 62
7
  6
CONTINUOUS
 10
79.849479
 20
263.199109
 11
80.849479
 21
257.999109
  0
LINE
  8
1
 62
7
  6
CONTINUOUS
 10
80.849479
 20
263.199109
 11
81.849479
 21
257.999109
  0
LINE
  8
1
 62
7
  6
CONTINUOUS
 10
81.849479
 20
263.199109
 11
82.849479
 21
257.999109
  0
LINE
  8
1
 62
7
  6
CONTINUOUS
 10
82.849479
 20
263.199109
 11
83.849479
 21
257.999109
  0
LINE
  8
1
 62
7
  6
CONTINUOUS
 10
83.849479
 20
263.199109
 11
84.849479
 21
257.999109
  0
LINE
  8
1
 62
7
  6
CONTINUOUS
 10
84.849479
 20
263.199109
 11
85.849479
 21
257.999109
  0
LINE
  8
1
 62
7
  6
CONTINUOUS
 10
85.849479
 20
263.199109
 11
86.849479
 21
257.999109
  0
LINE
  8
1
 62
7
  6
CONTINUOUS
 10
86.849479
 20
263.199109
 11
87.849479
 21
257.999109
  0
LINE
  8
1
 62
7
  6
CONTINUOUS
 10
87.849479
 20
263.199109
 11
88.849479
 21
257.999109
  0
LINE
  8
1
 62
7
  6
CONTINUOUS
 10
88.849479
 20
262.699109
 11
88.849479
 21
257.999109
  0
LINE
  8
1
 62
7
  6
CONTINUOUS
 10
69.849479
 20
262.699109
 11
70.950266
 21
257.995172
  0
LINE
  8
1
 62
7
  6
CONTINUOUS
 10
69.849479
 20
257.999109
 11
69.849479
 21
263.199109
  0
LINE
  8
1
 62
7
  6
DASHDOT
 10
68.150641
 20
260.599109
 11
90.931457
 21
260.599109
  0
LINE
  8
4
 62
54
  6
DOT
 10
40.099479
 20
262.099109
 11
40.099479
 21
259.099109
  0
LINE
  8
1
 62
14
  6
CONTINUOUS
 10
54.845218
 20
263.049109
 11
54.845218
 21
263.599109
  0
LINE
  8
1
 62
14
  6
CONTINUOUS
 10
54.845218
 20
263.049109
 11
54.845218
 21
257.599109
  0
LINE
  8
1
 62
7
  6
CONTINUOUS
 10
69.845218
 20
265.099171
 11
69.845218
 21
256.099109
  0
LINE
  8
1
 62
7
  6
DASHDOT
 10
66.845218
 20
259.062083
 11
66.845218
 21
262.100172
  0
LINE
  8
1
 62
14
  6
CONTINUOUS
 10
61.645218
 20
263.427697
 11
61.645218
 21
257.770645
  0
LINE
  8
1
 62
14
  6
CONTINUOUS
 10
61.645218
 20
257.770645
 11
58.845218
 21
263.427697
  0
LINE
  8
1
 62
14
  6
CONTINUOUS
 10
58.845218
 20
257.770645
 11
61.645218
 21
263.427697
  0
LINE
  8
1
 62
14
  6
CONTINUOUS
 10
58.845218
 20
257.770645
 11
61.645218
 21
257.770645
  0
LINE
  8
1
 62
14
  6
CONTINUOUS
 10
58.845218
 20
263.427697
 11
61.645218
 21
263.427697
  0
LINE
  8
1
 62
14
  6
CONTINUOUS
 10
58.845218
 20
263.427697
 11
58.845218
 21
257.770645
  0
LINE
  8
1
 62
14
  6
CONTINUOUS
 10
56.845218
 20
257.770645
 11
56.845218
 21
263.427697
  0
LINE
  8
1
 62
14
  6
CONTINUOUS
 10
54.845218
 20
263.049109
 11
56.845218
 21
263.599109
  0
LINE
  8
1
 62
14
  6
CONTINUOUS
 10
54.845218
 20
258.149109
 11
56.845218
 21
257.599109
  0
LINE
  8
1
 62
14
  6
CONTINUOUS
 10
56.845218
 20
256.099109
 11
56.845218
 21
257.770645
  0
LINE
  8
1
 62
14
  6
CONTINUOUS
 10
56.845218
 20
265.099171
 11
56.845218
 21
263.427697
  0
LINE
  8
1
 62
7
  6
CONTINUOUS
 10
69.845218
 20
256.099109
 11
56.845218
 21
256.099109
  0
LINE
  8
1
 62
7
  6
CONTINUOUS
 10
69.845218
 20
265.099171
 11
56.845218
 21
265.099171
  0
CIRCLE
  8
1
 62
7
  6
CONTINUOUS
 10
66.845218
 20
260.599171
 40
0.782631
  0
CIRCLE
  8
1
 62
7
  6
CONTINUOUS
 10
66.845218
 20
260.599171
 40
1.000000
  0
LINE
  8
1
 62
14
  6
CONTINUOUS
 10
54.599479
 20
263.049109
 11
54.845218
 21
263.049109
  0
LINE
  8
1
 62
14
  6
CONTINUOUS
 10
54.599479
 20
258.149109
 11
54.845218
 21
258.149109
  0
LINE
  8
1
 62
14
  6
CONTINUOUS
 10
54.599479
 20
263.599109
 11
56.845218
 21
263.599109
  0
LINE
  8
1
 62
14
  6
CONTINUOUS
 10
54.599479
 20
257.599109
 11
56.845218
 21
257.599109
  0
LINE
  8
1
 62
7
  6
DASHDOT
 10
52.733510
 20
260.599109
 11
70.897564
 21
260.599109
  0
LINE
  8
1
 62
214
  6
CONTINUOUS
 10
40.099479
 20
265.685649
 11
40.099479
 21
266.099109
  0
LINE
  8
1
 62
214
  6
CONTINUOUS
 10
40.099479
 20
265.685649
 11
41.099479
 21
265.685649
  0
LINE
  8
1
 62
7
  6
CONTINUOUS
 10
40.099479
 20
265.685649
 11
38.003740
 21
265.685649
  0
LINE
  8
1
 62
214
  6
CONTINUOUS
 10
40.099479
 20
266.099109
 11
38.203740
 21
266.099109
  0
LINE
  8
1
 62
214
  6
CONTINUOUS
 10
38.003740
 20
265.899109
 11
38.203740
 21
266.099109
  0
LINE
  8
1
 62
7
  6
DASHDOT
 10
34.938342
 20
260.599109
 11
55.233535
 21
260.599109
  0
LINE
  8
1
 62
7
  6
CONTINUOUS
 10
40.099479
 20
255.512568
 11
38.003740
 21
255.512568
  0
LINE
  8
1
 62
214
  6
CONTINUOUS
 10
38.003740
 20
255.949109
 11
38.003740
 21
265.899109
  0
LINE
  8
1
 62
214
  6
CONTINUOUS
 10
38.003740
 20
255.949109
 11
38.003740
 21
255.299109
  0
LINE
  8
1
 62
214
  6
CONTINUOUS
 10
40.099479
 20
255.099109
 11
38.203740
 21
255.099109
  0
LINE
  8
1
 62
214
  6
CONTINUOUS
 10
38.003740
 20
255.299109
 11
38.203740
 21
255.099109
  0
LINE
  8
1
 62
214
  6
CONTINUOUS
 10
41.099479
 20
254.599109
 11
54.299479
 21
254.599109
  0
LINE
  8
1
 62
214
  6
CONTINUOUS
 10
54.599479
 20
254.899109
 11
54.299479
 21
254.599109
  0
LINE
  8
1
 62
7
  6
CONTINUOUS
 10
41.099479
 20
258.903243
 11
54.599479
 21
258.903243
  0
LINE
  8
1
 62
7
  6
CONTINUOUS
 10
41.099479
 20
258.220922
 11
54.599479
 21
258.220922
  0
LINE
  8
1
 62
7
  6
CONTINUOUS
 10
41.099479
 20
257.565425
 11
54.599479
 21
257.565425
  0
LINE
  8
1
 62
7
  6
CONTINUOUS
 10
41.099479
 20
256.949512
 11
54.599479
 21
256.949512
  0
LINE
  8
1
 62
7
  6
CONTINUOUS
 10
41.099479
 20
256.385171
 11
54.599479
 21
256.385171
  0
LINE
  8
1
 62
7
  6
CONTINUOUS
 10
41.099479
 20
255.883385
 11
54.599479
 21
255.883385
  0
LINE
  8
1
 62
7
  6
CONTINUOUS
 10
41.099479
 20
255.453922
 11
54.599479
 21
255.453922
  0
LINE
  8
1
 62
7
  6
CONTINUOUS
 10
41.099479
 20
255.105139
 11
54.599479
 21
255.105139
  0
LINE
  8
1
 62
7
  6
CONTINUOUS
 10
41.099479
 20
254.843827
 11
54.599479
 21
254.843827
  0
LINE
  8
1
 62
214
  6
CONTINUOUS
 10
41.099479
 20
266.599109
 11
41.099479
 21
265.685649
  0
LINE
  8
1
 62
214
  6
CONTINUOUS
 10
41.099479
 20
266.599109
 11
54.299479
 21
266.599109
  0
LINE
  8
1
 62
214
  6
CONTINUOUS
 10
54.599479
 20
263.699109
 11
54.599479
 21
266.299109
  0
LINE
  8
1
 62
214
  6
CONTINUOUS
 10
54.299479
 20
266.599109
 11
54.599479
 21
266.299109
  0
LINE
  8
1
 62
214
  6
CONTINUOUS
 10
54.599479
 20
263.699109
 11
54.599479
 21
254.899109
  0
LINE
  8
1
 62
214
  6
CONTINUOUS
 10
40.099479
 20
255.512568
 11
41.099479
 21
255.512568
  0
LINE
  8
1
 62
214
  6
CONTINUOUS
 10
40.099479
 20
265.685649
 11
40.099479
 21
255.099109
  0
LINE
  8
1
 62
214
  6
CONTINUOUS
 10
41.099479
 20
254.599109
 11
41.099479
 21
265.685649
  0
LINE
  8
1
 62
7
  6
CONTINUOUS
 10
41.099479
 20
262.294974
 11
54.599479
 21
262.294974
  0
LINE
  8
1
 62
7
  6
CONTINUOUS
 10
41.099479
 20
262.977295
 11
54.599479
 21
262.977295
  0
LINE
  8
1
 62
7
  6
CONTINUOUS
 10
41.099479
 20
263.632792
 11
54.599479
 21
263.632792
  0
LINE
  8
1
 62
7
  6
CONTINUOUS
 10
41.099479
 20
264.248705
 11
54.599479
 21
264.248705
  0
LINE
  8
1
 62
7
  6
CONTINUOUS
 10
41.099479
 20
264.813046
 11
54.599479
 21
264.813046
  0
LINE
  8
1
 62
7
  6
CONTINUOUS
 10
41.099479
 20
265.314832
 11
54.599479
 21
265.314832
  0
LINE
  8
1
 62
7
  6
CONTINUOUS
 10
41.099479
 20
265.744296
 11
54.599479
 21
265.744296
  0
LINE
  8
1
 62
7
  6
CONTINUOUS
 10
41.099479
 20
266.093078
 11
54.599479
 21
266.093078
  0
LINE
  8
1
 62
7
  6
CONTINUOUS
 10
41.099479
 20
266.354390
 11
54.599479
 21
266.354390
  0
LINE
  8
1
 62
54
  6
DOT
 10
32.599479
 20
259.099109
 11
40.099479
 21
259.099109
  0
LINE
  8
1
 62
54
  6
DOT
 10
32.599479
 20
262.099109
 11
40.099479
 21
262.099109
  0
LINE
  8
1
 62
54
  6
CONTINUOUS
 10
35.798554
 20
258.349107
 11
32.899479
 21
258.349107
  0
LINE
  8
1
 62
54
  6
CONTINUOUS
 10
35.798554
 20
262.849110
 11
32.899479
 21
262.849110
  0
LINE
  8
1
 62
54
  6
CONTINUOUS
 10
36.798554
 20
258.349107
 11
36.798554
 21
264.899110
  0
LINE
  8
1
 62
54
  6
CONTINUOUS
 10
36.798554
 20
256.299107
 11
38.003740
 21
256.299107
  0
LINE
  8
1
 62
7
  6
CONTINUOUS
 10
36.798554
 20
263.699110
 11
38.003740
 21
263.699110
  0
LINE
  8
1
 62
54
  6
CONTINUOUS
 10
36.798554
 20
264.899110
 11
38.003740
 21
264.899110
  0
LINE
  8
1
 62
54
  6
CONTINUOUS
 10
36.798554
 20
258.349107
 11
36.798554
 21
256.299107
  0
LINE
  8
1
 62
54
  6
CONTINUOUS
 10
32.599479
 20
262.199109
 11
32.599479
 21
258.649107
  0
LINE
  8
1
 62
54
  6
CONTINUOUS
 10
32.599479
 20
258.649107
 11
32.899479
 21
258.349107
  0
LINE
  8
1
 62
54
  6
CONTINUOUS
 10
32.599479
 20
262.199109
 11
32.599479
 21
262.549110
  0
LINE
  8
1
 62
54
  6
CONTINUOUS
 10
32.599479
 20
262.549110
 11
32.899479
 21
262.849110
  0
LINE
  8
1
 62
251
  6
CONTINUOUS
 10
35.798554
 20
263.483950
 11
35.798554
 21
257.714266
  0
LINE
  8
1
 62
251
  6
CONTINUOUS
 10
36.798554
 20
263.483950
 11
36.798554
 21
257.714266
  0
ARC
  8
1
 62
251
  6
CONTINUOUS
 10
36.298554
 20
263.483950
 40
0.500000
 50
-6.140728
 51
180.000000
  0
ARC
  8
1
 62
251
  6
CONTINUOUS
 10
36.298554
 20
257.714266
 40
0.500000
 50
180.000000
 51
0.000000
  0
LINE
  8
4
 62
54
  6
CONTINUOUS
 10
147.181457
 20
258.999109
 11
147.181457
 21
258.649107
  0
LINE
  8
4
 62
7
  6
DASHDOT
 10
148.415954
 20
260.599109
 11
138.674780
 21
260.599109
  0
LINE
  8
1
 62
7
  6
CONTINUOUS
 10
91.931457
 20
263.199109
 11
92.931457
 21
263.199109
  0
LINE
  8
1
 62
7
  6
CONTINUOUS
 10
93.931457
 20
263.199109
 11
94.931457
 21
263.199109
  0
LINE
  8
1
 62
7
  6
CONTINUOUS
 10
95.931457
 20
263.199109
 11
96.931457
 21
263.199109
  0
LINE
  8
1
 62
7
  6
CONTINUOUS
 10
97.931457
 20
263.199109
 11
98.931457
 21
263.199109
  0
LINE
  8
1
 62
7
  6
CONTINUOUS
 10
99.931457
 20
263.199109
 11
100.931457
 21
263.199109
  0
LINE
  8
1
 62
7
  6
CONTINUOUS
 10
101.931457
 20
263.199109
 11
102.931457
 21
263.199109
  0
LINE
  8
1
 62
7
  6
CONTINUOUS
 10
103.931457
 20
263.199109
 11
104.931457
 21
263.199109
  0
LINE
  8
1
 62
7
  6
CONTINUOUS
 10
105.931457
 20
263.199109
 11
106.931457
 21
263.199109
  0
LINE
  8
1
 62
7
  6
CONTINUOUS
 10
107.931457
 20
263.199109
 11
108.931457
 21
263.199109
  0
LINE
  8
1
 62
7
  6
CONTINUOUS
 10
109.931457
 20
262.699109
 11
109.931457
 21
263.199109
  0
LINE
  8
1
 62
7
  6
CONTINUOUS
 10
90.931457
 20
262.699109
 11
92.014790
 21
262.699109
  0
LINE
  8
1
 62
7
  6
CONTINUOUS
 10
93.014790
 20
262.699109
 11
94.014790
 21
262.699109
  0
LINE
  8
1
 62
7
  6
CONTINUOUS
 10
95.014790
 20
262.699109
 11
96.014790
 21
262.699109
  0
LINE
  8
1
 62
7
  6
CONTINUOUS
 10
97.014790
 20
262.699109
 11
98.014790
 21
262.699109
  0
LINE
  8
1
 62
7
  6
CONTINUOUS
 10
99.014790
 20
262.699109
 11
100.014790
 21
262.699109
  0
LINE
  8
1
 62
7
  6
CONTINUOUS
 10
101.014790
 20
262.699109
 11
102.014790
 21
262.699109
  0
LINE
  8
1
 62
7
  6
CONTINUOUS
 10
103.014790
 20
262.699109
 11
104.014790
 21
262.699109
  0
LINE
  8
1
 62
7
  6
CONTINUOUS
 10
105.014790
 20
262.699109
 11
106.014790
 21
262.699109
  0
LINE
  8
1
 62
7
  6
CONTINUOUS
 10
107.014790
 20
262.699109
 11
108.014790
 21
262.699109
  0
LINE
  8
1
 62
7
  6
CONTINUOUS
 10
109.014790
 20
262.699109
 11
109.931457
 21
262.699109
  0
LINE
  8
1
 62
7
  6
CONTINUOUS
 10
92.931457
 20
257.999109
 11
93.931457
 21
257.999109
  0
LINE
  8
1
 62
7
  6
CONTINUOUS
 10
94.931457
 20
257.999109
 11
95.931457
 21
257.999109
  0
LINE
  8
1
 62
7
  6
CONTINUOUS
 10
96.931457
 20
257.999109
 11
97.931457
 21
257.999109
  0
LINE
  8
1
 62
7
  6
CONTINUOUS
 10
98.931457
 20
257.999109
 11
99.931457
 21
257.999109
  0
LINE
  8
1
 62
7
  6
CONTINUOUS
 10
100.931457
 20
257.999109
 11
101.931457
 21
257.999109
  0
LINE
  8
1
 62
7
  6
CONTINUOUS
 10
102.931457
 20
257.999109
 11
103.931457
 21
257.999109
  0
LINE
  8
1
 62
7
  6
CONTINUOUS
 10
104.931457
 20
257.999109
 11
105.931457
 21
257.999109
  0
LINE
  8
1
 62
7
  6
CONTINUOUS
 10
106.931457
 20
257.999109
 11
107.931457
 21
257.999109
  0
LINE
  8
1
 62
7
  6
CONTINUOUS
 10
108.931457
 20
257.999109
 11
109.931457
 21
257.999109
  0
LINE
  8
1
 62
7
  6
CONTINUOUS
 10
107.848124
 20
258.499109
 11
108.848124
 21
258.499109
  0
LINE
  8
1
 62
7
  6
CONTINUOUS
 10
105.848124
 20
258.499109
 11
106.848124
 21
258.499109
  0
LINE
  8
1
 62
7
  6
CONTINUOUS
 10
103.947697
 20
258.499109
 11
104.848124
 21
258.499109
  0
LINE
  8
1
 62
7
  6
CONTINUOUS
 10
101.848124
 20
258.499109
 11
102.848124
 21
258.499109
  0
LINE
  8
1
 62
7
  6
CONTINUOUS
 10
99.848124
 20
258.499109
 11
100.848124
 21
258.499109
  0
LINE
  8
1
 62
7
  6
CONTINUOUS
 10
97.848124
 20
258.499109
 11
98.848124
 21
258.499109
  0
LINE
  8
1
 62
7
  6
CONTINUOUS
 10
95.848124
 20
258.499109
 11
96.848124
 21
258.499109
  0
LINE
  8
1
 62
7
  6
CONTINUOUS
 10
93.848124
 20
258.499109
 11
94.848124
 21
258.499109
  0
LINE
  8
1
 62
7
  6
CONTINUOUS
 10
91.947697
 20
258.499109
 11
92.848124
 21
258.499109
  0
LINE
  8
1
 62
7
  6
CONTINUOUS
 10
90.931457
 20
258.499109
 11
91.018075
 21
257.999109
  0
LINE
  8
1
 62
7
  6
CONTINUOUS
 10
91.018075
 20
257.999109
 11
92.031457
 21
257.999109
  0
LINE
  8
1
 62
7
  6
CONTINUOUS
 10
91.922722
 20
258.499109
 11
91.931457
 21
258.499109
  0
LINE
  8
1
 62
7
  6
CONTINUOUS
 10
91.931457
 20
263.199109
 11
92.931457
 21
257.999109
  0
LINE
  8
1
 62
7
  6
CONTINUOUS
 10
92.931457
 20
263.199109
 11
93.931457
 21
257.999109
  0
LINE
  8
1
 62
7
  6
CONTINUOUS
 10
93.931457
 20
263.199109
 11
94.931457
 21
257.999109
  0
LINE
  8
1
 62
7
  6
CONTINUOUS
 10
94.931457
 20
263.199109
 11
95.931457
 21
257.999109
  0
LINE
  8
1
 62
7
  6
CONTINUOUS
 10
95.931457
 20
263.199109
 11
96.931457
 21
257.999109
  0
LINE
  8
1
 62
7
  6
CONTINUOUS
 10
96.931457
 20
263.199109
 11
97.931457
 21
257.999109
  0
LINE
  8
1
 62
7
  6
CONTINUOUS
 10
97.931457
 20
263.199109
 11
98.931457
 21
257.999109
  0
LINE
  8
1
 62
7
  6
CONTINUOUS
 10
98.931457
 20
263.199109
 11
99.931457
 21
257.999109
  0
LINE
  8
1
 62
7
  6
CONTINUOUS
 10
99.931457
 20
263.199109
 11
100.931457
 21
257.999109
  0
LINE
  8
1
 62
7
  6
CONTINUOUS
 10
100.931457
 20
263.199109
 11
101.931457
 21
257.999109
  0
LINE
  8
1
 62
7
  6
CONTINUOUS
 10
101.931457
 20
263.199109
 11
102.931457
 21
257.999109
  0
LINE
  8
1
 62
7
  6
CONTINUOUS
 10
102.931457
 20
263.199109
 11
103.931457
 21
257.999109
  0
LINE
  8
1
 62
7
  6
CONTINUOUS
 10
103.931457
 20
263.199109
 11
104.931457
 21
257.999109
  0
LINE
  8
1
 62
7
  6
CONTINUOUS
 10
104.931457
 20
263.199109
 11
105.931457
 21
257.999109
  0
LINE
  8
1
 62
7
  6
CONTINUOUS
 10
105.931457
 20
263.199109
 11
106.931457
 21
257.999109
  0
LINE
  8
1
 62
7
  6
CONTINUOUS
 10
106.931457
 20
263.199109
 11
107.931457
 21
257.999109
  0
LINE
  8
1
 62
7
  6
CONTINUOUS
 10
107.931457
 20
263.199109
 11
108.931457
 21
257.999109
  0
LINE
  8
1
 62
7
  6
CONTINUOUS
 10
108.931457
 20
263.199109
 11
109.931457
 21
257.999109
  0
LINE
  8
1
 62
7
  6
CONTINUOUS
 10
109.931457
 20
262.699109
 11
109.931457
 21
257.999109
  0
LINE
  8
1
 62
7
  6
CONTINUOUS
 10
90.931457
 20
262.699109
 11
92.032244
 21
257.995172
  0
LINE
  8
1
 62
7
  6
CONTINUOUS
 10
90.931457
 20
257.999109
 11
90.931457
 21
263.199109
  0
LINE
  8
1
 62
7
  6
DASHDOT
 10
67.664312
 20
260.599109
 11
107.013435
 21
260.599109
  0
LINE
  8
1
 62
14
  6
CONTINUOUS
 10
124.931457
 20
258.149109
 11
124.931457
 21
257.599109
  0
LINE
  8
1
 62
14
  6
CONTINUOUS
 10
124.931457
 20
258.149109
 11
124.931457
 21
263.599109
  0
LINE
  8
1
 62
7
  6
CONTINUOUS
 10
109.931457
 20
256.099046
 11
109.931457
 21
265.099109
  0
LINE
  8
1
 62
7
  6
DASHDOT
 10
112.931457
 20
262.136135
 11
112.931457
 21
259.098045
  0
LINE
  8
1
 62
14
  6
CONTINUOUS
 10
118.131457
 20
257.770520
 11
118.131457
 21
263.427572
  0
LINE
  8
1
 62
14
  6
CONTINUOUS
 10
118.131457
 20
263.427572
 11
120.931457
 21
257.770520
  0
LINE
  8
1
 62
14
  6
CONTINUOUS
 10
120.931457
 20
263.427572
 11
118.131457
 21
257.770520
  0
LINE
  8
1
 62
14
  6
CONTINUOUS
 10
120.931457
 20
263.427572
 11
118.131457
 21
263.427572
  0
LINE
  8
1
 62
14
  6
CONTINUOUS
 10
120.931457
 20
257.770520
 11
118.131457
 21
257.770520
  0
LINE
  8
1
 62
14
  6
CONTINUOUS
 10
120.931457
 20
257.770520
 11
120.931457
 21
263.427572
  0
LINE
  8
1
 62
14
  6
CONTINUOUS
 10
122.931457
 20
263.427572
 11
122.931457
 21
257.770520
  0
LINE
  8
1
 62
14
  6
CONTINUOUS
 10
124.931457
 20
258.149109
 11
122.931457
 21
257.599109
  0
LINE
  8
1
 62
14
  6
CONTINUOUS
 10
124.931457
 20
263.049109
 11
122.931457
 21
263.599109
  0
LINE
  8
1
 62
14
  6
CONTINUOUS
 10
122.931457
 20
265.099109
 11
122.931457
 21
263.427572
  0
LINE
  8
1
 62
14
  6
CONTINUOUS
 10
122.931457
 20
256.099046
 11
122.931457
 21
257.770520
  0
LINE
  8
1
 62
7
  6
CONTINUOUS
 10
109.931457
 20
265.099109
 11
122.931457
 21
265.099109
  0
LINE
  8
1
 62
7
  6
CONTINUOUS
 10
109.931457
 20
256.099046
 11
122.931457
 21
256.099046
  0
CIRCLE
  8
1
 62
7
  6
CONTINUOUS
 10
112.931457
 20
260.599046
 40
0.782631
  0
CIRCLE
  8
1
 62
7
  6
CONTINUOUS
 10
112.931457
 20
260.599046
 40
1.000000
  0
LINE
  8
1
 62
14
  6
CONTINUOUS
 10
125.177196
 20
258.149109
 11
124.931457
 21
258.149109
  0
LINE
  8
1
 62
14
  6
CONTINUOUS
 10
125.177196
 20
263.049109
 11
124.931457
 21
263.049109
  0
LINE
  8
1
 62
14
  6
CONTINUOUS
 10
125.177196
 20
257.599109
 11
122.931457
 21
257.599109
  0
LINE
  8
1
 62
14
  6
CONTINUOUS
 10
125.177196
 20
263.599109
 11
122.931457
 21
263.599109
  0
LINE
  8
1
 62
7
  6
DASHDOT
 10
127.043165
 20
260.599109
 11
108.879111
 21
260.599109
  0
LINE
  8
1
 62
7
  6
CONTINUOUS
 10
136.679326
 20
252.689798
 11
126.177196
 21
252.689798
  0
LINE
  8
1
 62
7
  6
CONTINUOUS
 10
136.679326
 20
252.990657
 11
126.177196
 21
252.990657
  0
LINE
  8
1
 62
7
  6
CONTINUOUS
 10
136.679326
 20
253.408756
 11
126.177196
 21
253.408756
  0
LINE
  8
1
 62
7
  6
CONTINUOUS
 10
136.679326
 20
259.485722
 11
126.177196
 21
259.485722
  0
LINE
  8
1
 62
7
  6
CONTINUOUS
 10
136.679326
 20
258.394006
 11
126.177196
 21
258.394006
  0
LINE
  8
1
 62
7
  6
CONTINUOUS
 10
136.679326
 20
257.345211
 11
126.177196
 21
257.345211
  0
LINE
  8
1
 62
7
  6
CONTINUOUS
 10
136.679326
 20
256.359751
 11
126.177196
 21
256.359751
  0
LINE
  8
1
 62
7
  6
CONTINUOUS
 10
136.679326
 20
255.456805
 11
126.177196
 21
255.456805
  0
LINE
  8
1
 62
7
  6
CONTINUOUS
 10
136.679326
 20
254.653948
 11
126.177196
 21
254.653948
  0
LINE
  8
1
 62
7
  6
CONTINUOUS
 10
136.679326
 20
253.966807
 11
126.177196
 21
253.966807
  0
LINE
  8
1
 62
214
  6
CONTINUOUS
 10
126.177196
 20
252.599109
 11
126.177196
 21
260.599109
  0
LINE
  8
1
 62
214
  6
CONTINUOUS
 10
125.177196
 20
253.599109
 11
126.177196
 21
252.599109
  0
LINE
  8
1
 62
214
  6
CONTINUOUS
 10
136.679326
 20
252.599109
 11
126.177196
 21
252.599109
  0
LINE
  8
1
 62
214
  6
CONTINUOUS
 10
125.177196
 20
263.699109
 11
125.177196
 21
253.599109
  0
LINE
  8
1
 62
214
  6
CONTINUOUS
 10
126.177196
 20
268.599109
 11
125.177196
 21
267.599109
  0
LINE
  8
1
 62
214
  6
CONTINUOUS
 10
125.177196
 20
263.699109
 11
125.177196
 21
267.599109
  0
LINE
  8
1
 62
214
  6
CONTINUOUS
 10
136.679326
 20
268.599109
 11
126.177196
 21
268.599109
  0
LINE
  8
1
 62
214
  6
CONTINUOUS
 10
137.679326
 20
253.681609
 11
136.679326
 21
253.681609
  0
LINE
  8
1
 62
214
  6
CONTINUOUS
 10
136.679326
 20
268.599109
 11
136.679326
 21
267.516609
  0
LINE
  8
1
 62
214
  6
CONTINUOUS
 10
137.679326
 20
267.516609
 11
137.679326
 21
268.599109
  0
LINE
  8
1
 62
214
  6
CONTINUOUS
 10
137.679326
 20
267.516609
 11
136.679326
 21
267.516609
  0
LINE
  8
1
 62
7
  6
CONTINUOUS
 10
137.679326
 20
267.516609
 11
139.977196
 21
267.516609
  0
LINE
  8
1
 62
7
  6
CONTINUOUS
 10
137.679326
 20
253.681609
 11
139.977196
 21
253.681609
  0
LINE
  8
1
 62
7
  6
DASHDOT
 10
143.840464
 20
260.599109
 11
123.543140
 21
260.599109
  0
LINE
  8
1
 62
214
  6
CONTINUOUS
 10
139.977196
 20
256.999109
 11
139.977196
 21
268.099109
  0
LINE
  8
1
 62
214
  6
CONTINUOUS
 10
137.679326
 20
268.599109
 11
139.477196
 21
268.599109
  0
LINE
  8
1
 62
214
  6
CONTINUOUS
 10
139.977196
 20
268.099109
 11
139.477196
 21
268.599109
  0
LINE
  8
1
 62
214
  6
CONTINUOUS
 10
139.977196
 20
256.999109
 11
139.977196
 21
253.099109
  0
LINE
  8
1
 62
214
  6
CONTINUOUS
 10
137.679326
 20
252.599109
 11
139.477196
 21
252.599109
  0
LINE
  8
1
 62
214
  6
CONTINUOUS
 10
139.977196
 20
253.099109
 11
139.477196
 21
252.599109
  0
LINE
  8
1
 62
214
  6
CONTINUOUS
 10
126.177196
 20
260.599109
 11
126.177196
 21
268.599109
  0
LINE
  8
1
 62
7
  6
CONTINUOUS
 10
136.679326
 20
268.207560
 11
126.177196
 21
268.207560
  0
LINE
  8
1
 62
7
  6
CONTINUOUS
 10
136.679326
 20
267.789461
 11
126.177196
 21
267.789461
  0
LINE
  8
1
 62
7
  6
CONTINUOUS
 10
136.679326
 20
261.712495
 11
126.177196
 21
261.712495
  0
LINE
  8
1
 62
7
  6
CONTINUOUS
 10
136.679326
 20
262.804211
 11
126.177196
 21
262.804211
  0
LINE
  8
1
 62
7
  6
CONTINUOUS
 10
136.679326
 20
263.853006
 11
126.177196
 21
263.853006
  0
LINE
  8
1
 62
7
  6
CONTINUOUS
 10
136.679326
 20
264.838467
 11
126.177196
 21
264.838467
  0
LINE
  8
1
 62
7
  6
CONTINUOUS
 10
136.679326
 20
265.741412
 11
126.177196
 21
265.741412
  0
LINE
  8
1
 62
7
  6
CONTINUOUS
 10
136.679326
 20
266.544270
 11
126.177196
 21
266.544270
  0
LINE
  8
1
 62
7
  6
CONTINUOUS
 10
136.679326
 20
267.231410
 11
126.177196
 21
267.231410
  0
LINE
  8
1
 62
214
  6
CONTINUOUS
 10
136.679326
 20
252.599109
 11
136.679326
 21
267.516609
  0
LINE
  8
1
 62
214
  6
CONTINUOUS
 10
137.679326
 20
267.516609
 11
137.679326
 21
252.599109
  0
LINE
  8
1
 62
54
  6
DOT
 10
139.681457
 20
259.099109
 11
147.181457
 21
259.099109
  0
LINE
  8
1
 62
54
  6
DOT
 10
139.681457
 20
262.099109
 11
139.681457
 21
259.099109
  0
LINE
  8
1
 62
54
  6
DOT
 10
147.181457
 20
262.099109
 11
139.681457
 21
262.099109
  0
LINE
  8
1
 62
7
  6
CONTINUOUS
 10
142.982382
 20
263.699110
 11
139.979326
 21
263.699110
  0
LINE
  8
1
 62
54
  6
CONTINUOUS
 10
142.982382
 20
264.899110
 11
139.979326
 21
264.899110
  0
LINE
  8
1
 62
54
  6
CONTINUOUS
 10
142.982382
 20
256.299107
 11
139.979326
 21
256.299107
  0
LINE
  8
1
 62
54
  6
CONTINUOUS
 10
143.982382
 20
258.349107
 11
146.881457
 21
258.349107
  0
LINE
  8
1
 62
54
  6
CONTINUOUS
 10
143.982382
 20
262.849110
 11
146.881457
 21
262.849110
  0
LINE
  8
1
 62
54
  6
CONTINUOUS
 10
142.982382
 20
262.849110
 11
142.982382
 21
256.299107
  0
LINE
  8
1
 62
54
  6
CONTINUOUS
 10
142.982382
 20
262.849110
 11
142.982382
 21
264.899110
  0
LINE
  8
1
 62
54
  6
CONTINUOUS
 10
147.181457
 20
258.999109
 11
147.181457
 21
262.549110
  0
LINE
  8
1
 62
54
  6
CONTINUOUS
 10
147.181457
 20
262.549110
 11
146.881457
 21
262.849110
  0
LINE
  8
1
 62
54
  6
CONTINUOUS
 10
147.181457
 20
258.649107
 11
146.881457
 21
258.349107
  0
LINE
  8
1
 62
251
  6
CONTINUOUS
 10
142.982382
 20
263.483950
 11
142.982382
 21
257.714266
  0
LINE
  8
1
 62
251
  6
CONTINUOUS
 10
143.982382
 20
263.483950
 11
143.982382
 21
257.714266
  0
ARC
  8
1
 62
251
  6
CONTINUOUS
 10
143.482382
 20
263.483950
 40
0.500000
 50
-6.140728
 51
180.000000
  0
ARC
  8
1
 62
251
  6
CONTINUOUS
 10
143.482382
 20
257.714266
 40
0.500000
 50
180.000000
 51
0.000000
  0
LINE
  8
10
 62
7
  6
CONTINUOUS
 10
82.205194
 20
82.580416
 11
14.705882
 21
82.580416
  0
LINE
  8
10
 62
7
  6
CONTINUOUS
 10
14.705882
 20
87.246966
 11
82.205194
 21
87.246966
  0
LINE
  8
10
 62
7
  6
CONTINUOUS
 10
14.705882
 20
91.913516
 11
82.205194
 21
91.913516
  0
TEXT
  8
10
 62
7
  6
CONTINUOUS
 10
14.991154
 20
92.644364
 40
3.999900
 41
1.000000
  1
該当機種
  7
KANJI
 50
0.000000
 51
0.000000
  0
LINE
  8
10
 62
7
  6
CONTINUOUS
 10
14.705882
 20
91.913516
 11
14.705882
 21
77.913866
  0
LINE
  8
10
 62
7
  6
CONTINUOUS
 10
14.705882
 20
77.913866
 11
82.205194
 21
77.913866
  0
LINE
  8
10
 62
134
  6
CONTINUOUS
 10
82.205194
 20
91.913516
 11
82.205194
 21
77.913866
  0
TEXT
  8
10
 62
7
  6
CONTINUOUS
 10
16.974238
 20
87.235032
 40
3.999900
 41
1.000000
  1
FTFX-S1□□
  7
KANJI
 50
0.000000
 51
0.000000
  0
TEXT
  8
10
 62
7
  6
CONTINUOUS
 10
16.974238
 20
82.568482
 40
3.999900
 41
1.000000
  1
FTFX-S2□□
  7
KANJI
 50
0.000000
 51
0.000000
  0
TEXT
  8
10
 62
7
  6
CONTINUOUS
 10
16.974238
 20
77.901932
 40
3.999900
 41
1.000000
  1
FTFX-S6□□
  7
KANJI
 50
0.000000
 51
0.000000
  0
TEXT
  8
5
 62
7
  6
CONTINUOUS
 10
238.384797
 20
35.723724
 40
4.000000
 41
1.000000
  1
FTKX ファイバ　外形図
  7
KANJI
 50
0.000000
 51
0.000000
  0
TEXT
  8
5
 62
7
  6
CONTINUOUS
 10
238.384797
 20
28.211863
 40
4.000000
 41
1.000000
  1
ＦＴＦＸ－Ｓ
  7
KANJI
 50
0.000000
 51
0.000000
  0
TEXT
  8
5
 62
7
  6
CONTINUOUS
 10
236.301975
 20
21.191373
 40
4.000000
 41
1.000000
  1
０１５－８７９－Ａ０１１
  7
KANJI
 50
0.000000
 51
0.000000
  0
TEXT
  8
2
 62
134
  6
CONTINUOUS
 10
213.861879
 20
78.313545
 40
4.000000
 41
1.000000
  1
70mm
  7
KANJI
 50
0.000000
 51
0.000000
  0
TEXT
  8
2
 62
134
  6
CONTINUOUS
 10
213.861879
 20
72.313545
 40
4.000000
 41
1.000000
  1
70mm
  7
KANJI
 50
0.000000
 51
0.000000
  0
TEXT
  8
5
 62
7
  6
CONTINUOUS
 10
173.157826
 20
28.567201
 40
4.000000
 41
1.000000
  1
2016/08/05
  7
KANJI
 50
-0.091868
 51
0.000000
  0
ENDSEC
  0
EOF
