  0
SECTION
  2
HEADER
  9
$ACADVER
  1
AC1009
  9
$INSBASE
 10
0.000000
 20
0.000000
  9
$EXTMIN
 10
0.000000
 20
0.000000
  9
$EXTMAX
 10
297.000000
 20
210.000000
  9
$LIMMIN
 10
0.000000
 20
0.000000
  9
$LIMMAX
 10
297.000000
 20
210.000000
  9
$VIEWCTR
 10
148.500000
 20
105.000000
  9
$VIEWSIZE
 40
210.000000
  9
$PEXTMIN
 10
0.000000
 20
0.000000
 30
0.000000
  9
$PEXTMAX
 10
297.000000
 20
210.000000
 30
0.000000
  9
$SNAPMODE
 70
     0
  9
$SNAPUNIT
 10
1.000000
 20
1.000000
  9
$SNAPBASE
 10
0.000000
 20
0.000000
  9
$SNAPANG
 50
0.000000
  9
$SNAPISOPAIR
 70
     0
  9
$SNAPSTYLE
 70
     0
  9
$GRIDMODE
 70
     0
  9
$GRIDUNIT
 10
0.000000
 20
0.000000
  9
$ORTHOMODE
 70
     0
  9
$REGENMODE
 70
     1
  9
$FILLMODE
 70
     1
  9
$QTEXTMODE
 70
     0
  9
$DRAGMODE
 70
     2
  9
$LTSCALE
 40
0.250000
  9
$OSMODE
 70
     0
  9
$ATTMODE
 70
     1
  9
$TEXTSIZE
 40
4.000000
  9
$TRACEWID
 40
0.050000
  9
$TEXTSTYLE
  7
STANDARD
  9
$CLAYER
  8
0
  9
$CELTYPE
  6
BYLAYER
  9
$CECOLOR
 62
   256
  9
$DIMSCALE
 40
1.000000
  9
$DIMASZ
 40
1.000000
  9
$DIMEXO
 40
0.000000
  9
$DIMDLI
 40
0.500000
  9
$DIMRND
 40
0.000000
  9
$DIMDLE
 40
0.000000
  9
$DIMEXE
 40
0.000000
  9
$DIMTP
 40
0.000000
  9
$DIMTM
 40
0.000000
  9
$DIMTXT
 40
4.000000
  9
$DIMCEN
 40
0.000000
  9
$DIMTSZ
 40
0.000000
  9
$DIMTOL
 70
     0
  9
$DIMLIM
 70
     0
  9
$DIMTIH
 70
     1
  9
$DIMTOH
 70
     1
  9
$DIMSE1
 70
     0
  9
$DIMSE2
 70
     0
  9
$DIMTAD
 70
     0
  9
$DIMZIN
 70
     0
  9
$DIMBLK
  1

  9
$DIMASO
 70
     0
  9
$DIMSHO
 70
     0
  9
$DIMPOST
  1

  9
$DIMAPOST
  1

  9
$DIMALT
 70
     0
  9
$DIMALTD
 70
     0
  9
$DIMALTF
 40
25.400000
  9
$DIMLFAC
 40
1.000000
  9
$DIMTOFL
 70
     0
  9
$DIMTVP
 40
0.000000
  9
$DIMTIX
 70
     0
  9
$DIMSOXD
 70
     0
  9
$DIMSAH
 70
     0
  9
$DIMBLKL
  1

  9
$DIMBLKR
  1

  9
$LUNITS
 70
     2
  9
$LUPREC
 70
     2
  9
$AXISMODE
 70
     0
  9
$AXISUNIT
 10
1.000000
 20
1.000000
  9
$SKETCHINC
 40
0.000000
  9
$FILLETRAD
 40
0.000000
  9
$AUNITS
 70
     1
  9
$AUPREC
 70
     2
  9
$MENU
  1
ACAD
  9
$ELEVATION
 40
0.000000
  9
$THICKNESS
 40
0.000000
  9
$VIEWDIR
 10
0.000000
 20
0.000000
 30
1.000000
  9
$LIMCHECK
 70
     1
  9
$BLIPMODE
 70
     1
  9
$CHAMFERA
 40
0.000000
  9
$CHAMFERB
 40
0.000000
  9
$FASTZOOM
 70
     1
  9
$SKPOLY
 70
     0
  9
$TDCREATE
 40
0.000000
  9
$TDUPDATE
 40
0.000000
  9
$TDINDWG
 40
0.000000
  9
$TDUSRTIMER
 40
0.000000
  9
$USRTIMER
 70
     1
  9
$ANGBASE
 50
0.000000
  9
$ANGDIR
 70
     0
  9
$PDMODE
 70
     0
  9
$PDSIZE
 40
0.000000
  9
$PLINEWID
 40
0.000000
  9
$COORDS
 70
     2
  9
$USERI1
 70
     0
  9
$USERI2
 70
     0
  9
$USERI3
 70
     0
  9
$USERI4
 70
     0
  9
$USERI5
 70
     0
  9
$USERR1
 40
0.000000
  9
$USERR2
 40
0.000000
  9
$USERR3
 40
0.000000
  9
$USERR4
 40
0.000000
  9
$USERR5
 40
0.000000
  0
ENDSEC
  0
SECTION
  2
TABLES
  0
TABLE
  2
LTYPE
 70
     5
  0
LTYPE
  2
CONTINUOUS
 70
    64
  3
Solid line
 72
    65
 73
     0
 40
0.0
  0
LTYPE
  2
HIDDEN
 70
    64
  3
------------------------
 72
    65
 73
     2
 40
12.6
 49
8.4
 49
-4.2
  0
LTYPE
  2
DOT
 70
    64
  3
････････････････････････
 72
    65
 73
     2
 40
8.0
 49
6.0
 49
-2.0
  0
LTYPE
  2
DASHDOT
 70
    64
  3
--･--･--･--･--･--･--･--
 72
    65
 73
     4
 40
50.5
 49
30.0
 49
-9.0
 49
2.5
 49
-9.0
  0
LTYPE
  2
DIVIDE
 70
    64
  3
--･･--･･--･･--･･--･･--
 72
    65
 73
     6
 40
58.0
 49
30.0
 49
-9.0
 49
2.5
 49
-5.0
 49
2.5
 49
-9.0
  0
LTYPE
  2
ACAD_ISO06W100
 70
    64
  3
____ ... ____ ... ____
 72
    65
 73
     8
 40
37.5
 49
24.0
 49
-3.0
 49
0.5
 49
-3.0
 49
0.5
 49
-3.0
 49
0.5
 49
-3.0
  0
LTYPE
  2
ACAD_ISO14W100
 70
    64
  3
__ . . . __ . . . __ . . . 
 72
    65
 73
     8
 40
25.5
 49
12.0
 49
-3.0
 49
0.5
 49
-3.0
 49
0.5
 49
-3.0
 49
0.5
 49
-3.0
  0
ENDTAB
  0
TABLE
  2
LAYER
 70
4
  0
LAYER
  2
1
 70
64
 62
7
  6
CONTINUOUS
  0
LAYER
  2
2
 70
64
 62
134
  6
CONTINUOUS
  0
LAYER
  2
3
 70
64
 62
214
  6
CONTINUOUS
  0
LAYER
  2
5
 70
64
 62
94
  6
CONTINUOUS
  0
ENDTAB
  0
TABLE
  2
STYLE
 70
     2
  0
STYLE
  2
STANDARD
 70
    64
 40
0.0
 41
1.0
 50
0.0
 71
     0
 42
0.2
  3
TXT
  4

  0
STYLE
  2
KANJI
 70
    64
 40
0.0
 41
1.0
 50
0.0
 71
     0
 42
0.2
  3
TXT
  4
BIGFONT
  0
ENDTAB
  0
TABLE
  2
VIEW
 70
     0
  0
ENDTAB
  0
ENDSEC
  0
SECTION
  2
BLOCKS
  0
BLOCK
  8
2
 62
134
  6
CONTINUOUS
  2
*D1
 70
    65
 10
0.0
 20
0.0
  0
LINE
  8
2
 62
134
  6
CONTINUOUS
 10
272.409955
 20
145.000000
 11
272.409955
 21
115.000000
  0
LINE
  8
2
 62
134
  6
CONTINUOUS
 10
274.409955
 20
145.000000
 11
261.467818
 21
145.000000
  0
LINE
  8
2
 62
134
  6
CONTINUOUS
 10
274.409955
 20
115.000000
 11
261.467818
 21
115.000000
  0
LINE
  8
2
 62
134
  6
CONTINUOUS
 10
272.409955
 20
145.000000
 11
272.927593
 21
143.068148
  0
LINE
  8
2
 62
134
  6
CONTINUOUS
 10
272.409955
 20
145.000000
 11
271.892317
 21
143.068148
  0
LINE
  8
2
 62
134
  6
CONTINUOUS
 10
272.927593
 20
143.068148
 11
271.892317
 21
143.068148
  0
LINE
  8
2
 62
134
  6
CONTINUOUS
 10
272.409955
 20
144.517037
 11
272.668774
 21
143.551111
  0
LINE
  8
2
 62
134
  6
CONTINUOUS
 10
272.409955
 20
144.517037
 11
272.151136
 21
143.551111
  0
LINE
  8
2
 62
134
  6
CONTINUOUS
 10
272.668774
 20
143.551111
 11
272.151136
 21
143.551111
  0
LINE
  8
2
 62
134
  6
CONTINUOUS
 10
272.409955
 20
115.000000
 11
271.892317
 21
116.931852
  0
LINE
  8
2
 62
134
  6
CONTINUOUS
 10
272.409955
 20
115.000000
 11
272.927593
 21
116.931852
  0
LINE
  8
2
 62
134
  6
CONTINUOUS
 10
271.892317
 20
116.931852
 11
272.927593
 21
116.931852
  0
LINE
  8
2
 62
134
  6
CONTINUOUS
 10
272.409955
 20
115.482963
 11
272.151136
 21
116.448889
  0
LINE
  8
2
 62
134
  6
CONTINUOUS
 10
272.409955
 20
115.482963
 11
272.668774
 21
116.448889
  0
LINE
  8
2
 62
134
  6
CONTINUOUS
 10
272.151136
 20
116.448889
 11
272.668774
 21
116.448889
  0
TEXT
  8
2
 62
134
  6
CONTINUOUS
 10
272.409955
 20
128.000032
 40
4.000000
 41
1.000000
  1
30
  7
KANJI
 50
90.000000
 51
30.000000
  0
ENDBLK
  0
BLOCK
  8
2
 62
134
  6
CONTINUOUS
  2
*D2
 70
    65
 10
0.0
 20
0.0
  0
LINE
  8
2
 62
134
  6
CONTINUOUS
 10
235.767818
 20
152.606217
 11
247.767818
 21
152.606217
  0
LINE
  8
2
 62
134
  6
CONTINUOUS
 10
235.767818
 20
154.606217
 11
235.767818
 21
146.700000
  0
LINE
  8
2
 62
134
  6
CONTINUOUS
 10
247.767818
 20
154.606217
 11
247.767818
 21
149.141228
  0
LINE
  8
2
 62
134
  6
CONTINUOUS
 10
235.767818
 20
152.606217
 11
237.699670
 21
153.123855
  0
LINE
  8
2
 62
134
  6
CONTINUOUS
 10
235.767818
 20
152.606217
 11
237.699670
 21
152.088579
  0
LINE
  8
2
 62
134
  6
CONTINUOUS
 10
237.699670
 20
153.123855
 11
237.699670
 21
152.088579
  0
LINE
  8
2
 62
134
  6
CONTINUOUS
 10
236.250781
 20
152.606217
 11
237.216707
 21
152.865036
  0
LINE
  8
2
 62
134
  6
CONTINUOUS
 10
236.250781
 20
152.606217
 11
237.216707
 21
152.347398
  0
LINE
  8
2
 62
134
  6
CONTINUOUS
 10
237.216707
 20
152.865036
 11
237.216707
 21
152.347398
  0
LINE
  8
2
 62
134
  6
CONTINUOUS
 10
247.767818
 20
152.606217
 11
245.835967
 21
152.088579
  0
LINE
  8
2
 62
134
  6
CONTINUOUS
 10
247.767818
 20
152.606217
 11
245.835967
 21
153.123855
  0
LINE
  8
2
 62
134
  6
CONTINUOUS
 10
245.835967
 20
152.088579
 11
245.835967
 21
153.123855
  0
LINE
  8
2
 62
134
  6
CONTINUOUS
 10
247.284855
 20
152.606217
 11
246.318929
 21
152.347398
  0
LINE
  8
2
 62
134
  6
CONTINUOUS
 10
247.284855
 20
152.606217
 11
246.318929
 21
152.865036
  0
LINE
  8
2
 62
134
  6
CONTINUOUS
 10
246.318929
 20
152.347398
 11
246.318929
 21
152.865036
  0
TEXT
  8
2
 62
134
  6
CONTINUOUS
 10
239.767818
 20
152.606217
 40
4.000000
 41
1.000000
  1
12
  7
KANJI
 50
0.000000
 51
30.000000
  0
ENDBLK
  0
BLOCK
  8
2
 62
134
  6
CONTINUOUS
  2
*D3
 70
    65
 10
0.0
 20
0.0
  0
LINE
  8
2
 62
134
  6
CONTINUOUS
 10
247.767818
 20
152.606217
 11
259.767818
 21
152.606217
  0
LINE
  8
2
 62
134
  6
CONTINUOUS
 10
259.767818
 20
154.606217
 11
259.767818
 21
146.700000
  0
LINE
  8
2
 62
134
  6
CONTINUOUS
 10
247.767818
 20
152.606217
 11
249.699670
 21
153.123855
  0
LINE
  8
2
 62
134
  6
CONTINUOUS
 10
247.767818
 20
152.606217
 11
249.699670
 21
152.088579
  0
LINE
  8
2
 62
134
  6
CONTINUOUS
 10
249.699670
 20
153.123855
 11
249.699670
 21
152.088579
  0
LINE
  8
2
 62
134
  6
CONTINUOUS
 10
248.250781
 20
152.606217
 11
249.216707
 21
152.865036
  0
LINE
  8
2
 62
134
  6
CONTINUOUS
 10
248.250781
 20
152.606217
 11
249.216707
 21
152.347398
  0
LINE
  8
2
 62
134
  6
CONTINUOUS
 10
249.216707
 20
152.865036
 11
249.216707
 21
152.347398
  0
LINE
  8
2
 62
134
  6
CONTINUOUS
 10
259.767818
 20
152.606217
 11
257.835967
 21
152.088579
  0
LINE
  8
2
 62
134
  6
CONTINUOUS
 10
259.767818
 20
152.606217
 11
257.835967
 21
153.123855
  0
LINE
  8
2
 62
134
  6
CONTINUOUS
 10
257.835967
 20
152.088579
 11
257.835967
 21
153.123855
  0
LINE
  8
2
 62
134
  6
CONTINUOUS
 10
259.284855
 20
152.606217
 11
258.318929
 21
152.347398
  0
LINE
  8
2
 62
134
  6
CONTINUOUS
 10
259.284855
 20
152.606217
 11
258.318929
 21
152.865036
  0
LINE
  8
2
 62
134
  6
CONTINUOUS
 10
258.318929
 20
152.347398
 11
258.318929
 21
152.865036
  0
TEXT
  8
2
 62
134
  6
CONTINUOUS
 10
251.767818
 20
152.606217
 40
4.000000
 41
1.000000
  1
12
  7
KANJI
 50
0.000000
 51
30.000000
  0
ENDBLK
  0
BLOCK
  8
2
 62
134
  6
CONTINUOUS
  2
*D4
 70
    65
 10
0.0
 20
0.0
  0
LINE
  8
2
 62
134
  6
CONTINUOUS
 10
235.767818
 20
159.428292
 11
259.767818
 21
159.428292
  0
LINE
  8
2
 62
134
  6
CONTINUOUS
 10
235.767818
 20
161.428292
 11
235.767818
 21
146.700000
  0
LINE
  8
2
 62
134
  6
CONTINUOUS
 10
259.767818
 20
161.428292
 11
259.767818
 21
146.700000
  0
LINE
  8
2
 62
134
  6
CONTINUOUS
 10
235.767818
 20
159.428292
 11
237.699670
 21
159.945930
  0
LINE
  8
2
 62
134
  6
CONTINUOUS
 10
235.767818
 20
159.428292
 11
237.699670
 21
158.910654
  0
LINE
  8
2
 62
134
  6
CONTINUOUS
 10
237.699670
 20
159.945930
 11
237.699670
 21
158.910654
  0
LINE
  8
2
 62
134
  6
CONTINUOUS
 10
236.250781
 20
159.428292
 11
237.216707
 21
159.687111
  0
LINE
  8
2
 62
134
  6
CONTINUOUS
 10
236.250781
 20
159.428292
 11
237.216707
 21
159.169473
  0
LINE
  8
2
 62
134
  6
CONTINUOUS
 10
237.216707
 20
159.687111
 11
237.216707
 21
159.169473
  0
LINE
  8
2
 62
134
  6
CONTINUOUS
 10
259.767818
 20
159.428292
 11
257.835967
 21
158.910654
  0
LINE
  8
2
 62
134
  6
CONTINUOUS
 10
259.767818
 20
159.428292
 11
257.835967
 21
159.945930
  0
LINE
  8
2
 62
134
  6
CONTINUOUS
 10
257.835967
 20
158.910654
 11
257.835967
 21
159.945930
  0
LINE
  8
2
 62
134
  6
CONTINUOUS
 10
259.284855
 20
159.428292
 11
258.318929
 21
159.169473
  0
LINE
  8
2
 62
134
  6
CONTINUOUS
 10
259.284855
 20
159.428292
 11
258.318929
 21
159.687111
  0
LINE
  8
2
 62
134
  6
CONTINUOUS
 10
258.318929
 20
159.169473
 11
258.318929
 21
159.687111
  0
TEXT
  8
2
 62
134
  6
CONTINUOUS
 10
244.672127
 20
159.428292
 40
4.000000
 41
1.000000
  1
24
  7
KANJI
 50
0.000000
 51
30.000000
  0
ENDBLK
  0
BLOCK
  8
2
 62
134
  6
CONTINUOUS
  2
*D5
 70
    65
 10
0.0
 20
0.0
  0
LINE
  8
2
 62
134
  6
CONTINUOUS
 10
172.403487
 20
118.500000
 11
172.403487
 21
142.712028
  0
LINE
  8
2
 62
134
  6
CONTINUOUS
 10
172.403487
 20
126.500000
 11
172.921125
 21
124.568148
  0
LINE
  8
2
 62
134
  6
CONTINUOUS
 10
172.403487
 20
126.500000
 11
171.885849
 21
124.568148
  0
LINE
  8
2
 62
134
  6
CONTINUOUS
 10
172.921125
 20
124.568148
 11
171.885849
 21
124.568148
  0
LINE
  8
2
 62
134
  6
CONTINUOUS
 10
172.403487
 20
126.017037
 11
172.662306
 21
125.051111
  0
LINE
  8
2
 62
134
  6
CONTINUOUS
 10
172.403487
 20
126.017037
 11
172.144668
 21
125.051111
  0
LINE
  8
2
 62
134
  6
CONTINUOUS
 10
172.662306
 20
125.051111
 11
172.144668
 21
125.051111
  0
LINE
  8
2
 62
134
  6
CONTINUOUS
 10
172.403487
 20
133.500000
 11
171.885849
 21
135.431852
  0
LINE
  8
2
 62
134
  6
CONTINUOUS
 10
172.403487
 20
133.500000
 11
172.921125
 21
135.431852
  0
LINE
  8
2
 62
134
  6
CONTINUOUS
 10
171.885849
 20
135.431852
 11
172.921125
 21
135.431852
  0
LINE
  8
2
 62
134
  6
CONTINUOUS
 10
172.403487
 20
133.982963
 11
172.144668
 21
134.948889
  0
LINE
  8
2
 62
134
  6
CONTINUOUS
 10
172.403487
 20
133.982963
 11
172.662306
 21
134.948889
  0
LINE
  8
2
 62
134
  6
CONTINUOUS
 10
172.144668
 20
134.948889
 11
172.662306
 21
134.948889
  0
TEXT
  8
2
 62
134
  6
CONTINUOUS
 10
172.403487
 20
136.712028
 40
4.000000
 41
1.000000
  1
φ7
  7
KANJI
 50
90.000000
 51
0.000000
  0
ENDBLK
  0
BLOCK
  8
2
 62
134
  6
CONTINUOUS
  2
*D6
 70
    65
 10
0.0
 20
0.0
  0
LINE
  8
2
 62
134
  6
CONTINUOUS
 10
218.965154
 20
120.050000
 11
218.965154
 21
144.523092
  0
LINE
  8
2
 62
134
  6
CONTINUOUS
 10
219.965154
 20
120.050000
 11
197.125603
 21
120.050000
  0
LINE
  8
2
 62
134
  6
CONTINUOUS
 10
219.965154
 20
144.523092
 11
214.759739
 21
144.523092
  0
LINE
  8
2
 62
134
  6
CONTINUOUS
 10
218.965154
 20
120.050000
 11
218.447516
 21
121.981852
  0
LINE
  8
2
 62
134
  6
CONTINUOUS
 10
218.965154
 20
120.050000
 11
219.482792
 21
121.981852
  0
LINE
  8
2
 62
134
  6
CONTINUOUS
 10
218.447516
 20
121.981852
 11
219.482792
 21
121.981852
  0
LINE
  8
2
 62
134
  6
CONTINUOUS
 10
218.965154
 20
120.532963
 11
218.706335
 21
121.498889
  0
LINE
  8
2
 62
134
  6
CONTINUOUS
 10
218.965154
 20
120.532963
 11
219.223973
 21
121.498889
  0
LINE
  8
2
 62
134
  6
CONTINUOUS
 10
218.706335
 20
121.498889
 11
219.223973
 21
121.498889
  0
LINE
  8
2
 62
134
  6
CONTINUOUS
 10
218.965154
 20
144.523092
 11
219.482792
 21
142.591240
  0
LINE
  8
2
 62
134
  6
CONTINUOUS
 10
218.965154
 20
144.523092
 11
218.447516
 21
142.591240
  0
LINE
  8
2
 62
134
  6
CONTINUOUS
 10
219.482792
 20
142.591240
 11
218.447516
 21
142.591240
  0
LINE
  8
2
 62
134
  6
CONTINUOUS
 10
218.965154
 20
144.040129
 11
219.223973
 21
143.074203
  0
LINE
  8
2
 62
134
  6
CONTINUOUS
 10
218.965154
 20
144.040129
 11
218.706335
 21
143.074203
  0
LINE
  8
2
 62
134
  6
CONTINUOUS
 10
219.223973
 20
143.074203
 11
218.706335
 21
143.074203
  0
TEXT
  8
2
 62
134
  6
CONTINUOUS
 10
218.965154
 20
127.018729
 40
4.000000
 41
1.000000
  1
24.5
  7
KANJI
 50
90.000000
 51
0.000000
  0
ENDBLK
  0
BLOCK
  8
2
 62
134
  6
CONTINUOUS
  2
*D7
 70
    65
 10
0.0
 20
0.0
  0
LINE
  8
2
 62
134
  6
CONTINUOUS
 10
192.208772
 20
151.459765
 11
210.208772
 21
151.459765
  0
LINE
  8
2
 62
134
  6
CONTINUOUS
 10
192.208772
 20
152.459765
 11
192.208772
 21
142.650000
  0
LINE
  8
2
 62
134
  6
CONTINUOUS
 10
210.208772
 20
152.459765
 11
210.208772
 21
142.436962
  0
LINE
  8
2
 62
134
  6
CONTINUOUS
 10
192.208772
 20
151.459765
 11
194.140623
 21
151.977403
  0
LINE
  8
2
 62
134
  6
CONTINUOUS
 10
192.208772
 20
151.459765
 11
194.140623
 21
150.942126
  0
LINE
  8
2
 62
134
  6
CONTINUOUS
 10
194.140623
 20
151.977403
 11
194.140623
 21
150.942126
  0
LINE
  8
2
 62
134
  6
CONTINUOUS
 10
192.691735
 20
151.459765
 11
193.657660
 21
151.718584
  0
LINE
  8
2
 62
134
  6
CONTINUOUS
 10
192.691735
 20
151.459765
 11
193.657660
 21
151.200945
  0
LINE
  8
2
 62
134
  6
CONTINUOUS
 10
193.657660
 20
151.718584
 11
193.657660
 21
151.200945
  0
LINE
  8
2
 62
134
  6
CONTINUOUS
 10
210.208772
 20
151.459765
 11
208.276920
 21
150.942126
  0
LINE
  8
2
 62
134
  6
CONTINUOUS
 10
210.208772
 20
151.459765
 11
208.276920
 21
151.977403
  0
LINE
  8
2
 62
134
  6
CONTINUOUS
 10
208.276920
 20
150.942126
 11
208.276920
 21
151.977403
  0
LINE
  8
2
 62
134
  6
CONTINUOUS
 10
209.725809
 20
151.459765
 11
208.759883
 21
151.200945
  0
LINE
  8
2
 62
134
  6
CONTINUOUS
 10
209.725809
 20
151.459765
 11
208.759883
 21
151.718584
  0
LINE
  8
2
 62
134
  6
CONTINUOUS
 10
208.759883
 20
151.200945
 11
208.759883
 21
151.718584
  0
TEXT
  8
2
 62
134
  6
CONTINUOUS
 10
198.459024
 20
151.459765
 40
4.000000
 41
1.000000
  1
18
  7
KANJI
 50
0.000000
 51
0.000000
  0
ENDBLK
  0
BLOCK
  8
2
 62
134
  6
CONTINUOUS
  2
*D8
 70
    65
 10
0.0
 20
0.0
  0
LINE
  8
2
 62
134
  6
CONTINUOUS
 10
223.766623
 20
151.459765
 11
229.766623
 21
151.459765
  0
LINE
  8
2
 62
134
  6
CONTINUOUS
 10
223.766623
 20
153.459765
 11
223.766623
 21
144.750000
  0
LINE
  8
2
 62
134
  6
CONTINUOUS
 10
229.766623
 20
153.459765
 11
229.766623
 21
144.750000
  0
LINE
  8
2
 62
134
  6
CONTINUOUS
 10
223.766623
 20
151.459765
 11
225.698475
 21
151.977403
  0
LINE
  8
2
 62
134
  6
CONTINUOUS
 10
223.766623
 20
151.459765
 11
225.698475
 21
150.942126
  0
LINE
  8
2
 62
134
  6
CONTINUOUS
 10
225.698475
 20
151.977403
 11
225.698475
 21
150.942126
  0
LINE
  8
2
 62
134
  6
CONTINUOUS
 10
224.249586
 20
151.459765
 11
225.215512
 21
151.718584
  0
LINE
  8
2
 62
134
  6
CONTINUOUS
 10
224.249586
 20
151.459765
 11
225.215512
 21
151.200945
  0
LINE
  8
2
 62
134
  6
CONTINUOUS
 10
225.215512
 20
151.718584
 11
225.215512
 21
151.200945
  0
LINE
  8
2
 62
134
  6
CONTINUOUS
 10
229.766623
 20
151.459765
 11
227.834771
 21
150.942126
  0
LINE
  8
2
 62
134
  6
CONTINUOUS
 10
229.766623
 20
151.459765
 11
227.834771
 21
151.977403
  0
LINE
  8
2
 62
134
  6
CONTINUOUS
 10
227.834771
 20
150.942126
 11
227.834771
 21
151.977403
  0
LINE
  8
2
 62
134
  6
CONTINUOUS
 10
229.283660
 20
151.459765
 11
228.317734
 21
151.200945
  0
LINE
  8
2
 62
134
  6
CONTINUOUS
 10
229.283660
 20
151.459765
 11
228.317734
 21
151.718584
  0
LINE
  8
2
 62
134
  6
CONTINUOUS
 10
228.317734
 20
151.200945
 11
228.317734
 21
151.718584
  0
TEXT
  8
2
 62
134
  6
CONTINUOUS
 10
225.766623
 20
151.459765
 40
4.000000
 41
1.000000
  1
6
  7
KANJI
 50
0.000000
 51
30.000000
  0
ENDBLK
  0
BLOCK
  8
2
 62
134
  6
CONTINUOUS
  2
*D9
 70
    65
 10
0.0
 20
0.0
  0
LINE
  8
2
 62
134
  6
CONTINUOUS
 10
64.436446
 20
160.000000
 11
112.936446
 21
160.000000
  0
LINE
  8
2
 62
134
  6
CONTINUOUS
 10
64.436446
 20
162.000000
 11
64.436446
 21
142.719254
  0
LINE
  8
2
 62
134
  6
CONTINUOUS
 10
112.936446
 20
162.000000
 11
112.936446
 21
146.700000
  0
LINE
  8
2
 62
134
  6
CONTINUOUS
 10
64.436446
 20
160.000000
 11
66.368297
 21
160.517638
  0
LINE
  8
2
 62
134
  6
CONTINUOUS
 10
64.436446
 20
160.000000
 11
66.368297
 21
159.482362
  0
LINE
  8
2
 62
134
  6
CONTINUOUS
 10
66.368297
 20
160.517638
 11
66.368297
 21
159.482362
  0
LINE
  8
2
 62
134
  6
CONTINUOUS
 10
64.919409
 20
160.000000
 11
65.885334
 21
160.258819
  0
LINE
  8
2
 62
134
  6
CONTINUOUS
 10
64.919409
 20
160.000000
 11
65.885334
 21
159.741181
  0
LINE
  8
2
 62
134
  6
CONTINUOUS
 10
65.885334
 20
160.258819
 11
65.885334
 21
159.741181
  0
LINE
  8
2
 62
134
  6
CONTINUOUS
 10
112.936446
 20
160.000000
 11
111.004594
 21
159.482362
  0
LINE
  8
2
 62
134
  6
CONTINUOUS
 10
112.936446
 20
160.000000
 11
111.004594
 21
160.517638
  0
LINE
  8
2
 62
134
  6
CONTINUOUS
 10
111.004594
 20
159.482362
 11
111.004594
 21
160.517638
  0
LINE
  8
2
 62
134
  6
CONTINUOUS
 10
112.453483
 20
160.000000
 11
111.487557
 21
159.741181
  0
LINE
  8
2
 62
134
  6
CONTINUOUS
 10
112.453483
 20
160.000000
 11
111.487557
 21
160.258819
  0
LINE
  8
2
 62
134
  6
CONTINUOUS
 10
111.487557
 20
159.741181
 11
111.487557
 21
160.258819
  0
TEXT
  8
2
 62
134
  6
CONTINUOUS
 10
84.686446
 20
160.000000
 40
4.000000
 41
1.000000
  1
48.5
  7
KANJI
 50
0.000000
 51
30.000000
  0
ENDBLK
  0
BLOCK
  8
2
 62
134
  6
CONTINUOUS
  2
*D10
 70
    65
 10
0.0
 20
0.0
  0
LINE
  8
2
 62
134
  6
CONTINUOUS
 10
86.306662
 20
140.000000
 11
86.306662
 21
120.000000
  0
LINE
  8
2
 62
134
  6
CONTINUOUS
 10
88.306662
 20
140.000000
 11
73.099483
 21
140.000000
  0
LINE
  8
2
 62
134
  6
CONTINUOUS
 10
88.306662
 20
120.000000
 11
73.356195
 21
120.000000
  0
LINE
  8
2
 62
134
  6
CONTINUOUS
 10
86.306662
 20
140.000000
 11
86.824300
 21
138.068148
  0
LINE
  8
2
 62
134
  6
CONTINUOUS
 10
86.306662
 20
140.000000
 11
85.789024
 21
138.068148
  0
LINE
  8
2
 62
134
  6
CONTINUOUS
 10
86.824300
 20
138.068148
 11
85.789024
 21
138.068148
  0
LINE
  8
2
 62
134
  6
CONTINUOUS
 10
86.306662
 20
139.517037
 11
86.565481
 21
138.551111
  0
LINE
  8
2
 62
134
  6
CONTINUOUS
 10
86.306662
 20
139.517037
 11
86.047843
 21
138.551111
  0
LINE
  8
2
 62
134
  6
CONTINUOUS
 10
86.565481
 20
138.551111
 11
86.047843
 21
138.551111
  0
LINE
  8
2
 62
134
  6
CONTINUOUS
 10
86.306662
 20
120.000000
 11
85.789024
 21
121.931852
  0
LINE
  8
2
 62
134
  6
CONTINUOUS
 10
86.306662
 20
120.000000
 11
86.824300
 21
121.931852
  0
LINE
  8
2
 62
134
  6
CONTINUOUS
 10
85.789024
 20
121.931852
 11
86.824300
 21
121.931852
  0
LINE
  8
2
 62
134
  6
CONTINUOUS
 10
86.306662
 20
120.482963
 11
86.047843
 21
121.448889
  0
LINE
  8
2
 62
134
  6
CONTINUOUS
 10
86.306662
 20
120.482963
 11
86.565481
 21
121.448889
  0
LINE
  8
2
 62
134
  6
CONTINUOUS
 10
86.047843
 20
121.448889
 11
86.565481
 21
121.448889
  0
TEXT
  8
2
 62
134
  6
CONTINUOUS
 10
86.306662
 20
131.500000
 40
4.000000
 41
1.000000
  1
20
  7
KANJI
 50
90.000000
 51
30.000000
  0
ENDBLK
  0
BLOCK
  8
2
 62
134
  6
CONTINUOUS
  2
*D11
 70
    65
 10
0.0
 20
0.0
  0
LINE
  8
2
 62
134
  6
CONTINUOUS
 10
60.436446
 20
150.283266
 11
72.436446
 21
150.283266
  0
LINE
  8
2
 62
134
  6
CONTINUOUS
 10
64.436446
 20
152.283266
 11
64.436446
 21
143.000000
  0
LINE
  8
2
 62
134
  6
CONTINUOUS
 10
68.436446
 20
152.283266
 11
68.436446
 21
144.720706
  0
LINE
  8
2
 62
134
  6
CONTINUOUS
 10
64.436446
 20
150.283266
 11
62.504594
 21
149.765628
  0
LINE
  8
2
 62
134
  6
CONTINUOUS
 10
64.436446
 20
150.283266
 11
62.504594
 21
150.800904
  0
LINE
  8
2
 62
134
  6
CONTINUOUS
 10
62.504594
 20
149.765628
 11
62.504594
 21
150.800904
  0
LINE
  8
2
 62
134
  6
CONTINUOUS
 10
63.953483
 20
150.283266
 11
62.987557
 21
150.024447
  0
LINE
  8
2
 62
134
  6
CONTINUOUS
 10
63.953483
 20
150.283266
 11
62.987557
 21
150.542085
  0
LINE
  8
2
 62
134
  6
CONTINUOUS
 10
62.987557
 20
150.024447
 11
62.987557
 21
150.542085
  0
LINE
  8
2
 62
134
  6
CONTINUOUS
 10
68.436446
 20
150.283266
 11
70.368297
 21
150.800904
  0
LINE
  8
2
 62
134
  6
CONTINUOUS
 10
68.436446
 20
150.283266
 11
70.368297
 21
149.765628
  0
LINE
  8
2
 62
134
  6
CONTINUOUS
 10
70.368297
 20
150.800904
 11
70.368297
 21
149.765628
  0
LINE
  8
2
 62
134
  6
CONTINUOUS
 10
68.919409
 20
150.283266
 11
69.885334
 21
150.542085
  0
LINE
  8
2
 62
134
  6
CONTINUOUS
 10
68.919409
 20
150.283266
 11
69.885334
 21
150.024447
  0
LINE
  8
2
 62
134
  6
CONTINUOUS
 10
69.885334
 20
150.542085
 11
69.885334
 21
150.024447
  0
TEXT
  8
2
 62
134
  6
CONTINUOUS
 10
65.368297
 20
150.283266
 40
4.000000
 41
1.000000
  1
4
  7
KANJI
 50
0.000000
 51
30.000000
  0
ENDBLK
  0
BLOCK
  8
2
 62
134
  6
CONTINUOUS
  2
*D12
 70
    65
 10
0.0
 20
0.0
  0
LINE
  8
2
 62
134
  6
CONTINUOUS
 10
55.007922
 20
114.000000
 11
55.007922
 21
147.278244
  0
LINE
  8
2
 62
134
  6
CONTINUOUS
 10
55.007922
 20
122.000000
 11
55.525560
 21
120.068148
  0
LINE
  8
2
 62
134
  6
CONTINUOUS
 10
55.007922
 20
122.000000
 11
54.490284
 21
120.068148
  0
LINE
  8
2
 62
134
  6
CONTINUOUS
 10
55.525560
 20
120.068148
 11
54.490284
 21
120.068148
  0
LINE
  8
2
 62
134
  6
CONTINUOUS
 10
55.007922
 20
121.517037
 11
55.266741
 21
120.551111
  0
LINE
  8
2
 62
134
  6
CONTINUOUS
 10
55.007922
 20
121.517037
 11
54.749103
 21
120.551111
  0
LINE
  8
2
 62
134
  6
CONTINUOUS
 10
55.266741
 20
120.551111
 11
54.749103
 21
120.551111
  0
LINE
  8
2
 62
134
  6
CONTINUOUS
 10
55.007922
 20
138.000000
 11
54.490284
 21
139.931852
  0
LINE
  8
2
 62
134
  6
CONTINUOUS
 10
55.007922
 20
138.000000
 11
55.525560
 21
139.931852
  0
LINE
  8
2
 62
134
  6
CONTINUOUS
 10
54.490284
 20
139.931852
 11
55.525560
 21
139.931852
  0
LINE
  8
2
 62
134
  6
CONTINUOUS
 10
55.007922
 20
138.482963
 11
54.749103
 21
139.448889
  0
LINE
  8
2
 62
134
  6
CONTINUOUS
 10
55.007922
 20
138.482963
 11
55.266741
 21
139.448889
  0
LINE
  8
2
 62
134
  6
CONTINUOUS
 10
54.749103
 20
139.448889
 11
55.266741
 21
139.448889
  0
TEXT
  8
2
 62
134
  6
CONTINUOUS
 10
55.007922
 20
139.278244
 40
4.000000
 41
1.000000
  1
φ16
  7
KANJI
 50
90.000000
 51
0.000000
  0
ENDBLK
  0
BLOCK
  8
2
 62
134
  6
CONTINUOUS
  2
*D13
 70
    65
 10
0.0
 20
0.0
  0
LINE
  8
2
 62
134
  6
CONTINUOUS
 10
39.685689
 20
117.499938
 11
39.685689
 21
144.289890
  0
LINE
  8
2
 62
134
  6
CONTINUOUS
 10
39.685689
 20
125.499938
 11
40.203327
 21
123.568086
  0
LINE
  8
2
 62
134
  6
CONTINUOUS
 10
39.685689
 20
125.499938
 11
39.168051
 21
123.568086
  0
LINE
  8
2
 62
134
  6
CONTINUOUS
 10
40.203327
 20
123.568086
 11
39.168051
 21
123.568086
  0
LINE
  8
2
 62
134
  6
CONTINUOUS
 10
39.685689
 20
125.016975
 11
39.944508
 21
124.051049
  0
LINE
  8
2
 62
134
  6
CONTINUOUS
 10
39.685689
 20
125.016975
 11
39.426870
 21
124.051049
  0
LINE
  8
2
 62
134
  6
CONTINUOUS
 10
39.944508
 20
124.051049
 11
39.426870
 21
124.051049
  0
LINE
  8
2
 62
134
  6
CONTINUOUS
 10
39.685689
 20
134.500000
 11
39.168051
 21
136.431852
  0
LINE
  8
2
 62
134
  6
CONTINUOUS
 10
39.685689
 20
134.500000
 11
40.203327
 21
136.431852
  0
LINE
  8
2
 62
134
  6
CONTINUOUS
 10
39.168051
 20
136.431852
 11
40.203327
 21
136.431852
  0
LINE
  8
2
 62
134
  6
CONTINUOUS
 10
39.685689
 20
134.982963
 11
39.426870
 21
135.948889
  0
LINE
  8
2
 62
134
  6
CONTINUOUS
 10
39.685689
 20
134.982963
 11
39.944508
 21
135.948889
  0
LINE
  8
2
 62
134
  6
CONTINUOUS
 10
39.426870
 20
135.948889
 11
39.944508
 21
135.948889
  0
TEXT
  8
2
 62
134
  6
CONTINUOUS
 10
39.685689
 20
138.289890
 40
4.000000
 41
1.000000
  1
φ9
  7
KANJI
 50
90.000000
 51
0.000000
  0
ENDBLK
  0
BLOCK
  8
2
 62
134
  6
CONTINUOUS
  2
*D14
 70
    65
 10
0.0
 20
0.0
  0
LINE
  8
2
 62
134
  6
CONTINUOUS
 10
51.931428
 20
109.546737
 11
64.433559
 21
109.546737
  0
LINE
  8
2
 62
134
  6
CONTINUOUS
 10
51.931428
 20
108.546737
 11
51.931428
 21
122.000000
  0
LINE
  8
2
 62
134
  6
CONTINUOUS
 10
64.433559
 20
108.546737
 11
64.433559
 21
122.082500
  0
LINE
  8
2
 62
134
  6
CONTINUOUS
 10
51.931428
 20
109.546737
 11
53.863280
 21
110.064375
  0
LINE
  8
2
 62
134
  6
CONTINUOUS
 10
51.931428
 20
109.546737
 11
53.863280
 21
109.029099
  0
LINE
  8
2
 62
134
  6
CONTINUOUS
 10
53.863280
 20
110.064375
 11
53.863280
 21
109.029099
  0
LINE
  8
2
 62
134
  6
CONTINUOUS
 10
52.414391
 20
109.546737
 11
53.380317
 21
109.805556
  0
LINE
  8
2
 62
134
  6
CONTINUOUS
 10
52.414391
 20
109.546737
 11
53.380317
 21
109.287918
  0
LINE
  8
2
 62
134
  6
CONTINUOUS
 10
53.380317
 20
109.805556
 11
53.380317
 21
109.287918
  0
LINE
  8
2
 62
134
  6
CONTINUOUS
 10
64.433559
 20
109.546737
 11
62.501707
 21
109.029099
  0
LINE
  8
2
 62
134
  6
CONTINUOUS
 10
64.433559
 20
109.546737
 11
62.501707
 21
110.064375
  0
LINE
  8
2
 62
134
  6
CONTINUOUS
 10
62.501707
 20
109.029099
 11
62.501707
 21
110.064375
  0
LINE
  8
2
 62
134
  6
CONTINUOUS
 10
63.950596
 20
109.546737
 11
62.984670
 21
109.287918
  0
LINE
  8
2
 62
134
  6
CONTINUOUS
 10
63.950596
 20
109.546737
 11
62.984670
 21
109.805556
  0
LINE
  8
2
 62
134
  6
CONTINUOUS
 10
62.984670
 20
109.287918
 11
62.984670
 21
109.805556
  0
TEXT
  8
2
 62
134
  6
CONTINUOUS
 10
54.189084
 20
109.546737
 40
4.000000
 41
1.000000
  1
12.5
  7
KANJI
 50
0.000000
 51
0.000000
  0
ENDBLK
  0
BLOCK
  8
2
 62
134
  6
CONTINUOUS
  2
*D15
 70
    65
 10
0.0
 20
0.0
  0
LINE
  8
2
 62
134
  6
CONTINUOUS
 10
15.435823
 20
115.000000
 11
15.435823
 21
130.000000
  0
LINE
  8
2
 62
134
  6
CONTINUOUS
 10
13.435823
 20
115.000000
 11
66.436446
 21
115.000000
  0
LINE
  8
2
 62
134
  6
CONTINUOUS
 10
13.435823
 20
130.000000
 11
61.935484
 21
130.000000
  0
LINE
  8
2
 62
134
  6
CONTINUOUS
 10
15.435823
 20
115.000000
 11
14.918185
 21
116.931852
  0
LINE
  8
2
 62
134
  6
CONTINUOUS
 10
15.435823
 20
115.000000
 11
15.953461
 21
116.931852
  0
LINE
  8
2
 62
134
  6
CONTINUOUS
 10
14.918185
 20
116.931852
 11
15.953461
 21
116.931852
  0
LINE
  8
2
 62
134
  6
CONTINUOUS
 10
15.435823
 20
115.482963
 11
15.177004
 21
116.448889
  0
LINE
  8
2
 62
134
  6
CONTINUOUS
 10
15.435823
 20
115.482963
 11
15.694642
 21
116.448889
  0
LINE
  8
2
 62
134
  6
CONTINUOUS
 10
15.177004
 20
116.448889
 11
15.694642
 21
116.448889
  0
LINE
  8
2
 62
134
  6
CONTINUOUS
 10
15.435823
 20
130.000000
 11
15.953461
 21
128.068148
  0
LINE
  8
2
 62
134
  6
CONTINUOUS
 10
15.435823
 20
130.000000
 11
14.918185
 21
128.068148
  0
LINE
  8
2
 62
134
  6
CONTINUOUS
 10
15.953461
 20
128.068148
 11
14.918185
 21
128.068148
  0
LINE
  8
2
 62
134
  6
CONTINUOUS
 10
15.435823
 20
129.517037
 11
15.694642
 21
128.551111
  0
LINE
  8
2
 62
134
  6
CONTINUOUS
 10
15.435823
 20
129.517037
 11
15.177004
 21
128.551111
  0
LINE
  8
2
 62
134
  6
CONTINUOUS
 10
15.694642
 20
128.551111
 11
15.177004
 21
128.551111
  0
TEXT
  8
2
 62
134
  6
CONTINUOUS
 10
15.435823
 20
120.027551
 40
4.000000
 41
1.000000
  1
15
  7
KANJI
 50
90.000000
 51
30.000000
  0
ENDBLK
  0
BLOCK
  8
3
 62
134
  6
CONTINUOUS
  2
*D16
 70
    65
 10
0.0
 20
0.0
  0
LINE
  8
3
 62
134
  6
CONTINUOUS
 10
64.436446
 20
160.000000
 11
35.364122
 21
160.000000
  0
LINE
  8
3
 62
134
  6
CONTINUOUS
 10
64.436446
 20
160.000000
 11
62.504594
 21
159.482362
  0
LINE
  8
3
 62
134
  6
CONTINUOUS
 10
64.436446
 20
160.000000
 11
62.504594
 21
160.517638
  0
LINE
  8
3
 62
134
  6
CONTINUOUS
 10
62.504594
 20
159.482362
 11
62.504594
 21
160.517638
  0
LINE
  8
3
 62
134
  6
CONTINUOUS
 10
63.953483
 20
160.000000
 11
62.987557
 21
159.741181
  0
LINE
  8
3
 62
134
  6
CONTINUOUS
 10
63.953483
 20
160.000000
 11
62.987557
 21
160.258819
  0
LINE
  8
3
 62
134
  6
CONTINUOUS
 10
62.987557
 20
159.741181
 11
62.987557
 21
160.258819
  0
TEXT
  8
3
 62
134
  6
CONTINUOUS
 10
41.981087
 20
160.000000
 40
4.000000
 41
1.000000
  1
測定距離
  7
KANJI
 50
0.000000
 51
30.000000
  0
ENDBLK
  0
BLOCK
  8
2
 62
134
  6
CONTINUOUS
  2
*D17
 70
    65
 10
0.0
 20
0.0
  0
LINE
  8
2
 62
134
  6
CONTINUOUS
 10
112.936446
 20
160.000000
 11
156.536446
 21
160.000000
  0
LINE
  8
2
 62
134
  6
CONTINUOUS
 10
112.936446
 20
162.000000
 11
112.936446
 21
146.700000
  0
LINE
  8
2
 62
134
  6
CONTINUOUS
 10
156.536446
 20
162.000000
 11
156.536446
 21
136.850000
  0
LINE
  8
2
 62
134
  6
CONTINUOUS
 10
112.936446
 20
160.000000
 11
114.868297
 21
160.517638
  0
LINE
  8
2
 62
134
  6
CONTINUOUS
 10
112.936446
 20
160.000000
 11
114.868297
 21
159.482362
  0
LINE
  8
2
 62
134
  6
CONTINUOUS
 10
114.868297
 20
160.517638
 11
114.868297
 21
159.482362
  0
LINE
  8
2
 62
134
  6
CONTINUOUS
 10
113.419409
 20
160.000000
 11
114.385334
 21
160.258819
  0
LINE
  8
2
 62
134
  6
CONTINUOUS
 10
113.419409
 20
160.000000
 11
114.385334
 21
159.741181
  0
LINE
  8
2
 62
134
  6
CONTINUOUS
 10
114.385334
 20
160.258819
 11
114.385334
 21
159.741181
  0
LINE
  8
2
 62
134
  6
CONTINUOUS
 10
156.536446
 20
160.000000
 11
154.604594
 21
159.482362
  0
LINE
  8
2
 62
134
  6
CONTINUOUS
 10
156.536446
 20
160.000000
 11
154.604594
 21
160.517638
  0
LINE
  8
2
 62
134
  6
CONTINUOUS
 10
154.604594
 20
159.482362
 11
154.604594
 21
160.517638
  0
LINE
  8
2
 62
134
  6
CONTINUOUS
 10
156.053483
 20
160.000000
 11
155.087557
 21
159.741181
  0
LINE
  8
2
 62
134
  6
CONTINUOUS
 10
156.053483
 20
160.000000
 11
155.087557
 21
160.258819
  0
LINE
  8
2
 62
134
  6
CONTINUOUS
 10
155.087557
 20
159.741181
 11
155.087557
 21
160.258819
  0
TEXT
  8
2
 62
134
  6
CONTINUOUS
 10
133.332323
 20
160.000000
 40
4.000000
 41
1.000000
  1
44
  7
KANJI
 50
0.000000
 51
30.000000
  0
ENDBLK
  0
BLOCK
  8
3
 62
134
  6
CONTINUOUS
  2
*D18
 70
    65
 10
0.0
 20
0.0
  0
LINE
  8
3
 62
134
  6
CONTINUOUS
 10
156.536446
 20
151.480847
 11
192.208772
 21
151.480847
  0
LINE
  8
3
 62
134
  6
CONTINUOUS
 10
156.536446
 20
153.480847
 11
156.536446
 21
136.850000
  0
LINE
  8
3
 62
134
  6
CONTINUOUS
 10
192.208772
 20
153.480847
 11
192.208772
 21
143.650000
  0
LINE
  8
3
 62
134
  6
CONTINUOUS
 10
156.536446
 20
151.480847
 11
158.468297
 21
151.998485
  0
LINE
  8
3
 62
134
  6
CONTINUOUS
 10
156.536446
 20
151.480847
 11
158.468297
 21
150.963209
  0
LINE
  8
3
 62
134
  6
CONTINUOUS
 10
158.468297
 20
151.998485
 11
158.468297
 21
150.963209
  0
LINE
  8
3
 62
134
  6
CONTINUOUS
 10
157.019409
 20
151.480847
 11
157.985334
 21
151.739666
  0
LINE
  8
3
 62
134
  6
CONTINUOUS
 10
157.019409
 20
151.480847
 11
157.985334
 21
151.222028
  0
LINE
  8
3
 62
134
  6
CONTINUOUS
 10
157.985334
 20
151.739666
 11
157.985334
 21
151.222028
  0
LINE
  8
3
 62
134
  6
CONTINUOUS
 10
192.208772
 20
151.480847
 11
190.276920
 21
150.963209
  0
LINE
  8
3
 62
134
  6
CONTINUOUS
 10
192.208772
 20
151.480847
 11
190.276920
 21
151.998485
  0
LINE
  8
3
 62
134
  6
CONTINUOUS
 10
190.276920
 20
150.963209
 11
190.276920
 21
151.998485
  0
LINE
  8
3
 62
134
  6
CONTINUOUS
 10
191.725809
 20
151.480847
 11
190.759883
 21
151.222028
  0
LINE
  8
3
 62
134
  6
CONTINUOUS
 10
191.725809
 20
151.480847
 11
190.759883
 21
151.739666
  0
LINE
  8
3
 62
134
  6
CONTINUOUS
 10
190.759883
 20
151.222028
 11
190.759883
 21
151.739666
  0
TEXT
  8
3
 62
134
  6
CONTINUOUS
 10
157.449078
 20
151.480847
 40
4.000000
 41
1.000000
  1
ｹｰﾌﾞﾙ長（標準2m）
  7
KANJI
 50
0.000000
 51
30.000000
  0
ENDBLK
  0
BLOCK
  8
2
 62
134
  6
CONTINUOUS
  2
*D19
 70
    65
 10
0.0
 20
0.0
  0
LINE
  8
2
 62
134
  6
CONTINUOUS
 10
36.685689
 20
109.546737
 11
51.931428
 21
109.546737
  0
LINE
  8
2
 62
134
  6
CONTINUOUS
 10
36.685689
 20
108.546737
 11
36.685689
 21
124.499938
  0
LINE
  8
2
 62
134
  6
CONTINUOUS
 10
51.931428
 20
108.546737
 11
51.931428
 21
122.000000
  0
LINE
  8
2
 62
134
  6
CONTINUOUS
 10
36.685689
 20
109.546737
 11
38.617541
 21
110.064375
  0
LINE
  8
2
 62
134
  6
CONTINUOUS
 10
36.685689
 20
109.546737
 11
38.617541
 21
109.029099
  0
LINE
  8
2
 62
134
  6
CONTINUOUS
 10
38.617541
 20
110.064375
 11
38.617541
 21
109.029099
  0
LINE
  8
2
 62
134
  6
CONTINUOUS
 10
37.168652
 20
109.546737
 11
38.134578
 21
109.805556
  0
LINE
  8
2
 62
134
  6
CONTINUOUS
 10
37.168652
 20
109.546737
 11
38.134578
 21
109.287918
  0
LINE
  8
2
 62
134
  6
CONTINUOUS
 10
38.134578
 20
109.805556
 11
38.134578
 21
109.287918
  0
LINE
  8
2
 62
134
  6
CONTINUOUS
 10
51.931428
 20
109.546737
 11
49.999576
 21
109.029099
  0
LINE
  8
2
 62
134
  6
CONTINUOUS
 10
51.931428
 20
109.546737
 11
49.999576
 21
110.064375
  0
LINE
  8
2
 62
134
  6
CONTINUOUS
 10
49.999576
 20
109.029099
 11
49.999576
 21
110.064375
  0
LINE
  8
2
 62
134
  6
CONTINUOUS
 10
51.448465
 20
109.546737
 11
50.482539
 21
109.287918
  0
LINE
  8
2
 62
134
  6
CONTINUOUS
 10
51.448465
 20
109.546737
 11
50.482539
 21
109.805556
  0
LINE
  8
2
 62
134
  6
CONTINUOUS
 10
50.482539
 20
109.287918
 11
50.482539
 21
109.805556
  0
TEXT
  8
2
 62
134
  6
CONTINUOUS
 10
40.364960
 20
109.546737
 40
4.000000
 41
1.000000
  1
15.5
  7
KANJI
 50
0.000000
 51
0.000000
  0
ENDBLK
  0
BLOCK
  8
2
 62
134
  6
CONTINUOUS
  2
*D20
 70
    65
 10
0.0
 20
0.0
  0
LINE
  8
2
 62
134
  6
CONTINUOUS
 10
28.685689
 20
119.400000
 11
28.685689
 21
144.447301
  0
LINE
  8
2
 62
134
  6
CONTINUOUS
 10
27.685689
 20
127.400000
 11
28.685689
 21
127.400000
  0
LINE
  8
2
 62
134
  6
CONTINUOUS
 10
28.685689
 20
127.400000
 11
29.203327
 21
125.468148
  0
LINE
  8
2
 62
134
  6
CONTINUOUS
 10
28.685689
 20
127.400000
 11
28.168051
 21
125.468148
  0
LINE
  8
2
 62
134
  6
CONTINUOUS
 10
29.203327
 20
125.468148
 11
28.168051
 21
125.468148
  0
LINE
  8
2
 62
134
  6
CONTINUOUS
 10
28.685689
 20
126.917037
 11
28.944508
 21
125.951111
  0
LINE
  8
2
 62
134
  6
CONTINUOUS
 10
28.685689
 20
126.917037
 11
28.426870
 21
125.951111
  0
LINE
  8
2
 62
134
  6
CONTINUOUS
 10
28.944508
 20
125.951111
 11
28.426870
 21
125.951111
  0
LINE
  8
2
 62
134
  6
CONTINUOUS
 10
28.685689
 20
132.600000
 11
28.168051
 21
134.531852
  0
LINE
  8
2
 62
134
  6
CONTINUOUS
 10
28.685689
 20
132.600000
 11
29.203327
 21
134.531852
  0
LINE
  8
2
 62
134
  6
CONTINUOUS
 10
28.168051
 20
134.531852
 11
29.203327
 21
134.531852
  0
LINE
  8
2
 62
134
  6
CONTINUOUS
 10
28.685689
 20
133.082963
 11
28.426870
 21
134.048889
  0
LINE
  8
2
 62
134
  6
CONTINUOUS
 10
28.685689
 20
133.082963
 11
28.944508
 21
134.048889
  0
LINE
  8
2
 62
134
  6
CONTINUOUS
 10
28.426870
 20
134.048889
 11
28.944508
 21
134.048889
  0
TEXT
  8
2
 62
134
  6
CONTINUOUS
 10
28.685689
 20
134.447301
 40
4.000000
 41
1.000000
  1
φ5.2
  7
KANJI
 50
90.000000
 51
0.000000
  0
ENDBLK
  0
BLOCK
  8
2
 62
134
  6
CONTINUOUS
  2
*D21
 70
    65
 10
0.0
 20
0.0
  0
LINE
  8
2
 62
134
  6
CONTINUOUS
 10
149.766224
 20
114.562903
 11
149.766224
 21
149.628691
  0
LINE
  8
2
 62
134
  6
CONTINUOUS
 10
149.766224
 20
122.562903
 11
150.283862
 21
120.631052
  0
LINE
  8
2
 62
134
  6
CONTINUOUS
 10
149.766224
 20
122.562903
 11
149.248586
 21
120.631052
  0
LINE
  8
2
 62
134
  6
CONTINUOUS
 10
150.283862
 20
120.631052
 11
149.248586
 21
120.631052
  0
LINE
  8
2
 62
134
  6
CONTINUOUS
 10
149.766224
 20
122.079940
 11
150.025043
 21
121.114014
  0
LINE
  8
2
 62
134
  6
CONTINUOUS
 10
149.766224
 20
122.079940
 11
149.507405
 21
121.114014
  0
LINE
  8
2
 62
134
  6
CONTINUOUS
 10
150.025043
 20
121.114014
 11
149.507405
 21
121.114014
  0
LINE
  8
2
 62
134
  6
CONTINUOUS
 10
149.766224
 20
137.437097
 11
149.248586
 21
139.368948
  0
LINE
  8
2
 62
134
  6
CONTINUOUS
 10
149.766224
 20
137.437097
 11
150.283862
 21
139.368948
  0
LINE
  8
2
 62
134
  6
CONTINUOUS
 10
149.248586
 20
139.368948
 11
150.283862
 21
139.368948
  0
LINE
  8
2
 62
134
  6
CONTINUOUS
 10
149.766224
 20
137.920060
 11
149.507405
 21
138.885986
  0
LINE
  8
2
 62
134
  6
CONTINUOUS
 10
149.766224
 20
137.920060
 11
150.025043
 21
138.885986
  0
LINE
  8
2
 62
134
  6
CONTINUOUS
 10
149.507405
 20
138.885986
 11
150.025043
 21
138.885986
  0
TEXT
  8
2
 62
134
  6
CONTINUOUS
 10
149.766224
 20
141.628691
 40
4.000000
 41
1.000000
  1
φ15
  7
KANJI
 50
90.000000
 51
0.000000
  0
ENDBLK
  0
ENDSEC
  0
SECTION
  2
ENTITIES
  0
LINE
  8
5
 62
7
  6
CONTINUOUS
 10
285.000000
 20
195.000000
 11
10.000000
 21
195.000000
  0
LINE
  8
5
 62
7
  6
CONTINUOUS
 10
10.000000
 20
195.000000
 11
10.000000
 21
10.000000
  0
LINE
  8
5
 62
7
  6
CONTINUOUS
 10
10.000000
 20
10.000000
 11
285.000000
 21
10.000000
  0
LINE
  8
5
 62
7
  6
CONTINUOUS
 10
285.000000
 20
10.000000
 11
285.000000
 21
195.000000
  0
TEXT
  8
5
 62
7
  6
CONTINUOUS
 10
210.962748
 20
25.651490
 40
1.750000
 41
4.000000
  1
製図
  7
KANJI
 50
-90.000000
 51
0.000000
  0
TEXT
  8
5
 62
7
  6
CONTINUOUS
 10
230.795530
 20
25.487583
 40
1.750000
 41
4.000000
  1
図番
  7
KANJI
 50
-90.000000
 51
0.000000
  0
TEXT
  8
5
 62
7
  6
CONTINUOUS
 10
230.795530
 20
38.764073
 40
1.750000
 41
4.000000
  1
図　名
  7
KANJI
 50
-90.000000
 51
0.000000
  0
TEXT
  8
5
 62
7
  6
CONTINUOUS
 10
165.888245
 20
33.355132
 40
1.750000
 41
4.000000
  1
日付
  7
KANJI
 50
-90.000000
 51
0.000000
  0
TEXT
  8
5
 62
7
  6
CONTINUOUS
 10
200.964404
 20
33.519040
 40
1.750000
 41
4.000000
  1
図法
  7
KANJI
 50
-90.000000
 51
0.000000
  0
TEXT
  8
5
 62
7
  6
CONTINUOUS
 10
200.800497
 20
41.550497
 40
1.750000
 41
4.000000
  1
尺度
  7
KANJI
 50
-90.000000
 51
0.000000
  0
TEXT
  8
5
 62
7
  6
CONTINUOUS
 10
165.888245
 20
41.386589
 40
1.750000
 41
4.000000
  1
公差
  7
KANJI
 50
-90.000000
 51
0.000000
  0
TEXT
  8
5
 62
7
  6
CONTINUOUS
 10
165.888245
 20
25.487583
 40
1.750000
 41
4.000000
  1
承認
  7
KANJI
 50
-90.000000
 51
0.000000
  0
TEXT
  8
5
 62
7
  6
CONTINUOUS
 10
190.966060
 20
25.487583
 40
1.750000
 41
4.000000
  1
設計
  7
KANJI
 50
-90.000000
 51
0.000000
  0
TEXT
  8
5
 62
7
  6
CONTINUOUS
 10
184.409768
 20
11.555464
 40
4.500000
 41
1.888889
  1
ジャパンセンサー株式会社
  7
KANJI
 50
0.000000
 51
0.000000
  0
LINE
  8
5
 62
7
  6
CONTINUOUS
 10
165.000000
 20
42.000000
 11
285.000000
 21
42.000000
  0
LINE
  8
5
 62
7
  6
CONTINUOUS
 10
165.000000
 20
10.000000
 11
165.000000
 21
42.000000
  0
LINE
  8
5
 62
7
  6
CONTINUOUS
 10
285.000000
 20
18.000000
 11
165.000000
 21
18.000000
  0
LINE
  8
5
 62
7
  6
CONTINUOUS
 10
230.000000
 20
42.000000
 11
230.000000
 21
18.000000
  0
LINE
  8
5
 62
7
  6
CONTINUOUS
 10
285.000000
 20
26.000000
 11
165.000000
 21
26.000000
  0
LINE
  8
5
 62
7
  6
CONTINUOUS
 10
235.000000
 20
18.000000
 11
235.000000
 21
42.000000
  0
LINE
  8
5
 62
7
  6
CONTINUOUS
 10
205.000000
 20
42.000000
 11
205.000000
 21
26.000000
  0
LINE
  8
5
 62
7
  6
CONTINUOUS
 10
170.000000
 20
18.000000
 11
170.000000
 21
42.000000
  0
LINE
  8
5
 62
7
  6
CONTINUOUS
 10
165.000000
 20
34.000000
 11
230.000000
 21
34.000000
  0
LINE
  8
5
 62
7
  6
CONTINUOUS
 10
200.000000
 20
42.000000
 11
200.000000
 21
26.000000
  0
LINE
  8
5
 62
7
  6
CONTINUOUS
 10
190.000000
 20
18.000000
 11
190.000000
 21
26.000000
  0
LINE
  8
5
 62
7
  6
CONTINUOUS
 10
210.000000
 20
18.000000
 11
210.000000
 21
26.000000
  0
LINE
  8
5
 62
7
  6
CONTINUOUS
 10
195.000000
 20
26.000000
 11
195.000000
 21
18.000000
  0
LINE
  8
5
 62
7
  6
CONTINUOUS
 10
215.000000
 20
26.000000
 11
215.000000
 21
18.000000
  0
TEXT
  8
5
 62
7
  6
CONTINUOUS
 10
209.979305
 20
35.649834
 40
4.000000
 41
1.000000
  1
１／１
  7
KANJI
 50
0.000000
 51
0.000000
  0
TEXT
  8
5
 62
7
  6
CONTINUOUS
 10
208.995861
 20
27.290563
 40
4.000000
 41
1.000000
  1
三角法
  7
KANJI
 50
0.000000
 51
0.000000
  0
TEXT
  8
5
 62
7
  6
CONTINUOUS
 10
196.211093
 20
19.750828
 40
4.000000
 41
1.000000
  1
須藤
  7
KANJI
 50
0.810149
 51
0.000000
  0
TEXT
  8
5
 62
7
  6
CONTINUOUS
 10
216.207781
 20
19.914735
 40
4.000000
 41
1.000000
  1
須藤
  7
KANJI
 50
-0.112820
 51
0.000000
  0
TEXT
  8
5
 62
7
  6
CONTINUOUS
 10
235.916500
 20
20.406457
 40
4.000000
 41
1.000000
  1
０１５－８７９－Ａ００２
  7
KANJI
 50
0.000000
 51
0.000000
  0
LINE
  8
1
 62
4
  6
DASHDOT
 10
247.767818
 20
140.000000
 11
247.767818
 21
121.299488
  0
LINE
  8
1
 62
4
  6
DASHDOT
 10
240.396948
 20
130.000000
 11
255.743299
 21
130.000000
  0
LINE
  8
1
 62
4
  6
DASHDOT
 10
247.767818
 20
112.340948
 11
247.767818
 21
147.141228
  0
LINE
  8
1
 62
4
  6
DASHDOT
 10
261.184721
 20
130.000000
 11
233.287139
 21
130.000000
  0
LINE
  8
1
 62
7
  6
CONTINUOUS
 10
259.467818
 20
115.000000
 11
259.767818
 21
115.300000
  0
LINE
  8
1
 62
7
  6
CONTINUOUS
 10
259.767818
 20
144.700000
 11
259.767818
 21
115.300000
  0
LINE
  8
1
 62
7
  6
CONTINUOUS
 10
236.067818
 20
115.000000
 11
259.467818
 21
115.000000
  0
LINE
  8
1
 62
7
  6
CONTINUOUS
 10
235.767818
 20
115.300000
 11
236.067818
 21
115.000000
  0
LINE
  8
1
 62
7
  6
CONTINUOUS
 10
235.767818
 20
144.700000
 11
235.767818
 21
115.300000
  0
LINE
  8
1
 62
7
  6
CONTINUOUS
 10
236.067818
 20
145.000000
 11
235.767818
 21
144.700000
  0
LINE
  8
1
 62
7
  6
CONTINUOUS
 10
259.467818
 20
145.000000
 11
236.067818
 21
145.000000
  0
LINE
  8
1
 62
7
  6
CONTINUOUS
 10
259.467818
 20
145.000000
 11
259.767818
 21
144.700000
  0
CIRCLE
  8
1
 62
7
  6
CONTINUOUS
 10
257.267818
 20
117.500000
 40
2.100000
  0
CIRCLE
  8
1
 62
7
  6
CONTINUOUS
 10
257.267818
 20
117.500002
 40
1.100000
  0
LINE
  8
1
 62
214
  6
DASHDOT
 10
257.267818
 20
119.980090
 11
257.267818
 21
114.560034
  0
LINE
  8
1
 62
214
  6
DASHDOT
 10
260.097534
 20
117.500000
 11
254.707095
 21
117.500000
  0
LINE
  8
1
 62
214
  6
DASHDOT
 10
259.090494
 20
117.500002
 11
254.623632
 21
117.500002
  0
LINE
  8
1
 62
214
  6
DASHDOT
 10
257.267818
 20
119.283175
 11
257.267818
 21
115.727419
  0
CIRCLE
  8
1
 62
7
  6
CONTINUOUS
 10
238.267818
 20
142.500002
 40
2.100000
  0
CIRCLE
  8
1
 62
7
  6
CONTINUOUS
 10
238.267818
 20
142.500000
 40
1.100000
  0
LINE
  8
1
 62
214
  6
DASHDOT
 10
238.267818
 20
140.019911
 11
238.267818
 21
145.439968
  0
LINE
  8
1
 62
214
  6
DASHDOT
 10
235.438102
 20
142.500002
 11
240.828541
 21
142.500002
  0
LINE
  8
1
 62
214
  6
DASHDOT
 10
236.445143
 20
142.500000
 11
240.912005
 21
142.500000
  0
LINE
  8
1
 62
214
  6
DASHDOT
 10
238.267818
 20
140.716827
 11
238.267818
 21
144.272583
  0
DIMENSION
  8
2
 62
134
  6
CONTINUOUS
  2
*D1
 10
272.409955
 20
145.000000
 11
272.409955
 21
130.000032
 70
     0
  1
30
 13
261.467818
 23
145.000000
 14
261.467818
 24
115.000000
 50
-90.000000
  0
DIMENSION
  8
2
 62
134
  6
CONTINUOUS
  2
*D2
 10
235.767818
 20
152.606217
 11
241.767818
 21
152.606217
 70
     0
  1
12
 13
235.767818
 23
146.700000
 14
247.767818
 24
149.141228
 50
0.000000
  0
DIMENSION
  8
2
 62
134
  6
CONTINUOUS
  2
*D3
 10
247.767818
 20
152.606217
 11
253.767818
 21
152.606217
 70
     0
  1
12
 13
247.767818
 23
152.606217
 14
259.767818
 24
146.700000
 50
0.000000
  0
DIMENSION
  8
2
 62
134
  6
CONTINUOUS
  2
*D4
 10
235.767818
 20
159.428292
 11
246.672127
 21
159.428292
 70
     0
  1
24
 13
235.767818
 23
146.700000
 14
259.767818
 24
146.700000
 50
0.000000
  0
LINE
  8
1
 62
7
  6
CONTINUOUS
 10
226.966623
 20
123.370000
 11
226.566623
 21
123.370000
  0
LINE
  8
1
 62
7
  6
CONTINUOUS
 10
226.966623
 20
122.630000
 11
226.966623
 21
123.370000
  0
LINE
  8
1
 62
7
  6
CONTINUOUS
 10
226.566623
 20
122.630000
 11
226.966623
 21
122.630000
  0
LINE
  8
1
 62
7
  6
CONTINUOUS
 10
226.566623
 20
123.370000
 11
226.566623
 21
122.630000
  0
LINE
  8
1
 62
7
  6
CONTINUOUS
 10
226.966623
 20
125.370000
 11
226.566623
 21
125.370000
  0
LINE
  8
1
 62
7
  6
CONTINUOUS
 10
226.966623
 20
124.630000
 11
226.966623
 21
125.370000
  0
LINE
  8
1
 62
7
  6
CONTINUOUS
 10
226.566623
 20
124.630000
 11
226.966623
 21
124.630000
  0
LINE
  8
1
 62
7
  6
CONTINUOUS
 10
226.566623
 20
125.370000
 11
226.566623
 21
124.630000
  0
LINE
  8
1
 62
7
  6
CONTINUOUS
 10
226.966623
 20
127.370000
 11
226.566623
 21
127.370000
  0
LINE
  8
1
 62
7
  6
CONTINUOUS
 10
226.966623
 20
126.630000
 11
226.966623
 21
127.370000
  0
LINE
  8
1
 62
7
  6
CONTINUOUS
 10
226.566623
 20
126.630000
 11
226.966623
 21
126.630000
  0
LINE
  8
1
 62
7
  6
CONTINUOUS
 10
226.566623
 20
127.370000
 11
226.566623
 21
126.630000
  0
LINE
  8
1
 62
7
  6
CONTINUOUS
 10
226.966623
 20
129.370000
 11
226.566623
 21
129.370000
  0
LINE
  8
1
 62
7
  6
CONTINUOUS
 10
226.966623
 20
128.630000
 11
226.966623
 21
129.370000
  0
LINE
  8
1
 62
7
  6
CONTINUOUS
 10
226.566623
 20
128.630000
 11
226.966623
 21
128.630000
  0
LINE
  8
1
 62
7
  6
CONTINUOUS
 10
226.566623
 20
129.370000
 11
226.566623
 21
128.630000
  0
LINE
  8
1
 62
7
  6
CONTINUOUS
 10
226.966623
 20
131.370000
 11
226.566623
 21
131.370000
  0
LINE
  8
1
 62
7
  6
CONTINUOUS
 10
226.966623
 20
130.630000
 11
226.966623
 21
131.370000
  0
LINE
  8
1
 62
7
  6
CONTINUOUS
 10
226.566623
 20
130.630000
 11
226.966623
 21
130.630000
  0
LINE
  8
1
 62
7
  6
CONTINUOUS
 10
226.566623
 20
131.370000
 11
226.566623
 21
130.630000
  0
LINE
  8
1
 62
7
  6
CONTINUOUS
 10
226.966623
 20
133.370000
 11
226.566623
 21
133.370000
  0
LINE
  8
1
 62
7
  6
CONTINUOUS
 10
226.966623
 20
132.630000
 11
226.966623
 21
133.370000
  0
LINE
  8
1
 62
7
  6
CONTINUOUS
 10
226.566623
 20
132.630000
 11
226.966623
 21
132.630000
  0
LINE
  8
1
 62
7
  6
CONTINUOUS
 10
226.566623
 20
133.370000
 11
226.566623
 21
132.630000
  0
LINE
  8
1
 62
7
  6
CONTINUOUS
 10
226.966623
 20
135.370000
 11
226.566623
 21
135.370000
  0
LINE
  8
1
 62
7
  6
CONTINUOUS
 10
226.966623
 20
134.630000
 11
226.966623
 21
135.370000
  0
LINE
  8
1
 62
7
  6
CONTINUOUS
 10
226.566623
 20
134.630000
 11
226.966623
 21
134.630000
  0
LINE
  8
1
 62
7
  6
CONTINUOUS
 10
226.566623
 20
135.370000
 11
226.566623
 21
134.630000
  0
LINE
  8
1
 62
7
  6
CONTINUOUS
 10
226.966623
 20
137.370000
 11
226.566623
 21
137.370000
  0
LINE
  8
1
 62
7
  6
CONTINUOUS
 10
226.966623
 20
136.630000
 11
226.966623
 21
137.370000
  0
LINE
  8
1
 62
7
  6
CONTINUOUS
 10
226.566623
 20
136.630000
 11
226.966623
 21
136.630000
  0
LINE
  8
1
 62
7
  6
CONTINUOUS
 10
226.566623
 20
137.370000
 11
226.566623
 21
136.630000
  0
LINE
  8
1
 62
7
  6
CONTINUOUS
 10
225.066623
 20
138.600000
 11
228.466623
 21
138.600000
  0
LINE
  8
1
 62
7
  6
CONTINUOUS
 10
225.066623
 20
121.400000
 11
225.066623
 21
138.600000
  0
LINE
  8
1
 62
7
  6
CONTINUOUS
 10
228.466623
 20
121.400000
 11
225.066623
 21
121.400000
  0
LINE
  8
1
 62
7
  6
CONTINUOUS
 10
228.466623
 20
138.600000
 11
228.466623
 21
121.400000
  0
LINE
  8
1
 62
7
  6
CONTINUOUS
 10
228.466623
 20
144.523092
 11
225.066623
 21
144.523092
  0
LINE
  8
1
 62
7
  6
CONTINUOUS
 10
228.466623
 20
140.550000
 11
228.466623
 21
144.523092
  0
LINE
  8
1
 62
7
  6
CONTINUOUS
 10
225.066623
 20
140.550000
 11
225.066623
 21
144.523092
  0
LINE
  8
1
 62
7
  6
DASHDOT
 10
225.669363
 20
123.000000
 11
227.858993
 21
123.000000
  0
LINE
  8
1
 62
7
  6
DASHDOT
 10
225.669363
 20
125.000000
 11
227.858993
 21
125.000000
  0
LINE
  8
1
 62
7
  6
DASHDOT
 10
225.669363
 20
127.000000
 11
227.858993
 21
127.000000
  0
LINE
  8
1
 62
7
  6
DASHDOT
 10
225.669363
 20
129.000000
 11
227.858993
 21
129.000000
  0
LINE
  8
1
 62
7
  6
DASHDOT
 10
225.669363
 20
131.000000
 11
227.858993
 21
131.000000
  0
LINE
  8
1
 62
7
  6
DASHDOT
 10
225.669363
 20
133.000000
 11
227.858993
 21
133.000000
  0
LINE
  8
1
 62
7
  6
DASHDOT
 10
225.669363
 20
135.000000
 11
227.858993
 21
135.000000
  0
LINE
  8
1
 62
7
  6
DASHDOT
 10
225.669363
 20
137.000000
 11
227.858993
 21
137.000000
  0
LINE
  8
1
 62
7
  6
CONTINUOUS
 10
229.766623
 20
120.050000
 11
229.766623
 21
142.750000
  0
LINE
  8
1
 62
7
  6
CONTINUOUS
 10
223.766623
 20
142.750000
 11
223.766623
 21
120.050000
  0
LINE
  8
1
 62
7
  6
CONTINUOUS
 10
228.466623
 20
142.750000
 11
229.766623
 21
142.750000
  0
LINE
  8
1
 62
7
  6
CONTINUOUS
 10
225.066623
 20
142.750000
 11
223.766623
 21
142.750000
  0
LINE
  8
1
 62
7
  6
CONTINUOUS
 10
229.766623
 20
140.550000
 11
228.466623
 21
140.550000
  0
LINE
  8
1
 62
7
  6
CONTINUOUS
 10
223.766623
 20
140.550000
 11
225.066623
 21
140.550000
  0
LINE
  8
1
 62
7
  6
CONTINUOUS
 10
204.708772
 20
121.250000
 11
204.708772
 21
138.750000
  0
LINE
  8
1
 62
7
  6
CONTINUOUS
 10
201.208772
 20
138.750000
 11
204.708772
 21
138.750000
  0
LINE
  8
1
 62
7
  6
CONTINUOUS
 10
201.208772
 20
138.750000
 11
201.208772
 21
140.550000
  0
LINE
  8
1
 62
7
  6
CONTINUOUS
 10
201.208772
 20
121.250000
 11
204.708772
 21
121.250000
  0
LINE
  8
1
 62
7
  6
CONTINUOUS
 10
201.208772
 20
120.250000
 11
201.208772
 21
121.250000
  0
LINE
  8
1
 62
7
  6
CONTINUOUS
 10
196.222200
 20
142.050000
 11
195.624519
 21
142.050000
  0
LINE
  8
1
 62
7
  6
CONTINUOUS
 10
196.922200
 20
142.750000
 11
198.908772
 21
142.750000
  0
LINE
  8
1
 62
7
  6
CONTINUOUS
 10
195.822200
 20
141.650000
 11
192.208772
 21
141.650000
  0
LINE
  8
1
 62
7
  6
CONTINUOUS
 10
192.208772
 20
141.650000
 11
192.209956
 21
141.656216
  0
LINE
  8
1
 62
7
  6
CONTINUOUS
 10
192.209956
 20
141.656216
 11
192.213476
 21
141.674695
  0
LINE
  8
1
 62
7
  6
CONTINUOUS
 10
192.213476
 20
141.674695
 11
192.219242
 21
141.704932
  0
LINE
  8
1
 62
7
  6
CONTINUOUS
 10
192.219242
 20
141.704932
 11
192.227114
 21
141.746093
  0
LINE
  8
1
 62
7
  6
CONTINUOUS
 10
192.227114
 20
141.746093
 11
192.236919
 21
141.797042
  0
LINE
  8
1
 62
7
  6
CONTINUOUS
 10
192.236919
 20
141.797042
 11
192.248463
 21
141.856360
  0
LINE
  8
1
 62
7
  6
CONTINUOUS
 10
192.248463
 20
141.856360
 11
192.261539
 21
141.922388
  0
LINE
  8
1
 62
7
  6
CONTINUOUS
 10
192.261539
 20
141.922388
 11
192.275929
 21
141.993274
  0
LINE
  8
1
 62
7
  6
CONTINUOUS
 10
192.275929
 20
141.993274
 11
192.291389
 21
142.067027
  0
LINE
  8
1
 62
7
  6
CONTINUOUS
 10
192.291389
 20
142.067027
 11
192.307636
 21
142.141584
  0
LINE
  8
1
 62
7
  6
CONTINUOUS
 10
192.307636
 20
142.141584
 11
192.324329
 21
142.214872
  0
LINE
  8
1
 62
7
  6
CONTINUOUS
 10
192.324329
 20
142.214872
 11
192.341050
 21
142.284878
  0
LINE
  8
1
 62
7
  6
CONTINUOUS
 10
192.341050
 20
142.284878
 11
192.357303
 21
142.349708
  0
LINE
  8
1
 62
7
  6
CONTINUOUS
 10
192.357303
 20
142.349708
 11
192.372526
 21
142.407637
  0
LINE
  8
1
 62
7
  6
CONTINUOUS
 10
192.372526
 20
142.407637
 11
192.386113
 21
142.457159
  0
LINE
  8
1
 62
7
  6
CONTINUOUS
 10
192.386113
 20
142.457159
 11
192.397461
 21
142.497008
  0
LINE
  8
1
 62
7
  6
CONTINUOUS
 10
192.397461
 20
142.497008
 11
192.406019
 21
142.526191
  0
LINE
  8
1
 62
7
  6
CONTINUOUS
 10
192.406019
 20
142.526191
 11
192.411346
 21
142.543988
  0
LINE
  8
1
 62
7
  6
CONTINUOUS
 10
192.411346
 20
142.543988
 11
192.413155
 21
142.549969
  0
LINE
  8
1
 62
7
  6
CONTINUOUS
 10
192.413155
 20
142.549969
 11
192.414973
 21
142.555946
  0
LINE
  8
1
 62
7
  6
CONTINUOUS
 10
192.414973
 20
142.555946
 11
192.420426
 21
142.573696
  0
LINE
  8
1
 62
7
  6
CONTINUOUS
 10
192.420426
 20
142.573696
 11
192.429517
 21
142.602682
  0
LINE
  8
1
 62
7
  6
CONTINUOUS
 10
192.429517
 20
142.602682
 11
192.442238
 21
142.642032
  0
LINE
  8
1
 62
7
  6
CONTINUOUS
 10
192.442238
 20
142.642032
 11
192.458552
 21
142.690583
  0
LINE
  8
1
 62
7
  6
CONTINUOUS
 10
192.458552
 20
142.690583
 11
192.478376
 21
142.746920
  0
LINE
  8
1
 62
7
  6
CONTINUOUS
 10
192.478376
 20
142.746920
 11
192.501546
 21
142.809433
  0
LINE
  8
1
 62
7
  6
CONTINUOUS
 10
192.501546
 20
142.809433
 11
192.527788
 21
142.876368
  0
LINE
  8
1
 62
7
  6
CONTINUOUS
 10
192.527788
 20
142.876368
 11
192.556684
 21
142.945880
  0
LINE
  8
1
 62
7
  6
CONTINUOUS
 10
192.556684
 20
142.945880
 11
192.587648
 21
143.016086
  0
LINE
  8
1
 62
7
  6
CONTINUOUS
 10
192.587648
 20
143.016086
 11
192.619907
 21
143.085107
  0
LINE
  8
1
 62
7
  6
CONTINUOUS
 10
192.619907
 20
143.085107
 11
192.652510
 21
143.151110
  0
LINE
  8
1
 62
7
  6
CONTINUOUS
 10
192.652510
 20
143.151110
 11
192.684350
 21
143.212352
  0
LINE
  8
1
 62
7
  6
CONTINUOUS
 10
192.684350
 20
143.212352
 11
192.714213
 21
143.267219
  0
LINE
  8
1
 62
7
  6
CONTINUOUS
 10
192.714213
 20
143.267219
 11
192.740849
 21
143.314258
  0
LINE
  8
1
 62
7
  6
CONTINUOUS
 10
192.740849
 20
143.314258
 11
192.763053
 21
143.352219
  0
LINE
  8
1
 62
7
  6
CONTINUOUS
 10
192.763053
 20
143.352219
 11
192.779764
 21
143.380088
  0
LINE
  8
1
 62
7
  6
CONTINUOUS
 10
192.779764
 20
143.380088
 11
192.790147
 21
143.397116
  0
LINE
  8
1
 62
7
  6
CONTINUOUS
 10
192.790147
 20
143.397116
 11
192.793669
 21
143.402844
  0
LINE
  8
1
 62
7
  6
CONTINUOUS
 10
192.793669
 20
143.402844
 11
192.797205
 21
143.408571
  0
LINE
  8
1
 62
7
  6
CONTINUOUS
 10
192.797205
 20
143.408571
 11
192.807805
 21
143.425595
  0
LINE
  8
1
 62
7
  6
CONTINUOUS
 10
192.807805
 20
143.425595
 11
192.825415
 21
143.453430
  0
LINE
  8
1
 62
7
  6
CONTINUOUS
 10
192.825415
 20
143.453430
 11
192.849890
 21
143.491258
  0
LINE
  8
1
 62
7
  6
CONTINUOUS
 10
192.849890
 20
143.491258
 11
192.880914
 21
143.537910
  0
LINE
  8
1
 62
7
  6
CONTINUOUS
 10
192.880914
 20
143.537910
 11
192.917932
 21
143.591875
  0
LINE
  8
1
 62
7
  6
CONTINUOUS
 10
192.917932
 20
143.591875
 11
192.960098
 21
143.651334
  0
LINE
  8
1
 62
7
  6
CONTINUOUS
 10
192.960098
 20
143.651334
 11
193.006262
 21
143.714227
  0
LINE
  8
1
 62
7
  6
CONTINUOUS
 10
193.006262
 20
143.714227
 11
193.055007
 21
143.778367
  0
LINE
  8
1
 62
7
  6
CONTINUOUS
 10
193.055007
 20
143.778367
 11
193.104727
 21
143.841565
  0
LINE
  8
1
 62
7
  6
CONTINUOUS
 10
193.104727
 20
143.841565
 11
193.153737
 21
143.901782
  0
LINE
  8
1
 62
7
  6
CONTINUOUS
 10
193.153737
 20
143.901782
 11
193.200404
 21
143.957255
  0
LINE
  8
1
 62
7
  6
CONTINUOUS
 10
193.200404
 20
143.957255
 11
193.243254
 21
144.006599
  0
LINE
  8
1
 62
7
  6
CONTINUOUS
 10
193.243254
 20
144.006599
 11
193.281065
 21
144.048853
  0
LINE
  8
1
 62
7
  6
CONTINUOUS
 10
193.281065
 20
144.048853
 11
193.312904
 21
144.083465
  0
LINE
  8
1
 62
7
  6
CONTINUOUS
 10
193.312904
 20
144.083465
 11
193.338127
 21
144.110230
  0
LINE
  8
1
 62
7
  6
CONTINUOUS
 10
193.338127
 20
144.110230
 11
193.356339
 21
144.129177
  0
LINE
  8
1
 62
7
  6
CONTINUOUS
 10
193.356339
 20
144.129177
 11
193.367328
 21
144.140450
  0
LINE
  8
1
 62
7
  6
CONTINUOUS
 10
193.367328
 20
144.140450
 11
193.370999
 21
144.144189
  0
LINE
  8
1
 62
7
  6
CONTINUOUS
 10
193.370999
 20
144.144189
 11
193.374658
 21
144.147901
  0
LINE
  8
1
 62
7
  6
CONTINUOUS
 10
193.374658
 20
144.147901
 11
193.385457
 21
144.158776
  0
LINE
  8
1
 62
7
  6
CONTINUOUS
 10
193.385457
 20
144.158776
 11
193.402881
 21
144.176065
  0
LINE
  8
1
 62
7
  6
CONTINUOUS
 10
193.402881
 20
144.176065
 11
193.426116
 21
144.198614
  0
LINE
  8
1
 62
7
  6
CONTINUOUS
 10
193.426116
 20
144.198614
 11
193.454109
 21
144.224998
  0
LINE
  8
1
 62
7
  6
CONTINUOUS
 10
193.454109
 20
144.224998
 11
193.485648
 21
144.253668
  0
LINE
  8
1
 62
7
  6
CONTINUOUS
 10
193.485648
 20
144.253668
 11
193.519441
 21
144.283110
  0
LINE
  8
1
 62
7
  6
CONTINUOUS
 10
193.519441
 20
144.283110
 11
193.554203
 21
144.311970
  0
LINE
  8
1
 62
7
  6
CONTINUOUS
 10
193.554203
 20
144.311970
 11
193.588728
 21
144.339150
  0
LINE
  8
1
 62
7
  6
CONTINUOUS
 10
193.588728
 20
144.339150
 11
193.621952
 21
144.363862
  0
LINE
  8
1
 62
7
  6
CONTINUOUS
 10
193.621952
 20
144.363862
 11
193.652986
 21
144.385623
  0
LINE
  8
1
 62
7
  6
CONTINUOUS
 10
193.652986
 20
144.385623
 11
193.681143
 21
144.404232
  0
LINE
  8
1
 62
7
  6
CONTINUOUS
 10
193.681143
 20
144.404232
 11
193.705934
 21
144.419703
  0
LINE
  8
1
 62
7
  6
CONTINUOUS
 10
193.705934
 20
144.419703
 11
193.727048
 21
144.432195
  0
LINE
  8
1
 62
7
  6
CONTINUOUS
 10
193.727048
 20
144.432195
 11
193.744326
 21
144.441947
  0
LINE
  8
1
 62
7
  6
CONTINUOUS
 10
193.744326
 20
144.441947
 11
193.757713
 21
144.449213
  0
LINE
  8
1
 62
7
  6
CONTINUOUS
 10
193.757713
 20
144.449213
 11
193.767226
 21
144.454223
  0
LINE
  8
1
 62
7
  6
CONTINUOUS
 10
193.767226
 20
144.454223
 11
193.772907
 21
144.457155
  0
LINE
  8
1
 62
7
  6
CONTINUOUS
 10
193.772907
 20
144.457155
 11
193.774796
 21
144.458120
  0
LINE
  8
1
 62
7
  6
CONTINUOUS
 10
193.774796
 20
144.458120
 11
193.776673
 21
144.459075
  0
LINE
  8
1
 62
7
  6
CONTINUOUS
 10
193.776673
 20
144.459075
 11
193.782187
 21
144.461850
  0
LINE
  8
1
 62
7
  6
CONTINUOUS
 10
193.782187
 20
144.461850
 11
193.790998
 21
144.466194
  0
LINE
  8
1
 62
7
  6
CONTINUOUS
 10
193.790998
 20
144.466194
 11
193.802581
 21
144.471727
  0
LINE
  8
1
 62
7
  6
CONTINUOUS
 10
193.802581
 20
144.471727
 11
193.816282
 21
144.477994
  0
LINE
  8
1
 62
7
  6
CONTINUOUS
 10
193.816282
 20
144.477994
 11
193.831380
 21
144.484521
  0
LINE
  8
1
 62
7
  6
CONTINUOUS
 10
193.831380
 20
144.484521
 11
193.847157
 21
144.490875
  0
LINE
  8
1
 62
7
  6
CONTINUOUS
 10
193.847157
 20
144.490875
 11
193.862953
 21
144.496708
  0
LINE
  8
1
 62
7
  6
CONTINUOUS
 10
193.862953
 20
144.496708
 11
193.878206
 21
144.501784
  0
LINE
  8
1
 62
7
  6
CONTINUOUS
 10
193.878206
 20
144.501784
 11
193.892479
 21
144.505987
  0
LINE
  8
1
 62
7
  6
CONTINUOUS
 10
193.892479
 20
144.505987
 11
193.905465
 21
144.509306
  0
LINE
  8
1
 62
7
  6
CONTINUOUS
 10
193.905465
 20
144.509306
 11
193.916971
 21
144.511816
  0
LINE
  8
1
 62
7
  6
CONTINUOUS
 10
193.916971
 20
144.511816
 11
193.926901
 21
144.513640
  0
LINE
  8
1
 62
7
  6
CONTINUOUS
 10
193.926901
 20
144.513640
 11
193.935229
 21
144.514922
  0
LINE
  8
1
 62
7
  6
CONTINUOUS
 10
193.935229
 20
144.514922
 11
193.941970
 21
144.515797
  0
LINE
  8
1
 62
7
  6
CONTINUOUS
 10
193.941970
 20
144.515797
 11
193.947157
 21
144.516375
  0
LINE
  8
1
 62
7
  6
CONTINUOUS
 10
193.947157
 20
144.516375
 11
193.950830
 21
144.516738
  0
LINE
  8
1
 62
7
  6
CONTINUOUS
 10
193.950830
 20
144.516738
 11
193.953020
 21
144.516938
  0
LINE
  8
1
 62
7
  6
CONTINUOUS
 10
193.953020
 20
144.516938
 11
193.953748
 21
144.517002
  0
LINE
  8
1
 62
7
  6
CONTINUOUS
 10
193.953748
 20
144.517002
 11
193.954471
 21
144.517064
  0
LINE
  8
1
 62
7
  6
CONTINUOUS
 10
193.954471
 20
144.517064
 11
193.956596
 21
144.517239
  0
LINE
  8
1
 62
7
  6
CONTINUOUS
 10
193.956596
 20
144.517239
 11
193.959991
 21
144.517497
  0
LINE
  8
1
 62
7
  6
CONTINUOUS
 10
193.959991
 20
144.517497
 11
193.964461
 21
144.517795
  0
LINE
  8
1
 62
7
  6
CONTINUOUS
 10
193.964461
 20
144.517795
 11
193.969773
 21
144.518088
  0
LINE
  8
1
 62
7
  6
CONTINUOUS
 10
193.969773
 20
144.518088
 11
193.975684
 21
144.518340
  0
LINE
  8
1
 62
7
  6
CONTINUOUS
 10
193.975684
 20
144.518340
 11
193.981969
 21
144.518529
  0
LINE
  8
1
 62
7
  6
CONTINUOUS
 10
193.981969
 20
144.518529
 11
193.988436
 21
144.518657
  0
LINE
  8
1
 62
7
  6
CONTINUOUS
 10
193.988436
 20
144.518657
 11
193.994937
 21
144.518745
  0
LINE
  8
1
 62
7
  6
CONTINUOUS
 10
193.994937
 20
144.518745
 11
194.001357
 21
144.518825
  0
LINE
  8
1
 62
7
  6
CONTINUOUS
 10
194.001357
 20
144.518825
 11
194.007607
 21
144.518936
  0
LINE
  8
1
 62
7
  6
CONTINUOUS
 10
194.007607
 20
144.518936
 11
194.013600
 21
144.519109
  0
LINE
  8
1
 62
7
  6
CONTINUOUS
 10
194.013600
 20
144.519109
 11
194.019238
 21
144.519359
  0
LINE
  8
1
 62
7
  6
CONTINUOUS
 10
194.019238
 20
144.519359
 11
194.024401
 21
144.519681
  0
LINE
  8
1
 62
7
  6
CONTINUOUS
 10
194.024401
 20
144.519681
 11
194.028944
 21
144.520047
  0
LINE
  8
1
 62
7
  6
CONTINUOUS
 10
194.028944
 20
144.520047
 11
194.032707
 21
144.520411
  0
LINE
  8
1
 62
7
  6
CONTINUOUS
 10
194.032707
 20
144.520411
 11
194.035534
 21
144.520723
  0
LINE
  8
1
 62
7
  6
CONTINUOUS
 10
194.035534
 20
144.520723
 11
194.037291
 21
144.520933
  0
LINE
  8
1
 62
7
  6
CONTINUOUS
 10
194.037291
 20
144.520933
 11
194.037887
 21
144.521007
  0
LINE
  8
1
 62
7
  6
CONTINUOUS
 10
194.037887
 20
144.521007
 11
194.038486
 21
144.521083
  0
LINE
  8
1
 62
7
  6
CONTINUOUS
 10
194.038486
 20
144.521083
 11
194.040283
 21
144.521318
  0
LINE
  8
1
 62
7
  6
CONTINUOUS
 10
194.040283
 20
144.521318
 11
194.043280
 21
144.521730
  0
LINE
  8
1
 62
7
  6
CONTINUOUS
 10
194.043280
 20
144.521730
 11
194.047486
 21
144.522327
  0
LINE
  8
1
 62
7
  6
CONTINUOUS
 10
194.047486
 20
144.522327
 11
194.052915
 21
144.523092
  0
LINE
  8
1
 62
7
  6
CONTINUOUS
 10
194.052915
 20
144.523092
 11
194.059591
 21
144.523958
  0
LINE
  8
1
 62
7
  6
CONTINUOUS
 10
194.059591
 20
144.523958
 11
194.067534
 21
144.524802
  0
LINE
  8
1
 62
7
  6
CONTINUOUS
 10
194.067534
 20
144.524802
 11
194.076745
 21
144.525454
  0
LINE
  8
1
 62
7
  6
CONTINUOUS
 10
194.076745
 20
144.525454
 11
194.087181
 21
144.525713
  0
LINE
  8
1
 62
7
  6
CONTINUOUS
 10
194.087181
 20
144.525713
 11
194.098729
 21
144.525388
  0
LINE
  8
1
 62
7
  6
CONTINUOUS
 10
194.098729
 20
144.525388
 11
194.111173
 21
144.524340
  0
LINE
  8
1
 62
7
  6
CONTINUOUS
 10
194.111173
 20
144.524340
 11
194.124181
 21
144.522518
  0
LINE
  8
1
 62
7
  6
CONTINUOUS
 10
194.124181
 20
144.522518
 11
194.137298
 21
144.519991
  0
LINE
  8
1
 62
7
  6
CONTINUOUS
 10
194.137298
 20
144.519991
 11
194.149966
 21
144.516953
  0
LINE
  8
1
 62
7
  6
CONTINUOUS
 10
194.149966
 20
144.516953
 11
194.161555
 21
144.513704
  0
LINE
  8
1
 62
7
  6
CONTINUOUS
 10
194.161555
 20
144.513704
 11
194.171421
 21
144.510614
  0
LINE
  8
1
 62
7
  6
CONTINUOUS
 10
194.171421
 20
144.510614
 11
194.178966
 21
144.508063
  0
LINE
  8
1
 62
7
  6
CONTINUOUS
 10
194.178966
 20
144.508063
 11
194.183705
 21
144.506381
  0
LINE
  8
1
 62
7
  6
CONTINUOUS
 10
194.183705
 20
144.506381
 11
194.185322
 21
144.505794
  0
LINE
  8
1
 62
7
  6
CONTINUOUS
 10
194.185322
 20
144.505794
 11
194.186949
 21
144.505197
  0
LINE
  8
1
 62
7
  6
CONTINUOUS
 10
194.186949
 20
144.505197
 11
194.191854
 21
144.503354
  0
LINE
  8
1
 62
7
  6
CONTINUOUS
 10
194.191854
 20
144.503354
 11
194.200099
 21
144.500117
  0
LINE
  8
1
 62
7
  6
CONTINUOUS
 10
194.200099
 20
144.500117
 11
194.211770
 21
144.495240
  0
LINE
  8
1
 62
7
  6
CONTINUOUS
 10
194.211770
 20
144.495240
 11
194.226949
 21
144.488390
  0
LINE
  8
1
 62
7
  6
CONTINUOUS
 10
194.226949
 20
144.488390
 11
194.245682
 21
144.479169
  0
LINE
  8
1
 62
7
  6
CONTINUOUS
 10
194.245682
 20
144.479169
 11
194.267933
 21
144.467164
  0
LINE
  8
1
 62
7
  6
CONTINUOUS
 10
194.267933
 20
144.467164
 11
194.293538
 21
144.452014
  0
LINE
  8
1
 62
7
  6
CONTINUOUS
 10
194.293538
 20
144.452014
 11
194.322162
 21
144.433500
  0
LINE
  8
1
 62
7
  6
CONTINUOUS
 10
194.322162
 20
144.433500
 11
194.353262
 21
144.411633
  0
LINE
  8
1
 62
7
  6
CONTINUOUS
 10
194.353262
 20
144.411633
 11
194.386066
 21
144.386745
  0
LINE
  8
1
 62
7
  6
CONTINUOUS
 10
194.386066
 20
144.386745
 11
194.419578
 21
144.359539
  0
LINE
  8
1
 62
7
  6
CONTINUOUS
 10
194.419578
 20
144.359539
 11
194.452607
 21
144.331102
  0
LINE
  8
1
 62
7
  6
CONTINUOUS
 10
194.452607
 20
144.331102
 11
194.483821
 21
144.302853
  0
LINE
  8
1
 62
7
  6
CONTINUOUS
 10
194.483821
 20
144.302853
 11
194.511830
 21
144.276440
  0
LINE
  8
1
 62
7
  6
CONTINUOUS
 10
194.511830
 20
144.276440
 11
194.535291
 21
144.253588
  0
LINE
  8
1
 62
7
  6
CONTINUOUS
 10
194.535291
 20
144.253588
 11
194.553008
 21
144.235910
  0
LINE
  8
1
 62
7
  6
CONTINUOUS
 10
194.553008
 20
144.235910
 11
194.564040
 21
144.224725
  0
LINE
  8
1
 62
7
  6
CONTINUOUS
 10
194.564040
 20
144.224725
 11
194.567787
 21
144.220896
  0
LINE
  8
1
 62
7
  6
CONTINUOUS
 10
194.567787
 20
144.220896
 11
194.571551
 21
144.217034
  0
LINE
  8
1
 62
7
  6
CONTINUOUS
 10
194.571551
 20
144.217034
 11
194.582845
 21
144.205357
  0
LINE
  8
1
 62
7
  6
CONTINUOUS
 10
194.582845
 20
144.205357
 11
194.601644
 21
144.185618
  0
LINE
  8
1
 62
7
  6
CONTINUOUS
 10
194.601644
 20
144.185618
 11
194.627835
 21
144.157499
  0
LINE
  8
1
 62
7
  6
CONTINUOUS
 10
194.627835
 20
144.157499
 11
194.661121
 21
144.120731
  0
LINE
  8
1
 62
7
  6
CONTINUOUS
 10
194.661121
 20
144.120731
 11
194.700934
 21
144.075228
  0
LINE
  8
1
 62
7
  6
CONTINUOUS
 10
194.700934
 20
144.075228
 11
194.746367
 21
144.021232
  0
LINE
  8
1
 62
7
  6
CONTINUOUS
 10
194.746367
 20
144.021232
 11
194.796160
 21
143.959415
  0
LINE
  8
1
 62
7
  6
CONTINUOUS
 10
194.796160
 20
143.959415
 11
194.848741
 21
143.890951
  0
LINE
  8
1
 62
7
  6
CONTINUOUS
 10
194.848741
 20
143.890951
 11
194.902322
 21
143.817525
  0
LINE
  8
1
 62
7
  6
CONTINUOUS
 10
194.902322
 20
143.817525
 11
194.955033
 21
143.741290
  0
LINE
  8
1
 62
7
  6
CONTINUOUS
 10
194.955033
 20
143.741290
 11
195.005069
 21
143.664775
  0
LINE
  8
1
 62
7
  6
CONTINUOUS
 10
195.005069
 20
143.664775
 11
195.050834
 21
143.590746
  0
LINE
  8
1
 62
7
  6
CONTINUOUS
 10
195.050834
 20
143.590746
 11
195.091030
 21
143.522046
  0
LINE
  8
1
 62
7
  6
CONTINUOUS
 10
195.091030
 20
143.522046
 11
195.124712
 21
143.461428
  0
LINE
  8
1
 62
7
  6
CONTINUOUS
 10
195.124712
 20
143.461428
 11
195.151265
 21
143.411395
  0
LINE
  8
1
 62
7
  6
CONTINUOUS
 10
195.151265
 20
143.411395
 11
195.170356
 21
143.374051
  0
LINE
  8
1
 62
7
  6
CONTINUOUS
 10
195.170356
 20
143.374051
 11
195.181838
 21
143.350983
  0
LINE
  8
1
 62
7
  6
CONTINUOUS
 10
195.181838
 20
143.350983
 11
195.185668
 21
143.343183
  0
LINE
  8
1
 62
7
  6
CONTINUOUS
 10
195.185668
 20
143.343183
 11
195.189481
 21
143.335361
  0
LINE
  8
1
 62
7
  6
CONTINUOUS
 10
195.189481
 20
143.335361
 11
195.200716
 21
143.311990
  0
LINE
  8
1
 62
7
  6
CONTINUOUS
 10
195.200716
 20
143.311990
 11
195.218788
 21
143.273366
  0
LINE
  8
1
 62
7
  6
CONTINUOUS
 10
195.218788
 20
143.273366
 11
195.242791
 21
143.220043
  0
LINE
  8
1
 62
7
  6
CONTINUOUS
 10
195.242791
 20
143.220043
 11
195.271595
 21
143.152896
  0
LINE
  8
1
 62
7
  6
CONTINUOUS
 10
195.271595
 20
143.152896
 11
195.303955
 21
143.073198
  0
LINE
  8
1
 62
7
  6
CONTINUOUS
 10
195.303955
 20
143.073198
 11
195.338614
 21
142.982667
  0
LINE
  8
1
 62
7
  6
CONTINUOUS
 10
195.338614
 20
142.982667
 11
195.374387
 21
142.883483
  0
LINE
  8
1
 62
7
  6
CONTINUOUS
 10
195.374387
 20
142.883483
 11
195.410221
 21
142.778257
  0
LINE
  8
1
 62
7
  6
CONTINUOUS
 10
195.410221
 20
142.778257
 11
195.445216
 21
142.669952
  0
LINE
  8
1
 62
7
  6
CONTINUOUS
 10
195.445216
 20
142.669952
 11
195.478615
 21
142.561765
  0
LINE
  8
1
 62
7
  6
CONTINUOUS
 10
195.478615
 20
142.561765
 11
195.509782
 21
142.456980
  0
LINE
  8
1
 62
7
  6
CONTINUOUS
 10
195.509782
 20
142.456980
 11
195.538163
 21
142.358815
  0
LINE
  8
1
 62
7
  6
CONTINUOUS
 10
195.538163
 20
142.358815
 11
195.563253
 21
142.270277
  0
LINE
  8
1
 62
7
  6
CONTINUOUS
 10
195.563253
 20
142.270277
 11
195.584584
 21
142.194042
  0
LINE
  8
1
 62
7
  6
CONTINUOUS
 10
195.584584
 20
142.194042
 11
195.601720
 21
142.132367
  0
LINE
  8
1
 62
7
  6
CONTINUOUS
 10
195.601720
 20
142.132367
 11
195.614274
 21
142.087034
  0
LINE
  8
1
 62
7
  6
CONTINUOUS
 10
195.614274
 20
142.087034
 11
195.621941
 21
142.059322
  0
LINE
  8
1
 62
7
  6
CONTINUOUS
 10
195.621941
 20
142.059322
 11
195.624519
 21
142.050000
  0
LINE
  8
1
 62
7
  6
CONTINUOUS
 10
192.208772
 20
141.650000
 11
192.208772
 21
120.550000
  0
LINE
  8
1
 62
7
  6
CONTINUOUS
 10
195.822200
 20
141.650000
 11
196.922200
 21
142.750000
  0
LINE
  8
1
 62
7
  6
CONTINUOUS
 10
209.708772
 20
141.936962
 11
199.408772
 21
142.050000
  0
LINE
  8
1
 62
7
  6
CONTINUOUS
 10
210.208772
 20
141.436962
 11
210.208772
 21
120.750000
  0
ARC
  8
1
 62
7
  6
CONTINUOUS
 10
209.708772
 20
141.436962
 40
0.500000
 50
0.000000
 51
90.000000
  0
LINE
  8
1
 62
7
  6
CONTINUOUS
 10
199.408772
 20
142.250000
 11
199.408772
 21
140.550000
  0
ARC
  8
1
 62
7
  6
CONTINUOUS
 10
198.908772
 20
142.250000
 40
0.500000
 50
0.000000
 51
90.000000
  0
LINE
  8
1
 62
7
  6
CONTINUOUS
 10
199.408772
 20
140.550000
 11
210.208772
 21
140.550000
  0
ARC
  8
1
 62
7
  6
CONTINUOUS
 10
209.708772
 20
120.750000
 40
0.500000
 50
-90.000000
 51
0.000000
  0
LINE
  8
1
 62
7
  6
CONTINUOUS
 10
196.125603
 20
120.250000
 11
209.708772
 21
120.250000
  0
LINE
  8
1
 62
7
  6
CONTINUOUS
 10
196.125603
 20
120.050000
 11
196.125603
 21
120.250000
  0
LINE
  8
1
 62
7
  6
CONTINUOUS
 10
196.208772
 20
137.850000
 11
196.208772
 21
121.850000
  0
LINE
  8
1
 62
7
  6
CONTINUOUS
 10
196.208772
 20
137.850000
 11
194.708772
 21
137.850000
  0
LINE
  8
1
 62
7
  6
CONTINUOUS
 10
194.708772
 20
137.850000
 11
194.708772
 21
121.850000
  0
LINE
  8
1
 62
7
  6
CONTINUOUS
 10
194.708772
 20
121.850000
 11
196.208772
 21
121.850000
  0
LINE
  8
1
 62
7
  6
CONTINUOUS
 10
185.523269
 20
128.572504
 11
188.997055
 21
127.600000
  0
LINE
  8
1
 62
7
  6
CONTINUOUS
 10
185.572131
 20
127.355416
 11
188.972563
 21
126.400000
  0
LINE
  8
1
 62
7
  6
CONTINUOUS
 10
182.662926
 20
128.773224
 11
188.997055
 21
125.600000
  0
LINE
  8
1
 62
7
  6
CONTINUOUS
 10
185.258634
 20
126.267314
 11
188.972563
 21
124.400000
  0
LINE
  8
1
 62
7
  6
CONTINUOUS
 10
192.208772
 20
125.600000
 11
188.997055
 21
125.600000
  0
LINE
  8
1
 62
7
  6
CONTINUOUS
 10
192.208772
 20
124.400000
 11
188.972563
 21
124.400000
  0
LINE
  8
1
 62
7
  6
CONTINUOUS
 10
192.208772
 20
127.600000
 11
188.997055
 21
127.600000
  0
LINE
  8
1
 62
7
  6
CONTINUOUS
 10
192.208772
 20
126.400000
 11
188.972563
 21
126.400000
  0
LINE
  8
1
 62
7
  6
CONTINUOUS
 10
182.210253
 20
130.000000
 11
188.997055
 21
129.600000
  0
LINE
  8
1
 62
7
  6
CONTINUOUS
 10
182.210253
 20
128.800000
 11
188.972563
 21
128.400000
  0
LINE
  8
1
 62
7
  6
CONTINUOUS
 10
182.210253
 20
128.800000
 11
180.742601
 21
128.800000
  0
LINE
  8
1
 62
7
  6
CONTINUOUS
 10
192.208772
 20
129.600000
 11
188.997055
 21
129.600000
  0
LINE
  8
1
 62
7
  6
CONTINUOUS
 10
192.208772
 20
128.400000
 11
188.972563
 21
128.400000
  0
LINE
  8
1
 62
7
  6
CONTINUOUS
 10
185.523269
 20
131.427496
 11
188.997055
 21
132.400000
  0
LINE
  8
1
 62
7
  6
CONTINUOUS
 10
185.572131
 20
132.644584
 11
188.972563
 21
133.600000
  0
LINE
  8
1
 62
7
  6
CONTINUOUS
 10
182.662926
 20
131.226776
 11
188.997055
 21
134.400000
  0
LINE
  8
1
 62
7
  6
CONTINUOUS
 10
185.258634
 20
133.732686
 11
188.972563
 21
135.600000
  0
LINE
  8
1
 62
7
  6
CONTINUOUS
 10
192.208772
 20
134.400000
 11
188.997055
 21
134.400000
  0
LINE
  8
1
 62
7
  6
CONTINUOUS
 10
192.208772
 20
135.600000
 11
188.972563
 21
135.600000
  0
LINE
  8
1
 62
7
  6
CONTINUOUS
 10
192.208772
 20
132.400000
 11
188.997055
 21
132.400000
  0
LINE
  8
1
 62
7
  6
CONTINUOUS
 10
192.208772
 20
133.600000
 11
188.972563
 21
133.600000
  0
LINE
  8
1
 62
7
  6
CONTINUOUS
 10
182.210253
 20
130.000000
 11
188.997055
 21
130.400000
  0
LINE
  8
1
 62
7
  6
CONTINUOUS
 10
182.210253
 20
131.200000
 11
188.972563
 21
131.600000
  0
LINE
  8
1
 62
7
  6
CONTINUOUS
 10
182.210253
 20
131.200000
 11
180.742601
 21
131.200000
  0
LINE
  8
1
 62
7
  6
CONTINUOUS
 10
192.208772
 20
130.400000
 11
188.997055
 21
130.400000
  0
LINE
  8
1
 62
7
  6
CONTINUOUS
 10
192.208772
 20
131.600000
 11
188.972563
 21
131.600000
  0
LINE
  8
1
 62
7
  6
CONTINUOUS
 10
182.210253
 20
128.400000
 11
188.997055
 21
123.600000
  0
LINE
  8
1
 62
7
  6
CONTINUOUS
 10
182.210253
 20
127.200000
 11
188.972563
 21
122.400000
  0
LINE
  8
1
 62
7
  6
CONTINUOUS
 10
182.210253
 20
128.400000
 11
180.742601
 21
128.400000
  0
LINE
  8
1
 62
7
  6
CONTINUOUS
 10
182.210253
 20
127.200000
 11
180.742601
 21
127.200000
  0
LINE
  8
1
 62
7
  6
CONTINUOUS
 10
192.208772
 20
123.600000
 11
188.997055
 21
123.600000
  0
LINE
  8
1
 62
7
  6
CONTINUOUS
 10
192.208772
 20
122.400000
 11
188.972563
 21
122.400000
  0
LINE
  8
1
 62
7
  6
CONTINUOUS
 10
182.210253
 20
131.600000
 11
188.997055
 21
136.400000
  0
LINE
  8
1
 62
7
  6
CONTINUOUS
 10
182.210253
 20
132.800000
 11
188.972563
 21
137.600000
  0
LINE
  8
1
 62
7
  6
CONTINUOUS
 10
182.210253
 20
131.600000
 11
180.742601
 21
131.600000
  0
LINE
  8
1
 62
7
  6
CONTINUOUS
 10
182.210253
 20
132.800000
 11
180.742601
 21
132.800000
  0
LINE
  8
1
 62
7
  6
CONTINUOUS
 10
192.208772
 20
136.400000
 11
188.997055
 21
136.400000
  0
LINE
  8
1
 62
7
  6
CONTINUOUS
 10
192.208772
 20
137.600000
 11
188.972563
 21
137.600000
  0
LINE
  8
1
 62
7
  6
CONTINUOUS
 10
180.742601
 20
133.500000
 11
180.742601
 21
126.500000
  0
LINE
  8
1
 62
7
  6
DASHDOT
 10
221.118677
 20
130.000000
 11
232.113258
 21
130.000000
  0
LINE
  8
1
 62
7
  6
CONTINUOUS
 10
223.766623
 20
120.050000
 11
229.766623
 21
120.050000
  0
LINE
  8
1
 62
7
  6
DASHDOT
 10
226.766623
 20
149.230845
 11
226.766623
 21
116.203584
  0
LINE
  8
1
 62
7
  6
CONTINUOUS
 10
182.210253
 20
130.000000
 11
180.742601
 21
130.000000
  0
LINE
  8
1
 62
7
  6
DASHDOT
 10
190.903034
 20
125.000000
 11
211.057763
 21
125.000000
  0
LINE
  8
1
 62
7
  6
DASHDOT
 10
190.903034
 20
127.000000
 11
211.057763
 21
127.000000
  0
LINE
  8
1
 62
7
  6
DASHDOT
 10
190.903034
 20
129.000000
 11
211.057763
 21
129.000000
  0
LINE
  8
1
 62
7
  6
DASHDOT
 10
190.903034
 20
131.000000
 11
211.057763
 21
131.000000
  0
LINE
  8
1
 62
7
  6
DASHDOT
 10
190.903034
 20
133.000000
 11
211.057763
 21
133.000000
  0
LINE
  8
1
 62
7
  6
DASHDOT
 10
190.903034
 20
135.000000
 11
211.057763
 21
135.000000
  0
LINE
  8
1
 62
7
  6
DASHDOT
 10
190.958776
 20
123.000000
 11
211.100271
 21
123.000000
  0
LINE
  8
1
 62
7
  6
DASHDOT
 10
190.903034
 20
137.000000
 11
211.057763
 21
137.000000
  0
ARC
  8
1
 62
7
  6
CONTINUOUS
 10
192.708772
 20
120.550000
 40
0.500000
 50
180.000000
 51
-90.000000
  0
LINE
  8
1
 62
7
  6
CONTINUOUS
 10
196.125603
 20
120.050000
 11
192.708772
 21
120.050000
  0
DIMENSION
  8
2
 62
134
  6
CONTINUOUS
  2
*D5
 10
172.403487
 20
126.500000
 11
172.403487
 21
139.712028
 70
     0
  1
φ7
 13
172.403487
 23
126.500000
 14
172.403487
 24
133.500000
 50
90.000000
  0
LINE
  8
2
 62
134
  6
CONTINUOUS
 10
194.120081
 20
144.523092
 11
213.759739
 21
144.523092
  0
TEXT
  8
2
 62
134
  6
CONTINUOUS
 10
211.500872
 20
135.367249
 40
4.000000
 41
1.000000
  1
1
  7
KANJI
 50
0.000000
 51
0.000000
  0
TEXT
  8
2
 62
134
  6
CONTINUOUS
 10
211.551880
 20
120.965111
 40
4.000000
 41
1.000000
  1
8
  7
KANJI
 50
0.000000
 51
0.000000
  0
DIMENSION
  8
2
 62
134
  6
CONTINUOUS
  2
*D6
 10
218.965154
 20
120.050000
 11
218.965154
 21
131.018729
 70
     0
  1
24.5
 13
197.125603
 23
120.050000
 14
214.759739
 24
144.523092
 50
90.000000
  0
DIMENSION
  8
2
 62
134
  6
CONTINUOUS
  2
*D7
 10
192.208772
 20
151.459765
 11
200.459024
 21
151.459765
 70
     0
  1
18
 13
192.208772
 23
142.650000
 14
210.208772
 24
142.436962
 50
0.000000
  0
DIMENSION
  8
2
 62
134
  6
CONTINUOUS
  2
*D8
 10
223.766623
 20
151.459765
 11
226.766623
 21
151.459765
 70
     0
  1
6
 13
223.766623
 23
144.750000
 14
229.766623
 24
144.750000
 50
0.000000
  0
LINE
  8
1
 62
4
  6
CONTINUOUS
 10
112.936446
 20
136.350853
 11
112.936446
 21
123.649147
  0
LINE
  8
1
 62
7
  6
CONTINUOUS
 10
112.636446
 20
145.000000
 11
112.936446
 21
144.700000
  0
LINE
  8
1
 62
7
  6
CONTINUOUS
 10
112.936446
 20
115.300000
 11
112.936446
 21
144.700000
  0
LINE
  8
1
 62
7
  6
CONTINUOUS
 10
112.936446
 20
115.300000
 11
112.636446
 21
115.000000
  0
LINE
  8
1
 62
4
  6
DASHDOT
 10
91.280321
 20
130.000000
 11
133.375637
 21
130.000000
  0
LINE
  8
1
 62
7
  6
DASHDOT
 10
70.022734
 20
130.000000
 11
115.339152
 21
130.000000
  0
CIRCLE
  8
1
 62
7
  6
DASHDOT
 10
68.436446
 20
120.000000
 40
3.000000
  0
CIRCLE
  8
1
 62
7
  6
DASHDOT
 10
68.436446
 20
140.000000
 40
3.000000
  0
LINE
  8
1
 62
7
  6
CONTINUOUS
 10
73.936446
 20
145.000000
 11
73.936446
 21
115.000000
  0
LINE
  8
1
 62
7
  6
CONTINUOUS
 10
73.936446
 20
145.000000
 11
112.636446
 21
145.000000
  0
LINE
  8
1
 62
7
  6
CONTINUOUS
 10
73.936446
 20
115.000000
 11
112.636446
 21
115.000000
  0
CIRCLE
  8
1
 62
7
  6
CONTINUOUS
 10
68.436446
 20
140.000000
 40
1.750000
  0
CIRCLE
  8
1
 62
7
  6
CONTINUOUS
 10
68.436446
 20
120.000000
 40
1.750000
  0
CIRCLE
  8
1
 62
7
  6
CONTINUOUS
 10
68.436446
 20
140.000000
 40
1.750000
  0
LINE
  8
1
 62
7
  6
CONTINUOUS
 10
64.436446
 20
119.000000
 11
64.436446
 21
141.000000
  0
LINE
  8
1
 62
7
  6
CONTINUOUS
 10
73.936446
 20
115.000000
 11
68.436445
 21
115.000000
  0
ARC
  8
1
 62
7
  6
CONTINUOUS
 10
68.436446
 20
119.000000
 40
4.000000
 50
180.000000
 51
-90.000005
  0
LINE
  8
1
 62
7
  6
CONTINUOUS
 10
73.936446
 20
145.000000
 11
68.436446
 21
145.000000
  0
ARC
  8
1
 62
7
  6
CONTINUOUS
 10
68.436446
 20
141.000000
 40
4.000000
 50
90.000000
 51
180.000000
  0
LINE
  8
1
 62
214
  6
DASHDOT
 10
65.797207
 20
140.000000
 11
71.099483
 21
140.000000
  0
LINE
  8
1
 62
214
  6
DASHDOT
 10
68.436446
 20
137.763825
 11
68.436446
 21
142.720706
  0
LINE
  8
1
 62
214
  6
DASHDOT
 10
65.587170
 20
140.000000
 11
71.099483
 21
140.000000
  0
LINE
  8
1
 62
214
  6
DASHDOT
 10
65.867219
 20
120.000000
 11
71.356195
 21
120.000000
  0
LINE
  8
1
 62
214
  6
DASHDOT
 10
68.436446
 20
117.402292
 11
68.436446
 21
122.197724
  0
LINE
  8
1
 62
7
  6
CONTINUOUS
 10
73.936446
 20
143.401342
 11
73.936446
 21
145.000000
  0
LINE
  8
1
 62
7
  6
CONTINUOUS
 10
73.936446
 20
115.000000
 11
73.936446
 21
117.100000
  0
LINE
  8
1
 62
7
  6
CONTINUOUS
 10
73.936446
 20
117.100000
 11
73.936446
 21
140.500001
  0
LINE
  8
1
 62
7
  6
CONTINUOUS
 10
73.936446
 20
143.401342
 11
73.936446
 21
117.100000
  0
LINE
  8
1
 62
7
  6
CONTINUOUS
 10
73.935689
 20
133.200000
 11
73.935689
 21
133.500000
  0
LINE
  8
1
 62
7
  6
CONTINUOUS
 10
73.935689
 20
126.800000
 11
73.935689
 21
126.500000
  0
LINE
  8
1
 62
7
  6
CONTINUOUS
 10
73.935689
 20
126.800000
 11
73.935689
 21
130.000000
  0
LINE
  8
1
 62
11
  6
CONTINUOUS
 10
64.435621
 20
136.500000
 11
64.435511
 21
138.500000
  0
LINE
  8
1
 62
11
  6
CONTINUOUS
 10
64.435976
 20
130.000032
 11
64.435511
 21
121.500000
  0
DIMENSION
  8
2
 62
134
  6
CONTINUOUS
  2
*D9
 10
64.436446
 20
160.000000
 11
88.686446
 21
160.000000
 70
     0
  1
48.5
 13
64.436446
 23
142.719254
 14
112.936446
 24
146.700000
 50
0.000000
  0
DIMENSION
  8
2
 62
134
  6
CONTINUOUS
  2
*D10
 10
86.306662
 20
140.000000
 11
86.306662
 21
133.500000
 70
     0
  1
20
 13
73.099483
 23
140.000000
 14
73.356195
 24
120.000000
 50
-90.000000
  0
DIMENSION
  8
2
 62
134
  6
CONTINUOUS
  2
*D11
 10
64.436446
 20
150.283266
 11
66.368297
 21
150.283266
 70
     0
  1
4
 13
64.436446
 23
143.000000
 14
68.436446
 24
144.720706
 50
0.000000
  0
LINE
  8
1
 62
7
  6
CONTINUOUS
 10
18.685689
 20
132.600000
 11
19.685689
 21
132.600000
  0
LINE
  8
1
 62
7
  6
CONTINUOUS
 10
20.685689
 20
132.600000
 11
21.685689
 21
132.600000
  0
LINE
  8
1
 62
7
  6
CONTINUOUS
 10
22.685689
 20
132.600000
 11
23.685689
 21
132.600000
  0
LINE
  8
1
 62
7
  6
CONTINUOUS
 10
24.685689
 20
132.600000
 11
25.685689
 21
132.600000
  0
LINE
  8
1
 62
7
  6
CONTINUOUS
 10
26.685689
 20
132.600000
 11
27.685689
 21
132.600000
  0
LINE
  8
1
 62
7
  6
CONTINUOUS
 10
28.685689
 20
132.600000
 11
29.685689
 21
132.600000
  0
LINE
  8
1
 62
7
  6
CONTINUOUS
 10
30.685689
 20
132.600000
 11
31.685689
 21
132.600000
  0
LINE
  8
1
 62
7
  6
CONTINUOUS
 10
32.685689
 20
132.600000
 11
33.685689
 21
132.600000
  0
LINE
  8
1
 62
7
  6
CONTINUOUS
 10
34.685689
 20
132.600000
 11
35.685689
 21
132.600000
  0
LINE
  8
1
 62
7
  6
CONTINUOUS
 10
36.685689
 20
132.100000
 11
36.685689
 21
132.600000
  0
LINE
  8
1
 62
7
  6
CONTINUOUS
 10
17.685689
 20
132.100000
 11
18.769023
 21
132.100000
  0
LINE
  8
1
 62
7
  6
CONTINUOUS
 10
19.769023
 20
132.100000
 11
20.769023
 21
132.100000
  0
LINE
  8
1
 62
7
  6
CONTINUOUS
 10
21.769023
 20
132.100000
 11
22.769023
 21
132.100000
  0
LINE
  8
1
 62
7
  6
CONTINUOUS
 10
23.769023
 20
132.100000
 11
24.769023
 21
132.100000
  0
LINE
  8
1
 62
7
  6
CONTINUOUS
 10
25.769023
 20
132.100000
 11
26.769023
 21
132.100000
  0
LINE
  8
1
 62
7
  6
CONTINUOUS
 10
27.769023
 20
132.100000
 11
28.769023
 21
132.100000
  0
LINE
  8
1
 62
7
  6
CONTINUOUS
 10
29.769023
 20
132.100000
 11
30.769023
 21
132.100000
  0
LINE
  8
1
 62
7
  6
CONTINUOUS
 10
31.769023
 20
132.100000
 11
32.769023
 21
132.100000
  0
LINE
  8
1
 62
7
  6
CONTINUOUS
 10
33.769023
 20
132.100000
 11
34.769023
 21
132.100000
  0
LINE
  8
1
 62
7
  6
CONTINUOUS
 10
35.769023
 20
132.100000
 11
36.685689
 21
132.100000
  0
LINE
  8
1
 62
7
  6
CONTINUOUS
 10
19.685689
 20
127.400000
 11
20.685689
 21
127.400000
  0
LINE
  8
1
 62
7
  6
CONTINUOUS
 10
21.685689
 20
127.400000
 11
22.685689
 21
127.400000
  0
LINE
  8
1
 62
7
  6
CONTINUOUS
 10
23.685689
 20
127.400000
 11
24.685689
 21
127.400000
  0
LINE
  8
1
 62
7
  6
CONTINUOUS
 10
25.685689
 20
127.400000
 11
26.685689
 21
127.400000
  0
LINE
  8
1
 62
7
  6
CONTINUOUS
 10
27.685689
 20
127.400000
 11
28.685689
 21
127.400000
  0
LINE
  8
1
 62
7
  6
CONTINUOUS
 10
29.685689
 20
127.400000
 11
30.685689
 21
127.400000
  0
LINE
  8
1
 62
7
  6
CONTINUOUS
 10
31.685689
 20
127.400000
 11
32.685689
 21
127.400000
  0
LINE
  8
1
 62
7
  6
CONTINUOUS
 10
33.685689
 20
127.400000
 11
34.685689
 21
127.400000
  0
LINE
  8
1
 62
7
  6
CONTINUOUS
 10
35.685689
 20
127.400000
 11
36.685689
 21
127.400000
  0
LINE
  8
1
 62
7
  6
CONTINUOUS
 10
34.602356
 20
127.900000
 11
35.602356
 21
127.900000
  0
LINE
  8
1
 62
7
  6
CONTINUOUS
 10
32.602356
 20
127.900000
 11
33.602356
 21
127.900000
  0
LINE
  8
1
 62
7
  6
CONTINUOUS
 10
30.701929
 20
127.900000
 11
31.602356
 21
127.900000
  0
LINE
  8
1
 62
7
  6
CONTINUOUS
 10
28.602356
 20
127.900000
 11
29.602356
 21
127.900000
  0
LINE
  8
1
 62
7
  6
CONTINUOUS
 10
26.602356
 20
127.900000
 11
27.602356
 21
127.900000
  0
LINE
  8
1
 62
7
  6
CONTINUOUS
 10
24.602356
 20
127.900000
 11
25.602356
 21
127.900000
  0
LINE
  8
1
 62
7
  6
CONTINUOUS
 10
22.602356
 20
127.900000
 11
23.602356
 21
127.900000
  0
LINE
  8
1
 62
7
  6
CONTINUOUS
 10
20.602356
 20
127.900000
 11
21.602356
 21
127.900000
  0
LINE
  8
1
 62
7
  6
CONTINUOUS
 10
18.701929
 20
127.900000
 11
19.602356
 21
127.900000
  0
LINE
  8
1
 62
7
  6
CONTINUOUS
 10
17.685689
 20
127.900000
 11
17.772308
 21
127.400000
  0
LINE
  8
1
 62
7
  6
CONTINUOUS
 10
17.772308
 20
127.400000
 11
18.785689
 21
127.400000
  0
LINE
  8
1
 62
7
  6
CONTINUOUS
 10
18.676954
 20
127.900000
 11
18.685689
 21
127.900000
  0
LINE
  8
1
 62
7
  6
CONTINUOUS
 10
18.685689
 20
132.600000
 11
19.685689
 21
127.400000
  0
LINE
  8
1
 62
7
  6
CONTINUOUS
 10
19.685689
 20
132.600000
 11
20.685689
 21
127.400000
  0
LINE
  8
1
 62
7
  6
CONTINUOUS
 10
20.685689
 20
132.600000
 11
21.685689
 21
127.400000
  0
LINE
  8
1
 62
7
  6
CONTINUOUS
 10
21.685689
 20
132.600000
 11
22.685689
 21
127.400000
  0
LINE
  8
1
 62
7
  6
CONTINUOUS
 10
22.685689
 20
132.600000
 11
23.685689
 21
127.400000
  0
LINE
  8
1
 62
7
  6
CONTINUOUS
 10
23.685689
 20
132.600000
 11
24.685689
 21
127.400000
  0
LINE
  8
1
 62
7
  6
CONTINUOUS
 10
24.685689
 20
132.600000
 11
25.685689
 21
127.400000
  0
LINE
  8
1
 62
7
  6
CONTINUOUS
 10
25.685689
 20
132.600000
 11
26.685689
 21
127.400000
  0
LINE
  8
1
 62
7
  6
CONTINUOUS
 10
26.685689
 20
132.600000
 11
27.685689
 21
127.400000
  0
LINE
  8
1
 62
7
  6
CONTINUOUS
 10
27.685689
 20
132.600000
 11
28.685689
 21
127.400000
  0
LINE
  8
1
 62
7
  6
CONTINUOUS
 10
28.685689
 20
132.600000
 11
29.685689
 21
127.400000
  0
LINE
  8
1
 62
7
  6
CONTINUOUS
 10
29.685689
 20
132.600000
 11
30.685689
 21
127.400000
  0
LINE
  8
1
 62
7
  6
CONTINUOUS
 10
30.685689
 20
132.600000
 11
31.685689
 21
127.400000
  0
LINE
  8
1
 62
7
  6
CONTINUOUS
 10
31.685689
 20
132.600000
 11
32.685689
 21
127.400000
  0
LINE
  8
1
 62
7
  6
CONTINUOUS
 10
32.685689
 20
132.600000
 11
33.685689
 21
127.400000
  0
LINE
  8
1
 62
7
  6
CONTINUOUS
 10
33.685689
 20
132.600000
 11
34.685689
 21
127.400000
  0
LINE
  8
1
 62
7
  6
CONTINUOUS
 10
34.685689
 20
132.600000
 11
35.685689
 21
127.400000
  0
LINE
  8
1
 62
7
  6
CONTINUOUS
 10
35.685689
 20
132.600000
 11
36.685689
 21
127.400000
  0
LINE
  8
1
 62
7
  6
CONTINUOUS
 10
36.685689
 20
132.100000
 11
36.685689
 21
127.400000
  0
LINE
  8
1
 62
7
  6
CONTINUOUS
 10
17.685689
 20
132.100000
 11
18.786477
 21
127.396063
  0
LINE
  8
1
 62
7
  6
CONTINUOUS
 10
17.685689
 20
127.400000
 11
17.685689
 21
132.600000
  0
LINE
  8
1
 62
7
  6
DASHDOT
 10
-8.774987
 20
130.000000
 11
33.767667
 21
130.000000
  0
DIMENSION
  8
2
 62
134
  6
CONTINUOUS
  2
*D12
 10
55.007922
 20
122.000000
 11
55.007922
 21
143.278244
 70
     0
  1
φ16
 13
55.007922
 23
122.000000
 14
55.007922
 24
138.000000
 50
90.000000
  0
DIMENSION
  8
2
 62
134
  6
CONTINUOUS
  2
*D13
 10
39.685689
 20
125.499938
 11
39.685689
 21
141.289890
 70
     0
  1
φ9
 13
39.685689
 23
125.499938
 14
39.685689
 24
134.500000
 50
90.000000
  0
DIMENSION
  8
2
 62
134
  6
CONTINUOUS
  2
*D14
 10
51.931428
 20
109.546737
 11
58.189084
 21
109.546737
 70
     0
  1
12.5
 13
51.931428
 23
122.000000
 14
64.433559
 24
122.082500
 50
0.000000
  0
DIMENSION
  8
2
 62
134
  6
CONTINUOUS
  2
*D15
 10
15.435823
 20
115.000000
 11
15.435823
 21
122.027551
 70
     0
  1
15
 13
66.436446
 23
115.000000
 14
61.935484
 24
130.000000
 50
90.000000
  0
TEXT
  8
3
 62
134
  6
CONTINUOUS
 10
26.934150
 20
149.570215
 40
4.000000
 41
1.000000
  1
温度変換器側
  7
KANJI
 50
0.000000
 51
0.000000
  0
LINE
  8
3
 62
134
  6
CONTINUOUS
 10
59.824124
 20
138.000000
 11
52.255193
 21
154.080313
  0
LINE
  8
3
 62
134
  6
CONTINUOUS
 10
52.255193
 20
154.080313
 11
31.745621
 21
154.080313
  0
TEXT
  8
3
 62
134
  6
CONTINUOUS
 10
31.745621
 20
153.928000
 40
4.000000
 41
1.000000
  1
ﾌｧｲﾊﾞﾌﾟﾗｸﾞ
  7
KANJI
 50
0.000000
 51
30.000000
  0
LINE
  8
3
 62
134
  6
CONTINUOUS
 10
59.824124
 20
138.000000
 11
58.533045
 21
139.527453
  0
LINE
  8
3
 62
134
  6
CONTINUOUS
 10
59.824124
 20
138.000000
 11
59.469743
 21
139.968353
  0
LINE
  8
3
 62
134
  6
CONTINUOUS
 10
58.533045
 20
139.527453
 11
59.469743
 21
139.968353
  0
LINE
  8
3
 62
134
  6
CONTINUOUS
 10
59.618442
 20
138.436976
 11
58.972902
 21
139.200702
  0
LINE
  8
3
 62
134
  6
CONTINUOUS
 10
59.618442
 20
138.436976
 11
59.441251
 21
139.421152
  0
LINE
  8
3
 62
134
  6
CONTINUOUS
 10
58.972902
 20
139.200702
 11
59.441251
 21
139.421152
  0
TEXT
  8
3
 62
134
  6
CONTINUOUS
 10
89.669565
 20
96.000000
 40
4.000000
 41
1.000000
  1
2-φ3.5ザグリφ6深さ3
  7
KANJI
 50
0.000000
 51
30.000000
  0
DIMENSION
  8
3
 62
134
  6
CONTINUOUS
  2
*D16
 10
64.436446
 20
160.000000
 11
49.981087
 21
160.000000
 70
     0
  1
測定距離
 13
64.436446
 23
160.000000
 14
35.364122
 24
160.000000
 50
180.000000
  0
LINE
  8
3
 62
134
  6
CONTINUOUS
 10
194.842550
 20
120.050000
 11
199.110223
 21
110.154039
  0
LINE
  8
3
 62
134
  6
CONTINUOUS
 10
199.110223
 20
110.154039
 11
219.448428
 21
110.154039
  0
TEXT
  8
3
 62
134
  6
CONTINUOUS
 10
199.448428
 20
110.154039
 40
4.000000
 41
1.000000
  1
　出力ｺﾈｸﾀ
  7
KANJI
 50
0.000000
 51
30.000000
  0
LINE
  8
3
 62
134
  6
CONTINUOUS
 10
194.842550
 20
120.050000
 11
196.082884
 21
118.481060
  0
LINE
  8
3
 62
134
  6
CONTINUOUS
 10
194.842550
 20
120.050000
 11
195.132240
 21
118.071091
  0
LINE
  8
3
 62
134
  6
CONTINUOUS
 10
196.082884
 20
118.481060
 11
195.132240
 21
118.071091
  0
LINE
  8
3
 62
134
  6
CONTINUOUS
 10
195.033803
 20
119.606519
 11
195.653970
 21
118.822049
  0
LINE
  8
3
 62
134
  6
CONTINUOUS
 10
195.033803
 20
119.606519
 11
195.178648
 21
118.617065
  0
LINE
  8
3
 62
134
  6
CONTINUOUS
 10
195.653970
 20
118.822049
 11
195.178648
 21
118.617065
  0
TEXT
  8
3
 62
7
  6
CONTINUOUS
 10
189.526123
 20
103.824258
 40
3.999900
 41
1.000000
  1
e-CON コネクタ　8ピン
  7
KANJI
 50
0.000000
 51
0.000000
  0
TEXT
  8
3
 62
7
  6
CONTINUOUS
 10
189.848487
 20
98.980073
 40
3.999900
 41
1.000000
  1
XN2A-1870（オムロン）
  7
KANJI
 50
0.000000
 51
0.000000
  0
LINE
  8
1
 62
7
  6
CONTINUOUS
 10
63.433559
 20
122.090689
 11
52.931428
 21
122.090689
  0
LINE
  8
1
 62
7
  6
CONTINUOUS
 10
63.433559
 20
122.391549
 11
52.931428
 21
122.391549
  0
LINE
  8
1
 62
7
  6
CONTINUOUS
 10
63.433559
 20
122.809648
 11
52.931428
 21
122.809648
  0
LINE
  8
1
 62
7
  6
CONTINUOUS
 10
63.433559
 20
128.886613
 11
52.931428
 21
128.886613
  0
LINE
  8
1
 62
7
  6
CONTINUOUS
 10
63.433559
 20
127.794898
 11
52.931428
 21
127.794898
  0
LINE
  8
1
 62
7
  6
CONTINUOUS
 10
63.433559
 20
126.746103
 11
52.931428
 21
126.746103
  0
LINE
  8
1
 62
7
  6
CONTINUOUS
 10
63.433559
 20
125.760642
 11
52.931428
 21
125.760642
  0
LINE
  8
1
 62
7
  6
CONTINUOUS
 10
63.433559
 20
124.857696
 11
52.931428
 21
124.857696
  0
LINE
  8
1
 62
7
  6
CONTINUOUS
 10
63.433559
 20
124.054839
 11
52.931428
 21
124.054839
  0
LINE
  8
1
 62
7
  6
CONTINUOUS
 10
63.433559
 20
123.367699
 11
52.931428
 21
123.367699
  0
LINE
  8
1
 62
214
  6
CONTINUOUS
 10
52.931428
 20
122.000000
 11
52.931428
 21
130.000000
  0
LINE
  8
1
 62
214
  6
CONTINUOUS
 10
51.931428
 20
123.000000
 11
52.931428
 21
122.000000
  0
LINE
  8
1
 62
214
  6
CONTINUOUS
 10
63.433559
 20
122.000000
 11
52.931428
 21
122.000000
  0
LINE
  8
1
 62
214
  6
CONTINUOUS
 10
51.931428
 20
133.100000
 11
51.931428
 21
123.000000
  0
LINE
  8
1
 62
214
  6
CONTINUOUS
 10
52.931428
 20
138.000000
 11
51.931428
 21
137.000000
  0
LINE
  8
1
 62
214
  6
CONTINUOUS
 10
51.931428
 20
133.100000
 11
51.931428
 21
137.000000
  0
LINE
  8
1
 62
214
  6
CONTINUOUS
 10
63.433559
 20
138.000000
 11
52.931428
 21
138.000000
  0
LINE
  8
1
 62
214
  6
CONTINUOUS
 10
64.433559
 20
123.082500
 11
63.433559
 21
123.082500
  0
LINE
  8
1
 62
214
  6
CONTINUOUS
 10
63.433559
 20
138.000000
 11
63.433559
 21
136.917500
  0
LINE
  8
1
 62
214
  6
CONTINUOUS
 10
64.433559
 20
136.917500
 11
63.433559
 21
136.917500
  0
LINE
  8
1
 62
7
  6
DASHDOT
 10
70.594696
 20
130.000000
 11
50.297372
 21
130.000000
  0
LINE
  8
1
 62
214
  6
CONTINUOUS
 10
52.931428
 20
130.000000
 11
52.931428
 21
138.000000
  0
LINE
  8
1
 62
7
  6
CONTINUOUS
 10
63.433559
 20
137.608451
 11
52.931428
 21
137.608451
  0
LINE
  8
1
 62
7
  6
CONTINUOUS
 10
63.433559
 20
137.190352
 11
52.931428
 21
137.190352
  0
LINE
  8
1
 62
7
  6
CONTINUOUS
 10
63.433559
 20
131.113387
 11
52.931428
 21
131.113387
  0
LINE
  8
1
 62
7
  6
CONTINUOUS
 10
63.433559
 20
132.205102
 11
52.931428
 21
132.205102
  0
LINE
  8
1
 62
7
  6
CONTINUOUS
 10
63.433559
 20
133.253897
 11
52.931428
 21
133.253897
  0
LINE
  8
1
 62
7
  6
CONTINUOUS
 10
63.433559
 20
134.239358
 11
52.931428
 21
134.239358
  0
LINE
  8
1
 62
7
  6
CONTINUOUS
 10
63.433559
 20
135.142304
 11
52.931428
 21
135.142304
  0
LINE
  8
1
 62
7
  6
CONTINUOUS
 10
63.433559
 20
135.945161
 11
52.931428
 21
135.945161
  0
LINE
  8
1
 62
7
  6
CONTINUOUS
 10
63.433559
 20
136.632301
 11
52.931428
 21
136.632301
  0
LINE
  8
1
 62
214
  6
CONTINUOUS
 10
63.433559
 20
122.000000
 11
63.433559
 21
136.917500
  0
LINE
  8
1
 62
214
  6
CONTINUOUS
 10
64.433559
 20
136.917500
 11
64.433559
 21
123.082500
  0
LINE
  8
3
 62
214
  6
CONTINUOUS
 10
24.685689
 20
127.400000
 11
36.005986
 21
100.000000
  0
LINE
  8
3
 62
214
  6
CONTINUOUS
 10
36.005986
 20
100.000000
 11
50.938423
 21
100.000000
  0
TEXT
  8
3
 62
214
  6
CONTINUOUS
 10
40.938423
 20
100.000000
 40
4.000000
 41
1.000000
  1
ﾌｧｲﾊﾞ
  7
KANJI
 50
0.000000
 51
0.000000
  0
LINE
  8
3
 62
214
  6
CONTINUOUS
 10
24.685689
 20
127.400000
 11
25.901770
 21
125.812188
  0
LINE
  8
3
 62
214
  6
CONTINUOUS
 10
24.685689
 20
127.400000
 11
24.944940
 21
125.416874
  0
LINE
  8
3
 62
214
  6
CONTINUOUS
 10
25.901770
 20
125.812188
 11
24.944940
 21
125.416874
  0
LINE
  8
3
 62
214
  6
CONTINUOUS
 10
24.870106
 20
126.953633
 11
25.478146
 21
126.159727
  0
LINE
  8
3
 62
214
  6
CONTINUOUS
 10
24.870106
 20
126.953633
 11
24.999731
 21
125.962070
  0
LINE
  8
3
 62
214
  6
CONTINUOUS
 10
25.478146
 20
126.159727
 11
24.999731
 21
125.962070
  0
LINE
  8
3
 62
14
  6
CONTINUOUS
 10
78.324758
 20
145.000000
 11
82.124213
 21
154.080313
  0
LINE
  8
3
 62
14
  6
CONTINUOUS
 10
82.124213
 20
154.080313
 11
107.638655
 21
154.080313
  0
TEXT
  8
3
 62
14
  6
CONTINUOUS
 10
87.638655
 20
154.080313
 40
4.000000
 41
1.000000
  1
温度変換器
  7
KANJI
 50
0.000000
 51
0.000000
  0
LINE
  8
3
 62
14
  6
CONTINUOUS
 10
78.324758
 20
145.000000
 11
78.592930
 21
146.981939
  0
LINE
  8
3
 62
14
  6
CONTINUOUS
 10
78.324758
 20
145.000000
 11
79.547971
 21
146.582323
  0
LINE
  8
3
 62
14
  6
CONTINUOUS
 10
78.592930
 20
146.981939
 11
79.547971
 21
146.582323
  0
LINE
  8
3
 62
14
  6
CONTINUOUS
 10
78.511181
 20
145.445533
 11
78.645267
 21
146.436503
  0
LINE
  8
3
 62
14
  6
CONTINUOUS
 10
78.511181
 20
145.445533
 11
79.122788
 21
146.236695
  0
LINE
  8
3
 62
14
  6
CONTINUOUS
 10
78.645267
 20
146.436503
 11
79.122788
 21
146.236695
  0
LINE
  8
3
 62
134
  6
CONTINUOUS
 10
70.597734
 20
117.919415
 11
87.669565
 21
100.000000
  0
LINE
  8
3
 62
134
  6
CONTINUOUS
 10
87.669565
 20
100.000000
 11
124.482933
 21
100.000000
  0
TEXT
  8
3
 62
134
  6
CONTINUOUS
 10
92.482933
 20
100.000000
 40
4.000000
 41
1.000000
  1
温度変換器取付穴
  7
KANJI
 50
0.000000
 51
30.000000
  0
LINE
  8
3
 62
134
  6
CONTINUOUS
 10
70.597734
 20
117.919415
 11
72.305061
 21
116.877765
  0
LINE
  8
3
 62
134
  6
CONTINUOUS
 10
70.597734
 20
117.919415
 11
71.555498
 21
116.163656
  0
LINE
  8
3
 62
134
  6
CONTINUOUS
 10
72.305061
 20
116.877765
 11
71.555498
 21
116.163656
  0
LINE
  8
3
 62
134
  6
CONTINUOUS
 10
70.930870
 20
117.569739
 11
71.784534
 21
117.048914
  0
LINE
  8
3
 62
134
  6
CONTINUOUS
 10
70.930870
 20
117.569739
 11
71.409752
 21
116.691859
  0
LINE
  8
3
 62
134
  6
CONTINUOUS
 10
71.784534
 20
117.048914
 11
71.409752
 21
116.691859
  0
LINE
  8
1
 62
7
  6
CONTINUOUS
 10
180.742601
 20
126.500000
 11
165.156931
 21
126.499968
  0
LINE
  8
1
 62
7
  6
CONTINUOUS
 10
167.590265
 20
133.499968
 11
180.742601
 21
133.500000
  0
LINE
  8
1
 62
7
  6
DASHDOT
 10
166.373598
 20
129.999968
 11
214.055187
 21
130.000000
  0
LINE
  8
1
 62
7
  6
CONTINUOUS
 10
168.401521
 20
136.083737
 11
164.449704
 21
124.228287
  0
LINE
  8
1
 62
7
  6
CONTINUOUS
 10
166.284476
 20
136.083737
 11
162.332659
 21
124.228287
  0
LINE
  8
1
 62
7
  6
DASHDOT
 10
66.972494
 20
130.000000
 11
164.256553
 21
129.999968
  0
ARC
  8
1
 62
2
  6
CONTINUOUS
 10
113.136446
 20
137.450000
 40
0.200000
 50
90.000000
 51
180.000000
  0
ARC
  8
1
 62
2
  6
CONTINUOUS
 10
114.336446
 20
137.450000
 40
0.200000
 50
-89.230975
 51
-89.187365
  0
ARC
  8
1
 62
2
  6
CONTINUOUS
 10
114.336446
 20
137.450000
 40
0.200000
 50
-89.143735
 51
-88.819498
  0
ARC
  8
1
 62
2
  6
CONTINUOUS
 10
114.336446
 20
137.450000
 40
0.200000
 50
-88.640266
 51
-84.763088
  0
LINE
  8
1
 62
2
  6
CONTINUOUS
 10
114.717852
 20
129.172276
 11
114.736446
 21
129.172276
  0
LINE
  8
1
 62
2
  6
CONTINUOUS
 10
114.534646
 20
127.613071
 11
114.536749
 21
127.613071
  0
LINE
  8
1
 62
2
  6
CONTINUOUS
 10
114.534646
 20
127.528860
 11
114.536565
 21
127.528860
  0
LINE
  8
1
 62
2
  6
CONTINUOUS
 10
114.336446
 20
137.650000
 11
113.136446
 21
137.650000
  0
LINE
  8
1
 62
2
  6
CONTINUOUS
 10
114.336446
 20
122.350000
 11
113.136446
 21
122.350000
  0
LINE
  8
1
 62
2
  6
CONTINUOUS
 10
114.534646
 20
127.607276
 11
114.536736
 21
127.607276
  0
LINE
  8
1
 62
2
  6
CONTINUOUS
 10
114.717801
 20
129.170000
 11
114.736446
 21
129.170000
  0
ARC
  8
1
 62
2
  6
CONTINUOUS
 10
114.736446
 20
123.400000
 40
0.200000
 50
90.000000
 51
180.000000
  0
ARC
  8
1
 62
2
  6
CONTINUOUS
 10
114.736446
 20
136.600000
 40
0.200000
 50
180.000000
 51
-90.000000
  0
ARC
  8
1
 62
2
  6
CONTINUOUS
 10
114.336446
 20
122.550000
 40
0.200000
 50
83.421437
 51
84.763088
  0
ARC
  8
1
 62
2
  6
CONTINUOUS
 10
114.336446
 20
122.550000
 40
0.200000
 50
-90.000000
 51
0.000000
  0
ARC
  8
1
 62
2
  6
CONTINUOUS
 10
114.336446
 20
137.450000
 40
0.200000
 50
7.692308
 51
90.000000
  0
LINE
  8
1
 62
2
  6
CONTINUOUS
 10
112.936446
 20
122.550000
 11
112.936446
 21
122.803853
  0
ARC
  8
1
 62
2
  6
CONTINUOUS
 10
113.136446
 20
122.550000
 40
0.200000
 50
180.000000
 51
-90.000000
  0
LINE
  8
1
 62
2
  6
CONTINUOUS
 10
114.336446
 20
122.350000
 11
113.136446
 21
122.350000
  0
LINE
  8
1
 62
2
  6
CONTINUOUS
 10
114.336446
 20
137.650000
 11
113.136446
 21
137.650000
  0
LINE
  8
1
 62
2
  6
CONTINUOUS
 10
112.936446
 20
125.397063
 11
112.936446
 21
125.464727
  0
LINE
  8
1
 62
2
  6
CONTINUOUS
 10
114.536446
 20
137.450000
 11
114.536446
 21
122.550000
  0
LINE
  8
1
 62
2
  6
CONTINUOUS
 10
114.536446
 20
124.284232
 11
114.536446
 21
124.732054
  0
LINE
  8
1
 62
2
  6
CONTINUOUS
 10
112.936446
 20
122.550000
 11
112.936446
 21
137.450000
  0
LINE
  8
1
 62
2
  6
CONTINUOUS
 10
112.936446
 20
122.803853
 11
112.936446
 21
122.550000
  0
LINE
  8
1
 62
2
  6
CONTINUOUS
 10
114.736446
 20
136.400000
 11
114.736446
 21
123.600000
  0
LINE
  8
1
 62
2
  6
CONTINUOUS
 10
113.136446
 20
137.650000
 11
113.136446
 21
122.350000
  0
LINE
  8
1
 62
2
  6
CONTINUOUS
 10
114.336446
 20
137.650000
 11
114.336446
 21
122.350000
  0
ARC
  8
1
 62
2
  6
CONTINUOUS
 10
114.336446
 20
137.450000
 40
0.200000
 50
-9.731036
 51
90.000000
  0
LINE
  8
1
 62
2
  6
CONTINUOUS
 10
115.516446
 20
136.400000
 11
114.736446
 21
136.400000
  0
LINE
  8
1
 62
2
  6
CONTINUOUS
 10
115.516446
 20
123.600000
 11
114.736446
 21
123.600000
  0
LINE
  8
1
 62
2
  6
CONTINUOUS
 10
115.516446
 20
123.600000
 11
114.736446
 21
123.600000
  0
LINE
  8
1
 62
2
  6
CONTINUOUS
 10
115.516446
 20
136.400000
 11
114.736446
 21
136.400000
  0
LINE
  8
1
 62
2
  6
CONTINUOUS
 10
123.766446
 20
136.900000
 11
123.266446
 21
136.400000
  0
LINE
  8
1
 62
2
  6
CONTINUOUS
 10
123.766446
 20
123.100000
 11
123.266446
 21
123.600000
  0
LINE
  8
1
 62
2
  6
CONTINUOUS
 10
114.936446
 20
125.225000
 11
115.516446
 21
125.225000
  0
LINE
  8
1
 62
2
  6
CONTINUOUS
 10
127.266446
 20
136.900000
 11
123.766446
 21
136.900000
  0
LINE
  8
1
 62
2
  6
CONTINUOUS
 10
114.936446
 20
125.225000
 11
114.736446
 21
125.425000
  0
LINE
  8
1
 62
2
  6
CONTINUOUS
 10
142.766446
 20
136.250000
 11
145.036446
 21
136.250000
  0
LINE
  8
1
 62
2
  6
CONTINUOUS
 10
142.766446
 20
123.750000
 11
145.036446
 21
123.750000
  0
LINE
  8
1
 62
2
  6
CONTINUOUS
 10
127.266446
 20
123.100000
 11
123.766446
 21
123.100000
  0
LINE
  8
1
 62
2
  6
CONTINUOUS
 10
127.266446
 20
136.900000
 11
142.766446
 21
136.250000
  0
LINE
  8
1
 62
2
  6
CONTINUOUS
 10
127.266446
 20
123.100000
 11
142.766446
 21
123.750000
  0
LINE
  8
1
 62
2
  6
CONTINUOUS
 10
155.836446
 20
122.800000
 11
156.536446
 21
123.500000
  0
LINE
  8
1
 62
2
  6
CONTINUOUS
 10
155.836446
 20
137.200000
 11
156.536446
 21
136.500000
  0
LINE
  8
1
 62
2
  6
CONTINUOUS
 10
114.936446
 20
125.225000
 11
115.516446
 21
125.225000
  0
LINE
  8
1
 62
2
  6
CONTINUOUS
 10
122.966446
 20
137.400000
 11
123.266446
 21
137.100000
  0
LINE
  8
1
 62
2
  6
CONTINUOUS
 10
114.936446
 20
125.225000
 11
114.736446
 21
125.425000
  0
LINE
  8
1
 62
2
  6
CONTINUOUS
 10
115.816446
 20
137.400000
 11
115.516446
 21
137.100000
  0
LINE
  8
1
 62
2
  6
CONTINUOUS
 10
122.966446
 20
137.400000
 11
119.116446
 21
137.400000
  0
LINE
  8
1
 62
2
  6
CONTINUOUS
 10
118.116446
 20
137.400000
 11
115.816446
 21
137.400000
  0
LINE
  8
1
 62
2
  6
CONTINUOUS
 10
115.532829
 20
122.900000
 11
115.516446
 21
122.900000
  0
LINE
  8
1
 62
2
  6
CONTINUOUS
 10
123.266446
 20
122.900000
 11
123.250181
 21
122.900000
  0
LINE
  8
1
 62
2
  6
CONTINUOUS
 10
127.266446
 20
123.100000
 11
123.766446
 21
123.100000
  0
LINE
  8
1
 62
2
  6
CONTINUOUS
 10
123.766446
 20
123.100000
 11
123.266446
 21
123.600000
  0
LINE
  8
1
 62
2
  6
CONTINUOUS
 10
123.766446
 20
136.900000
 11
123.266446
 21
136.400000
  0
LINE
  8
1
 62
2
  6
CONTINUOUS
 10
127.266446
 20
136.900000
 11
123.766446
 21
136.900000
  0
LINE
  8
1
 62
2
  6
CONTINUOUS
 10
127.266446
 20
123.100000
 11
142.766446
 21
123.750000
  0
LINE
  8
1
 62
2
  6
CONTINUOUS
 10
127.266446
 20
136.900000
 11
142.766446
 21
136.250000
  0
LINE
  8
1
 62
2
  6
CONTINUOUS
 10
142.766446
 20
123.750000
 11
145.036446
 21
123.750000
  0
LINE
  8
1
 62
2
  6
CONTINUOUS
 10
142.766446
 20
136.250000
 11
145.036446
 21
136.250000
  0
LINE
  8
1
 62
2
  6
CONTINUOUS
 10
155.836446
 20
137.200000
 11
156.536446
 21
136.500000
  0
LINE
  8
1
 62
2
  6
CONTINUOUS
 10
155.836446
 20
122.800000
 11
156.536446
 21
123.500000
  0
LINE
  8
1
 62
2
  6
CONTINUOUS
 10
156.536446
 20
136.500000
 11
156.536446
 21
123.500000
  0
LINE
  8
1
 62
2
  6
CONTINUOUS
 10
155.536446
 20
136.925377
 11
145.336446
 21
136.925377
  0
LINE
  8
1
 62
2
  6
CONTINUOUS
 10
155.536446
 20
135.956052
 11
155.627872
 21
135.970684
  0
LINE
  8
1
 62
2
  6
CONTINUOUS
 10
155.627872
 20
135.970684
 11
155.666696
 21
135.982846
  0
LINE
  8
1
 62
2
  6
CONTINUOUS
 10
155.666696
 20
135.982846
 11
155.724530
 21
136.011374
  0
LINE
  8
1
 62
2
  6
CONTINUOUS
 10
155.724530
 20
136.011374
 11
155.737690
 21
136.020363
  0
LINE
  8
1
 62
2
  6
CONTINUOUS
 10
155.737690
 20
136.020363
 11
155.807813
 21
136.102308
  0
LINE
  8
1
 62
2
  6
CONTINUOUS
 10
155.807813
 20
136.102308
 11
155.812511
 21
136.112162
  0
LINE
  8
1
 62
2
  6
CONTINUOUS
 10
155.812511
 20
136.112162
 11
155.833673
 21
136.189775
  0
LINE
  8
1
 62
2
  6
CONTINUOUS
 10
155.833673
 20
136.189775
 11
155.835927
 21
136.215196
  0
LINE
  8
1
 62
2
  6
CONTINUOUS
 10
155.835927
 20
136.215196
 11
155.836446
 21
136.235404
  0
LINE
  8
1
 62
2
  6
CONTINUOUS
 10
155.836446
 20
136.235404
 11
155.821104
 21
136.357255
  0
LINE
  8
1
 62
2
  6
CONTINUOUS
 10
155.821104
 20
136.357255
 11
155.812509
 21
136.390758
  0
LINE
  8
1
 62
2
  6
CONTINUOUS
 10
155.812509
 20
136.390758
 11
155.774429
 21
136.500860
  0
LINE
  8
1
 62
2
  6
CONTINUOUS
 10
155.774429
 20
136.500860
 11
155.763847
 21
136.526203
  0
LINE
  8
1
 62
2
  6
CONTINUOUS
 10
155.763847
 20
136.526203
 11
155.724531
 21
136.610630
  0
LINE
  8
1
 62
2
  6
CONTINUOUS
 10
155.724531
 20
136.610630
 11
155.666696
 21
136.718227
  0
LINE
  8
1
 62
2
  6
CONTINUOUS
 10
155.666696
 20
136.718227
 11
155.666007
 21
136.719430
  0
LINE
  8
1
 62
2
  6
CONTINUOUS
 10
155.666007
 20
136.719430
 11
155.536446
 21
136.925377
  0
LINE
  8
1
 62
2
  6
CONTINUOUS
 10
155.536446
 20
135.956052
 11
145.336446
 21
135.956052
  0
LINE
  8
1
 62
2
  6
CONTINUOUS
 10
145.036446
 20
136.235383
 11
145.036967
 21
136.215156
  0
LINE
  8
1
 62
2
  6
CONTINUOUS
 10
145.036967
 20
136.215156
 11
145.065089
 21
136.102287
  0
LINE
  8
1
 62
2
  6
CONTINUOUS
 10
145.065089
 20
136.102287
 11
145.080893
 21
136.075684
  0
LINE
  8
1
 62
2
  6
CONTINUOUS
 10
145.080893
 20
136.075684
 11
145.135188
 21
136.020372
  0
LINE
  8
1
 62
2
  6
CONTINUOUS
 10
145.135188
 20
136.020372
 11
145.169466
 21
135.999156
  0
LINE
  8
1
 62
2
  6
CONTINUOUS
 10
145.169466
 20
135.999156
 11
145.224451
 21
135.976571
  0
LINE
  8
1
 62
2
  6
CONTINUOUS
 10
145.224451
 20
135.976571
 11
145.245022
 21
135.970683
  0
LINE
  8
1
 62
2
  6
CONTINUOUS
 10
145.245022
 20
135.970683
 11
145.336446
 21
135.956052
  0
LINE
  8
1
 62
2
  6
CONTINUOUS
 10
145.336446
 20
136.925377
 11
145.280211
 21
136.840113
  0
LINE
  8
1
 62
2
  6
CONTINUOUS
 10
145.280211
 20
136.840113
 11
145.224450
 21
136.749589
  0
LINE
  8
1
 62
2
  6
CONTINUOUS
 10
145.224450
 20
136.749589
 11
145.224076
 21
136.748956
  0
LINE
  8
1
 62
2
  6
CONTINUOUS
 10
145.224076
 20
136.748956
 11
145.206894
 21
136.719446
  0
LINE
  8
1
 62
2
  6
CONTINUOUS
 10
145.206894
 20
136.719446
 11
145.169465
 21
136.651628
  0
LINE
  8
1
 62
2
  6
CONTINUOUS
 10
145.169465
 20
136.651628
 11
145.115965
 21
136.542054
  0
LINE
  8
1
 62
2
  6
CONTINUOUS
 10
145.115965
 20
136.542054
 11
145.109056
 21
136.526231
  0
LINE
  8
1
 62
2
  6
CONTINUOUS
 10
145.109056
 20
136.526231
 11
145.051794
 21
136.357284
  0
LINE
  8
1
 62
2
  6
CONTINUOUS
 10
145.051794
 20
136.357284
 11
145.036446
 21
136.235383
  0
LINE
  8
1
 62
2
  6
CONTINUOUS
 10
155.536446
 20
134.558009
 11
145.336446
 21
134.558009
  0
LINE
  8
1
 62
2
  6
CONTINUOUS
 10
155.536446
 20
132.879088
 11
155.581398
 21
132.924128
  0
LINE
  8
1
 62
2
  6
CONTINUOUS
 10
155.581398
 20
132.924128
 11
155.603464
 21
132.948564
  0
LINE
  8
1
 62
2
  6
CONTINUOUS
 10
155.603464
 20
132.948564
 11
155.666696
 21
133.029624
  0
LINE
  8
1
 62
2
  6
CONTINUOUS
 10
155.666696
 20
133.029624
 11
155.704166
 21
133.088165
  0
LINE
  8
1
 62
2
  6
CONTINUOUS
 10
155.704166
 20
133.088165
 11
155.724530
 21
133.124688
  0
LINE
  8
1
 62
2
  6
CONTINUOUS
 10
155.724530
 20
133.124688
 11
155.774431
 21
133.236624
  0
LINE
  8
1
 62
2
  6
CONTINUOUS
 10
155.774431
 20
133.236624
 11
155.788286
 21
133.276957
  0
LINE
  8
1
 62
2
  6
CONTINUOUS
 10
155.788286
 20
133.276957
 11
155.831065
 21
133.487572
  0
LINE
  8
1
 62
2
  6
CONTINUOUS
 10
155.831065
 20
133.487572
 11
155.836446
 21
133.600004
  0
LINE
  8
1
 62
2
  6
CONTINUOUS
 10
155.836446
 20
133.600004
 11
155.831065
 21
133.716595
  0
LINE
  8
1
 62
2
  6
CONTINUOUS
 10
155.831065
 20
133.716595
 11
155.788286
 21
133.960453
  0
LINE
  8
1
 62
2
  6
CONTINUOUS
 10
155.788286
 20
133.960453
 11
155.774429
 21
134.011600
  0
LINE
  8
1
 62
2
  6
CONTINUOUS
 10
155.774429
 20
134.011600
 11
155.724531
 21
134.162629
  0
LINE
  8
1
 62
2
  6
CONTINUOUS
 10
155.724531
 20
134.162629
 11
155.704166
 21
134.215186
  0
LINE
  8
1
 62
2
  6
CONTINUOUS
 10
155.704166
 20
134.215186
 11
155.666696
 21
134.303342
  0
LINE
  8
1
 62
2
  6
CONTINUOUS
 10
155.666696
 20
134.303342
 11
155.603464
 21
134.434726
  0
LINE
  8
1
 62
2
  6
CONTINUOUS
 10
155.603464
 20
134.434726
 11
155.581398
 21
134.476825
  0
LINE
  8
1
 62
2
  6
CONTINUOUS
 10
155.581398
 20
134.476825
 11
155.536446
 21
134.558009
  0
LINE
  8
1
 62
2
  6
CONTINUOUS
 10
155.536446
 20
132.879088
 11
145.336446
 21
132.879088
  0
LINE
  8
1
 62
2
  6
CONTINUOUS
 10
145.036446
 20
133.600000
 11
145.041836
 21
133.487471
  0
LINE
  8
1
 62
2
  6
CONTINUOUS
 10
145.041836
 20
133.487471
 11
145.080901
 21
133.288850
  0
LINE
  8
1
 62
2
  6
CONTINUOUS
 10
145.080901
 20
133.288850
 11
145.084606
 21
133.276957
  0
LINE
  8
1
 62
2
  6
CONTINUOUS
 10
145.084606
 20
133.276957
 11
145.168751
 21
133.088121
  0
LINE
  8
1
 62
2
  6
CONTINUOUS
 10
145.168751
 20
133.088121
 11
145.169466
 21
133.086907
  0
LINE
  8
1
 62
2
  6
CONTINUOUS
 10
145.169466
 20
133.086907
 11
145.224451
 21
133.004271
  0
LINE
  8
1
 62
2
  6
CONTINUOUS
 10
145.224451
 20
133.004271
 11
145.280212
 21
132.936410
  0
LINE
  8
1
 62
2
  6
CONTINUOUS
 10
145.280212
 20
132.936410
 11
145.291492
 21
132.924130
  0
LINE
  8
1
 62
2
  6
CONTINUOUS
 10
145.291492
 20
132.924130
 11
145.336446
 21
132.879088
  0
LINE
  8
1
 62
2
  6
CONTINUOUS
 10
145.336446
 20
134.558009
 11
145.291492
 21
134.476822
  0
LINE
  8
1
 62
2
  6
CONTINUOUS
 10
145.291492
 20
134.476822
 11
145.280211
 21
134.455506
  0
LINE
  8
1
 62
2
  6
CONTINUOUS
 10
145.280211
 20
134.455506
 11
145.224450
 21
134.343180
  0
LINE
  8
1
 62
2
  6
CONTINUOUS
 10
145.224450
 20
134.343180
 11
145.169465
 21
134.217024
  0
LINE
  8
1
 62
2
  6
CONTINUOUS
 10
145.169465
 20
134.217024
 11
145.168750
 21
134.215247
  0
LINE
  8
1
 62
2
  6
CONTINUOUS
 10
145.168750
 20
134.215247
 11
145.084606
 21
133.960453
  0
LINE
  8
1
 62
2
  6
CONTINUOUS
 10
145.084606
 20
133.960453
 11
145.080901
 21
133.945673
  0
LINE
  8
1
 62
2
  6
CONTINUOUS
 10
145.080901
 20
133.945673
 11
145.041836
 21
133.716703
  0
LINE
  8
1
 62
2
  6
CONTINUOUS
 10
145.041836
 20
133.716703
 11
145.036446
 21
133.600000
  0
LINE
  8
1
 62
2
  6
CONTINUOUS
 10
155.536446
 20
127.120912
 11
145.336446
 21
127.120912
  0
LINE
  8
1
 62
2
  6
CONTINUOUS
 10
155.536446
 20
125.441991
 11
155.581398
 21
125.523175
  0
LINE
  8
1
 62
2
  6
CONTINUOUS
 10
155.581398
 20
125.523175
 11
155.603464
 21
125.565273
  0
LINE
  8
1
 62
2
  6
CONTINUOUS
 10
155.603464
 20
125.565273
 11
155.666696
 21
125.696656
  0
LINE
  8
1
 62
2
  6
CONTINUOUS
 10
155.666696
 20
125.696656
 11
155.704166
 21
125.784814
  0
LINE
  8
1
 62
2
  6
CONTINUOUS
 10
155.704166
 20
125.784814
 11
155.724530
 21
125.837370
  0
LINE
  8
1
 62
2
  6
CONTINUOUS
 10
155.724530
 20
125.837370
 11
155.774431
 21
125.988405
  0
LINE
  8
1
 62
2
  6
CONTINUOUS
 10
155.774431
 20
125.988405
 11
155.788286
 21
126.039547
  0
LINE
  8
1
 62
2
  6
CONTINUOUS
 10
155.788286
 20
126.039547
 11
155.831065
 21
126.283406
  0
LINE
  8
1
 62
2
  6
CONTINUOUS
 10
155.831065
 20
126.283406
 11
155.836446
 21
126.400004
  0
LINE
  8
1
 62
2
  6
CONTINUOUS
 10
155.836446
 20
126.400004
 11
155.831065
 21
126.512428
  0
LINE
  8
1
 62
2
  6
CONTINUOUS
 10
155.831065
 20
126.512428
 11
155.788286
 21
126.723043
  0
LINE
  8
1
 62
2
  6
CONTINUOUS
 10
155.788286
 20
126.723043
 11
155.774429
 21
126.763380
  0
LINE
  8
1
 62
2
  6
CONTINUOUS
 10
155.774429
 20
126.763380
 11
155.724531
 21
126.875312
  0
LINE
  8
1
 62
2
  6
CONTINUOUS
 10
155.724531
 20
126.875312
 11
155.704166
 21
126.911835
  0
LINE
  8
1
 62
2
  6
CONTINUOUS
 10
155.704166
 20
126.911835
 11
155.666696
 21
126.970374
  0
LINE
  8
1
 62
2
  6
CONTINUOUS
 10
155.666696
 20
126.970374
 11
155.603464
 21
127.051436
  0
LINE
  8
1
 62
2
  6
CONTINUOUS
 10
155.603464
 20
127.051436
 11
155.581398
 21
127.075872
  0
LINE
  8
1
 62
2
  6
CONTINUOUS
 10
155.581398
 20
127.075872
 11
155.536446
 21
127.120912
  0
LINE
  8
1
 62
2
  6
CONTINUOUS
 10
155.536446
 20
125.441991
 11
145.336446
 21
125.441991
  0
LINE
  8
1
 62
2
  6
CONTINUOUS
 10
145.036446
 20
126.400000
 11
145.041836
 21
126.283297
  0
LINE
  8
1
 62
2
  6
CONTINUOUS
 10
145.041836
 20
126.283297
 11
145.080901
 21
126.054327
  0
LINE
  8
1
 62
2
  6
CONTINUOUS
 10
145.080901
 20
126.054327
 11
145.084606
 21
126.039547
  0
LINE
  8
1
 62
2
  6
CONTINUOUS
 10
145.084606
 20
126.039547
 11
145.168751
 21
125.784749
  0
LINE
  8
1
 62
2
  6
CONTINUOUS
 10
145.168751
 20
125.784749
 11
145.169466
 21
125.782972
  0
LINE
  8
1
 62
2
  6
CONTINUOUS
 10
145.169466
 20
125.782972
 11
145.224451
 21
125.656818
  0
LINE
  8
1
 62
2
  6
CONTINUOUS
 10
145.224451
 20
125.656818
 11
145.280212
 21
125.544493
  0
LINE
  8
1
 62
2
  6
CONTINUOUS
 10
145.280212
 20
125.544493
 11
145.291492
 21
125.523178
  0
LINE
  8
1
 62
2
  6
CONTINUOUS
 10
145.291492
 20
125.523178
 11
145.336446
 21
125.441991
  0
LINE
  8
1
 62
2
  6
CONTINUOUS
 10
145.336446
 20
127.120912
 11
145.291492
 21
127.075870
  0
LINE
  8
1
 62
2
  6
CONTINUOUS
 10
145.291492
 20
127.075870
 11
145.280211
 21
127.063590
  0
LINE
  8
1
 62
2
  6
CONTINUOUS
 10
145.280211
 20
127.063590
 11
145.224450
 21
126.995727
  0
LINE
  8
1
 62
2
  6
CONTINUOUS
 10
145.224450
 20
126.995727
 11
145.169465
 21
126.913090
  0
LINE
  8
1
 62
2
  6
CONTINUOUS
 10
145.169465
 20
126.913090
 11
145.168750
 21
126.911877
  0
LINE
  8
1
 62
2
  6
CONTINUOUS
 10
145.168750
 20
126.911877
 11
145.084606
 21
126.723043
  0
LINE
  8
1
 62
2
  6
CONTINUOUS
 10
145.084606
 20
126.723043
 11
145.080901
 21
126.711150
  0
LINE
  8
1
 62
2
  6
CONTINUOUS
 10
145.080901
 20
126.711150
 11
145.041836
 21
126.512529
  0
LINE
  8
1
 62
2
  6
CONTINUOUS
 10
145.041836
 20
126.512529
 11
145.036446
 21
126.400000
  0
LINE
  8
1
 62
2
  6
CONTINUOUS
 10
155.536446
 20
123.074623
 11
145.336446
 21
123.074623
  0
LINE
  8
1
 62
2
  6
CONTINUOUS
 10
145.036446
 20
123.764617
 11
145.051794
 21
123.642716
  0
LINE
  8
1
 62
2
  6
CONTINUOUS
 10
145.051794
 20
123.642716
 11
145.109056
 21
123.473769
  0
LINE
  8
1
 62
2
  6
CONTINUOUS
 10
145.109056
 20
123.473769
 11
145.115965
 21
123.457944
  0
LINE
  8
1
 62
2
  6
CONTINUOUS
 10
145.115965
 20
123.457944
 11
145.169466
 21
123.348369
  0
LINE
  8
1
 62
2
  6
CONTINUOUS
 10
145.169466
 20
123.348369
 11
145.206894
 21
123.280554
  0
LINE
  8
1
 62
2
  6
CONTINUOUS
 10
145.206894
 20
123.280554
 11
145.224077
 21
123.251042
  0
LINE
  8
1
 62
2
  6
CONTINUOUS
 10
145.224077
 20
123.251042
 11
145.224451
 21
123.250409
  0
LINE
  8
1
 62
2
  6
CONTINUOUS
 10
145.224451
 20
123.250409
 11
145.280212
 21
123.159887
  0
LINE
  8
1
 62
2
  6
CONTINUOUS
 10
145.280212
 20
123.159887
 11
145.336446
 21
123.074623
  0
LINE
  8
1
 62
2
  6
CONTINUOUS
 10
145.336446
 20
124.043948
 11
145.245022
 21
124.029317
  0
LINE
  8
1
 62
2
  6
CONTINUOUS
 10
145.245022
 20
124.029317
 11
145.224450
 21
124.023429
  0
LINE
  8
1
 62
2
  6
CONTINUOUS
 10
145.224450
 20
124.023429
 11
145.169465
 21
124.000844
  0
LINE
  8
1
 62
2
  6
CONTINUOUS
 10
145.169465
 20
124.000844
 11
145.135188
 21
123.979628
  0
LINE
  8
1
 62
2
  6
CONTINUOUS
 10
145.135188
 20
123.979628
 11
145.080893
 21
123.924316
  0
LINE
  8
1
 62
2
  6
CONTINUOUS
 10
145.080893
 20
123.924316
 11
145.065093
 21
123.897720
  0
LINE
  8
1
 62
2
  6
CONTINUOUS
 10
145.065093
 20
123.897720
 11
145.036967
 21
123.784843
  0
LINE
  8
1
 62
2
  6
CONTINUOUS
 10
145.036967
 20
123.784843
 11
145.036446
 21
123.764617
  0
LINE
  8
1
 62
2
  6
CONTINUOUS
 10
155.536446
 20
124.043948
 11
145.336446
 21
124.043948
  0
LINE
  8
1
 62
2
  6
CONTINUOUS
 10
155.536446
 20
123.074623
 11
155.666006
 21
123.280569
  0
LINE
  8
1
 62
2
  6
CONTINUOUS
 10
155.666006
 20
123.280569
 11
155.666696
 21
123.281772
  0
LINE
  8
1
 62
2
  6
CONTINUOUS
 10
155.666696
 20
123.281772
 11
155.724530
 21
123.389370
  0
LINE
  8
1
 62
2
  6
CONTINUOUS
 10
155.724530
 20
123.389370
 11
155.763847
 21
123.473797
  0
LINE
  8
1
 62
2
  6
CONTINUOUS
 10
155.763847
 20
123.473797
 11
155.774431
 21
123.499144
  0
LINE
  8
1
 62
2
  6
CONTINUOUS
 10
155.774431
 20
123.499144
 11
155.812511
 21
123.609247
  0
LINE
  8
1
 62
2
  6
CONTINUOUS
 10
155.812511
 20
123.609247
 11
155.821104
 21
123.642745
  0
LINE
  8
1
 62
2
  6
CONTINUOUS
 10
155.821104
 20
123.642745
 11
155.836446
 21
123.764600
  0
LINE
  8
1
 62
2
  6
CONTINUOUS
 10
155.836446
 20
123.764600
 11
155.835927
 21
123.784808
  0
LINE
  8
1
 62
2
  6
CONTINUOUS
 10
155.835927
 20
123.784808
 11
155.833672
 21
123.810230
  0
LINE
  8
1
 62
2
  6
CONTINUOUS
 10
155.833672
 20
123.810230
 11
155.812509
 21
123.887841
  0
LINE
  8
1
 62
2
  6
CONTINUOUS
 10
155.812509
 20
123.887841
 11
155.807813
 21
123.897692
  0
LINE
  8
1
 62
2
  6
CONTINUOUS
 10
155.807813
 20
123.897692
 11
155.737691
 21
123.979637
  0
LINE
  8
1
 62
2
  6
CONTINUOUS
 10
155.737691
 20
123.979637
 11
155.724531
 21
123.988626
  0
LINE
  8
1
 62
2
  6
CONTINUOUS
 10
155.724531
 20
123.988626
 11
155.666696
 21
124.017154
  0
LINE
  8
1
 62
2
  6
CONTINUOUS
 10
155.666696
 20
124.017154
 11
155.627872
 21
124.029316
  0
LINE
  8
1
 62
2
  6
CONTINUOUS
 10
155.627872
 20
124.029316
 11
155.536446
 21
124.043948
  0
LINE
  8
1
 62
2
  6
CONTINUOUS
 10
145.036446
 20
122.800000
 11
145.036446
 21
123.764617
  0
LINE
  8
1
 62
2
  6
CONTINUOUS
 10
145.336446
 20
122.562903
 11
145.336446
 21
123.074623
  0
LINE
  8
1
 62
2
  6
CONTINUOUS
 10
145.336446
 20
122.562903
 11
145.225485
 21
122.651726
  0
LINE
  8
1
 62
2
  6
CONTINUOUS
 10
145.225485
 20
122.651726
 11
145.224450
 21
122.652548
  0
LINE
  8
1
 62
2
  6
CONTINUOUS
 10
145.224450
 20
122.652548
 11
145.169465
 21
122.696066
  0
LINE
  8
1
 62
2
  6
CONTINUOUS
 10
145.169465
 20
122.696066
 11
145.121635
 21
122.733657
  0
LINE
  8
1
 62
2
  6
CONTINUOUS
 10
145.121635
 20
122.733657
 11
145.115965
 21
122.738097
  0
LINE
  8
1
 62
2
  6
CONTINUOUS
 10
145.115965
 20
122.738097
 11
145.066311
 21
122.776830
  0
LINE
  8
1
 62
2
  6
CONTINUOUS
 10
145.066311
 20
122.776830
 11
145.057933
 21
122.783340
  0
LINE
  8
1
 62
2
  6
CONTINUOUS
 10
145.057933
 20
122.783340
 11
145.036446
 21
122.800000
  0
LINE
  8
1
 62
2
  6
CONTINUOUS
 10
155.536446
 20
122.562903
 11
155.536446
 21
123.074623
  0
LINE
  8
1
 62
2
  6
CONTINUOUS
 10
155.536446
 20
122.562903
 11
145.336446
 21
122.562903
  0
LINE
  8
1
 62
2
  6
CONTINUOUS
 10
145.036446
 20
133.600000
 11
145.036446
 21
136.235383
  0
LINE
  8
1
 62
2
  6
CONTINUOUS
 10
145.036446
 20
130.000000
 11
145.036446
 21
133.600000
  0
LINE
  8
1
 62
2
  6
CONTINUOUS
 10
145.036446
 20
126.400000
 11
145.036446
 21
130.000000
  0
LINE
  8
1
 62
2
  6
CONTINUOUS
 10
145.036446
 20
123.764617
 11
145.036446
 21
126.400000
  0
LINE
  8
1
 62
2
  6
CONTINUOUS
 10
145.036446
 20
136.235383
 11
145.036446
 21
137.200000
  0
LINE
  8
1
 62
2
  6
CONTINUOUS
 10
145.336446
 20
136.925377
 11
145.336446
 21
137.437097
  0
LINE
  8
1
 62
2
  6
CONTINUOUS
 10
145.036446
 20
137.200000
 11
145.057933
 21
137.216660
  0
LINE
  8
1
 62
2
  6
CONTINUOUS
 10
145.057933
 20
137.216660
 11
145.066311
 21
137.223170
  0
LINE
  8
1
 62
2
  6
CONTINUOUS
 10
145.066311
 20
137.223170
 11
145.115965
 21
137.261903
  0
LINE
  8
1
 62
2
  6
CONTINUOUS
 10
145.115965
 20
137.261903
 11
145.121635
 21
137.266343
  0
LINE
  8
1
 62
2
  6
CONTINUOUS
 10
145.121635
 20
137.266343
 11
145.169465
 21
137.303934
  0
LINE
  8
1
 62
2
  6
CONTINUOUS
 10
145.169465
 20
137.303934
 11
145.224450
 21
137.347452
  0
LINE
  8
1
 62
2
  6
CONTINUOUS
 10
145.224450
 20
137.347452
 11
145.225485
 21
137.348274
  0
LINE
  8
1
 62
2
  6
CONTINUOUS
 10
145.225485
 20
137.348274
 11
145.336446
 21
137.437097
  0
LINE
  8
1
 62
2
  6
CONTINUOUS
 10
155.536446
 20
136.925377
 11
155.536446
 21
137.437097
  0
LINE
  8
1
 62
2
  6
CONTINUOUS
 10
155.536446
 20
137.437097
 11
145.336446
 21
137.437097
  0
LINE
  8
1
 62
2
  6
CONTINUOUS
 10
155.536446
 20
137.437097
 11
155.647393
 21
137.348285
  0
LINE
  8
1
 62
2
  6
CONTINUOUS
 10
155.647393
 20
137.348285
 11
155.676766
 21
137.324994
  0
LINE
  8
1
 62
2
  6
CONTINUOUS
 10
155.676766
 20
137.324994
 11
155.737876
 21
137.276834
  0
LINE
  8
1
 62
2
  6
CONTINUOUS
 10
155.737876
 20
137.276834
 11
155.751245
 21
137.266352
  0
LINE
  8
1
 62
2
  6
CONTINUOUS
 10
155.751245
 20
137.266352
 11
155.814968
 21
137.216653
  0
LINE
  8
1
 62
2
  6
CONTINUOUS
 10
155.814968
 20
137.216653
 11
155.836446
 21
137.200000
  0
LINE
  8
1
 62
2
  6
CONTINUOUS
 10
155.836446
 20
122.800000
 11
155.814968
 21
122.783347
  0
LINE
  8
1
 62
2
  6
CONTINUOUS
 10
155.814968
 20
122.783347
 11
155.751245
 21
122.733648
  0
LINE
  8
1
 62
2
  6
CONTINUOUS
 10
155.751245
 20
122.733648
 11
155.737873
 21
122.723163
  0
LINE
  8
1
 62
2
  6
CONTINUOUS
 10
155.737873
 20
122.723163
 11
155.676762
 21
122.675003
  0
LINE
  8
1
 62
2
  6
CONTINUOUS
 10
155.676762
 20
122.675003
 11
155.647393
 21
122.651715
  0
LINE
  8
1
 62
2
  6
CONTINUOUS
 10
155.647393
 20
122.651715
 11
155.536446
 21
122.562903
  0
LINE
  8
1
 62
2
  6
CONTINUOUS
 10
155.536446
 20
122.562903
 11
145.336446
 21
122.562903
  0
LINE
  8
1
 62
2
  6
CONTINUOUS
 10
145.336446
 20
124.043948
 11
145.336446
 21
125.441991
  0
LINE
  8
1
 62
2
  6
CONTINUOUS
 10
155.536446
 20
124.043948
 11
155.536446
 21
125.441991
  0
LINE
  8
1
 62
2
  6
CONTINUOUS
 10
155.536446
 20
127.307418
 11
152.536446
 21
127.307418
  0
LINE
  8
1
 62
2
  6
CONTINUOUS
 10
152.536446
 20
132.692582
 11
152.536446
 21
127.307418
  0
LINE
  8
1
 62
2
  6
CONTINUOUS
 10
155.536446
 20
132.692582
 11
152.536446
 21
132.692582
  0
LINE
  8
1
 62
2
  6
CONTINUOUS
 10
155.536446
 20
127.307418
 11
155.789510
 21
128.124348
  0
LINE
  8
1
 62
2
  6
CONTINUOUS
 10
155.789510
 20
128.124348
 11
155.800991
 21
128.169207
  0
LINE
  8
1
 62
2
  6
CONTINUOUS
 10
155.800991
 20
128.169207
 11
155.975141
 21
129.071549
  0
LINE
  8
1
 62
2
  6
CONTINUOUS
 10
155.975141
 20
129.071549
 11
155.976042
 21
129.078428
  0
LINE
  8
1
 62
2
  6
CONTINUOUS
 10
155.976042
 20
129.078428
 11
156.036446
 21
130.000007
  0
LINE
  8
1
 62
2
  6
CONTINUOUS
 10
156.036446
 20
130.000007
 11
155.976042
 21
130.921572
  0
LINE
  8
1
 62
2
  6
CONTINUOUS
 10
155.976042
 20
130.921572
 11
155.975141
 21
130.928453
  0
LINE
  8
1
 62
2
  6
CONTINUOUS
 10
155.975141
 20
130.928453
 11
155.800991
 21
131.830793
  0
LINE
  8
1
 62
2
  6
CONTINUOUS
 10
155.800991
 20
131.830793
 11
155.789510
 21
131.875652
  0
LINE
  8
1
 62
2
  6
CONTINUOUS
 10
155.789510
 20
131.875652
 11
155.536446
 21
132.692582
  0
LINE
  8
1
 62
2
  6
CONTINUOUS
 10
145.336446
 20
127.120912
 11
145.336446
 21
129.030675
  0
LINE
  8
1
 62
2
  6
CONTINUOUS
 10
152.099349
 20
129.030675
 11
145.336446
 21
129.030675
  0
LINE
  8
1
 62
2
  6
CONTINUOUS
 10
152.099349
 20
129.030675
 11
152.122996
 21
128.863869
  0
LINE
  8
1
 62
2
  6
CONTINUOUS
 10
152.122996
 20
128.863869
 11
152.292004
 21
128.058851
  0
LINE
  8
1
 62
2
  6
CONTINUOUS
 10
152.292004
 20
128.058851
 11
152.536446
 21
127.307418
  0
LINE
  8
1
 62
2
  6
CONTINUOUS
 10
155.536446
 20
127.120912
 11
155.536446
 21
127.307418
  0
LINE
  8
1
 62
2
  6
CONTINUOUS
 10
152.099349
 20
130.969325
 11
145.336446
 21
130.969325
  0
LINE
  8
1
 62
2
  6
CONTINUOUS
 10
152.099349
 20
129.030675
 11
152.135683
 21
129.103554
  0
LINE
  8
1
 62
2
  6
CONTINUOUS
 10
152.135683
 20
129.103554
 11
152.233214
 21
129.349334
  0
LINE
  8
1
 62
2
  6
CONTINUOUS
 10
152.233214
 20
129.349334
 11
152.246833
 21
129.392845
  0
LINE
  8
1
 62
2
  6
CONTINUOUS
 10
152.246833
 20
129.392845
 11
152.295882
 21
129.589436
  0
LINE
  8
1
 62
2
  6
CONTINUOUS
 10
152.295882
 20
129.589436
 11
152.299000
 21
129.605426
  0
LINE
  8
1
 62
2
  6
CONTINUOUS
 10
152.299000
 20
129.605426
 11
152.332212
 21
129.867777
  0
LINE
  8
1
 62
2
  6
CONTINUOUS
 10
152.332212
 20
129.867777
 11
152.332212
 21
130.132223
  0
LINE
  8
1
 62
2
  6
CONTINUOUS
 10
152.332212
 20
130.132223
 11
152.299000
 21
130.394574
  0
LINE
  8
1
 62
2
  6
CONTINUOUS
 10
152.299000
 20
130.394574
 11
152.295882
 21
130.410564
  0
LINE
  8
1
 62
2
  6
CONTINUOUS
 10
152.295882
 20
130.410564
 11
152.246833
 21
130.607155
  0
LINE
  8
1
 62
2
  6
CONTINUOUS
 10
152.246833
 20
130.607155
 11
152.233214
 21
130.650666
  0
LINE
  8
1
 62
2
  6
CONTINUOUS
 10
152.233214
 20
130.650666
 11
152.135683
 21
130.896446
  0
LINE
  8
1
 62
2
  6
CONTINUOUS
 10
152.135683
 20
130.896446
 11
152.099349
 21
130.969325
  0
LINE
  8
1
 62
2
  6
CONTINUOUS
 10
145.036446
 20
130.000000
 11
145.041836
 21
129.867653
  0
LINE
  8
1
 62
2
  6
CONTINUOUS
 10
145.041836
 20
129.867653
 11
145.080901
 21
129.620782
  0
LINE
  8
1
 62
2
  6
CONTINUOUS
 10
145.080901
 20
129.620782
 11
145.084606
 21
129.605384
  0
LINE
  8
1
 62
2
  6
CONTINUOUS
 10
145.084606
 20
129.605384
 11
145.168762
 21
129.349226
  0
LINE
  8
1
 62
2
  6
CONTINUOUS
 10
145.168762
 20
129.349226
 11
145.169477
 21
129.347499
  0
LINE
  8
1
 62
2
  6
CONTINUOUS
 10
145.169477
 20
129.347499
 11
145.224459
 21
129.226964
  0
LINE
  8
1
 62
2
  6
CONTINUOUS
 10
145.224459
 20
129.226964
 11
145.280216
 21
129.122942
  0
LINE
  8
1
 62
2
  6
CONTINUOUS
 10
145.280216
 20
129.122942
 11
145.291491
 21
129.103554
  0
LINE
  8
1
 62
2
  6
CONTINUOUS
 10
145.291491
 20
129.103554
 11
145.336446
 21
129.030675
  0
LINE
  8
1
 62
2
  6
CONTINUOUS
 10
145.336446
 20
130.969325
 11
145.291491
 21
130.896446
  0
LINE
  8
1
 62
2
  6
CONTINUOUS
 10
145.291491
 20
130.896446
 11
145.280216
 21
130.877058
  0
LINE
  8
1
 62
2
  6
CONTINUOUS
 10
145.280216
 20
130.877058
 11
145.224458
 21
130.773034
  0
LINE
  8
1
 62
2
  6
CONTINUOUS
 10
145.224458
 20
130.773034
 11
145.169475
 21
130.652497
  0
LINE
  8
1
 62
2
  6
CONTINUOUS
 10
145.169475
 20
130.652497
 11
145.168760
 21
130.650771
  0
LINE
  8
1
 62
2
  6
CONTINUOUS
 10
145.168760
 20
130.650771
 11
145.084606
 21
130.394616
  0
LINE
  8
1
 62
2
  6
CONTINUOUS
 10
145.084606
 20
130.394616
 11
145.080901
 21
130.379218
  0
LINE
  8
1
 62
2
  6
CONTINUOUS
 10
145.080901
 20
130.379218
 11
145.041836
 21
130.132347
  0
LINE
  8
1
 62
2
  6
CONTINUOUS
 10
145.041836
 20
130.132347
 11
145.036446
 21
130.000000
  0
LINE
  8
1
 62
2
  6
CONTINUOUS
 10
152.536446
 20
132.692582
 11
152.292004
 21
131.941149
  0
LINE
  8
1
 62
2
  6
CONTINUOUS
 10
152.292004
 20
131.941149
 11
152.122996
 21
131.136131
  0
LINE
  8
1
 62
2
  6
CONTINUOUS
 10
152.122996
 20
131.136131
 11
152.099349
 21
130.969325
  0
LINE
  8
1
 62
2
  6
CONTINUOUS
 10
155.536446
 20
132.692582
 11
155.536446
 21
132.879088
  0
LINE
  8
1
 62
2
  6
CONTINUOUS
 10
145.336446
 20
130.969325
 11
145.336446
 21
132.879088
  0
LINE
  8
1
 62
2
  6
CONTINUOUS
 10
145.336446
 20
134.558009
 11
145.336446
 21
135.956052
  0
LINE
  8
1
 62
2
  6
CONTINUOUS
 10
155.536446
 20
134.558009
 11
155.536446
 21
135.956052
  0
LINE
  8
1
 62
2
  6
CONTINUOUS
 10
142.766446
 20
123.750000
 11
142.766446
 21
136.250000
  0
LINE
  8
1
 62
2
  6
CONTINUOUS
 10
127.266446
 20
127.684833
 11
127.266446
 21
123.100000
  0
LINE
  8
1
 62
2
  6
CONTINUOUS
 10
127.266446
 20
127.684833
 11
127.491866
 21
127.713160
  0
LINE
  8
1
 62
2
  6
CONTINUOUS
 10
127.491866
 20
127.713160
 11
127.717248
 21
127.741798
  0
LINE
  8
1
 62
2
  6
CONTINUOUS
 10
127.717248
 20
127.741798
 11
127.942588
 21
127.770759
  0
LINE
  8
1
 62
2
  6
CONTINUOUS
 10
127.942588
 20
127.770759
 11
128.167885
 21
127.800055
  0
LINE
  8
1
 62
2
  6
CONTINUOUS
 10
128.167885
 20
127.800055
 11
128.393136
 21
127.829699
  0
LINE
  8
1
 62
2
  6
CONTINUOUS
 10
128.393136
 20
127.829699
 11
128.618340
 21
127.859706
  0
LINE
  8
1
 62
2
  6
CONTINUOUS
 10
128.618340
 20
127.859706
 11
128.843492
 21
127.890090
  0
LINE
  8
1
 62
2
  6
CONTINUOUS
 10
128.843492
 20
127.890090
 11
129.068592
 21
127.920867
  0
LINE
  8
1
 62
2
  6
CONTINUOUS
 10
129.068592
 20
127.920867
 11
129.293635
 21
127.952056
  0
LINE
  8
1
 62
2
  6
CONTINUOUS
 10
129.293635
 20
127.952056
 11
129.518618
 21
127.983675
  0
LINE
  8
1
 62
2
  6
CONTINUOUS
 10
129.518618
 20
127.983675
 11
129.743538
 21
128.015743
  0
LINE
  8
1
 62
2
  6
CONTINUOUS
 10
129.743538
 20
128.015743
 11
129.968389
 21
128.048283
  0
LINE
  8
1
 62
2
  6
CONTINUOUS
 10
129.968389
 20
128.048283
 11
130.193169
 21
128.081318
  0
LINE
  8
1
 62
2
  6
CONTINUOUS
 10
130.193169
 20
128.081318
 11
130.417872
 21
128.114873
  0
LINE
  8
1
 62
2
  6
CONTINUOUS
 10
130.417872
 20
128.114873
 11
130.642492
 21
128.148975
  0
LINE
  8
1
 62
2
  6
CONTINUOUS
 10
130.642492
 20
128.148975
 11
130.867025
 21
128.183655
  0
LINE
  8
1
 62
2
  6
CONTINUOUS
 10
130.867025
 20
128.183655
 11
131.091462
 21
128.218945
  0
LINE
  8
1
 62
2
  6
CONTINUOUS
 10
131.091462
 20
128.218945
 11
131.315796
 21
128.254882
  0
LINE
  8
1
 62
2
  6
CONTINUOUS
 10
131.315796
 20
128.254882
 11
131.337302
 21
128.258363
  0
LINE
  8
1
 62
2
  6
CONTINUOUS
 10
131.337302
 20
128.258363
 11
131.540020
 21
128.291504
  0
LINE
  8
1
 62
2
  6
CONTINUOUS
 10
131.540020
 20
128.291504
 11
131.764124
 21
128.328855
  0
LINE
  8
1
 62
2
  6
CONTINUOUS
 10
131.764124
 20
128.328855
 11
131.988097
 21
128.366984
  0
LINE
  8
1
 62
2
  6
CONTINUOUS
 10
131.988097
 20
128.366984
 11
132.211927
 21
128.405944
  0
LINE
  8
1
 62
2
  6
CONTINUOUS
 10
132.211927
 20
128.405944
 11
132.435600
 21
128.445796
  0
LINE
  8
1
 62
2
  6
CONTINUOUS
 10
132.435600
 20
128.445796
 11
132.659101
 21
128.486607
  0
LINE
  8
1
 62
2
  6
CONTINUOUS
 10
132.659101
 20
128.486607
 11
132.882410
 21
128.528453
  0
LINE
  8
1
 62
2
  6
CONTINUOUS
 10
132.882410
 20
128.528453
 11
133.105506
 21
128.571421
  0
LINE
  8
1
 62
2
  6
CONTINUOUS
 10
133.105506
 20
128.571421
 11
133.328363
 21
128.615611
  0
LINE
  8
1
 62
2
  6
CONTINUOUS
 10
133.328363
 20
128.615611
 11
133.550952
 21
128.661138
  0
LINE
  8
1
 62
2
  6
CONTINUOUS
 10
133.550952
 20
128.661138
 11
133.773235
 21
128.708136
  0
LINE
  8
1
 62
2
  6
CONTINUOUS
 10
133.773235
 20
128.708136
 11
133.995168
 21
128.756760
  0
LINE
  8
1
 62
2
  6
CONTINUOUS
 10
133.995168
 20
128.756760
 11
134.216696
 21
128.807199
  0
LINE
  8
1
 62
2
  6
CONTINUOUS
 10
134.216696
 20
128.807199
 11
134.437751
 21
128.859677
  0
LINE
  8
1
 62
2
  6
CONTINUOUS
 10
134.437751
 20
128.859677
 11
134.658244
 21
128.914467
  0
LINE
  8
1
 62
2
  6
CONTINUOUS
 10
134.658244
 20
128.914467
 11
134.878062
 21
128.971909
  0
LINE
  8
1
 62
2
  6
CONTINUOUS
 10
134.878062
 20
128.971909
 11
135.097051
 21
129.032433
  0
LINE
  8
1
 62
2
  6
CONTINUOUS
 10
135.097051
 20
129.032433
 11
135.315003
 21
129.096594
  0
LINE
  8
1
 62
2
  6
CONTINUOUS
 10
135.315003
 20
129.096594
 11
135.467398
 21
129.144252
  0
LINE
  8
1
 62
2
  6
CONTINUOUS
 10
135.467398
 20
129.144252
 11
135.531618
 21
129.165135
  0
LINE
  8
1
 62
2
  6
CONTINUOUS
 10
135.531618
 20
129.165135
 11
135.746448
 21
129.239079
  0
LINE
  8
1
 62
2
  6
CONTINUOUS
 10
135.746448
 20
129.239079
 11
135.958783
 21
129.319902
  0
LINE
  8
1
 62
2
  6
CONTINUOUS
 10
135.958783
 20
129.319902
 11
136.167402
 21
129.409866
  0
LINE
  8
1
 62
2
  6
CONTINUOUS
 10
136.167402
 20
129.409866
 11
136.369954
 21
129.512709
  0
LINE
  8
1
 62
2
  6
CONTINUOUS
 10
136.369954
 20
129.512709
 11
136.561103
 21
129.635285
  0
LINE
  8
1
 62
2
  6
CONTINUOUS
 10
136.561103
 20
129.635285
 11
136.725189
 21
129.791505
  0
LINE
  8
1
 62
2
  6
CONTINUOUS
 10
136.725189
 20
129.791505
 11
136.804907
 21
129.999998
  0
LINE
  8
1
 62
2
  6
CONTINUOUS
 10
136.804907
 20
129.999998
 11
136.725190
 21
130.208494
  0
LINE
  8
1
 62
2
  6
CONTINUOUS
 10
136.725190
 20
130.208494
 11
136.561104
 21
130.364715
  0
LINE
  8
1
 62
2
  6
CONTINUOUS
 10
136.561104
 20
130.364715
 11
136.369955
 21
130.487290
  0
LINE
  8
1
 62
2
  6
CONTINUOUS
 10
136.369955
 20
130.487290
 11
136.167402
 21
130.590134
  0
LINE
  8
1
 62
2
  6
CONTINUOUS
 10
136.167402
 20
130.590134
 11
135.958783
 21
130.680098
  0
LINE
  8
1
 62
2
  6
CONTINUOUS
 10
135.958783
 20
130.680098
 11
135.746448
 21
130.760921
  0
LINE
  8
1
 62
2
  6
CONTINUOUS
 10
135.746448
 20
130.760921
 11
135.531618
 21
130.834865
  0
LINE
  8
1
 62
2
  6
CONTINUOUS
 10
135.531618
 20
130.834865
 11
135.467398
 21
130.855748
  0
LINE
  8
1
 62
2
  6
CONTINUOUS
 10
135.467398
 20
130.855748
 11
135.315003
 21
130.903406
  0
LINE
  8
1
 62
2
  6
CONTINUOUS
 10
135.315003
 20
130.903406
 11
135.097051
 21
130.967567
  0
LINE
  8
1
 62
2
  6
CONTINUOUS
 10
135.097051
 20
130.967567
 11
134.878062
 21
131.028091
  0
LINE
  8
1
 62
2
  6
CONTINUOUS
 10
134.878062
 20
131.028091
 11
134.658244
 21
131.085533
  0
LINE
  8
1
 62
2
  6
CONTINUOUS
 10
134.658244
 20
131.085533
 11
134.437751
 21
131.140323
  0
LINE
  8
1
 62
2
  6
CONTINUOUS
 10
134.437751
 20
131.140323
 11
134.216696
 21
131.192801
  0
LINE
  8
1
 62
2
  6
CONTINUOUS
 10
134.216696
 20
131.192801
 11
133.995168
 21
131.243240
  0
LINE
  8
1
 62
2
  6
CONTINUOUS
 10
133.995168
 20
131.243240
 11
133.773235
 21
131.291864
  0
LINE
  8
1
 62
2
  6
CONTINUOUS
 10
133.773235
 20
131.291864
 11
133.550952
 21
131.338862
  0
LINE
  8
1
 62
2
  6
CONTINUOUS
 10
133.550952
 20
131.338862
 11
133.328363
 21
131.384389
  0
LINE
  8
1
 62
2
  6
CONTINUOUS
 10
133.328363
 20
131.384389
 11
133.105506
 21
131.428579
  0
LINE
  8
1
 62
2
  6
CONTINUOUS
 10
133.105506
 20
131.428579
 11
132.882410
 21
131.471547
  0
LINE
  8
1
 62
2
  6
CONTINUOUS
 10
132.882410
 20
131.471547
 11
132.659101
 21
131.513393
  0
LINE
  8
1
 62
2
  6
CONTINUOUS
 10
132.659101
 20
131.513393
 11
132.435600
 21
131.554204
  0
LINE
  8
1
 62
2
  6
CONTINUOUS
 10
132.435600
 20
131.554204
 11
132.211927
 21
131.594056
  0
LINE
  8
1
 62
2
  6
CONTINUOUS
 10
132.211927
 20
131.594056
 11
131.988097
 21
131.633016
  0
LINE
  8
1
 62
2
  6
CONTINUOUS
 10
131.988097
 20
131.633016
 11
131.764124
 21
131.671145
  0
LINE
  8
1
 62
2
  6
CONTINUOUS
 10
131.764124
 20
131.671145
 11
131.540020
 21
131.708496
  0
LINE
  8
1
 62
2
  6
CONTINUOUS
 10
131.540020
 20
131.708496
 11
131.337302
 21
131.741637
  0
LINE
  8
1
 62
2
  6
CONTINUOUS
 10
131.337302
 20
131.741637
 11
131.315797
 21
131.745118
  0
LINE
  8
1
 62
2
  6
CONTINUOUS
 10
131.315797
 20
131.745118
 11
131.091462
 21
131.781055
  0
LINE
  8
1
 62
2
  6
CONTINUOUS
 10
131.091462
 20
131.781055
 11
130.867025
 21
131.816345
  0
LINE
  8
1
 62
2
  6
CONTINUOUS
 10
130.867025
 20
131.816345
 11
130.642493
 21
131.851025
  0
LINE
  8
1
 62
2
  6
CONTINUOUS
 10
130.642493
 20
131.851025
 11
130.867025
 21
131.816345
  0
LINE
  8
1
 62
2
  6
CONTINUOUS
 10
130.867025
 20
131.816345
 11
130.642322
 21
131.849900
  0
LINE
  8
1
 62
2
  6
CONTINUOUS
 10
130.642322
 20
131.849900
 11
130.417542
 21
131.882934
  0
LINE
  8
1
 62
2
  6
CONTINUOUS
 10
130.417542
 20
131.882934
 11
130.192690
 21
131.915474
  0
LINE
  8
1
 62
2
  6
CONTINUOUS
 10
130.192690
 20
131.915474
 11
129.967771
 21
131.947543
  0
LINE
  8
1
 62
2
  6
CONTINUOUS
 10
129.967771
 20
131.947543
 11
129.293635
 21
132.047944
  0
LINE
  8
1
 62
2
  6
CONTINUOUS
 10
129.293635
 20
132.047944
 11
129.068592
 21
132.079133
  0
LINE
  8
1
 62
2
  6
CONTINUOUS
 10
129.068592
 20
132.079133
 11
128.843492
 21
132.109910
  0
LINE
  8
1
 62
2
  6
CONTINUOUS
 10
128.843492
 20
132.109910
 11
128.618340
 21
132.140294
  0
LINE
  8
1
 62
2
  6
CONTINUOUS
 10
128.618340
 20
132.140294
 11
128.393136
 21
132.170301
  0
LINE
  8
1
 62
2
  6
CONTINUOUS
 10
128.393136
 20
132.170301
 11
128.167885
 21
132.199945
  0
LINE
  8
1
 62
2
  6
CONTINUOUS
 10
128.167885
 20
132.199945
 11
127.942588
 21
132.229241
  0
LINE
  8
1
 62
2
  6
CONTINUOUS
 10
127.942588
 20
132.229241
 11
127.717248
 21
132.258202
  0
LINE
  8
1
 62
2
  6
CONTINUOUS
 10
127.717248
 20
132.258202
 11
127.491866
 21
132.286840
  0
LINE
  8
1
 62
2
  6
CONTINUOUS
 10
127.491866
 20
132.286840
 11
127.266446
 21
132.315167
  0
LINE
  8
1
 62
2
  6
CONTINUOUS
 10
127.266446
 20
136.900000
 11
127.266446
 21
132.315167
  0
LINE
  8
1
 62
2
  6
CONTINUOUS
 10
123.766446
 20
132.315167
 11
127.266446
 21
132.315167
  0
LINE
  8
1
 62
2
  6
CONTINUOUS
 10
123.766446
 20
136.900000
 11
123.766446
 21
132.315167
  0
LINE
  8
1
 62
2
  6
CONTINUOUS
 10
123.766446
 20
127.684833
 11
127.266446
 21
127.684833
  0
LINE
  8
1
 62
2
  6
CONTINUOUS
 10
123.766446
 20
132.315167
 11
123.595770
 21
131.741784
  0
LINE
  8
1
 62
2
  6
CONTINUOUS
 10
123.595770
 20
131.741784
 11
123.422534
 21
130.855745
  0
LINE
  8
1
 62
2
  6
CONTINUOUS
 10
123.422534
 20
130.855745
 11
123.366446
 21
130.000035
  0
LINE
  8
1
 62
2
  6
CONTINUOUS
 10
123.366446
 20
130.000035
 11
123.422534
 21
129.144255
  0
LINE
  8
1
 62
2
  6
CONTINUOUS
 10
123.422534
 20
129.144255
 11
123.595770
 21
128.258216
  0
LINE
  8
1
 62
2
  6
CONTINUOUS
 10
123.595770
 20
128.258216
 11
123.766446
 21
127.684833
  0
LINE
  8
1
 62
2
  6
CONTINUOUS
 10
123.266446
 20
122.916157
 11
123.266446
 21
122.900000
  0
LINE
  8
1
 62
2
  6
CONTINUOUS
 10
123.266446
 20
123.033631
 11
123.266446
 21
122.916157
  0
LINE
  8
1
 62
2
  6
CONTINUOUS
 10
123.266446
 20
123.281436
 11
123.266446
 21
123.033631
  0
LINE
  8
1
 62
2
  6
CONTINUOUS
 10
123.266446
 20
123.625851
 11
123.266446
 21
123.281436
  0
LINE
  8
1
 62
2
  6
CONTINUOUS
 10
123.266446
 20
124.104574
 11
123.266446
 21
123.625851
  0
LINE
  8
1
 62
2
  6
CONTINUOUS
 10
123.266446
 20
124.652459
 11
123.266446
 21
124.104574
  0
LINE
  8
1
 62
2
  6
CONTINUOUS
 10
123.266446
 20
125.329475
 11
123.266446
 21
124.652459
  0
LINE
  8
1
 62
2
  6
CONTINUOUS
 10
123.266446
 20
126.043493
 11
123.266446
 21
125.329475
  0
LINE
  8
1
 62
2
  6
CONTINUOUS
 10
123.266446
 20
126.872665
 11
123.266446
 21
126.043493
  0
LINE
  8
1
 62
2
  6
CONTINUOUS
 10
123.266446
 20
127.704156
 11
123.266446
 21
126.872665
  0
LINE
  8
1
 62
2
  6
CONTINUOUS
 10
123.266446
 20
128.628977
 11
123.266446
 21
127.704156
  0
LINE
  8
1
 62
2
  6
CONTINUOUS
 10
123.266446
 20
129.521277
 11
123.266446
 21
128.628977
  0
LINE
  8
1
 62
2
  6
CONTINUOUS
 10
123.266446
 20
130.000000
 11
123.266446
 21
129.521277
  0
LINE
  8
1
 62
2
  6
CONTINUOUS
 10
123.266446
 20
130.478723
 11
123.266446
 21
130.000000
  0
LINE
  8
1
 62
2
  6
CONTINUOUS
 10
123.266446
 20
131.371023
 11
123.266446
 21
130.478723
  0
LINE
  8
1
 62
2
  6
CONTINUOUS
 10
123.266446
 20
132.295844
 11
123.266446
 21
131.371023
  0
LINE
  8
1
 62
2
  6
CONTINUOUS
 10
123.266446
 20
133.127335
 11
123.266446
 21
132.295844
  0
LINE
  8
1
 62
2
  6
CONTINUOUS
 10
123.266446
 20
133.956507
 11
123.266446
 21
133.127335
  0
LINE
  8
1
 62
2
  6
CONTINUOUS
 10
123.266446
 20
134.670525
 11
123.266446
 21
133.956507
  0
LINE
  8
1
 62
2
  6
CONTINUOUS
 10
123.266446
 20
135.347541
 11
123.266446
 21
134.670525
  0
LINE
  8
1
 62
2
  6
CONTINUOUS
 10
123.266446
 20
135.895426
 11
123.266446
 21
135.347541
  0
LINE
  8
1
 62
2
  6
CONTINUOUS
 10
123.266446
 20
136.387488
 11
123.266446
 21
135.895426
  0
LINE
  8
1
 62
2
  6
CONTINUOUS
 10
123.266446
 20
137.100000
 11
123.266446
 21
136.387488
  0
LINE
  8
1
 62
2
  6
CONTINUOUS
 10
115.516446
 20
135.895426
 11
115.516446
 21
136.387488
  0
LINE
  8
1
 62
2
  6
CONTINUOUS
 10
115.516446
 20
135.347541
 11
115.516446
 21
135.895426
  0
LINE
  8
1
 62
2
  6
CONTINUOUS
 10
115.516446
 20
134.670525
 11
115.516446
 21
135.347541
  0
LINE
  8
1
 62
2
  6
CONTINUOUS
 10
115.516446
 20
133.956507
 11
115.516446
 21
134.670525
  0
LINE
  8
1
 62
2
  6
CONTINUOUS
 10
115.516446
 20
133.127335
 11
115.516446
 21
133.956507
  0
LINE
  8
1
 62
2
  6
CONTINUOUS
 10
115.516446
 20
132.295844
 11
115.516446
 21
133.127335
  0
LINE
  8
1
 62
2
  6
CONTINUOUS
 10
115.516446
 20
131.371023
 11
115.516446
 21
132.295844
  0
LINE
  8
1
 62
2
  6
CONTINUOUS
 10
115.516446
 20
130.478723
 11
115.516446
 21
131.371023
  0
LINE
  8
1
 62
2
  6
CONTINUOUS
 10
115.516446
 20
130.000000
 11
115.516446
 21
130.478723
  0
LINE
  8
1
 62
2
  6
CONTINUOUS
 10
115.516446
 20
129.521277
 11
115.516446
 21
130.000000
  0
LINE
  8
1
 62
2
  6
CONTINUOUS
 10
115.516446
 20
128.628977
 11
115.516446
 21
129.521277
  0
LINE
  8
1
 62
2
  6
CONTINUOUS
 10
115.516446
 20
127.704156
 11
115.516446
 21
128.628977
  0
LINE
  8
1
 62
2
  6
CONTINUOUS
 10
115.516446
 20
126.872665
 11
115.516446
 21
127.704156
  0
LINE
  8
1
 62
2
  6
CONTINUOUS
 10
115.516446
 20
126.043493
 11
115.516446
 21
126.872665
  0
LINE
  8
1
 62
2
  6
CONTINUOUS
 10
115.516446
 20
125.329475
 11
115.516446
 21
126.043493
  0
LINE
  8
1
 62
2
  6
CONTINUOUS
 10
115.516446
 20
124.652459
 11
115.516446
 21
125.329475
  0
LINE
  8
1
 62
2
  6
CONTINUOUS
 10
115.516446
 20
124.104574
 11
115.516446
 21
124.652459
  0
LINE
  8
1
 62
2
  6
CONTINUOUS
 10
115.516446
 20
123.625851
 11
115.516446
 21
124.104574
  0
LINE
  8
1
 62
2
  6
CONTINUOUS
 10
115.516446
 20
123.281436
 11
115.516446
 21
123.625851
  0
LINE
  8
1
 62
2
  6
CONTINUOUS
 10
115.516446
 20
123.033631
 11
115.516446
 21
123.281436
  0
LINE
  8
1
 62
2
  6
CONTINUOUS
 10
115.516446
 20
122.916157
 11
115.516446
 21
123.033631
  0
LINE
  8
1
 62
2
  6
CONTINUOUS
 10
115.516446
 20
122.900000
 11
115.516446
 21
122.916157
  0
LINE
  8
1
 62
2
  6
CONTINUOUS
 10
115.516446
 20
136.387488
 11
115.516446
 21
137.100000
  0
LINE
  8
1
 62
2
  6
CONTINUOUS
 10
115.816446
 20
136.133892
 11
115.666445
 21
136.014663
  0
LINE
  8
1
 62
2
  6
CONTINUOUS
 10
115.666445
 20
136.014663
 11
115.516446
 21
135.895426
  0
LINE
  8
1
 62
2
  6
CONTINUOUS
 10
115.816446
 20
136.133892
 11
115.816446
 21
135.586007
  0
LINE
  8
1
 62
2
  6
CONTINUOUS
 10
115.516446
 20
135.347541
 11
115.666445
 21
135.466778
  0
LINE
  8
1
 62
2
  6
CONTINUOUS
 10
115.666445
 20
135.466778
 11
115.816446
 21
135.586007
  0
LINE
  8
1
 62
2
  6
CONTINUOUS
 10
122.966446
 20
136.133892
 11
115.816446
 21
136.133892
  0
LINE
  8
1
 62
2
  6
CONTINUOUS
 10
123.266446
 20
135.895426
 11
123.116446
 21
136.014663
  0
LINE
  8
1
 62
2
  6
CONTINUOUS
 10
123.116446
 20
136.014663
 11
122.966446
 21
136.133892
  0
LINE
  8
1
 62
2
  6
CONTINUOUS
 10
122.966446
 20
135.586007
 11
115.816446
 21
135.586007
  0
LINE
  8
1
 62
2
  6
CONTINUOUS
 10
122.966446
 20
135.586007
 11
122.966446
 21
136.133892
  0
LINE
  8
1
 62
2
  6
CONTINUOUS
 10
122.966446
 20
135.586007
 11
123.116446
 21
135.466778
  0
LINE
  8
1
 62
2
  6
CONTINUOUS
 10
123.116446
 20
135.466778
 11
123.266446
 21
135.347541
  0
LINE
  8
1
 62
2
  6
CONTINUOUS
 10
115.516446
 20
135.347541
 11
123.266446
 21
135.347541
  0
LINE
  8
1
 62
2
  6
CONTINUOUS
 10
115.816446
 20
134.853507
 11
115.666445
 21
134.762019
  0
LINE
  8
1
 62
2
  6
CONTINUOUS
 10
115.666445
 20
134.762019
 11
115.516446
 21
134.670525
  0
LINE
  8
1
 62
2
  6
CONTINUOUS
 10
115.816446
 20
134.853507
 11
115.816446
 21
134.139489
  0
LINE
  8
1
 62
2
  6
CONTINUOUS
 10
115.516446
 20
133.956507
 11
115.666445
 21
134.048001
  0
LINE
  8
1
 62
2
  6
CONTINUOUS
 10
115.666445
 20
134.048001
 11
115.816446
 21
134.139489
  0
LINE
  8
1
 62
2
  6
CONTINUOUS
 10
115.816446
 20
133.242362
 11
115.666445
 21
133.184851
  0
LINE
  8
1
 62
2
  6
CONTINUOUS
 10
115.666445
 20
133.184851
 11
115.516446
 21
133.127335
  0
LINE
  8
1
 62
2
  6
CONTINUOUS
 10
115.816446
 20
133.242362
 11
115.816446
 21
132.410871
  0
LINE
  8
1
 62
2
  6
CONTINUOUS
 10
115.516446
 20
132.295844
 11
115.666445
 21
132.353359
  0
LINE
  8
1
 62
2
  6
CONTINUOUS
 10
115.666445
 20
132.353359
 11
115.816446
 21
132.410871
  0
LINE
  8
1
 62
2
  6
CONTINUOUS
 10
115.816446
 20
131.410256
 11
115.666445
 21
131.390640
  0
LINE
  8
1
 62
2
  6
CONTINUOUS
 10
115.666445
 20
131.390640
 11
115.516446
 21
131.371023
  0
LINE
  8
1
 62
2
  6
CONTINUOUS
 10
115.816446
 20
131.410256
 11
115.816446
 21
130.517956
  0
LINE
  8
1
 62
2
  6
CONTINUOUS
 10
115.516446
 20
130.478723
 11
115.666445
 21
130.498340
  0
LINE
  8
1
 62
2
  6
CONTINUOUS
 10
115.666445
 20
130.498340
 11
115.816446
 21
130.517956
  0
LINE
  8
1
 62
2
  6
CONTINUOUS
 10
122.966446
 20
131.410256
 11
115.816446
 21
131.410256
  0
LINE
  8
1
 62
2
  6
CONTINUOUS
 10
123.266446
 20
131.371023
 11
123.116446
 21
131.390640
  0
LINE
  8
1
 62
2
  6
CONTINUOUS
 10
123.116446
 20
131.390640
 11
122.966446
 21
131.410256
  0
LINE
  8
1
 62
2
  6
CONTINUOUS
 10
122.966446
 20
130.517956
 11
115.816446
 21
130.517956
  0
LINE
  8
1
 62
2
  6
CONTINUOUS
 10
122.966446
 20
130.517956
 11
122.966446
 21
131.410256
  0
LINE
  8
1
 62
2
  6
CONTINUOUS
 10
122.966446
 20
130.517956
 11
123.116446
 21
130.498340
  0
LINE
  8
1
 62
2
  6
CONTINUOUS
 10
123.116446
 20
130.498340
 11
123.266446
 21
130.478723
  0
LINE
  8
1
 62
2
  6
CONTINUOUS
 10
115.516446
 20
130.478723
 11
123.266446
 21
130.478723
  0
LINE
  8
1
 62
2
  6
CONTINUOUS
 10
115.516446
 20
129.521277
 11
123.266446
 21
129.521277
  0
LINE
  8
1
 62
2
  6
CONTINUOUS
 10
115.816446
 20
129.482044
 11
115.666445
 21
129.501660
  0
LINE
  8
1
 62
2
  6
CONTINUOUS
 10
115.666445
 20
129.501660
 11
115.516446
 21
129.521277
  0
LINE
  8
1
 62
2
  6
CONTINUOUS
 10
115.816446
 20
129.482044
 11
115.816446
 21
128.589744
  0
LINE
  8
1
 62
2
  6
CONTINUOUS
 10
115.516446
 20
128.628977
 11
115.666445
 21
128.609360
  0
LINE
  8
1
 62
2
  6
CONTINUOUS
 10
115.666445
 20
128.609360
 11
115.816446
 21
128.589744
  0
LINE
  8
1
 62
2
  6
CONTINUOUS
 10
115.816446
 20
127.589129
 11
115.666445
 21
127.646641
  0
LINE
  8
1
 62
2
  6
CONTINUOUS
 10
115.666445
 20
127.646641
 11
115.516446
 21
127.704156
  0
LINE
  8
1
 62
2
  6
CONTINUOUS
 10
115.816446
 20
127.589129
 11
115.816446
 21
126.757638
  0
LINE
  8
1
 62
2
  6
CONTINUOUS
 10
115.516446
 20
126.872665
 11
115.666445
 21
126.815149
  0
LINE
  8
1
 62
2
  6
CONTINUOUS
 10
115.666445
 20
126.815149
 11
115.816446
 21
126.757638
  0
LINE
  8
1
 62
2
  6
CONTINUOUS
 10
122.966446
 20
127.589129
 11
115.816446
 21
127.589129
  0
LINE
  8
1
 62
2
  6
CONTINUOUS
 10
115.516446
 20
127.704156
 11
123.266446
 21
127.704156
  0
LINE
  8
1
 62
2
  6
CONTINUOUS
 10
123.266446
 20
127.704156
 11
123.116446
 21
127.646641
  0
LINE
  8
1
 62
2
  6
CONTINUOUS
 10
123.116446
 20
127.646641
 11
122.966446
 21
127.589129
  0
LINE
  8
1
 62
2
  6
CONTINUOUS
 10
122.966446
 20
126.757638
 11
115.816446
 21
126.757638
  0
LINE
  8
1
 62
2
  6
CONTINUOUS
 10
122.966446
 20
126.757638
 11
122.966446
 21
127.589129
  0
LINE
  8
1
 62
2
  6
CONTINUOUS
 10
122.966446
 20
126.757638
 11
123.116446
 21
126.815149
  0
LINE
  8
1
 62
2
  6
CONTINUOUS
 10
123.116446
 20
126.815149
 11
123.266446
 21
126.872665
  0
LINE
  8
1
 62
2
  6
CONTINUOUS
 10
115.516446
 20
126.043493
 11
123.266446
 21
126.043493
  0
LINE
  8
1
 62
2
  6
CONTINUOUS
 10
115.816446
 20
125.860511
 11
115.666445
 21
125.951999
  0
LINE
  8
1
 62
2
  6
CONTINUOUS
 10
115.666445
 20
125.951999
 11
115.516446
 21
126.043493
  0
LINE
  8
1
 62
2
  6
CONTINUOUS
 10
115.816446
 20
125.860511
 11
115.816446
 21
125.146493
  0
LINE
  8
1
 62
2
  6
CONTINUOUS
 10
115.516446
 20
125.329475
 11
115.666445
 21
125.237981
  0
LINE
  8
1
 62
2
  6
CONTINUOUS
 10
115.666445
 20
125.237981
 11
115.816446
 21
125.146493
  0
LINE
  8
1
 62
2
  6
CONTINUOUS
 10
115.816446
 20
124.413993
 11
115.666445
 21
124.533222
  0
LINE
  8
1
 62
2
  6
CONTINUOUS
 10
115.666445
 20
124.533222
 11
115.516446
 21
124.652459
  0
LINE
  8
1
 62
2
  6
CONTINUOUS
 10
115.816446
 20
124.413993
 11
115.816446
 21
123.866108
  0
LINE
  8
1
 62
2
  6
CONTINUOUS
 10
115.516446
 20
124.104574
 11
115.666445
 21
123.985337
  0
LINE
  8
1
 62
2
  6
CONTINUOUS
 10
115.666445
 20
123.985337
 11
115.816446
 21
123.866108
  0
LINE
  8
1
 62
2
  6
CONTINUOUS
 10
122.966446
 20
123.866108
 11
123.116446
 21
123.985337
  0
LINE
  8
1
 62
2
  6
CONTINUOUS
 10
123.116446
 20
123.985337
 11
123.266446
 21
124.104574
  0
LINE
  8
1
 62
2
  6
CONTINUOUS
 10
122.966446
 20
123.866108
 11
122.966446
 21
124.413993
  0
LINE
  8
1
 62
2
  6
CONTINUOUS
 10
123.266446
 20
124.652459
 11
123.116446
 21
124.533222
  0
LINE
  8
1
 62
2
  6
CONTINUOUS
 10
123.116446
 20
124.533222
 11
122.966446
 21
124.413993
  0
LINE
  8
1
 62
2
  6
CONTINUOUS
 10
122.966446
 20
124.413993
 11
115.816446
 21
124.413993
  0
LINE
  8
1
 62
2
  6
CONTINUOUS
 10
115.516446
 20
124.652459
 11
123.266446
 21
124.652459
  0
LINE
  8
1
 62
2
  6
CONTINUOUS
 10
122.966446
 20
123.866108
 11
115.816446
 21
123.866108
  0
LINE
  8
1
 62
2
  6
CONTINUOUS
 10
115.516446
 20
123.625851
 11
123.266446
 21
123.625851
  0
LINE
  8
1
 62
2
  6
CONTINUOUS
 10
122.966446
 20
123.348152
 11
115.816446
 21
123.348152
  0
LINE
  8
1
 62
2
  6
CONTINUOUS
 10
115.816446
 20
123.348152
 11
115.666445
 21
123.486997
  0
LINE
  8
1
 62
2
  6
CONTINUOUS
 10
115.666445
 20
123.486997
 11
115.516446
 21
123.625851
  0
LINE
  8
1
 62
2
  6
CONTINUOUS
 10
123.266446
 20
123.625851
 11
123.116446
 21
123.486997
  0
LINE
  8
1
 62
2
  6
CONTINUOUS
 10
123.116446
 20
123.486997
 11
122.966446
 21
123.348152
  0
LINE
  8
1
 62
2
  6
CONTINUOUS
 10
115.516446
 20
123.281436
 11
115.666445
 21
123.142581
  0
LINE
  8
1
 62
2
  6
CONTINUOUS
 10
115.666445
 20
123.142581
 11
115.816446
 21
123.003737
  0
LINE
  8
1
 62
2
  6
CONTINUOUS
 10
122.966446
 20
123.003737
 11
115.816446
 21
123.003737
  0
LINE
  8
1
 62
2
  6
CONTINUOUS
 10
122.966446
 20
123.003737
 11
123.116446
 21
123.142581
  0
LINE
  8
1
 62
2
  6
CONTINUOUS
 10
123.116446
 20
123.142581
 11
123.266446
 21
123.281436
  0
LINE
  8
1
 62
2
  6
CONTINUOUS
 10
115.816446
 20
123.348152
 11
115.816446
 21
123.003737
  0
LINE
  8
1
 62
2
  6
CONTINUOUS
 10
122.966446
 20
123.003737
 11
122.966446
 21
123.348152
  0
LINE
  8
1
 62
2
  6
CONTINUOUS
 10
122.966446
 20
125.146493
 11
123.116446
 21
125.237981
  0
LINE
  8
1
 62
2
  6
CONTINUOUS
 10
123.116446
 20
125.237981
 11
123.266446
 21
125.329475
  0
LINE
  8
1
 62
2
  6
CONTINUOUS
 10
122.966446
 20
125.146493
 11
122.966446
 21
125.860511
  0
LINE
  8
1
 62
2
  6
CONTINUOUS
 10
123.266446
 20
126.043493
 11
123.116446
 21
125.951999
  0
LINE
  8
1
 62
2
  6
CONTINUOUS
 10
123.116446
 20
125.951999
 11
122.966446
 21
125.860511
  0
LINE
  8
1
 62
2
  6
CONTINUOUS
 10
122.966446
 20
125.860511
 11
115.816446
 21
125.860511
  0
LINE
  8
1
 62
2
  6
CONTINUOUS
 10
122.966446
 20
125.146493
 11
115.816446
 21
125.146493
  0
LINE
  8
1
 62
2
  6
CONTINUOUS
 10
122.966446
 20
122.735623
 11
115.816446
 21
122.735623
  0
LINE
  8
1
 62
2
  6
CONTINUOUS
 10
115.816446
 20
122.735623
 11
115.666445
 21
122.884622
  0
LINE
  8
1
 62
2
  6
CONTINUOUS
 10
115.666445
 20
122.884622
 11
115.516446
 21
123.033631
  0
LINE
  8
1
 62
2
  6
CONTINUOUS
 10
122.998742
 20
123.033631
 11
123.266446
 21
123.033631
  0
LINE
  8
1
 62
2
  6
CONTINUOUS
 10
115.516446
 20
123.033631
 11
115.784149
 21
123.033631
  0
LINE
  8
1
 62
2
  6
CONTINUOUS
 10
123.266446
 20
123.033631
 11
123.116446
 21
122.884622
  0
LINE
  8
1
 62
2
  6
CONTINUOUS
 10
123.116446
 20
122.884622
 11
122.966446
 21
122.735623
  0
LINE
  8
1
 62
2
  6
CONTINUOUS
 10
115.816446
 20
122.735623
 11
115.816446
 21
122.618149
  0
LINE
  8
1
 62
2
  6
CONTINUOUS
 10
115.516446
 20
122.916157
 11
115.666445
 21
122.767148
  0
LINE
  8
1
 62
2
  6
CONTINUOUS
 10
115.666445
 20
122.767148
 11
115.816446
 21
122.618149
  0
LINE
  8
1
 62
2
  6
CONTINUOUS
 10
122.966446
 20
122.618149
 11
115.816446
 21
122.618149
  0
LINE
  8
1
 62
2
  6
CONTINUOUS
 10
122.966446
 20
122.618149
 11
122.966446
 21
122.735623
  0
LINE
  8
1
 62
2
  6
CONTINUOUS
 10
122.966446
 20
122.618149
 11
123.116446
 21
122.767148
  0
LINE
  8
1
 62
2
  6
CONTINUOUS
 10
123.116446
 20
122.767148
 11
123.266446
 21
122.916157
  0
LINE
  8
1
 62
2
  6
CONTINUOUS
 10
115.816446
 20
122.618149
 11
115.666445
 21
122.767148
  0
LINE
  8
1
 62
2
  6
CONTINUOUS
 10
115.666445
 20
122.767148
 11
115.532711
 21
122.900000
  0
LINE
  8
1
 62
2
  6
CONTINUOUS
 10
122.966446
 20
128.589744
 11
123.116446
 21
128.609360
  0
LINE
  8
1
 62
2
  6
CONTINUOUS
 10
123.116446
 20
128.609360
 11
123.266446
 21
128.628977
  0
LINE
  8
1
 62
2
  6
CONTINUOUS
 10
122.966446
 20
128.589744
 11
122.966446
 21
129.482044
  0
LINE
  8
1
 62
2
  6
CONTINUOUS
 10
123.266446
 20
129.521277
 11
123.116446
 21
129.501660
  0
LINE
  8
1
 62
2
  6
CONTINUOUS
 10
123.116446
 20
129.501660
 11
122.966446
 21
129.482044
  0
LINE
  8
1
 62
2
  6
CONTINUOUS
 10
122.966446
 20
129.482044
 11
115.816446
 21
129.482044
  0
LINE
  8
1
 62
2
  6
CONTINUOUS
 10
122.966446
 20
128.589744
 11
115.816446
 21
128.589744
  0
LINE
  8
1
 62
2
  6
CONTINUOUS
 10
115.516446
 20
132.295844
 11
123.266446
 21
132.295844
  0
LINE
  8
1
 62
2
  6
CONTINUOUS
 10
122.966446
 20
132.410871
 11
123.116446
 21
132.353359
  0
LINE
  8
1
 62
2
  6
CONTINUOUS
 10
123.116446
 20
132.353359
 11
123.266446
 21
132.295844
  0
LINE
  8
1
 62
2
  6
CONTINUOUS
 10
122.966446
 20
132.410871
 11
122.966446
 21
133.242362
  0
LINE
  8
1
 62
2
  6
CONTINUOUS
 10
123.266446
 20
133.127335
 11
123.116446
 21
133.184851
  0
LINE
  8
1
 62
2
  6
CONTINUOUS
 10
123.116446
 20
133.184851
 11
122.966446
 21
133.242362
  0
LINE
  8
1
 62
2
  6
CONTINUOUS
 10
122.966446
 20
133.242362
 11
115.816446
 21
133.242362
  0
LINE
  8
1
 62
2
  6
CONTINUOUS
 10
122.966446
 20
132.410871
 11
115.816446
 21
132.410871
  0
LINE
  8
1
 62
2
  6
CONTINUOUS
 10
115.516446
 20
133.956507
 11
123.266446
 21
133.956507
  0
LINE
  8
1
 62
2
  6
CONTINUOUS
 10
122.966446
 20
134.139489
 11
123.116446
 21
134.048001
  0
LINE
  8
1
 62
2
  6
CONTINUOUS
 10
123.116446
 20
134.048001
 11
123.266446
 21
133.956507
  0
LINE
  8
1
 62
2
  6
CONTINUOUS
 10
122.966446
 20
134.139489
 11
122.966446
 21
134.853507
  0
LINE
  8
1
 62
2
  6
CONTINUOUS
 10
123.266446
 20
134.670525
 11
123.116446
 21
134.762019
  0
LINE
  8
1
 62
2
  6
CONTINUOUS
 10
123.116446
 20
134.762019
 11
122.966446
 21
134.853507
  0
LINE
  8
1
 62
2
  6
CONTINUOUS
 10
122.966446
 20
134.853507
 11
115.816446
 21
134.853507
  0
LINE
  8
1
 62
2
  6
CONTINUOUS
 10
122.966446
 20
134.139489
 11
115.816446
 21
134.139489
  0
LINE
  8
1
 62
2
  6
CONTINUOUS
 10
115.516446
 20
136.387488
 11
123.266446
 21
136.387488
  0
LINE
  8
1
 62
2
  6
CONTINUOUS
 10
115.516446
 20
136.387488
 11
115.666407
 21
136.553773
  0
LINE
  8
1
 62
2
  6
CONTINUOUS
 10
115.666407
 20
136.553773
 11
115.816446
 21
136.719375
  0
LINE
  8
1
 62
2
  6
CONTINUOUS
 10
115.816446
 20
136.719375
 11
122.966446
 21
136.719375
  0
LINE
  8
1
 62
2
  6
CONTINUOUS
 10
122.966446
 20
136.719375
 11
123.116484
 21
136.553773
  0
LINE
  8
1
 62
2
  6
CONTINUOUS
 10
123.116484
 20
136.553773
 11
123.266446
 21
136.387488
  0
LINE
  8
1
 62
2
  6
CONTINUOUS
 10
122.966446
 20
136.719375
 11
122.966446
 21
137.400000
  0
LINE
  8
1
 62
2
  6
CONTINUOUS
 10
115.816446
 20
137.400000
 11
115.816446
 21
136.719375
  0
LINE
  8
1
 62
2
  6
CONTINUOUS
 10
120.616446
 20
137.246378
 11
120.616446
 21
137.383089
  0
LINE
  8
1
 62
2
  6
CONTINUOUS
 10
119.116446
 20
137.383089
 11
120.616446
 21
137.383089
  0
LINE
  8
1
 62
2
  6
CONTINUOUS
 10
119.116446
 20
137.383089
 11
119.116446
 21
137.400000
  0
LINE
  8
1
 62
2
  6
CONTINUOUS
 10
118.616446
 20
137.246378
 11
119.116446
 21
137.330663
  0
LINE
  8
1
 62
2
  6
CONTINUOUS
 10
118.116446
 20
137.330663
 11
118.616446
 21
137.246378
  0
LINE
  8
1
 62
2
  6
CONTINUOUS
 10
117.616446
 20
137.383089
 11
118.074859
 21
137.337673
  0
LINE
  8
1
 62
2
  6
CONTINUOUS
 10
118.116446
 20
137.400000
 11
118.116446
 21
137.246378
  0
LINE
  8
1
 62
2
  6
CONTINUOUS
 10
118.116446
 20
137.246378
 11
120.616446
 21
137.246378
  0
LINE
  8
1
 62
2
  6
CONTINUOUS
 10
119.116446
 20
137.383089
 11
119.116446
 21
137.246378
  0
LINE
  8
1
 62
2
  6
CONTINUOUS
 10
114.736446
 20
125.425000
 11
114.736446
 21
134.513106
  0
LINE
  8
1
 62
2
  6
CONTINUOUS
 10
114.936446
 20
134.743219
 11
114.836377
 21
134.629513
  0
LINE
  8
1
 62
2
  6
CONTINUOUS
 10
114.836377
 20
134.629513
 11
114.736446
 21
134.513106
  0
LINE
  8
1
 62
2
  6
CONTINUOUS
 10
115.516446
 20
134.743219
 11
114.936446
 21
134.743219
  0
LINE
  8
1
 62
2
  6
CONTINUOUS
 10
123.766446
 20
127.684833
 11
123.766446
 21
123.100000
  0
LINE
  8
1
 62
2
  6
CONTINUOUS
 10
114.936446
 20
134.743219
 11
114.936446
 21
125.225000
  0
LINE
  8
1
 62
132
  6
DASHDOT
 10
109.629305
 20
130.000000
 11
162.351981
 21
129.999968
  0
LINE
  8
1
 62
132
  6
CONTINUOUS
 10
156.536446
 20
133.500000
 11
165.423219
 21
133.499967
  0
LINE
  8
1
 62
132
  6
CONTINUOUS
 10
156.536446
 20
126.500000
 11
163.089886
 21
126.499966
  0
LINE
  8
3
 62
214
  6
CONTINUOUS
 10
130.136577
 20
123.220360
 11
140.303371
 21
100.000000
  0
LINE
  8
3
 62
214
  6
CONTINUOUS
 10
140.303371
 20
100.000000
 11
164.026260
 21
100.000000
  0
TEXT
  8
3
 62
214
  6
CONTINUOUS
 10
146.026260
 20
100.000000
 40
4.000000
 41
1.000000
  1
ｹｰﾌﾞﾙｺﾈｸﾀ
  7
KANJI
 50
0.000000
 51
0.000000
  0
LINE
  8
3
 62
214
  6
CONTINUOUS
 10
130.136577
 20
123.220360
 11
131.385583
 21
121.658315
  0
LINE
  8
3
 62
214
  6
CONTINUOUS
 10
130.136577
 20
123.220360
 11
130.437226
 21
121.243087
  0
LINE
  8
3
 62
214
  6
CONTINUOUS
 10
131.385583
 20
121.658315
 11
130.437226
 21
121.243087
  0
LINE
  8
3
 62
214
  6
CONTINUOUS
 10
130.330284
 20
122.777946
 11
130.954787
 21
121.996923
  0
LINE
  8
3
 62
214
  6
CONTINUOUS
 10
130.330284
 20
122.777946
 11
130.480608
 21
121.789309
  0
LINE
  8
3
 62
214
  6
CONTINUOUS
 10
130.954787
 20
121.996923
 11
130.480608
 21
121.789309
  0
LINE
  8
3
 62
134
  6
CONTINUOUS
 10
159.055898
 20
126.499987
 11
167.789842
 21
110.154039
  0
LINE
  8
3
 62
134
  6
CONTINUOUS
 10
167.789842
 20
110.154039
 11
191.272250
 21
110.154039
  0
TEXT
  8
3
 62
134
  6
CONTINUOUS
 10
169.272250
 20
110.154039
 40
4.000000
 41
1.000000
  1
　接続ｹｰﾌﾞﾙ
  7
KANJI
 50
0.000000
 51
30.000000
  0
LINE
  8
3
 62
134
  6
CONTINUOUS
 10
159.055898
 20
126.499987
 11
160.422864
 21
125.040054
  0
LINE
  8
3
 62
134
  6
CONTINUOUS
 10
159.055898
 20
126.499987
 11
159.509759
 21
124.552165
  0
LINE
  8
3
 62
134
  6
CONTINUOUS
 10
160.422864
 20
125.040054
 11
159.509759
 21
124.552165
  0
LINE
  8
3
 62
134
  6
CONTINUOUS
 10
159.283501
 20
126.074018
 11
159.966984
 21
125.344051
  0
LINE
  8
3
 62
134
  6
CONTINUOUS
 10
159.283501
 20
126.074018
 11
159.510432
 21
125.100107
  0
LINE
  8
3
 62
134
  6
CONTINUOUS
 10
159.966984
 20
125.344051
 11
159.510432
 21
125.100107
  0
DIMENSION
  8
2
 62
134
  6
CONTINUOUS
  2
*D17
 10
112.936446
 20
160.000000
 11
135.332323
 21
160.000000
 70
     0
  1
44
 13
112.936446
 23
146.700000
 14
156.536446
 24
136.850000
 50
0.000000
  0
DIMENSION
  8
3
 62
134
  6
CONTINUOUS
  2
*D18
 10
156.536446
 20
151.480847
 11
174.449078
 21
151.480847
 70
     0
  1
ｹｰﾌﾞﾙ長（標準2m）
 13
156.536446
 23
136.850000
 14
192.208772
 24
143.650000
 50
0.000000
  0
LINE
  8
1
 62
14
  6
CONTINUOUS
 10
51.685689
 20
127.550032
 11
51.685689
 21
127.000032
  0
LINE
  8
1
 62
14
  6
CONTINUOUS
 10
51.685689
 20
127.550032
 11
51.685689
 21
133.000032
  0
LINE
  8
1
 62
7
  6
CONTINUOUS
 10
36.685689
 20
125.499969
 11
36.685689
 21
134.500032
  0
LINE
  8
1
 62
7
  6
DASHDOT
 10
39.685689
 20
131.537058
 11
39.685689
 21
128.498968
  0
LINE
  8
1
 62
14
  6
CONTINUOUS
 10
44.885689
 20
127.171444
 11
44.885689
 21
132.828495
  0
LINE
  8
1
 62
14
  6
CONTINUOUS
 10
44.885689
 20
132.828495
 11
47.685689
 21
127.171444
  0
LINE
  8
1
 62
14
  6
CONTINUOUS
 10
47.685689
 20
132.828495
 11
44.885689
 21
127.171444
  0
LINE
  8
1
 62
14
  6
CONTINUOUS
 10
47.685689
 20
132.828495
 11
44.885689
 21
132.828495
  0
LINE
  8
1
 62
14
  6
CONTINUOUS
 10
47.685689
 20
127.171444
 11
44.885689
 21
127.171444
  0
LINE
  8
1
 62
14
  6
CONTINUOUS
 10
47.685689
 20
127.171444
 11
47.685689
 21
132.828495
  0
LINE
  8
1
 62
14
  6
CONTINUOUS
 10
49.685689
 20
132.828495
 11
49.685689
 21
127.171444
  0
LINE
  8
1
 62
14
  6
CONTINUOUS
 10
51.685689
 20
127.550032
 11
49.685689
 21
127.000032
  0
LINE
  8
1
 62
14
  6
CONTINUOUS
 10
51.685689
 20
132.450032
 11
49.685689
 21
133.000032
  0
LINE
  8
1
 62
14
  6
CONTINUOUS
 10
49.685689
 20
134.500032
 11
49.685689
 21
132.828495
  0
LINE
  8
1
 62
14
  6
CONTINUOUS
 10
49.685689
 20
125.499969
 11
49.685689
 21
127.171444
  0
LINE
  8
1
 62
7
  6
CONTINUOUS
 10
36.685689
 20
134.500032
 11
49.685689
 21
134.500032
  0
LINE
  8
1
 62
7
  6
CONTINUOUS
 10
36.685689
 20
125.499969
 11
49.685689
 21
125.499969
  0
CIRCLE
  8
1
 62
7
  6
CONTINUOUS
 10
39.685689
 20
129.999969
 40
0.782631
  0
CIRCLE
  8
1
 62
7
  6
CONTINUOUS
 10
39.685689
 20
129.999969
 40
1.000000
  0
LINE
  8
1
 62
14
  6
CONTINUOUS
 10
51.931428
 20
127.550032
 11
51.685689
 21
127.550032
  0
LINE
  8
1
 62
14
  6
CONTINUOUS
 10
51.931428
 20
132.450032
 11
51.685689
 21
132.450032
  0
LINE
  8
1
 62
14
  6
CONTINUOUS
 10
51.931428
 20
127.000032
 11
49.685689
 21
127.000032
  0
LINE
  8
1
 62
14
  6
CONTINUOUS
 10
51.931428
 20
133.000032
 11
49.685689
 21
133.000032
  0
LINE
  8
1
 62
7
  6
DASHDOT
 10
53.797397
 20
130.000032
 11
35.633343
 21
130.000032
  0
DIMENSION
  8
2
 62
134
  6
CONTINUOUS
  2
*D19
 10
36.685689
 20
109.546737
 11
44.364960
 21
109.546737
 70
     0
  1
15.5
 13
36.685689
 23
124.499938
 14
51.931428
 24
122.000000
 50
0.000000
  0
DIMENSION
  8
2
 62
134
  6
CONTINUOUS
  2
*D20
 10
28.685689
 20
127.400000
 11
28.685689
 21
139.447301
 70
     0
  1
φ5.2
 13
28.685689
 23
127.400000
 14
28.685689
 24
132.600000
 50
90.000000
  0
TEXT
  8
5
 62
7
  6
CONTINUOUS
 10
237.999322
 20
34.938808
 40
4.000000
 41
1.000000
  1
FTKX 温度変換器　外形図
  7
KANJI
 50
0.000000
 51
0.000000
  0
TEXT
  8
5
 62
7
  6
CONTINUOUS
 10
237.999322
 20
27.426947
 40
4.000000
 41
1.000000
  1
ＫＸ－Ａ１
  7
KANJI
 50
0.000000
 51
0.000000
  0
CIRCLE
  8
1
 62
7
  6
CONTINUOUS
 10
247.767818
 20
130.000000
 40
3.499975
  0
CIRCLE
  8
1
 62
7
  6
CONTINUOUS
 10
247.767818
 20
130.000032
 40
7.437065
  0
CIRCLE
  8
1
 62
7
  6
CONTINUOUS
 10
247.767818
 20
130.000000
 40
7.650000
  0
DIMENSION
  8
2
 62
134
  6
CONTINUOUS
  2
*D21
 10
149.766224
 20
122.562903
 11
149.766224
 21
145.628691
 70
     0
  1
φ15
 13
149.766224
 23
122.562903
 14
149.766224
 24
137.437097
 50
90.000000
  0
TEXT
  8
5
 62
7
  6
CONTINUOUS
 10
172.772351
 20
27.782285
 40
4.000000
 41
1.000000
  1
2016/06/22
  7
KANJI
 50
-0.091868
 51
0.000000
  0
ENDSEC
  0
EOF
