  0
SECTION
  2
HEADER
  9
$ACADVER
  1
AC1009
  9
$INSBASE
 10
0.000000
 20
0.000000
  9
$EXTMIN
 10
0.000000
 20
0.000000
  9
$EXTMAX
 10
105.000000
 20
148.500000
  9
$LIMMIN
 10
0.000000
 20
0.000000
  9
$LIMMAX
 10
105.000000
 20
148.500000
  9
$VIEWCTR
 10
52.500000
 20
74.250000
  9
$VIEWSIZE
 40
148.500000
  9
$PEXTMIN
 10
0.000000
 20
0.000000
 30
0.000000
  9
$PEXTMAX
 10
210.000000
 20
297.000000
 30
0.000000
  9
$SNAPMODE
 70
     0
  9
$SNAPUNIT
 10
1.000000
 20
1.000000
  9
$SNAPBASE
 10
0.000000
 20
0.000000
  9
$SNAPANG
 50
0.000000
  9
$SNAPISOPAIR
 70
     0
  9
$SNAPSTYLE
 70
     0
  9
$GRIDMODE
 70
     0
  9
$GRIDUNIT
 10
0.000000
 20
0.000000
  9
$ORTHOMODE
 70
     0
  9
$REGENMODE
 70
     1
  9
$FILLMODE
 70
     1
  9
$QTEXTMODE
 70
     0
  9
$DRAGMODE
 70
     2
  9
$LTSCALE
 40
0.125000
  9
$OSMODE
 70
     0
  9
$ATTMODE
 70
     1
  9
$TEXTSIZE
 40
2.000000
  9
$TRACEWID
 40
0.050000
  9
$TEXTSTYLE
  7
STANDARD
  9
$CLAYER
  8
0
  9
$CELTYPE
  6
BYLAYER
  9
$CECOLOR
 62
   256
  9
$DIMSCALE
 40
1.000000
  9
$DIMASZ
 40
1.000000
  9
$DIMEXO
 40
0.000000
  9
$DIMDLI
 40
0.500000
  9
$DIMRND
 40
0.000000
  9
$DIMDLE
 40
0.000000
  9
$DIMEXE
 40
0.000000
  9
$DIMTP
 40
0.000000
  9
$DIMTM
 40
0.000000
  9
$DIMTXT
 40
4.000000
  9
$DIMCEN
 40
0.000000
  9
$DIMTSZ
 40
0.000000
  9
$DIMTOL
 70
     0
  9
$DIMLIM
 70
     0
  9
$DIMTIH
 70
     1
  9
$DIMTOH
 70
     1
  9
$DIMSE1
 70
     0
  9
$DIMSE2
 70
     0
  9
$DIMTAD
 70
     0
  9
$DIMZIN
 70
     0
  9
$DIMBLK
  1

  9
$DIMASO
 70
     0
  9
$DIMSHO
 70
     0
  9
$DIMPOST
  1

  9
$DIMAPOST
  1

  9
$DIMALT
 70
     0
  9
$DIMALTD
 70
     0
  9
$DIMALTF
 40
25.400000
  9
$DIMLFAC
 40
1.000000
  9
$DIMTOFL
 70
     0
  9
$DIMTVP
 40
0.000000
  9
$DIMTIX
 70
     0
  9
$DIMSOXD
 70
     0
  9
$DIMSAH
 70
     0
  9
$DIMBLKL
  1

  9
$DIMBLKR
  1

  9
$LUNITS
 70
     2
  9
$LUPREC
 70
     2
  9
$AXISMODE
 70
     0
  9
$AXISUNIT
 10
1.000000
 20
1.000000
  9
$SKETCHINC
 40
0.000000
  9
$FILLETRAD
 40
0.000000
  9
$AUNITS
 70
     1
  9
$AUPREC
 70
     2
  9
$MENU
  1
ACAD
  9
$ELEVATION
 40
0.000000
  9
$THICKNESS
 40
0.000000
  9
$VIEWDIR
 10
0.000000
 20
0.000000
 30
1.000000
  9
$LIMCHECK
 70
     1
  9
$BLIPMODE
 70
     1
  9
$CHAMFERA
 40
0.000000
  9
$CHAMFERB
 40
0.000000
  9
$FASTZOOM
 70
     1
  9
$SKPOLY
 70
     0
  9
$TDCREATE
 40
0.000000
  9
$TDUPDATE
 40
0.000000
  9
$TDINDWG
 40
0.000000
  9
$TDUSRTIMER
 40
0.000000
  9
$USRTIMER
 70
     1
  9
$ANGBASE
 50
0.000000
  9
$ANGDIR
 70
     0
  9
$PDMODE
 70
     0
  9
$PDSIZE
 40
0.000000
  9
$PLINEWID
 40
0.000000
  9
$COORDS
 70
     2
  9
$USERI1
 70
     0
  9
$USERI2
 70
     0
  9
$USERI3
 70
     0
  9
$USERI4
 70
     0
  9
$USERI5
 70
     0
  9
$USERR1
 40
0.000000
  9
$USERR2
 40
0.000000
  9
$USERR3
 40
0.000000
  9
$USERR4
 40
0.000000
  9
$USERR5
 40
0.000000
  0
ENDSEC
  0
SECTION
  2
TABLES
  0
TABLE
  2
LTYPE
 70
     5
  0
LTYPE
  2
CONTINUOUS
 70
    64
  3
Solid line
 72
    65
 73
     0
 40
0.0
  0
LTYPE
  2
HIDDEN
 70
    64
  3
------------------------
 72
    65
 73
     2
 40
12.6
 49
8.4
 49
-4.2
  0
LTYPE
  2
DOT
 70
    64
  3
････････････････････････
 72
    65
 73
     2
 40
8.0
 49
6.0
 49
-2.0
  0
LTYPE
  2
DASHDOT
 70
    64
  3
--･--･--･--･--･--･--･--
 72
    65
 73
     4
 40
50.5
 49
30.0
 49
-9.0
 49
2.5
 49
-9.0
  0
LTYPE
  2
DIVIDE
 70
    64
  3
--･･--･･--･･--･･--･･--
 72
    65
 73
     6
 40
58.0
 49
30.0
 49
-9.0
 49
2.5
 49
-5.0
 49
2.5
 49
-9.0
  0
LTYPE
  2
ACAD_ISO06W100
 70
    64
  3
____ ... ____ ... ____
 72
    65
 73
     8
 40
37.5
 49
24.0
 49
-3.0
 49
0.5
 49
-3.0
 49
0.5
 49
-3.0
 49
0.5
 49
-3.0
  0
LTYPE
  2
ACAD_ISO14W100
 70
    64
  3
__ . . . __ . . . __ . . . 
 72
    65
 73
     8
 40
25.5
 49
12.0
 49
-3.0
 49
0.5
 49
-3.0
 49
0.5
 49
-3.0
 49
0.5
 49
-3.0
  0
ENDTAB
  0
TABLE
  2
LAYER
 70
3
  0
LAYER
  2
1
 70
64
 62
7
  6
CONTINUOUS
  0
LAYER
  2
2
 70
64
 62
134
  6
CONTINUOUS
  0
LAYER
  2
5
 70
64
 62
94
  6
CONTINUOUS
  0
ENDTAB
  0
TABLE
  2
STYLE
 70
     2
  0
STYLE
  2
STANDARD
 70
    64
 40
0.0
 41
1.0
 50
0.0
 71
     0
 42
0.2
  3
TXT
  4

  0
STYLE
  2
KANJI
 70
    64
 40
0.0
 41
1.0
 50
0.0
 71
     0
 42
0.2
  3
TXT
  4
BIGFONT
  0
ENDTAB
  0
TABLE
  2
VIEW
 70
     0
  0
ENDTAB
  0
ENDSEC
  0
SECTION
  2
BLOCKS
  0
BLOCK
  8
2
 62
134
  6
CONTINUOUS
  2
*D1
 70
    65
 10
0.0
 20
0.0
  0
LINE
  8
2
 62
134
  6
CONTINUOUS
 10
84.214771
 20
80.252053
 11
84.214771
 21
89.752053
  0
LINE
  8
2
 62
134
  6
CONTINUOUS
 10
84.714771
 20
80.252053
 11
75.276871
 21
80.252053
  0
LINE
  8
2
 62
134
  6
CONTINUOUS
 10
84.714771
 20
89.752053
 11
83.039390
 21
89.752053
  0
LINE
  8
2
 62
134
  6
CONTINUOUS
 10
84.214771
 20
80.252053
 11
83.955952
 21
81.217979
  0
LINE
  8
2
 62
134
  6
CONTINUOUS
 10
84.214771
 20
80.252053
 11
84.473590
 21
81.217979
  0
LINE
  8
2
 62
134
  6
CONTINUOUS
 10
83.955952
 20
81.217979
 11
84.473590
 21
81.217979
  0
LINE
  8
2
 62
134
  6
CONTINUOUS
 10
84.214771
 20
80.493535
 11
84.085361
 21
80.976498
  0
LINE
  8
2
 62
134
  6
CONTINUOUS
 10
84.214771
 20
80.493535
 11
84.344180
 21
80.976498
  0
LINE
  8
2
 62
134
  6
CONTINUOUS
 10
84.085361
 20
80.976498
 11
84.344180
 21
80.976498
  0
LINE
  8
2
 62
134
  6
CONTINUOUS
 10
84.214771
 20
89.752053
 11
84.473590
 21
88.786127
  0
LINE
  8
2
 62
134
  6
CONTINUOUS
 10
84.214771
 20
89.752053
 11
83.955952
 21
88.786127
  0
LINE
  8
2
 62
134
  6
CONTINUOUS
 10
84.473590
 20
88.786127
 11
83.955952
 21
88.786127
  0
LINE
  8
2
 62
134
  6
CONTINUOUS
 10
84.214771
 20
89.510572
 11
84.344180
 21
89.027609
  0
LINE
  8
2
 62
134
  6
CONTINUOUS
 10
84.214771
 20
89.510572
 11
84.085361
 21
89.027609
  0
LINE
  8
2
 62
134
  6
CONTINUOUS
 10
84.344180
 20
89.027609
 11
84.085361
 21
89.027609
  0
TEXT
  8
2
 62
134
  6
CONTINUOUS
 10
84.214771
 20
83.527736
 40
2.000000
 41
0.500000
  1
9.5
  7
KANJI
 50
90.000000
 51
0.000000
  0
ENDBLK
  0
BLOCK
  8
2
 62
134
  6
CONTINUOUS
  2
*D2
 70
    65
 10
0.0
 20
0.0
  0
LINE
  8
2
 62
134
  6
CONTINUOUS
 10
87.240914
 20
85.752053
 11
87.240914
 21
93.752053
  0
LINE
  8
2
 62
134
  6
CONTINUOUS
 10
87.740914
 20
85.752053
 11
80.976871
 21
85.752053
  0
LINE
  8
2
 62
134
  6
CONTINUOUS
 10
87.740914
 20
93.752053
 11
80.976871
 21
93.752053
  0
LINE
  8
2
 62
134
  6
CONTINUOUS
 10
87.240914
 20
85.752053
 11
86.982095
 21
86.717979
  0
LINE
  8
2
 62
134
  6
CONTINUOUS
 10
87.240914
 20
85.752053
 11
87.499733
 21
86.717979
  0
LINE
  8
2
 62
134
  6
CONTINUOUS
 10
86.982095
 20
86.717979
 11
87.499733
 21
86.717979
  0
LINE
  8
2
 62
134
  6
CONTINUOUS
 10
87.240914
 20
85.993535
 11
87.111505
 21
86.476498
  0
LINE
  8
2
 62
134
  6
CONTINUOUS
 10
87.240914
 20
85.993535
 11
87.370324
 21
86.476498
  0
LINE
  8
2
 62
134
  6
CONTINUOUS
 10
87.111505
 20
86.476498
 11
87.370324
 21
86.476498
  0
LINE
  8
2
 62
134
  6
CONTINUOUS
 10
87.240914
 20
93.752053
 11
87.499733
 21
92.786127
  0
LINE
  8
2
 62
134
  6
CONTINUOUS
 10
87.240914
 20
93.752053
 11
86.982095
 21
92.786127
  0
LINE
  8
2
 62
134
  6
CONTINUOUS
 10
87.499733
 20
92.786127
 11
86.982095
 21
92.786127
  0
LINE
  8
2
 62
134
  6
CONTINUOUS
 10
87.240914
 20
93.510572
 11
87.370324
 21
93.027609
  0
LINE
  8
2
 62
134
  6
CONTINUOUS
 10
87.240914
 20
93.510572
 11
87.111505
 21
93.027609
  0
LINE
  8
2
 62
134
  6
CONTINUOUS
 10
87.370324
 20
93.027609
 11
87.111505
 21
93.027609
  0
TEXT
  8
2
 62
134
  6
CONTINUOUS
 10
87.240914
 20
86.120989
 40
2.000000
 41
0.500000
  1
M8P0.75
  7
KANJI
 50
90.000000
 51
0.000000
  0
ENDBLK
  0
BLOCK
  8
2
 62
134
  6
CONTINUOUS
  2
*D3
 70
    65
 10
0.0
 20
0.0
  0
LINE
  8
2
 62
134
  6
CONTINUOUS
 10
90.050904
 20
80.252053
 11
90.050904
 21
99.652053
  0
LINE
  8
2
 62
134
  6
CONTINUOUS
 10
90.550904
 20
80.252053
 11
75.276871
 21
80.252053
  0
LINE
  8
2
 62
134
  6
CONTINUOUS
 10
90.550904
 20
99.652053
 11
76.276871
 21
99.652053
  0
LINE
  8
2
 62
134
  6
CONTINUOUS
 10
90.050904
 20
80.252053
 11
89.792085
 21
81.217979
  0
LINE
  8
2
 62
134
  6
CONTINUOUS
 10
90.050904
 20
80.252053
 11
90.309723
 21
81.217979
  0
LINE
  8
2
 62
134
  6
CONTINUOUS
 10
89.792085
 20
81.217979
 11
90.309723
 21
81.217979
  0
LINE
  8
2
 62
134
  6
CONTINUOUS
 10
90.050904
 20
80.493535
 11
89.921495
 21
80.976498
  0
LINE
  8
2
 62
134
  6
CONTINUOUS
 10
90.050904
 20
80.493535
 11
90.180314
 21
80.976498
  0
LINE
  8
2
 62
134
  6
CONTINUOUS
 10
89.921495
 20
80.976498
 11
90.180314
 21
80.976498
  0
LINE
  8
2
 62
134
  6
CONTINUOUS
 10
90.050904
 20
99.652053
 11
90.309723
 21
98.686127
  0
LINE
  8
2
 62
134
  6
CONTINUOUS
 10
90.050904
 20
99.652053
 11
89.792085
 21
98.686127
  0
LINE
  8
2
 62
134
  6
CONTINUOUS
 10
90.309723
 20
98.686127
 11
89.792085
 21
98.686127
  0
LINE
  8
2
 62
134
  6
CONTINUOUS
 10
90.050904
 20
99.410572
 11
90.180314
 21
98.927609
  0
LINE
  8
2
 62
134
  6
CONTINUOUS
 10
90.050904
 20
99.410572
 11
89.921495
 21
98.927609
  0
LINE
  8
2
 62
134
  6
CONTINUOUS
 10
90.180314
 20
98.927609
 11
89.921495
 21
98.927609
  0
TEXT
  8
2
 62
134
  6
CONTINUOUS
 10
90.050904
 20
87.458874
 40
2.000000
 41
0.500000
  1
19.4
  7
KANJI
 50
90.000000
 51
0.000000
  0
ENDBLK
  0
BLOCK
  8
2
 62
134
  6
CONTINUOUS
  2
*D4
 70
    65
 10
0.0
 20
0.0
  0
LINE
  8
2
 62
134
  6
CONTINUOUS
 10
18.980227
 20
104.479495
 11
32.980227
 21
104.479495
  0
LINE
  8
2
 62
134
  6
CONTINUOUS
 10
18.980227
 20
104.979495
 11
18.980227
 21
99.515189
  0
LINE
  8
2
 62
134
  6
CONTINUOUS
 10
32.980227
 20
104.979495
 11
32.980227
 21
99.515189
  0
LINE
  8
2
 62
134
  6
CONTINUOUS
 10
18.980227
 20
104.479495
 11
19.946153
 21
104.738314
  0
LINE
  8
2
 62
134
  6
CONTINUOUS
 10
18.980227
 20
104.479495
 11
19.946153
 21
104.220676
  0
LINE
  8
2
 62
134
  6
CONTINUOUS
 10
19.946153
 20
104.738314
 11
19.946153
 21
104.220676
  0
LINE
  8
2
 62
134
  6
CONTINUOUS
 10
19.221708
 20
104.479495
 11
19.704671
 21
104.608905
  0
LINE
  8
2
 62
134
  6
CONTINUOUS
 10
19.221708
 20
104.479495
 11
19.704671
 21
104.350086
  0
LINE
  8
2
 62
134
  6
CONTINUOUS
 10
19.704671
 20
104.608905
 11
19.704671
 21
104.350086
  0
LINE
  8
2
 62
134
  6
CONTINUOUS
 10
32.980227
 20
104.479495
 11
32.014301
 21
104.220676
  0
LINE
  8
2
 62
134
  6
CONTINUOUS
 10
32.980227
 20
104.479495
 11
32.014301
 21
104.738314
  0
LINE
  8
2
 62
134
  6
CONTINUOUS
 10
32.014301
 20
104.220676
 11
32.014301
 21
104.738314
  0
LINE
  8
2
 62
134
  6
CONTINUOUS
 10
32.738746
 20
104.479495
 11
32.255783
 21
104.350086
  0
LINE
  8
2
 62
134
  6
CONTINUOUS
 10
32.738746
 20
104.479495
 11
32.255783
 21
104.608905
  0
LINE
  8
2
 62
134
  6
CONTINUOUS
 10
32.255783
 20
104.350086
 11
32.255783
 21
104.608905
  0
TEXT
  8
2
 62
134
  6
CONTINUOUS
 10
25.113449
 20
104.479495
 40
2.000000
 41
0.500000
  1
14
  7
KANJI
 50
0.000000
 51
0.000000
  0
ENDBLK
  0
BLOCK
  8
2
 62
134
  6
CONTINUOUS
  2
*D5
 70
    65
 10
0.0
 20
0.0
  0
LINE
  8
2
 62
134
  6
CONTINUOUS
 10
75.776871
 20
76.950602
 11
80.776871
 21
76.950602
  0
LINE
  8
2
 62
134
  6
CONTINUOUS
 10
75.776871
 20
76.450602
 11
75.776871
 21
80.752053
  0
LINE
  8
2
 62
134
  6
CONTINUOUS
 10
80.776871
 20
76.450602
 11
80.776871
 21
85.552053
  0
LINE
  8
2
 62
134
  6
CONTINUOUS
 10
75.776871
 20
76.950602
 11
76.742797
 21
77.209421
  0
LINE
  8
2
 62
134
  6
CONTINUOUS
 10
75.776871
 20
76.950602
 11
76.742797
 21
76.691783
  0
LINE
  8
2
 62
134
  6
CONTINUOUS
 10
76.742797
 20
77.209421
 11
76.742797
 21
76.691783
  0
LINE
  8
2
 62
134
  6
CONTINUOUS
 10
76.018352
 20
76.950602
 11
76.501315
 21
77.080012
  0
LINE
  8
2
 62
134
  6
CONTINUOUS
 10
76.018352
 20
76.950602
 11
76.501315
 21
76.821193
  0
LINE
  8
2
 62
134
  6
CONTINUOUS
 10
76.501315
 20
77.080012
 11
76.501315
 21
76.821193
  0
LINE
  8
2
 62
134
  6
CONTINUOUS
 10
80.776871
 20
76.950602
 11
79.810945
 21
76.691783
  0
LINE
  8
2
 62
134
  6
CONTINUOUS
 10
80.776871
 20
76.950602
 11
79.810945
 21
77.209421
  0
LINE
  8
2
 62
134
  6
CONTINUOUS
 10
79.810945
 20
76.691783
 11
79.810945
 21
77.209421
  0
LINE
  8
2
 62
134
  6
CONTINUOUS
 10
80.535389
 20
76.950602
 11
80.052426
 21
76.821193
  0
LINE
  8
2
 62
134
  6
CONTINUOUS
 10
80.535389
 20
76.950602
 11
80.052426
 21
77.080012
  0
LINE
  8
2
 62
134
  6
CONTINUOUS
 10
80.052426
 20
76.821193
 11
80.052426
 21
77.080012
  0
TEXT
  8
2
 62
134
  6
CONTINUOUS
 10
77.518362
 20
76.950602
 40
2.000000
 41
0.500000
  1
5
  7
KANJI
 50
0.000000
 51
0.000000
  0
ENDBLK
  0
BLOCK
  8
2
 62
134
  6
CONTINUOUS
  2
*D6
 70
    65
 10
0.0
 20
0.0
  0
LINE
  8
2
 62
134
  6
CONTINUOUS
 10
60.776871
 20
76.950602
 11
75.776871
 21
76.950602
  0
LINE
  8
2
 62
134
  6
CONTINUOUS
 10
60.776871
 20
76.450602
 11
60.776871
 21
77.718961
  0
LINE
  8
2
 62
134
  6
CONTINUOUS
 10
75.776871
 20
76.450602
 11
75.776871
 21
80.752053
  0
LINE
  8
2
 62
134
  6
CONTINUOUS
 10
60.776871
 20
76.950602
 11
61.742797
 21
77.209421
  0
LINE
  8
2
 62
134
  6
CONTINUOUS
 10
60.776871
 20
76.950602
 11
61.742797
 21
76.691783
  0
LINE
  8
2
 62
134
  6
CONTINUOUS
 10
61.742797
 20
77.209421
 11
61.742797
 21
76.691783
  0
LINE
  8
2
 62
134
  6
CONTINUOUS
 10
61.018352
 20
76.950602
 11
61.501315
 21
77.080012
  0
LINE
  8
2
 62
134
  6
CONTINUOUS
 10
61.018352
 20
76.950602
 11
61.501315
 21
76.821193
  0
LINE
  8
2
 62
134
  6
CONTINUOUS
 10
61.501315
 20
77.080012
 11
61.501315
 21
76.821193
  0
LINE
  8
2
 62
134
  6
CONTINUOUS
 10
75.776871
 20
76.950602
 11
74.810945
 21
76.691783
  0
LINE
  8
2
 62
134
  6
CONTINUOUS
 10
75.776871
 20
76.950602
 11
74.810945
 21
77.209421
  0
LINE
  8
2
 62
134
  6
CONTINUOUS
 10
74.810945
 20
76.691783
 11
74.810945
 21
77.209421
  0
LINE
  8
2
 62
134
  6
CONTINUOUS
 10
75.535389
 20
76.950602
 11
75.052426
 21
76.821193
  0
LINE
  8
2
 62
134
  6
CONTINUOUS
 10
75.535389
 20
76.950602
 11
75.052426
 21
77.080012
  0
LINE
  8
2
 62
134
  6
CONTINUOUS
 10
75.052426
 20
76.821193
 11
75.052426
 21
77.080012
  0
TEXT
  8
2
 62
134
  6
CONTINUOUS
 10
65.936149
 20
76.950602
 40
2.000000
 41
0.500000
  1
15
  7
KANJI
 50
0.000000
 51
0.000000
  0
ENDBLK
  0
BLOCK
  8
2
 62
134
  6
CONTINUOUS
  2
*D7
 70
    65
 10
0.0
 20
0.0
  0
LINE
  8
2
 62
134
  6
CONTINUOUS
 10
51.776871
 20
73.836319
 11
75.776871
 21
73.836319
  0
LINE
  8
2
 62
134
  6
CONTINUOUS
 10
51.776871
 20
73.336319
 11
51.776871
 21
79.752053
  0
LINE
  8
2
 62
134
  6
CONTINUOUS
 10
75.776871
 20
73.336319
 11
75.776871
 21
80.752053
  0
LINE
  8
2
 62
134
  6
CONTINUOUS
 10
51.776871
 20
73.836319
 11
52.742797
 21
74.095138
  0
LINE
  8
2
 62
134
  6
CONTINUOUS
 10
51.776871
 20
73.836319
 11
52.742797
 21
73.577500
  0
LINE
  8
2
 62
134
  6
CONTINUOUS
 10
52.742797
 20
74.095138
 11
52.742797
 21
73.577500
  0
LINE
  8
2
 62
134
  6
CONTINUOUS
 10
52.018352
 20
73.836319
 11
52.501315
 21
73.965729
  0
LINE
  8
2
 62
134
  6
CONTINUOUS
 10
52.018352
 20
73.836319
 11
52.501315
 21
73.706910
  0
LINE
  8
2
 62
134
  6
CONTINUOUS
 10
52.501315
 20
73.965729
 11
52.501315
 21
73.706910
  0
LINE
  8
2
 62
134
  6
CONTINUOUS
 10
75.776871
 20
73.836319
 11
74.810945
 21
73.577500
  0
LINE
  8
2
 62
134
  6
CONTINUOUS
 10
75.776871
 20
73.836319
 11
74.810945
 21
74.095138
  0
LINE
  8
2
 62
134
  6
CONTINUOUS
 10
74.810945
 20
73.577500
 11
74.810945
 21
74.095138
  0
LINE
  8
2
 62
134
  6
CONTINUOUS
 10
75.535389
 20
73.836319
 11
75.052426
 21
73.706910
  0
LINE
  8
2
 62
134
  6
CONTINUOUS
 10
75.535389
 20
73.836319
 11
75.052426
 21
73.965729
  0
LINE
  8
2
 62
134
  6
CONTINUOUS
 10
75.052426
 20
73.706910
 11
75.052426
 21
73.965729
  0
TEXT
  8
2
 62
134
  6
CONTINUOUS
 10
63.243860
 20
73.836319
 40
2.000000
 41
0.500000
  1
24
  7
KANJI
 50
0.000000
 51
0.000000
  0
ENDBLK
  0
ENDSEC
  0
SECTION
  2
ENTITIES
  0
TEXT
  8
5
 62
94
  6
CONTINUOUS
 10
62.215971
 20
12.429830
 40
0.875000
 41
4.000000
  1
製図
  7
KANJI
 50
-90.000000
 51
0.000000
  0
TEXT
  8
5
 62
94
  6
CONTINUOUS
 10
72.132362
 20
12.347876
 40
0.875000
 41
4.000000
  1
図番
  7
KANJI
 50
-90.000000
 51
0.000000
  0
TEXT
  8
5
 62
94
  6
CONTINUOUS
 10
72.132362
 20
18.986121
 40
0.875000
 41
4.000000
  1
図　名
  7
KANJI
 50
-90.000000
 51
0.000000
  0
TEXT
  8
5
 62
94
  6
CONTINUOUS
 10
39.678720
 20
16.281651
 40
0.875000
 41
4.000000
  1
日付
  7
KANJI
 50
-90.000000
 51
0.000000
  0
TEXT
  8
5
 62
94
  6
CONTINUOUS
 10
57.216799
 20
16.363605
 40
0.875000
 41
4.000000
  1
図法
  7
KANJI
 50
-90.000000
 51
0.000000
  0
TEXT
  8
5
 62
94
  6
CONTINUOUS
 10
57.134846
 20
20.379333
 40
0.875000
 41
4.000000
  1
尺度
  7
KANJI
 50
-90.000000
 51
0.000000
  0
TEXT
  8
5
 62
94
  6
CONTINUOUS
 10
39.678720
 20
20.297379
 40
0.875000
 41
4.000000
  1
公差
  7
KANJI
 50
-90.000000
 51
0.000000
  0
TEXT
  8
5
 62
94
  6
CONTINUOUS
 10
39.678720
 20
12.347876
 40
0.875000
 41
4.000000
  1
承認
  7
KANJI
 50
-90.000000
 51
0.000000
  0
TEXT
  8
5
 62
94
  6
CONTINUOUS
 10
52.217627
 20
12.347876
 40
0.875000
 41
4.000000
  1
設計
  7
KANJI
 50
-90.000000
 51
0.000000
  0
TEXT
  8
5
 62
94
  6
CONTINUOUS
 10
48.939481
 20
5.381816
 40
2.250000
 41
1.888889
  1
ジャパンセンサー株式会社
  7
KANJI
 50
0.000000
 51
0.000000
  0
LINE
  8
5
 62
94
  6
CONTINUOUS
 10
39.234597
 20
20.604085
 11
99.234597
 21
20.604085
  0
LINE
  8
5
 62
94
  6
CONTINUOUS
 10
39.234597
 20
4.604085
 11
39.234597
 21
20.604085
  0
LINE
  8
5
 62
94
  6
CONTINUOUS
 10
99.234597
 20
8.604085
 11
39.234597
 21
8.604085
  0
LINE
  8
5
 62
94
  6
CONTINUOUS
 10
71.734597
 20
20.604085
 11
71.734597
 21
8.604085
  0
LINE
  8
5
 62
94
  6
CONTINUOUS
 10
99.234597
 20
12.604085
 11
39.234597
 21
12.604085
  0
LINE
  8
5
 62
94
  6
CONTINUOUS
 10
74.234597
 20
8.604085
 11
74.234597
 21
20.604085
  0
LINE
  8
5
 62
94
  6
CONTINUOUS
 10
59.234597
 20
20.604085
 11
59.234597
 21
12.604085
  0
LINE
  8
5
 62
94
  6
CONTINUOUS
 10
41.734597
 20
8.604085
 11
41.734597
 21
20.604085
  0
LINE
  8
5
 62
94
  6
CONTINUOUS
 10
39.234597
 20
16.604085
 11
71.734597
 21
16.604085
  0
LINE
  8
5
 62
94
  6
CONTINUOUS
 10
56.734597
 20
20.604085
 11
56.734597
 21
12.604085
  0
LINE
  8
5
 62
94
  6
CONTINUOUS
 10
51.734597
 20
8.604085
 11
51.734597
 21
12.604085
  0
LINE
  8
5
 62
94
  6
CONTINUOUS
 10
61.734597
 20
8.604085
 11
61.734597
 21
12.604085
  0
LINE
  8
5
 62
94
  6
CONTINUOUS
 10
54.234597
 20
12.604085
 11
54.234597
 21
8.604085
  0
LINE
  8
5
 62
94
  6
CONTINUOUS
 10
64.234597
 20
12.604085
 11
64.234597
 21
8.604085
  0
TEXT
  8
5
 62
94
  6
CONTINUOUS
 10
61.232528
 20
13.249366
 40
2.000000
 41
1.000000
  1
三角法
  7
KANJI
 50
0.000000
 51
0.000000
  0
LINE
  8
5
 62
94
  6
CONTINUOUS
 10
75.556448
 20
16.589321
 11
97.626822
 21
16.589321
  0
TEXT
  8
5
 62
94
  6
CONTINUOUS
 10
55.824656
 20
9.573573
 40
2.000000
 41
1.000000
  1
須藤
  7
KANJI
 50
0.000000
 51
0.000000
  0
TEXT
  8
5
 62
94
  6
CONTINUOUS
 10
62.548081
 20
17.466289
 40
2.000000
 41
1.000000
  1
２／１
  7
KANJI
 50
0.000000
 51
0.000000
  0
TEXT
  8
5
 62
94
  6
CONTINUOUS
 10
65.824656
 20
9.573573
 40
2.000000
 41
1.000000
  1
須藤
  7
KANJI
 50
0.000000
 51
0.000000
  0
LINE
  8
5
 62
94
  6
CONTINUOUS
 10
6.734597
 20
142.104085
 11
6.734597
 21
4.604085
  0
LINE
  8
5
 62
94
  6
CONTINUOUS
 10
6.734597
 20
4.604085
 11
99.234597
 21
4.604085
  0
LINE
  8
5
 62
94
  6
CONTINUOUS
 10
99.234597
 20
4.604085
 11
99.234597
 21
142.104085
  0
LINE
  8
5
 62
94
  6
CONTINUOUS
 10
99.234597
 20
142.104085
 11
6.734597
 21
142.104085
  0
TEXT
  8
5
 62
94
  6
CONTINUOUS
 10
76.811453
 20
17.600784
 40
2.000000
 41
1.000000
  1
ＴＭＬＸ－０６
  7
KANJI
 50
0.000000
 51
0.000000
  0
TEXT
  8
5
 62
94
  6
CONTINUOUS
 10
75.695594
 20
13.530056
 40
2.000000
 41
1.000000
  1
φ6直角ミラー 外形図
  7
KANJI
 50
0.000000
 51
0.000000
  0
TEXT
  8
5
 62
94
  6
CONTINUOUS
 10
44.277904
 20
13.519931
 40
2.000000
 41
0.500000
  1
2013/04/20
  7
KANJI
 50
0.000000
 51
0.000000
  0
LINE
  8
1
 62
7
  6
DASHDOT
 10
53.807763
 20
89.752053
 11
79.751415
 21
89.752053
  0
CIRCLE
  8
1
 62
7
  6
CONTINUOUS
 10
72.776871
 20
96.752053
 40
2.000000
  0
LINE
  8
1
 62
7
  6
DASHDOT
 10
70.541747
 20
96.752053
 11
75.441979
 21
96.752053
  0
LINE
  8
1
 62
7
  6
DASHDOT
 10
72.776871
 20
101.001325
 11
72.776871
 21
94.148886
  0
LINE
  8
1
 62
7
  6
DOT
 10
75.776871
 20
94.752053
 11
70.776871
 21
94.752053
  0
LINE
  8
1
 62
7
  6
CONTINUOUS
 10
75.776871
 20
98.752053
 11
69.776871
 21
98.752053
  0
LINE
  8
1
 62
7
  6
CONTINUOUS
 10
75.776871
 20
99.652053
 11
70.676871
 21
99.652053
  0
LINE
  8
1
 62
7
  6
DOT
 10
75.776871
 20
84.752053
 11
70.776871
 21
84.752053
  0
LINE
  8
1
 62
7
  6
DOT
 10
63.776871
 20
92.752056
 11
70.776871
 21
92.752053
  0
LINE
  8
1
 62
7
  6
DOT
 10
57.776871
 20
86.752053
 11
70.776871
 21
86.752053
  0
LINE
  8
1
 62
7
  6
CONTINUOUS
 10
69.776871
 20
98.752053
 11
69.776871
 21
93.852053
  0
LINE
  8
1
 62
7
  6
CONTINUOUS
 10
68.776871
 20
93.852053
 11
69.776871
 21
93.852053
  0
LINE
  8
1
 62
7
  6
DOT
 10
70.776871
 20
94.752053
 11
70.776871
 21
84.752053
  0
LINE
  8
1
 62
7
  6
DOT
 10
64.026871
 20
84.252053
 11
64.026871
 21
83.752053
  0
LINE
  8
1
 62
7
  6
DOT
 10
63.776873
 20
92.752053
 11
63.776873
 21
83.752056
  0
LINE
  8
1
 62
7
  6
DOT
 10
64.026871
 20
84.252053
 11
64.874018
 21
84.252053
  0
LINE
  8
1
 62
7
  6
DOT
 10
57.526871
 20
84.252053
 11
57.526871
 21
83.752053
  0
LINE
  8
1
 62
7
  6
DOT
 10
57.526871
 20
84.252053
 11
56.679724
 21
84.252053
  0
LINE
  8
1
 62
7
  6
DOT
 10
57.526871
 20
83.752053
 11
64.026871
 21
83.752053
  0
LINE
  8
1
 62
7
  6
DOT
 10
57.776871
 20
86.752056
 11
57.776871
 21
83.752053
  0
LINE
  8
1
 62
7
  6
DOT
 10
56.276871
 20
82.750819
 11
65.276871
 21
82.750819
  0
LINE
  8
1
 62
7
  6
DOT
 10
56.679724
 20
83.252053
 11
64.874018
 21
83.252053
  0
LINE
  8
1
 62
7
  6
DOT
 10
65.276871
 20
82.750818
 11
64.872492
 21
83.255904
  0
LINE
  8
1
 62
7
  6
DOT
 10
56.276871
 20
82.750818
 11
56.675237
 21
83.255904
  0
LINE
  8
1
 62
7
  6
CONTINUOUS
 10
68.776871
 20
97.752053
 11
68.776871
 21
93.852053
  0
LINE
  8
1
 62
7
  6
DASHDOT
 10
69.697392
 20
92.852347
 11
65.270759
 21
97.278981
  0
LINE
  8
1
 62
7
  6
DOT
 10
70.022236
 20
92.527503
 11
70.282100
 21
93.497328
  0
LINE
  8
1
 62
7
  6
DOT
 10
70.022236
 20
92.527503
 11
69.055043
 21
92.270271
  0
LINE
  8
1
 62
7
  6
DOT
 10
68.360234
 20
92.776706
 11
69.775665
 21
94.192136
  0
LINE
  8
1
 62
7
  6
DOT
 10
66.080879
 20
95.056061
 11
68.360234
 21
92.776706
  0
LINE
  8
1
 62
7
  6
DOT
 10
67.496310
 20
96.471492
 11
69.775665
 21
94.192136
  0
LINE
  8
1
 62
7
  6
DOT
 10
66.175065
 20
95.150248
 11
69.055043
 21
92.270271
  0
LINE
  8
1
 62
7
  6
DOT
 10
67.402123
 20
96.377305
 11
70.282100
 21
93.497328
  0
LINE
  8
1
 62
7
  6
DOT
 10
69.055043
 20
92.270271
 11
70.282100
 21
93.497328
  0
LINE
  8
1
 62
7
  6
DOT
 10
68.360234
 20
92.776706
 11
68.910255
 21
92.415058
  0
LINE
  8
1
 62
7
  6
DOT
 10
69.775665
 20
94.192136
 11
70.137313
 21
93.642116
  0
LINE
  8
1
 62
7
  6
DOT
 10
68.910255
 20
92.415058
 11
70.137313
 21
93.642116
  0
LINE
  8
1
 62
7
  6
CONTINUOUS
 10
69.776871
 20
98.752053
 11
70.676871
 21
99.652053
  0
LINE
  8
1
 62
7
  6
CONTINUOUS
 10
52.276871
 20
81.252053
 11
75.776871
 21
81.252053
  0
LINE
  8
1
 62
7
  6
CONTINUOUS
 10
75.776871
 20
99.652053
 11
75.776871
 21
81.252053
  0
LINE
  8
1
 62
7
  6
CONTINUOUS
 10
74.776871
 20
80.252053
 11
75.776871
 21
81.252053
  0
LINE
  8
1
 62
7
  6
DOT
 10
56.276871
 20
82.750818
 11
56.276871
 21
80.252053
  0
LINE
  8
1
 62
7
  6
DOT
 10
56.679724
 20
84.252053
 11
56.679724
 21
80.252053
  0
LINE
  8
1
 62
7
  6
DOT
 10
64.874018
 20
84.252053
 11
64.874018
 21
80.252053
  0
LINE
  8
1
 62
7
  6
DOT
 10
65.276871
 20
82.750818
 11
65.276871
 21
80.252053
  0
LINE
  8
1
 62
7
  6
CONTINUOUS
 10
51.776871
 20
80.252053
 11
51.776871
 21
80.752053
  0
LINE
  8
1
 62
7
  6
CONTINUOUS
 10
51.776871
 20
80.252053
 11
74.776871
 21
80.252053
  0
LINE
  8
1
 62
7
  6
CONTINUOUS
 10
51.776871
 20
80.752053
 11
68.776871
 21
97.752053
  0
LINE
  8
1
 62
7
  6
DASHDOT
 10
57.001480
 20
80.092416
 11
51.119199
 21
85.974696
  0
LINE
  8
1
 62
7
  6
DOT
 10
70.776871
 20
93.852053
 11
69.776871
 21
93.852053
  0
LINE
  8
1
 62
7
  6
DASHDOT
 10
60.776871
 20
92.062886
 11
60.776871
 21
78.218961
  0
LINE
  8
1
 62
7
  6
CONTINUOUS
 10
80.776871
 20
86.052053
 11
80.776871
 21
93.452053
  0
LINE
  8
1
 62
7
  6
CONTINUOUS
 10
80.476871
 20
85.752053
 11
80.776871
 21
86.052053
  0
LINE
  8
1
 62
7
  6
CONTINUOUS
 10
76.776871
 20
85.752053
 11
80.476871
 21
85.752053
  0
LINE
  8
1
 62
7
  6
CONTINUOUS
 10
75.776871
 20
85.752053
 11
75.776871
 21
86.158053
  0
LINE
  8
1
 62
7
  6
CONTINUOUS
 10
76.776871
 20
86.158053
 11
75.776871
 21
86.158053
  0
LINE
  8
1
 62
7
  6
CONTINUOUS
 10
76.776871
 20
85.752053
 11
76.776871
 21
86.158053
  0
LINE
  8
1
 62
7
  6
CONTINUOUS
 10
80.776871
 20
86.158053
 11
76.776871
 21
86.158053
  0
LINE
  8
1
 62
7
  6
CONTINUOUS
 10
80.476871
 20
93.752053
 11
80.776871
 21
93.452053
  0
LINE
  8
1
 62
7
  6
CONTINUOUS
 10
76.776871
 20
93.752053
 11
80.476871
 21
93.752053
  0
LINE
  8
1
 62
7
  6
CONTINUOUS
 10
75.776871
 20
93.752053
 11
75.776871
 21
93.346053
  0
LINE
  8
1
 62
7
  6
CONTINUOUS
 10
76.776871
 20
93.346053
 11
75.776871
 21
93.346053
  0
LINE
  8
1
 62
7
  6
CONTINUOUS
 10
80.776871
 20
93.346053
 11
76.776871
 21
93.346053
  0
LINE
  8
1
 62
7
  6
DASHDOT
 10
68.696811
 20
89.752053
 11
82.539390
 21
89.752053
  0
LINE
  8
1
 62
7
  6
DOT
 10
80.776871
 20
92.752053
 11
70.776871
 21
92.752050
  0
LINE
  8
1
 62
7
  6
DOT
 10
80.776871
 20
86.752053
 11
70.776871
 21
86.752056
  0
LINE
  8
1
 62
7
  6
DOT
 10
75.076871
 20
93.752053
 11
75.076871
 21
94.752053
  0
LINE
  8
1
 62
7
  6
DOT
 10
75.076871
 20
85.752053
 11
75.076871
 21
84.752054
  0
LINE
  8
1
 62
7
  6
DOT
 10
70.776871
 20
94.252054
 11
71.276871
 21
94.752054
  0
LINE
  8
1
 62
7
  6
DOT
 10
75.076871
 20
94.752054
 11
71.276871
 21
94.752054
  0
LINE
  8
1
 62
7
  6
DOT
 10
70.776871
 20
85.252053
 11
71.276871
 21
84.752053
  0
LINE
  8
1
 62
7
  6
DOT
 10
75.076871
 20
84.752053
 11
71.276871
 21
84.752053
  0
LINE
  8
1
 62
7
  6
DOT
 10
70.776871
 20
85.252053
 11
70.776871
 21
94.252054
  0
LINE
  8
1
 62
7
  6
DOT
 10
75.776871
 20
93.752053
 11
75.076871
 21
93.752053
  0
LINE
  8
1
 62
7
  6
DOT
 10
75.776871
 20
85.752053
 11
75.076871
 21
85.752053
  0
LINE
  8
1
 62
7
  6
CONTINUOUS
 10
76.776871
 20
93.752053
 11
76.776871
 21
86.158053
  0
LINE
  8
1
 62
7
  6
CONTINUOUS
 10
80.476871
 20
93.752053
 11
80.476871
 21
85.752053
  0
LINE
  8
1
 62
7
  6
CONTINUOUS
 10
66.797366
 20
100.015189
 11
49.816716
 21
83.034539
  0
LINE
  8
1
 62
7
  6
CONTINUOUS
 10
49.816716
 20
83.034539
 11
51.938036
 21
80.913218
  0
LINE
  8
1
 62
7
  6
CONTINUOUS
 10
51.938036
 20
80.913218
 11
68.918687
 21
97.893869
  0
LINE
  8
1
 62
7
  6
CONTINUOUS
 10
68.918687
 20
97.893869
 11
66.797366
 21
100.015189
  0
LINE
  8
1
 62
7
  6
DASHDOT
 10
57.759984
 20
92.768940
 11
61.344156
 21
89.184768
  0
LINE
  8
1
 62
7
  6
DASHDOT
 10
63.770392
 20
98.779348
 11
67.354563
 21
95.195176
  0
LINE
  8
1
 62
7
  6
DASHDOT
 10
51.085550
 20
86.008345
 11
54.669722
 21
82.424173
  0
LINE
  8
1
 62
7
  6
DOT
 10
66.080172
 20
99.297995
 11
67.494385
 21
97.883781
  0
LINE
  8
1
 62
7
  6
DOT
 10
63.251744
 20
96.469567
 11
64.665958
 21
95.055354
  0
LINE
  8
1
 62
7
  6
DOT
 10
67.494385
 20
97.883781
 11
64.665958
 21
95.055354
  0
LINE
  8
1
 62
7
  6
DOT
 10
66.964055
 20
97.353451
 11
67.671162
 21
96.646344
  0
LINE
  8
1
 62
7
  6
DOT
 10
65.196288
 20
95.585684
 11
65.903395
 21
94.878577
  0
LINE
  8
1
 62
7
  6
DOT
 10
53.352250
 20
86.570073
 11
54.766463
 21
85.155859
  0
LINE
  8
1
 62
7
  6
DOT
 10
50.523822
 20
83.741645
 11
51.938036
 21
82.327432
  0
LINE
  8
1
 62
7
  6
DOT
 10
54.766463
 20
85.155859
 11
51.938036
 21
82.327432
  0
LINE
  8
1
 62
7
  6
DOT
 10
54.236133
 20
84.625529
 11
54.943240
 21
83.918422
  0
LINE
  8
1
 62
7
  6
DOT
 10
52.468366
 20
82.857762
 11
53.175473
 21
82.150655
  0
LINE
  8
1
 62
7
  6
DOT
 10
55.013771
 20
85.544588
 11
55.296613
 21
85.261745
  0
LINE
  8
1
 62
7
  6
DOT
 10
64.984336
 20
95.515153
 11
65.267179
 21
95.232310
  0
LINE
  8
1
 62
7
  6
DOT
 10
64.984336
 20
95.515153
 11
55.013771
 21
85.544588
  0
LINE
  8
1
 62
7
  6
DOT
 10
55.296613
 20
85.261745
 11
54.448085
 21
84.413217
  0
LINE
  8
1
 62
7
  6
DOT
 10
55.791588
 20
84.766771
 11
55.296613
 21
85.261745
  0
LINE
  8
1
 62
7
  6
DOT
 10
65.267179
 20
95.232310
 11
65.762153
 21
94.737336
  0
LINE
  8
1
 62
7
  6
DOT
 10
66.115707
 20
96.080839
 11
65.267179
 21
95.232310
  0
LINE
  8
1
 62
7
  6
DOT
 10
66.610682
 20
95.585864
 11
66.115707
 21
96.080839
  0
LINE
  8
1
 62
7
  6
DASHDOT
 10
33.296895
 20
96.752051
 11
18.169188
 21
96.752051
  0
LINE
  8
1
 62
7
  6
DOT
 10
25.480227
 20
95.886251
 11
18.980227
 21
95.886251
  0
LINE
  8
1
 62
7
  6
DOT
 10
25.480227
 20
95.753051
 11
18.980227
 21
95.753051
  0
LINE
  8
1
 62
7
  6
DOT
 10
25.480227
 20
97.621572
 11
18.980227
 21
97.621572
  0
LINE
  8
1
 62
7
  6
DOT
 10
25.480227
 20
97.754772
 11
18.980227
 21
97.754772
  0
LINE
  8
1
 62
7
  6
DOT
 10
30.980227
 20
97.752051
 11
26.480227
 21
97.752051
  0
LINE
  8
1
 62
7
  6
DOT
 10
30.980227
 20
95.752051
 11
26.480227
 21
95.752051
  0
LINE
  8
1
 62
7
  6
DOT
 10
32.980227
 20
98.752051
 11
30.980227
 21
98.752051
  0
LINE
  8
1
 62
7
  6
DOT
 10
30.980227
 20
98.752051
 11
30.980227
 21
94.752051
  0
LINE
  8
1
 62
7
  6
DOT
 10
30.980227
 20
94.752051
 11
32.980227
 21
94.752051
  0
LINE
  8
1
 62
7
  6
CONTINUOUS
 10
23.180225
 20
97.883781
 11
23.172614
 21
98.007038
  0
LINE
  8
1
 62
7
  6
CONTINUOUS
 10
23.172614
 20
98.007038
 11
23.149840
 21
98.129357
  0
LINE
  8
1
 62
7
  6
CONTINUOUS
 10
23.149840
 20
98.129357
 11
23.112077
 21
98.249807
  0
LINE
  8
1
 62
7
  6
CONTINUOUS
 10
23.112077
 20
98.249807
 11
23.059610
 21
98.367471
  0
LINE
  8
1
 62
7
  6
CONTINUOUS
 10
23.059610
 20
98.367471
 11
22.992840
 21
98.481454
  0
LINE
  8
1
 62
7
  6
CONTINUOUS
 10
22.992840
 20
98.481454
 11
22.912276
 21
98.590888
  0
LINE
  8
1
 62
7
  6
CONTINUOUS
 10
22.912276
 20
98.590888
 11
22.818529
 21
98.694941
  0
LINE
  8
1
 62
7
  6
CONTINUOUS
 10
22.818529
 20
98.694941
 11
22.712314
 21
98.792820
  0
LINE
  8
1
 62
7
  6
CONTINUOUS
 10
22.712314
 20
98.792820
 11
22.594438
 21
98.883781
  0
LINE
  8
1
 62
7
  6
CONTINUOUS
 10
22.594438
 20
98.883781
 11
22.465800
 21
98.967132
  0
LINE
  8
1
 62
7
  6
CONTINUOUS
 10
22.465800
 20
98.967132
 11
22.327378
 21
99.042237
  0
LINE
  8
1
 62
7
  6
CONTINUOUS
 10
22.327378
 20
99.042237
 11
22.180225
 21
99.108526
  0
LINE
  8
1
 62
7
  6
CONTINUOUS
 10
22.180225
 20
99.108526
 11
22.025461
 21
99.165494
  0
LINE
  8
1
 62
7
  6
CONTINUOUS
 10
22.025461
 20
99.165494
 11
21.864265
 21
99.212707
  0
LINE
  8
1
 62
7
  6
CONTINUOUS
 10
21.864265
 20
99.212707
 11
21.697863
 21
99.249807
  0
LINE
  8
1
 62
7
  6
CONTINUOUS
 10
21.697863
 20
99.249807
 11
21.527521
 21
99.276510
  0
LINE
  8
1
 62
7
  6
CONTINUOUS
 10
21.527521
 20
99.276510
 11
21.354536
 21
99.292613
  0
LINE
  8
1
 62
7
  6
CONTINUOUS
 10
21.354536
 20
99.292613
 11
21.180225
 21
99.297995
  0
LINE
  8
1
 62
7
  6
CONTINUOUS
 10
21.180225
 20
99.297995
 11
21.005913
 21
99.292613
  0
LINE
  8
1
 62
7
  6
CONTINUOUS
 10
21.005913
 20
99.292613
 11
20.832929
 21
99.276510
  0
LINE
  8
1
 62
7
  6
CONTINUOUS
 10
20.832929
 20
99.276510
 11
20.662587
 21
99.249807
  0
LINE
  8
1
 62
7
  6
CONTINUOUS
 10
20.662587
 20
99.249807
 11
20.496185
 21
99.212707
  0
LINE
  8
1
 62
7
  6
CONTINUOUS
 10
20.496185
 20
99.212707
 11
20.334988
 21
99.165494
  0
LINE
  8
1
 62
7
  6
CONTINUOUS
 10
20.334988
 20
99.165494
 11
20.180225
 21
99.108526
  0
LINE
  8
1
 62
7
  6
CONTINUOUS
 10
20.180225
 20
99.108526
 11
20.033072
 21
99.042237
  0
LINE
  8
1
 62
7
  6
CONTINUOUS
 10
20.033072
 20
99.042237
 11
19.894650
 21
98.967132
  0
LINE
  8
1
 62
7
  6
CONTINUOUS
 10
19.894650
 20
98.967132
 11
19.766011
 21
98.883781
  0
LINE
  8
1
 62
7
  6
CONTINUOUS
 10
19.766011
 20
98.883781
 11
19.648136
 21
98.792820
  0
LINE
  8
1
 62
7
  6
CONTINUOUS
 10
19.648136
 20
98.792820
 11
19.541921
 21
98.694941
  0
LINE
  8
1
 62
7
  6
CONTINUOUS
 10
19.541921
 20
98.694941
 11
19.448174
 21
98.590888
  0
LINE
  8
1
 62
7
  6
CONTINUOUS
 10
19.448174
 20
98.590888
 11
19.367609
 21
98.481454
  0
LINE
  8
1
 62
7
  6
CONTINUOUS
 10
19.367609
 20
98.481454
 11
19.300840
 21
98.367471
  0
LINE
  8
1
 62
7
  6
CONTINUOUS
 10
19.300840
 20
98.367471
 11
19.248373
 21
98.249807
  0
LINE
  8
1
 62
7
  6
CONTINUOUS
 10
19.248373
 20
98.249807
 11
19.210609
 21
98.129357
  0
LINE
  8
1
 62
7
  6
CONTINUOUS
 10
19.210609
 20
98.129357
 11
19.187835
 21
98.007038
  0
LINE
  8
1
 62
7
  6
CONTINUOUS
 10
19.187835
 20
98.007038
 11
19.180225
 21
97.883781
  0
LINE
  8
1
 62
7
  6
CONTINUOUS
 10
19.180225
 20
97.883781
 11
19.187835
 21
97.760524
  0
LINE
  8
1
 62
7
  6
CONTINUOUS
 10
19.187835
 20
97.760524
 11
19.210609
 21
97.638206
  0
LINE
  8
1
 62
7
  6
CONTINUOUS
 10
19.210609
 20
97.638206
 11
19.248373
 21
97.517756
  0
LINE
  8
1
 62
7
  6
CONTINUOUS
 10
19.248373
 20
97.517756
 11
19.300840
 21
97.400092
  0
LINE
  8
1
 62
7
  6
CONTINUOUS
 10
19.300840
 20
97.400092
 11
19.367609
 21
97.286109
  0
LINE
  8
1
 62
7
  6
CONTINUOUS
 10
19.367609
 20
97.286109
 11
19.448174
 21
97.176674
  0
LINE
  8
1
 62
7
  6
CONTINUOUS
 10
19.448174
 20
97.176674
 11
19.541921
 21
97.072622
  0
LINE
  8
1
 62
7
  6
CONTINUOUS
 10
19.541921
 20
97.072622
 11
19.648136
 21
96.974742
  0
LINE
  8
1
 62
7
  6
CONTINUOUS
 10
19.648136
 20
96.974742
 11
19.766011
 21
96.883781
  0
LINE
  8
1
 62
7
  6
CONTINUOUS
 10
19.766011
 20
96.883781
 11
19.894650
 21
96.800431
  0
LINE
  8
1
 62
7
  6
CONTINUOUS
 10
19.894650
 20
96.800431
 11
20.033072
 21
96.725325
  0
LINE
  8
1
 62
7
  6
CONTINUOUS
 10
20.033072
 20
96.725325
 11
20.180225
 21
96.659036
  0
LINE
  8
1
 62
7
  6
CONTINUOUS
 10
20.180225
 20
96.659036
 11
20.334988
 21
96.602068
  0
LINE
  8
1
 62
7
  6
CONTINUOUS
 10
20.334988
 20
96.602068
 11
20.496185
 21
96.554855
  0
LINE
  8
1
 62
7
  6
CONTINUOUS
 10
20.496185
 20
96.554855
 11
20.662587
 21
96.517756
  0
LINE
  8
1
 62
7
  6
CONTINUOUS
 10
20.662587
 20
96.517756
 11
20.832929
 21
96.491053
  0
LINE
  8
1
 62
7
  6
CONTINUOUS
 10
20.832929
 20
96.491053
 11
21.005913
 21
96.474949
  0
LINE
  8
1
 62
7
  6
CONTINUOUS
 10
21.005913
 20
96.474949
 11
21.180225
 21
96.469567
  0
LINE
  8
1
 62
7
  6
CONTINUOUS
 10
21.180225
 20
96.469567
 11
21.354536
 21
96.474949
  0
LINE
  8
1
 62
7
  6
CONTINUOUS
 10
21.354536
 20
96.474949
 11
21.527521
 21
96.491053
  0
LINE
  8
1
 62
7
  6
CONTINUOUS
 10
21.527521
 20
96.491053
 11
21.697863
 21
96.517756
  0
LINE
  8
1
 62
7
  6
CONTINUOUS
 10
21.697863
 20
96.517756
 11
21.864265
 21
96.554855
  0
LINE
  8
1
 62
7
  6
CONTINUOUS
 10
21.864265
 20
96.554855
 11
22.025461
 21
96.602068
  0
LINE
  8
1
 62
7
  6
CONTINUOUS
 10
22.025461
 20
96.602068
 11
22.180225
 21
96.659036
  0
LINE
  8
1
 62
7
  6
CONTINUOUS
 10
22.180225
 20
96.659036
 11
22.327378
 21
96.725325
  0
LINE
  8
1
 62
7
  6
CONTINUOUS
 10
22.327378
 20
96.725325
 11
22.465800
 21
96.800431
  0
LINE
  8
1
 62
7
  6
CONTINUOUS
 10
22.465800
 20
96.800431
 11
22.594438
 21
96.883781
  0
LINE
  8
1
 62
7
  6
CONTINUOUS
 10
22.594438
 20
96.883781
 11
22.712314
 21
96.974742
  0
LINE
  8
1
 62
7
  6
CONTINUOUS
 10
22.712314
 20
96.974742
 11
22.818529
 21
97.072622
  0
LINE
  8
1
 62
7
  6
CONTINUOUS
 10
22.818529
 20
97.072622
 11
22.912276
 21
97.176674
  0
LINE
  8
1
 62
7
  6
CONTINUOUS
 10
22.912276
 20
97.176674
 11
22.992840
 21
97.286109
  0
LINE
  8
1
 62
7
  6
CONTINUOUS
 10
22.992840
 20
97.286109
 11
23.059610
 21
97.400092
  0
LINE
  8
1
 62
7
  6
CONTINUOUS
 10
23.059610
 20
97.400092
 11
23.112077
 21
97.517756
  0
LINE
  8
1
 62
7
  6
CONTINUOUS
 10
23.112077
 20
97.517756
 11
23.149840
 21
97.638206
  0
LINE
  8
1
 62
7
  6
CONTINUOUS
 10
23.149840
 20
97.638206
 11
23.172614
 21
97.760524
  0
LINE
  8
1
 62
7
  6
CONTINUOUS
 10
23.172614
 20
97.760524
 11
23.180225
 21
97.883781
  0
LINE
  8
1
 62
7
  6
CONTINUOUS
 10
32.780225
 20
97.883781
 11
32.772614
 21
98.007038
  0
LINE
  8
1
 62
7
  6
CONTINUOUS
 10
32.772614
 20
98.007038
 11
32.749840
 21
98.129357
  0
LINE
  8
1
 62
7
  6
CONTINUOUS
 10
32.749840
 20
98.129357
 11
32.712077
 21
98.249807
  0
LINE
  8
1
 62
7
  6
CONTINUOUS
 10
32.712077
 20
98.249807
 11
32.659610
 21
98.367471
  0
LINE
  8
1
 62
7
  6
CONTINUOUS
 10
32.659610
 20
98.367471
 11
32.592840
 21
98.481454
  0
LINE
  8
1
 62
7
  6
CONTINUOUS
 10
32.592840
 20
98.481454
 11
32.512276
 21
98.590888
  0
LINE
  8
1
 62
7
  6
CONTINUOUS
 10
32.512276
 20
98.590888
 11
32.418529
 21
98.694941
  0
LINE
  8
1
 62
7
  6
CONTINUOUS
 10
32.418529
 20
98.694941
 11
32.312314
 21
98.792820
  0
LINE
  8
1
 62
7
  6
CONTINUOUS
 10
32.312314
 20
98.792820
 11
32.194438
 21
98.883781
  0
LINE
  8
1
 62
7
  6
CONTINUOUS
 10
32.194438
 20
98.883781
 11
32.065800
 21
98.967132
  0
LINE
  8
1
 62
7
  6
CONTINUOUS
 10
32.065800
 20
98.967132
 11
31.927378
 21
99.042237
  0
LINE
  8
1
 62
7
  6
CONTINUOUS
 10
31.927378
 20
99.042237
 11
31.780225
 21
99.108526
  0
LINE
  8
1
 62
7
  6
CONTINUOUS
 10
31.780225
 20
99.108526
 11
31.625461
 21
99.165494
  0
LINE
  8
1
 62
7
  6
CONTINUOUS
 10
31.625461
 20
99.165494
 11
31.464265
 21
99.212707
  0
LINE
  8
1
 62
7
  6
CONTINUOUS
 10
31.464265
 20
99.212707
 11
31.297863
 21
99.249807
  0
LINE
  8
1
 62
7
  6
CONTINUOUS
 10
31.297863
 20
99.249807
 11
31.127521
 21
99.276510
  0
LINE
  8
1
 62
7
  6
CONTINUOUS
 10
31.127521
 20
99.276510
 11
30.954536
 21
99.292613
  0
LINE
  8
1
 62
7
  6
CONTINUOUS
 10
30.954536
 20
99.292613
 11
30.780225
 21
99.297995
  0
LINE
  8
1
 62
7
  6
CONTINUOUS
 10
30.780225
 20
99.297995
 11
30.605913
 21
99.292613
  0
LINE
  8
1
 62
7
  6
CONTINUOUS
 10
30.605913
 20
99.292613
 11
30.432929
 21
99.276510
  0
LINE
  8
1
 62
7
  6
CONTINUOUS
 10
30.432929
 20
99.276510
 11
30.262587
 21
99.249807
  0
LINE
  8
1
 62
7
  6
CONTINUOUS
 10
30.262587
 20
99.249807
 11
30.096185
 21
99.212707
  0
LINE
  8
1
 62
7
  6
CONTINUOUS
 10
30.096185
 20
99.212707
 11
29.934988
 21
99.165494
  0
LINE
  8
1
 62
7
  6
CONTINUOUS
 10
29.934988
 20
99.165494
 11
29.780225
 21
99.108526
  0
LINE
  8
1
 62
7
  6
CONTINUOUS
 10
29.780225
 20
99.108526
 11
29.633072
 21
99.042237
  0
LINE
  8
1
 62
7
  6
CONTINUOUS
 10
29.633072
 20
99.042237
 11
29.494650
 21
98.967132
  0
LINE
  8
1
 62
7
  6
CONTINUOUS
 10
29.494650
 20
98.967132
 11
29.366011
 21
98.883781
  0
LINE
  8
1
 62
7
  6
CONTINUOUS
 10
29.366011
 20
98.883781
 11
29.248136
 21
98.792820
  0
LINE
  8
1
 62
7
  6
CONTINUOUS
 10
29.248136
 20
98.792820
 11
29.141921
 21
98.694941
  0
LINE
  8
1
 62
7
  6
CONTINUOUS
 10
29.141921
 20
98.694941
 11
29.048174
 21
98.590888
  0
LINE
  8
1
 62
7
  6
CONTINUOUS
 10
29.048174
 20
98.590888
 11
28.967609
 21
98.481454
  0
LINE
  8
1
 62
7
  6
CONTINUOUS
 10
28.967609
 20
98.481454
 11
28.900840
 21
98.367471
  0
LINE
  8
1
 62
7
  6
CONTINUOUS
 10
28.900840
 20
98.367471
 11
28.848373
 21
98.249807
  0
LINE
  8
1
 62
7
  6
CONTINUOUS
 10
28.848373
 20
98.249807
 11
28.810609
 21
98.129357
  0
LINE
  8
1
 62
7
  6
CONTINUOUS
 10
28.810609
 20
98.129357
 11
28.787835
 21
98.007038
  0
LINE
  8
1
 62
7
  6
CONTINUOUS
 10
28.787835
 20
98.007038
 11
28.780225
 21
97.883781
  0
LINE
  8
1
 62
7
  6
CONTINUOUS
 10
28.780225
 20
97.883781
 11
28.787835
 21
97.760524
  0
LINE
  8
1
 62
7
  6
CONTINUOUS
 10
28.787835
 20
97.760524
 11
28.810609
 21
97.638206
  0
LINE
  8
1
 62
7
  6
CONTINUOUS
 10
28.810609
 20
97.638206
 11
28.848373
 21
97.517756
  0
LINE
  8
1
 62
7
  6
CONTINUOUS
 10
28.848373
 20
97.517756
 11
28.900840
 21
97.400092
  0
LINE
  8
1
 62
7
  6
CONTINUOUS
 10
28.900840
 20
97.400092
 11
28.967609
 21
97.286109
  0
LINE
  8
1
 62
7
  6
CONTINUOUS
 10
28.967609
 20
97.286109
 11
29.048174
 21
97.176674
  0
LINE
  8
1
 62
7
  6
CONTINUOUS
 10
29.048174
 20
97.176674
 11
29.141921
 21
97.072622
  0
LINE
  8
1
 62
7
  6
CONTINUOUS
 10
29.141921
 20
97.072622
 11
29.248136
 21
96.974742
  0
LINE
  8
1
 62
7
  6
CONTINUOUS
 10
29.248136
 20
96.974742
 11
29.366011
 21
96.883781
  0
LINE
  8
1
 62
7
  6
CONTINUOUS
 10
29.366011
 20
96.883781
 11
29.494650
 21
96.800431
  0
LINE
  8
1
 62
7
  6
CONTINUOUS
 10
29.494650
 20
96.800431
 11
29.633072
 21
96.725325
  0
LINE
  8
1
 62
7
  6
CONTINUOUS
 10
29.633072
 20
96.725325
 11
29.780225
 21
96.659036
  0
LINE
  8
1
 62
7
  6
CONTINUOUS
 10
29.780225
 20
96.659036
 11
29.934988
 21
96.602068
  0
LINE
  8
1
 62
7
  6
CONTINUOUS
 10
29.934988
 20
96.602068
 11
30.096185
 21
96.554855
  0
LINE
  8
1
 62
7
  6
CONTINUOUS
 10
30.096185
 20
96.554855
 11
30.262587
 21
96.517756
  0
LINE
  8
1
 62
7
  6
CONTINUOUS
 10
30.262587
 20
96.517756
 11
30.432929
 21
96.491053
  0
LINE
  8
1
 62
7
  6
CONTINUOUS
 10
30.432929
 20
96.491053
 11
30.605913
 21
96.474949
  0
LINE
  8
1
 62
7
  6
CONTINUOUS
 10
30.605913
 20
96.474949
 11
30.780225
 21
96.469567
  0
LINE
  8
1
 62
7
  6
CONTINUOUS
 10
30.780225
 20
96.469567
 11
30.954536
 21
96.474949
  0
LINE
  8
1
 62
7
  6
CONTINUOUS
 10
30.954536
 20
96.474949
 11
31.127521
 21
96.491053
  0
LINE
  8
1
 62
7
  6
CONTINUOUS
 10
31.127521
 20
96.491053
 11
31.297863
 21
96.517756
  0
LINE
  8
1
 62
7
  6
CONTINUOUS
 10
31.297863
 20
96.517756
 11
31.464265
 21
96.554855
  0
LINE
  8
1
 62
7
  6
CONTINUOUS
 10
31.464265
 20
96.554855
 11
31.625461
 21
96.602068
  0
LINE
  8
1
 62
7
  6
CONTINUOUS
 10
31.625461
 20
96.602068
 11
31.780225
 21
96.659036
  0
LINE
  8
1
 62
7
  6
CONTINUOUS
 10
31.780225
 20
96.659036
 11
31.927378
 21
96.725325
  0
LINE
  8
1
 62
7
  6
CONTINUOUS
 10
31.927378
 20
96.725325
 11
32.065800
 21
96.800431
  0
LINE
  8
1
 62
7
  6
CONTINUOUS
 10
32.065800
 20
96.800431
 11
32.194438
 21
96.883781
  0
LINE
  8
1
 62
7
  6
CONTINUOUS
 10
32.194438
 20
96.883781
 11
32.312314
 21
96.974742
  0
LINE
  8
1
 62
7
  6
CONTINUOUS
 10
32.312314
 20
96.974742
 11
32.418529
 21
97.072622
  0
LINE
  8
1
 62
7
  6
CONTINUOUS
 10
32.418529
 20
97.072622
 11
32.512276
 21
97.176674
  0
LINE
  8
1
 62
7
  6
CONTINUOUS
 10
32.512276
 20
97.176674
 11
32.592840
 21
97.286109
  0
LINE
  8
1
 62
7
  6
CONTINUOUS
 10
32.592840
 20
97.286109
 11
32.659610
 21
97.400092
  0
LINE
  8
1
 62
7
  6
CONTINUOUS
 10
32.659610
 20
97.400092
 11
32.712077
 21
97.517756
  0
LINE
  8
1
 62
7
  6
CONTINUOUS
 10
32.712077
 20
97.517756
 11
32.749840
 21
97.638206
  0
LINE
  8
1
 62
7
  6
CONTINUOUS
 10
32.749840
 20
97.638206
 11
32.772614
 21
97.760524
  0
LINE
  8
1
 62
7
  6
CONTINUOUS
 10
32.772614
 20
97.760524
 11
32.780225
 21
97.883781
  0
LINE
  8
1
 62
7
  6
CONTINUOUS
 10
23.180225
 20
85.155859
 11
23.172614
 21
85.279116
  0
LINE
  8
1
 62
7
  6
CONTINUOUS
 10
23.172614
 20
85.279116
 11
23.149840
 21
85.401435
  0
LINE
  8
1
 62
7
  6
CONTINUOUS
 10
23.149840
 20
85.401435
 11
23.112077
 21
85.521884
  0
LINE
  8
1
 62
7
  6
CONTINUOUS
 10
23.112077
 20
85.521884
 11
23.059610
 21
85.639549
  0
LINE
  8
1
 62
7
  6
CONTINUOUS
 10
23.059610
 20
85.639549
 11
22.992840
 21
85.753532
  0
LINE
  8
1
 62
7
  6
CONTINUOUS
 10
22.992840
 20
85.753532
 11
22.912276
 21
85.862966
  0
LINE
  8
1
 62
7
  6
CONTINUOUS
 10
22.912276
 20
85.862966
 11
22.818529
 21
85.967019
  0
LINE
  8
1
 62
7
  6
CONTINUOUS
 10
22.818529
 20
85.967019
 11
22.712314
 21
86.064898
  0
LINE
  8
1
 62
7
  6
CONTINUOUS
 10
22.712314
 20
86.064898
 11
22.594438
 21
86.155859
  0
LINE
  8
1
 62
7
  6
CONTINUOUS
 10
22.594438
 20
86.155859
 11
22.465800
 21
86.239210
  0
LINE
  8
1
 62
7
  6
CONTINUOUS
 10
22.465800
 20
86.239210
 11
22.327378
 21
86.314315
  0
LINE
  8
1
 62
7
  6
CONTINUOUS
 10
22.327378
 20
86.314315
 11
22.180225
 21
86.380604
  0
LINE
  8
1
 62
7
  6
CONTINUOUS
 10
22.180225
 20
86.380604
 11
22.025461
 21
86.437572
  0
LINE
  8
1
 62
7
  6
CONTINUOUS
 10
22.025461
 20
86.437572
 11
21.864265
 21
86.484785
  0
LINE
  8
1
 62
7
  6
CONTINUOUS
 10
21.864265
 20
86.484785
 11
21.697863
 21
86.521885
  0
LINE
  8
1
 62
7
  6
CONTINUOUS
 10
21.697863
 20
86.521885
 11
21.527521
 21
86.548588
  0
LINE
  8
1
 62
7
  6
CONTINUOUS
 10
21.527521
 20
86.548588
 11
21.354536
 21
86.564691
  0
LINE
  8
1
 62
7
  6
CONTINUOUS
 10
21.354536
 20
86.564691
 11
21.180225
 21
86.570073
  0
LINE
  8
1
 62
7
  6
CONTINUOUS
 10
21.180225
 20
86.570073
 11
21.005913
 21
86.564691
  0
LINE
  8
1
 62
7
  6
CONTINUOUS
 10
21.005913
 20
86.564691
 11
20.832929
 21
86.548588
  0
LINE
  8
1
 62
7
  6
CONTINUOUS
 10
20.832929
 20
86.548588
 11
20.662587
 21
86.521885
  0
LINE
  8
1
 62
7
  6
CONTINUOUS
 10
20.662587
 20
86.521885
 11
20.496185
 21
86.484785
  0
LINE
  8
1
 62
7
  6
CONTINUOUS
 10
20.496185
 20
86.484785
 11
20.334988
 21
86.437572
  0
LINE
  8
1
 62
7
  6
CONTINUOUS
 10
20.334988
 20
86.437572
 11
20.180225
 21
86.380604
  0
LINE
  8
1
 62
7
  6
CONTINUOUS
 10
20.180225
 20
86.380604
 11
20.033072
 21
86.314315
  0
LINE
  8
1
 62
7
  6
CONTINUOUS
 10
20.033072
 20
86.314315
 11
19.894650
 21
86.239210
  0
LINE
  8
1
 62
7
  6
CONTINUOUS
 10
19.894650
 20
86.239210
 11
19.766011
 21
86.155859
  0
LINE
  8
1
 62
7
  6
CONTINUOUS
 10
19.766011
 20
86.155859
 11
19.648136
 21
86.064898
  0
LINE
  8
1
 62
7
  6
CONTINUOUS
 10
19.648136
 20
86.064898
 11
19.541921
 21
85.967019
  0
LINE
  8
1
 62
7
  6
CONTINUOUS
 10
19.541921
 20
85.967019
 11
19.448174
 21
85.862966
  0
LINE
  8
1
 62
7
  6
CONTINUOUS
 10
19.448174
 20
85.862966
 11
19.367609
 21
85.753532
  0
LINE
  8
1
 62
7
  6
CONTINUOUS
 10
19.367609
 20
85.753532
 11
19.300840
 21
85.639549
  0
LINE
  8
1
 62
7
  6
CONTINUOUS
 10
19.300840
 20
85.639549
 11
19.248373
 21
85.521884
  0
LINE
  8
1
 62
7
  6
CONTINUOUS
 10
19.248373
 20
85.521884
 11
19.210609
 21
85.401435
  0
LINE
  8
1
 62
7
  6
CONTINUOUS
 10
19.210609
 20
85.401435
 11
19.187835
 21
85.279116
  0
LINE
  8
1
 62
7
  6
CONTINUOUS
 10
19.187835
 20
85.279116
 11
19.180225
 21
85.155859
  0
LINE
  8
1
 62
7
  6
CONTINUOUS
 10
19.180225
 20
85.155859
 11
19.187835
 21
85.032602
  0
LINE
  8
1
 62
7
  6
CONTINUOUS
 10
19.187835
 20
85.032602
 11
19.210609
 21
84.910283
  0
LINE
  8
1
 62
7
  6
CONTINUOUS
 10
19.210609
 20
84.910283
 11
19.248373
 21
84.789834
  0
LINE
  8
1
 62
7
  6
CONTINUOUS
 10
19.248373
 20
84.789834
 11
19.300840
 21
84.672170
  0
LINE
  8
1
 62
7
  6
CONTINUOUS
 10
19.300840
 20
84.672170
 11
19.367609
 21
84.558187
  0
LINE
  8
1
 62
7
  6
CONTINUOUS
 10
19.367609
 20
84.558187
 11
19.448174
 21
84.448752
  0
LINE
  8
1
 62
7
  6
CONTINUOUS
 10
19.448174
 20
84.448752
 11
19.541921
 21
84.344699
  0
LINE
  8
1
 62
7
  6
CONTINUOUS
 10
19.541921
 20
84.344699
 11
19.648136
 21
84.246820
  0
LINE
  8
1
 62
7
  6
CONTINUOUS
 10
19.648136
 20
84.246820
 11
19.766011
 21
84.155859
  0
LINE
  8
1
 62
7
  6
CONTINUOUS
 10
19.766011
 20
84.155859
 11
19.894650
 21
84.072509
  0
LINE
  8
1
 62
7
  6
CONTINUOUS
 10
19.894650
 20
84.072509
 11
20.033072
 21
83.997403
  0
LINE
  8
1
 62
7
  6
CONTINUOUS
 10
20.033072
 20
83.997403
 11
20.180225
 21
83.931114
  0
LINE
  8
1
 62
7
  6
CONTINUOUS
 10
20.180225
 20
83.931114
 11
20.334988
 21
83.874146
  0
LINE
  8
1
 62
7
  6
CONTINUOUS
 10
20.334988
 20
83.874146
 11
20.496185
 21
83.826933
  0
LINE
  8
1
 62
7
  6
CONTINUOUS
 10
20.496185
 20
83.826933
 11
20.662587
 21
83.789834
  0
LINE
  8
1
 62
7
  6
CONTINUOUS
 10
20.662587
 20
83.789834
 11
20.832929
 21
83.763130
  0
LINE
  8
1
 62
7
  6
CONTINUOUS
 10
20.832929
 20
83.763130
 11
21.005913
 21
83.747027
  0
LINE
  8
1
 62
7
  6
CONTINUOUS
 10
21.005913
 20
83.747027
 11
21.180225
 21
83.741645
  0
LINE
  8
1
 62
7
  6
CONTINUOUS
 10
21.180225
 20
83.741645
 11
21.354536
 21
83.747027
  0
LINE
  8
1
 62
7
  6
CONTINUOUS
 10
21.354536
 20
83.747027
 11
21.527521
 21
83.763130
  0
LINE
  8
1
 62
7
  6
CONTINUOUS
 10
21.527521
 20
83.763130
 11
21.697863
 21
83.789834
  0
LINE
  8
1
 62
7
  6
CONTINUOUS
 10
21.697863
 20
83.789834
 11
21.864265
 21
83.826933
  0
LINE
  8
1
 62
7
  6
CONTINUOUS
 10
21.864265
 20
83.826933
 11
22.025461
 21
83.874146
  0
LINE
  8
1
 62
7
  6
CONTINUOUS
 10
22.025461
 20
83.874146
 11
22.180225
 21
83.931114
  0
LINE
  8
1
 62
7
  6
CONTINUOUS
 10
22.180225
 20
83.931114
 11
22.327378
 21
83.997403
  0
LINE
  8
1
 62
7
  6
CONTINUOUS
 10
22.327378
 20
83.997403
 11
22.465800
 21
84.072509
  0
LINE
  8
1
 62
7
  6
CONTINUOUS
 10
22.465800
 20
84.072509
 11
22.594438
 21
84.155859
  0
LINE
  8
1
 62
7
  6
CONTINUOUS
 10
22.594438
 20
84.155859
 11
22.712314
 21
84.246820
  0
LINE
  8
1
 62
7
  6
CONTINUOUS
 10
22.712314
 20
84.246820
 11
22.818529
 21
84.344699
  0
LINE
  8
1
 62
7
  6
CONTINUOUS
 10
22.818529
 20
84.344699
 11
22.912276
 21
84.448752
  0
LINE
  8
1
 62
7
  6
CONTINUOUS
 10
22.912276
 20
84.448752
 11
22.992840
 21
84.558187
  0
LINE
  8
1
 62
7
  6
CONTINUOUS
 10
22.992840
 20
84.558187
 11
23.059610
 21
84.672170
  0
LINE
  8
1
 62
7
  6
CONTINUOUS
 10
23.059610
 20
84.672170
 11
23.112077
 21
84.789834
  0
LINE
  8
1
 62
7
  6
CONTINUOUS
 10
23.112077
 20
84.789834
 11
23.149840
 21
84.910283
  0
LINE
  8
1
 62
7
  6
CONTINUOUS
 10
23.149840
 20
84.910283
 11
23.172614
 21
85.032602
  0
LINE
  8
1
 62
7
  6
CONTINUOUS
 10
23.172614
 20
85.032602
 11
23.180225
 21
85.155859
  0
LINE
  8
1
 62
7
  6
CONTINUOUS
 10
32.780225
 20
85.155859
 11
32.772614
 21
85.279116
  0
LINE
  8
1
 62
7
  6
CONTINUOUS
 10
32.772614
 20
85.279116
 11
32.749840
 21
85.401435
  0
LINE
  8
1
 62
7
  6
CONTINUOUS
 10
32.749840
 20
85.401435
 11
32.712077
 21
85.521884
  0
LINE
  8
1
 62
7
  6
CONTINUOUS
 10
32.712077
 20
85.521884
 11
32.659610
 21
85.639549
  0
LINE
  8
1
 62
7
  6
CONTINUOUS
 10
32.659610
 20
85.639549
 11
32.592840
 21
85.753532
  0
LINE
  8
1
 62
7
  6
CONTINUOUS
 10
32.592840
 20
85.753532
 11
32.512276
 21
85.862966
  0
LINE
  8
1
 62
7
  6
CONTINUOUS
 10
32.512276
 20
85.862966
 11
32.418529
 21
85.967019
  0
LINE
  8
1
 62
7
  6
CONTINUOUS
 10
32.418529
 20
85.967019
 11
32.312314
 21
86.064898
  0
LINE
  8
1
 62
7
  6
CONTINUOUS
 10
32.312314
 20
86.064898
 11
32.194438
 21
86.155859
  0
LINE
  8
1
 62
7
  6
CONTINUOUS
 10
32.194438
 20
86.155859
 11
32.065800
 21
86.239210
  0
LINE
  8
1
 62
7
  6
CONTINUOUS
 10
32.065800
 20
86.239210
 11
31.927378
 21
86.314315
  0
LINE
  8
1
 62
7
  6
CONTINUOUS
 10
31.927378
 20
86.314315
 11
31.780225
 21
86.380604
  0
LINE
  8
1
 62
7
  6
CONTINUOUS
 10
31.780225
 20
86.380604
 11
31.625461
 21
86.437572
  0
LINE
  8
1
 62
7
  6
CONTINUOUS
 10
31.625461
 20
86.437572
 11
31.464265
 21
86.484785
  0
LINE
  8
1
 62
7
  6
CONTINUOUS
 10
31.464265
 20
86.484785
 11
31.297863
 21
86.521885
  0
LINE
  8
1
 62
7
  6
CONTINUOUS
 10
31.297863
 20
86.521885
 11
31.127521
 21
86.548588
  0
LINE
  8
1
 62
7
  6
CONTINUOUS
 10
31.127521
 20
86.548588
 11
30.954536
 21
86.564691
  0
LINE
  8
1
 62
7
  6
CONTINUOUS
 10
30.954536
 20
86.564691
 11
30.780225
 21
86.570073
  0
LINE
  8
1
 62
7
  6
CONTINUOUS
 10
30.780225
 20
86.570073
 11
30.605913
 21
86.564691
  0
LINE
  8
1
 62
7
  6
CONTINUOUS
 10
30.605913
 20
86.564691
 11
30.432929
 21
86.548588
  0
LINE
  8
1
 62
7
  6
CONTINUOUS
 10
30.432929
 20
86.548588
 11
30.262587
 21
86.521885
  0
LINE
  8
1
 62
7
  6
CONTINUOUS
 10
30.262587
 20
86.521885
 11
30.096185
 21
86.484785
  0
LINE
  8
1
 62
7
  6
CONTINUOUS
 10
30.096185
 20
86.484785
 11
29.934988
 21
86.437572
  0
LINE
  8
1
 62
7
  6
CONTINUOUS
 10
29.934988
 20
86.437572
 11
29.780225
 21
86.380604
  0
LINE
  8
1
 62
7
  6
CONTINUOUS
 10
29.780225
 20
86.380604
 11
29.633072
 21
86.314315
  0
LINE
  8
1
 62
7
  6
CONTINUOUS
 10
29.633072
 20
86.314315
 11
29.494650
 21
86.239210
  0
LINE
  8
1
 62
7
  6
CONTINUOUS
 10
29.494650
 20
86.239210
 11
29.366011
 21
86.155859
  0
LINE
  8
1
 62
7
  6
CONTINUOUS
 10
29.366011
 20
86.155859
 11
29.248136
 21
86.064898
  0
LINE
  8
1
 62
7
  6
CONTINUOUS
 10
29.248136
 20
86.064898
 11
29.141921
 21
85.967019
  0
LINE
  8
1
 62
7
  6
CONTINUOUS
 10
29.141921
 20
85.967019
 11
29.048174
 21
85.862966
  0
LINE
  8
1
 62
7
  6
CONTINUOUS
 10
29.048174
 20
85.862966
 11
28.967609
 21
85.753532
  0
LINE
  8
1
 62
7
  6
CONTINUOUS
 10
28.967609
 20
85.753532
 11
28.900840
 21
85.639549
  0
LINE
  8
1
 62
7
  6
CONTINUOUS
 10
28.900840
 20
85.639549
 11
28.848373
 21
85.521884
  0
LINE
  8
1
 62
7
  6
CONTINUOUS
 10
28.848373
 20
85.521884
 11
28.810609
 21
85.401435
  0
LINE
  8
1
 62
7
  6
CONTINUOUS
 10
28.810609
 20
85.401435
 11
28.787835
 21
85.279116
  0
LINE
  8
1
 62
7
  6
CONTINUOUS
 10
28.787835
 20
85.279116
 11
28.780225
 21
85.155859
  0
LINE
  8
1
 62
7
  6
CONTINUOUS
 10
28.780225
 20
85.155859
 11
28.787835
 21
85.032602
  0
LINE
  8
1
 62
7
  6
CONTINUOUS
 10
28.787835
 20
85.032602
 11
28.810609
 21
84.910283
  0
LINE
  8
1
 62
7
  6
CONTINUOUS
 10
28.810609
 20
84.910283
 11
28.848373
 21
84.789834
  0
LINE
  8
1
 62
7
  6
CONTINUOUS
 10
28.848373
 20
84.789834
 11
28.900840
 21
84.672170
  0
LINE
  8
1
 62
7
  6
CONTINUOUS
 10
28.900840
 20
84.672170
 11
28.967609
 21
84.558187
  0
LINE
  8
1
 62
7
  6
CONTINUOUS
 10
28.967609
 20
84.558187
 11
29.048174
 21
84.448752
  0
LINE
  8
1
 62
7
  6
CONTINUOUS
 10
29.048174
 20
84.448752
 11
29.141921
 21
84.344699
  0
LINE
  8
1
 62
7
  6
CONTINUOUS
 10
29.141921
 20
84.344699
 11
29.248136
 21
84.246820
  0
LINE
  8
1
 62
7
  6
CONTINUOUS
 10
29.248136
 20
84.246820
 11
29.366011
 21
84.155859
  0
LINE
  8
1
 62
7
  6
CONTINUOUS
 10
29.366011
 20
84.155859
 11
29.494650
 21
84.072509
  0
LINE
  8
1
 62
7
  6
CONTINUOUS
 10
29.494650
 20
84.072509
 11
29.633072
 21
83.997403
  0
LINE
  8
1
 62
7
  6
CONTINUOUS
 10
29.633072
 20
83.997403
 11
29.780225
 21
83.931114
  0
LINE
  8
1
 62
7
  6
CONTINUOUS
 10
29.780225
 20
83.931114
 11
29.934988
 21
83.874146
  0
LINE
  8
1
 62
7
  6
CONTINUOUS
 10
29.934988
 20
83.874146
 11
30.096185
 21
83.826933
  0
LINE
  8
1
 62
7
  6
CONTINUOUS
 10
30.096185
 20
83.826933
 11
30.262587
 21
83.789834
  0
LINE
  8
1
 62
7
  6
CONTINUOUS
 10
30.262587
 20
83.789834
 11
30.432929
 21
83.763130
  0
LINE
  8
1
 62
7
  6
CONTINUOUS
 10
30.432929
 20
83.763130
 11
30.605913
 21
83.747027
  0
LINE
  8
1
 62
7
  6
CONTINUOUS
 10
30.605913
 20
83.747027
 11
30.780225
 21
83.741645
  0
LINE
  8
1
 62
7
  6
CONTINUOUS
 10
30.780225
 20
83.741645
 11
30.954536
 21
83.747027
  0
LINE
  8
1
 62
7
  6
CONTINUOUS
 10
30.954536
 20
83.747027
 11
31.127521
 21
83.763130
  0
LINE
  8
1
 62
7
  6
CONTINUOUS
 10
31.127521
 20
83.763130
 11
31.297863
 21
83.789834
  0
LINE
  8
1
 62
7
  6
CONTINUOUS
 10
31.297863
 20
83.789834
 11
31.464265
 21
83.826933
  0
LINE
  8
1
 62
7
  6
CONTINUOUS
 10
31.464265
 20
83.826933
 11
31.625461
 21
83.874146
  0
LINE
  8
1
 62
7
  6
CONTINUOUS
 10
31.625461
 20
83.874146
 11
31.780225
 21
83.931114
  0
LINE
  8
1
 62
7
  6
CONTINUOUS
 10
31.780225
 20
83.931114
 11
31.927378
 21
83.997403
  0
LINE
  8
1
 62
7
  6
CONTINUOUS
 10
31.927378
 20
83.997403
 11
32.065800
 21
84.072509
  0
LINE
  8
1
 62
7
  6
CONTINUOUS
 10
32.065800
 20
84.072509
 11
32.194438
 21
84.155859
  0
LINE
  8
1
 62
7
  6
CONTINUOUS
 10
32.194438
 20
84.155859
 11
32.312314
 21
84.246820
  0
LINE
  8
1
 62
7
  6
CONTINUOUS
 10
32.312314
 20
84.246820
 11
32.418529
 21
84.344699
  0
LINE
  8
1
 62
7
  6
CONTINUOUS
 10
32.418529
 20
84.344699
 11
32.512276
 21
84.448752
  0
LINE
  8
1
 62
7
  6
CONTINUOUS
 10
32.512276
 20
84.448752
 11
32.592840
 21
84.558187
  0
LINE
  8
1
 62
7
  6
CONTINUOUS
 10
32.592840
 20
84.558187
 11
32.659610
 21
84.672170
  0
LINE
  8
1
 62
7
  6
CONTINUOUS
 10
32.659610
 20
84.672170
 11
32.712077
 21
84.789834
  0
LINE
  8
1
 62
7
  6
CONTINUOUS
 10
32.712077
 20
84.789834
 11
32.749840
 21
84.910283
  0
LINE
  8
1
 62
7
  6
CONTINUOUS
 10
32.749840
 20
84.910283
 11
32.772614
 21
85.032602
  0
LINE
  8
1
 62
7
  6
CONTINUOUS
 10
32.772614
 20
85.032602
 11
32.780225
 21
85.155859
  0
LINE
  8
1
 62
7
  6
CONTINUOUS
 10
31.980227
 20
100.015189
 11
32.980227
 21
99.015189
  0
LINE
  8
1
 62
7
  6
CONTINUOUS
 10
31.980227
 20
100.015189
 11
19.980227
 21
100.015189
  0
LINE
  8
1
 62
7
  6
CONTINUOUS
 10
19.980227
 20
100.015189
 11
18.980227
 21
99.015189
  0
LINE
  8
1
 62
7
  6
DOT
 10
25.480227
 20
93.852051
 11
25.480227
 21
99.652051
  0
LINE
  8
1
 62
7
  6
DOT
 10
26.480227
 20
93.852051
 11
25.480227
 21
93.852051
  0
LINE
  8
1
 62
7
  6
DOT
 10
26.480227
 20
99.652051
 11
26.480227
 21
93.852051
  0
LINE
  8
1
 62
7
  6
CONTINUOUS
 10
31.980227
 20
83.034539
 11
32.980227
 21
84.034539
  0
LINE
  8
1
 62
7
  6
CONTINUOUS
 10
31.980227
 20
80.913218
 11
32.980227
 21
81.913218
  0
LINE
  8
1
 62
7
  6
CONTINUOUS
 10
31.980227
 20
83.034539
 11
19.980227
 21
83.034539
  0
LINE
  8
1
 62
7
  6
CONTINUOUS
 10
19.980227
 20
83.034539
 11
18.980227
 21
84.034539
  0
LINE
  8
1
 62
7
  6
CONTINUOUS
 10
32.980227
 20
98.652051
 11
31.980227
 21
99.652051
  0
LINE
  8
1
 62
7
  6
CONTINUOUS
 10
19.980227
 20
99.652051
 11
18.980227
 21
98.652051
  0
LINE
  8
1
 62
7
  6
CONTINUOUS
 10
18.980227
 20
81.252051
 11
19.980227
 21
80.252051
  0
LINE
  8
1
 62
7
  6
CONTINUOUS
 10
19.980227
 20
80.252051
 11
31.980227
 21
80.252051
  0
LINE
  8
1
 62
7
  6
CONTINUOUS
 10
31.980227
 20
80.252051
 11
32.980227
 21
81.252051
  0
LINE
  8
1
 62
7
  6
CONTINUOUS
 10
31.980227
 20
99.652051
 11
26.480227
 21
99.652051
  0
LINE
  8
1
 62
7
  6
CONTINUOUS
 10
25.480227
 20
99.652051
 11
19.980227
 21
99.652051
  0
LINE
  8
1
 62
7
  6
CONTINUOUS
 10
32.980227
 20
99.015189
 11
32.980227
 21
81.252051
  0
LINE
  8
1
 62
7
  6
CONTINUOUS
 10
18.980227
 20
81.252051
 11
18.980227
 21
99.015189
  0
LINE
  8
1
 62
7
  6
CONTINUOUS
 10
31.980227
 20
80.913218
 11
19.980227
 21
80.913218
  0
LINE
  8
1
 62
7
  6
CONTINUOUS
 10
19.980227
 20
80.913218
 11
18.980227
 21
81.913218
  0
LINE
  8
1
 62
7
  6
CONTINUOUS
 10
19.980227
 20
83.034539
 11
19.980227
 21
80.913218
  0
LINE
  8
1
 62
7
  6
CONTINUOUS
 10
31.980227
 20
83.034539
 11
31.980227
 21
80.913218
  0
LINE
  8
1
 62
7
  6
CONTINUOUS
 10
72.776871
 20
97.750869
 11
71.911871
 21
97.251461
  0
LINE
  8
1
 62
7
  6
CONTINUOUS
 10
71.911871
 20
97.251461
 11
71.911871
 21
96.252645
  0
LINE
  8
1
 62
7
  6
CONTINUOUS
 10
71.911871
 20
96.252645
 11
72.776871
 21
95.753237
  0
LINE
  8
1
 62
7
  6
CONTINUOUS
 10
72.776871
 20
95.753237
 11
73.641871
 21
96.252645
  0
LINE
  8
1
 62
7
  6
CONTINUOUS
 10
73.641871
 20
96.252645
 11
73.641871
 21
97.251461
  0
LINE
  8
1
 62
7
  6
CONTINUOUS
 10
73.641871
 20
97.251461
 11
72.776871
 21
97.750869
  0
DIMENSION
  8
2
 62
134
  6
CONTINUOUS
  2
*D1
 10
84.214771
 20
80.252053
 11
84.214771
 21
85.027736
 70
     0
  1
9.5
 13
75.276871
 23
80.252053
 14
83.039390
 24
89.752053
 50
90.000000
  0
DIMENSION
  8
2
 62
134
  6
CONTINUOUS
  2
*D2
 10
87.240914
 20
85.752053
 11
87.240914
 21
89.620989
 70
     0
  1
M8P0.75
 13
80.976871
 23
85.752053
 14
80.976871
 24
93.752053
 50
90.000000
  0
DIMENSION
  8
2
 62
134
  6
CONTINUOUS
  2
*D3
 10
90.050904
 20
80.252053
 11
90.050904
 21
89.458874
 70
     0
  1
19.4
 13
75.276871
 23
80.252053
 14
76.276871
 24
99.652053
 50
90.000000
  0
LINE
  8
1
 62
7
  6
DOT
 10
56.776871
 20
83.752053
 11
56.776871
 21
82.752053
  0
LINE
  8
1
 62
7
  6
DOT
 10
56.776871
 20
82.752053
 11
64.767513
 21
82.752053
  0
LINE
  8
1
 62
7
  6
DOT
 10
64.767513
 20
82.752053
 11
64.767513
 21
83.752053
  0
LINE
  8
1
 62
7
  6
DOT
 10
64.767513
 20
83.752053
 11
56.776871
 21
83.752053
  0
DIMENSION
  8
2
 62
134
  6
CONTINUOUS
  2
*D4
 10
18.980227
 20
104.479495
 11
26.113449
 21
104.479495
 70
     0
  1
14
 13
18.980227
 23
99.515189
 14
32.980227
 24
99.515189
 50
0.000000
  0
LINE
  8
1
 62
7
  6
DASHDOT
 10
25.980225
 20
104.479495
 11
25.980225
 21
76.840422
  0
LINE
  8
1
 62
7
  6
DASHDOT
 10
35.002755
 20
89.752053
 11
15.783806
 21
89.752053
  0
CIRCLE
  8
1
 62
7
  6
CONTINUOUS
 10
75.380192
 20
85.253519
 40
0.500000
  0
CIRCLE
  8
1
 62
7
  6
CONTINUOUS
 10
75.380192
 20
94.250587
 40
0.500000
  0
LINE
  8
2
 62
134
  6
CONTINUOUS
 10
75.428466
 20
85.266325
 11
82.955317
 21
77.195325
  0
LINE
  8
2
 62
134
  6
CONTINUOUS
 10
82.955317
 20
77.195325
 11
88.172483
 21
77.195325
  0
TEXT
  8
2
 62
134
  6
CONTINUOUS
 10
83.172483
 20
77.195325
 40
2.000000
 41
0.500000
  1
Oﾘﾝｸﾞ
  7
KANJI
 50
0.000000
 51
0.000000
  0
LINE
  8
2
 62
134
  6
CONTINUOUS
 10
75.428466
 20
85.266325
 11
76.276532
 21
84.736435
  0
LINE
  8
2
 62
134
  6
CONTINUOUS
 10
75.428466
 20
85.266325
 11
75.897968
 21
84.383393
  0
LINE
  8
2
 62
134
  6
CONTINUOUS
 10
76.276532
 20
84.736435
 11
75.897968
 21
84.383393
  0
LINE
  8
2
 62
134
  6
CONTINUOUS
 10
75.593162
 20
85.089722
 11
76.017195
 21
84.824777
  0
LINE
  8
2
 62
134
  6
CONTINUOUS
 10
75.593162
 20
85.089722
 11
75.827913
 21
84.648256
  0
LINE
  8
2
 62
134
  6
CONTINUOUS
 10
76.017195
 20
84.824777
 11
75.827913
 21
84.648256
  0
LINE
  8
2
 62
134
  6
CONTINUOUS
 10
63.442519
 20
83.252056
 11
78.648255
 21
71.163021
  0
LINE
  8
2
 62
134
  6
CONTINUOUS
 10
78.648255
 20
71.163021
 11
82.704137
 21
71.163021
  0
TEXT
  8
2
 62
134
  6
CONTINUOUS
 10
78.704137
 20
71.031795
 40
2.000000
 41
1.000000
  1
窓材
  7
KANJI
 50
0.000000
 51
0.000000
  0
LINE
  8
2
 62
134
  6
CONTINUOUS
 10
63.442519
 20
83.252056
 11
64.359678
 21
82.853534
  0
LINE
  8
2
 62
134
  6
CONTINUOUS
 10
63.442519
 20
83.252056
 11
64.037541
 21
82.448346
  0
LINE
  8
2
 62
134
  6
CONTINUOUS
 10
64.359678
 20
82.853534
 11
64.037541
 21
82.448346
  0
LINE
  8
2
 62
134
  6
CONTINUOUS
 10
63.631541
 20
83.101777
 11
64.090121
 21
82.902516
  0
LINE
  8
2
 62
134
  6
CONTINUOUS
 10
63.631541
 20
83.101777
 11
63.929052
 21
82.699922
  0
LINE
  8
2
 62
134
  6
CONTINUOUS
 10
64.090121
 20
82.902516
 11
63.929052
 21
82.699922
  0
LINE
  8
2
 62
134
  6
CONTINUOUS
 10
61.842194
 20
91.419882
 11
57.033984
 21
95.168847
  0
LINE
  8
2
 62
134
  6
CONTINUOUS
 10
57.033984
 20
95.168847
 11
49.352233
 21
95.168847
  0
TEXT
  8
2
 62
134
  6
CONTINUOUS
 10
49.352233
 20
95.168847
 40
2.000000
 41
1.000000
  1
反射ﾐﾗｰ
  7
KANJI
 50
0.000000
 51
0.000000
  0
LINE
  8
2
 62
134
  6
CONTINUOUS
 10
61.842194
 20
91.419882
 11
60.921305
 21
91.809707
  0
LINE
  8
2
 62
134
  6
CONTINUOUS
 10
61.842194
 20
91.419882
 11
61.239592
 21
92.217925
  0
LINE
  8
2
 62
134
  6
CONTINUOUS
 10
60.921305
 20
91.809707
 11
61.239592
 21
92.217925
  0
LINE
  8
2
 62
134
  6
CONTINUOUS
 10
61.651757
 20
91.568366
 11
61.191313
 21
91.763278
  0
LINE
  8
2
 62
134
  6
CONTINUOUS
 10
61.651757
 20
91.568366
 11
61.350457
 21
91.967387
  0
LINE
  8
2
 62
134
  6
CONTINUOUS
 10
61.191313
 20
91.763278
 11
61.350457
 21
91.967387
  0
LINE
  8
2
 62
134
  6
CONTINUOUS
 10
71.994971
 20
97.525767
 11
68.416514
 21
101.758840
  0
LINE
  8
2
 62
134
  6
CONTINUOUS
 10
68.416514
 20
101.758840
 11
56.411567
 21
101.758840
  0
TEXT
  8
2
 62
134
  6
CONTINUOUS
 10
56.411567
 20
101.526520
 40
2.000000
 41
1.000000
  1
回転固定ﾈｼﾞ
  7
KANJI
 50
0.000000
 51
0.000000
  0
LINE
  8
2
 62
134
  6
CONTINUOUS
 10
71.994971
 20
97.525767
 11
71.173725
 21
98.096341
  0
LINE
  8
2
 62
134
  6
CONTINUOUS
 10
71.994971
 20
97.525767
 11
71.569038
 21
98.430522
  0
LINE
  8
2
 62
134
  6
CONTINUOUS
 10
71.173725
 20
98.096341
 11
71.569038
 21
98.430522
  0
LINE
  8
2
 62
134
  6
CONTINUOUS
 10
71.839074
 20
97.710183
 11
71.428451
 21
97.995470
  0
LINE
  8
2
 62
134
  6
CONTINUOUS
 10
71.839074
 20
97.710183
 11
71.626108
 21
98.162561
  0
LINE
  8
2
 62
134
  6
CONTINUOUS
 10
71.428451
 20
97.995470
 11
71.626108
 21
98.162561
  0
TEXT
  8
2
 62
134
  6
CONTINUOUS
 10
58.491376
 20
99.673589
 40
2.000000
 41
0.500000
  1
M2
  7
KANJI
 50
0.000000
 51
0.000000
  0
DIMENSION
  8
2
 62
134
  6
CONTINUOUS
  2
*D5
 10
75.776871
 20
76.950602
 11
78.018362
 21
76.950602
 70
     0
  1
5
 13
75.776871
 23
80.752053
 14
80.776871
 24
85.552053
 50
0.000000
  0
DIMENSION
  8
2
 62
134
  6
CONTINUOUS
  2
*D6
 10
60.776871
 20
76.950602
 11
66.936149
 21
76.950602
 70
     0
  1
15
 13
60.776871
 23
77.718961
 14
75.776871
 24
80.752053
 50
0.000000
  0
DIMENSION
  8
2
 62
134
  6
CONTINUOUS
  2
*D7
 10
51.776871
 20
73.836319
 11
64.243860
 21
73.836319
 70
     0
  1
24
 13
51.776871
 23
79.752053
 14
75.776871
 24
80.752053
 50
0.000000
  0
TEXT
  8
2
 62
134
  6
CONTINUOUS
 10
49.698885
 20
70.855140
 40
2.000000
 41
1.000000
  1
光路長： 24.5mm
  7
KANJI
 50
0.000000
 51
0.000000
  0
TEXT
  8
5
 62
94
  6
CONTINUOUS
 10
74.764760
 20
9.494404
 40
2.000000
 41
1.000000
  1
００５－０６５－Ａ１４２
  7
KANJI
 50
0.000000
 51
0.000000
  0
LINE
  8
2
 62
134
  6
CONTINUOUS
 10
15.242143
 20
79.217193
 11
16.103353
 21
78.708943
  0
LINE
  8
2
 62
134
  6
CONTINUOUS
 10
16.103353
 20
78.708943
 11
15.733848
 21
78.346431
  0
LINE
  8
2
 62
134
  6
CONTINUOUS
 10
15.733848
 20
78.346431
 11
15.242143
 21
79.217193
  0
LINE
  8
2
 62
134
  6
CONTINUOUS
 10
35.724740
 20
78.291945
 11
35.156530
 21
77.469061
  0
LINE
  8
2
 62
134
  6
CONTINUOUS
 10
35.156530
 20
77.469061
 11
34.821214
 21
77.863412
  0
LINE
  8
2
 62
134
  6
CONTINUOUS
 10
34.821214
 20
77.863412
 11
35.724740
 21
78.291945
  0
ARC
  8
2
 62
134
  6
CONTINUOUS
 10
25.980225
 20
89.752053
 40
15.042928
 50
-135.547333
 51
-49.625529
  0
TEXT
  8
2
 62
134
  6
CONTINUOUS
 10
24.255313
 20
74.675106
 40
2.000000
 41
1.000000
  1
回転
  7
KANJI
 50
1.046548
 51
0.000000
  0
ENDSEC
  0
EOF
