  0
SECTION
  2
HEADER
  9
$ACADVER
  1
AC1027
  9
$ACADMAINTVER
 70
     8
  9
$DWGCODEPAGE
  3
ANSI_932
  9
$REQUIREDVERSIONS
160
                 0
  9
$INSBASE
 10
0.0
 20
0.0
 30
0.0
  9
$EXTMIN
 10
10.0
 20
9.999999999999865
 30
0.0
  9
$EXTMAX
 10
285.0000000000003
 20
195.0000000000005
 30
0.0
  9
$LIMMIN
 10
0.0
 20
0.0
  9
$LIMMAX
 10
297.0
 20
210.0
  9
$ORTHOMODE
 70
     0
  9
$REGENMODE
 70
     1
  9
$FILLMODE
 70
     1
  9
$QTEXTMODE
 70
     0
  9
$MIRRTEXT
 70
     1
  9
$LTSCALE
 40
0.25
  9
$ATTMODE
 70
     1
  9
$TEXTSIZE
 40
5.0
  9
$TRACEWID
 40
0.05
  9
$TEXTSTYLE
  7
Standard
  9
$CLAYER
  8
0
  9
$CELTYPE
  6
ByLayer
  9
$CECOLOR
 62
   256
  9
$CELTSCALE
 40
1.0
  9
$DISPSILH
 70
     0
  9
$DIMSCALE
 40
1.0
  9
$DIMASZ
 40
4.0
  9
$DIMEXO
 40
2.0
  9
$DIMDLI
 40
10.0
  9
$DIMRND
 40
0.0
  9
$DIMDLE
 40
0.0
  9
$DIMEXE
 40
2.0
  9
$DIMTP
 40
0.0
  9
$DIMTM
 40
0.0
  9
$DIMTXT
 40
3.5
  9
$DIMCEN
 40
0.09
  9
$DIMTSZ
 40
0.0
  9
$DIMTOL
 70
     0
  9
$DIMLIM
 70
     0
  9
$DIMTIH
 70
     0
  9
$DIMTOH
 70
     0
  9
$DIMSE1
 70
     0
  9
$DIMSE2
 70
     0
  9
$DIMTAD
 70
     3
  9
$DIMZIN
 70
     8
  9
$DIMBLK
  1

  9
$DIMASO
 70
     1
  9
$DIMSHO
 70
     1
  9
$DIMPOST
  1

  9
$DIMAPOST
  1

  9
$DIMALT
 70
     0
  9
$DIMALTD
 70
     2
  9
$DIMALTF
 40
25.4
  9
$DIMLFAC
 40
1.0
  9
$DIMTOFL
 70
     1
  9
$DIMTVP
 40
0.7
  9
$DIMTIX
 70
     0
  9
$DIMSOXD
 70
     0
  9
$DIMSAH
 70
     0
  9
$DIMBLK1
  1

  9
$DIMBLK2
  1

  9
$DIMSTYLE
  2
Standard
  9
$DIMCLRD
 70
     0
  9
$DIMCLRE
 70
     0
  9
$DIMCLRT
 70
     0
  9
$DIMTFAC
 40
0.5
  9
$DIMGAP
 40
0.09
  9
$DIMJUST
 70
     0
  9
$DIMSD1
 70
     0
  9
$DIMSD2
 70
     0
  9
$DIMTOLJ
 70
     1
  9
$DIMTZIN
 70
     8
  9
$DIMALTZ
 70
     0
  9
$DIMALTTZ
 70
     0
  9
$DIMUPT
 70
     1
  9
$DIMDEC
 70
     2
  9
$DIMTDEC
 70
     4
  9
$DIMALTU
 70
     2
  9
$DIMALTTD
 70
     2
  9
$DIMTXSTY
  7
Standard
  9
$DIMAUNIT
 70
     0
  9
$DIMADEC
 70
     0
  9
$DIMALTRND
 40
0.0
  9
$DIMAZIN
 70
     0
  9
$DIMDSEP
 70
    46
  9
$DIMATFIT
 70
     2
  9
$DIMFRAC
 70
     0
  9
$DIMLDRBLK
  1

  9
$DIMLUNIT
 70
     2
  9
$DIMLWD
 70
    -2
  9
$DIMLWE
 70
    -2
  9
$DIMTMOVE
 70
     2
  9
$DIMFXL
 40
1.0
  9
$DIMFXLON
 70
     0
  9
$DIMJOGANG
 40
0.7853981633974483
  9
$DIMTFILL
 70
     0
  9
$DIMTFILLCLR
 70
     0
  9
$DIMARCSYM
 70
     0
  9
$DIMLTYPE
  6

  9
$DIMLTEX1
  6

  9
$DIMLTEX2
  6

  9
$DIMTXTDIRECTION
 70
     0
  9
$LUNITS
 70
     2
  9
$LUPREC
 70
     4
  9
$SKETCHINC
 40
0.1
  9
$FILLETRAD
 40
0.5
  9
$AUNITS
 70
     0
  9
$AUPREC
 70
     0
  9
$MENU
  1
.
  9
$ELEVATION
 40
0.0
  9
$PELEVATION
 40
0.0
  9
$THICKNESS
 40
0.0
  9
$LIMCHECK
 70
     0
  9
$CHAMFERA
 40
0.0
  9
$CHAMFERB
 40
0.0
  9
$CHAMFERC
 40
0.0
  9
$CHAMFERD
 40
0.0
  9
$SKPOLY
 70
     0
  9
$TDCREATE
 40
2457037.943310185
  9
$TDUCREATE
 40
2457037.568310185
  9
$TDUPDATE
 40
2457037.568320706
  9
$TDUUPDATE
 40
2457037.193320706
  9
$TDINDWG
 40
0.0000000116
  9
$TDUSRTIMER
 40
0.0000000116
  9
$USRTIMER
 70
     1
  9
$ANGBASE
 50
0.0
  9
$ANGDIR
 70
     0
  9
$PDMODE
 70
     0
  9
$PDSIZE
 40
0.0
  9
$PLINEWID
 40
0.0
  9
$SPLFRAME
 70
     0
  9
$SPLINETYPE
 70
     6
  9
$SPLINESEGS
 70
     8
  9
$HANDSEED
  5
38B
  9
$SURFTAB1
 70
     6
  9
$SURFTAB2
 70
     6
  9
$SURFTYPE
 70
     6
  9
$SURFU
 70
     6
  9
$SURFV
 70
     6
  9
$UCSBASE
  2

  9
$UCSNAME
  2

  9
$UCSORG
 10
0.0
 20
0.0
 30
0.0
  9
$UCSXDIR
 10
1.0
 20
0.0
 30
0.0
  9
$UCSYDIR
 10
0.0
 20
1.0
 30
0.0
  9
$UCSORTHOREF
  2

  9
$UCSORTHOVIEW
 70
     0
  9
$UCSORGTOP
 10
0.0
 20
0.0
 30
0.0
  9
$UCSORGBOTTOM
 10
0.0
 20
0.0
 30
0.0
  9
$UCSORGLEFT
 10
0.0
 20
0.0
 30
0.0
  9
$UCSORGRIGHT
 10
0.0
 20
0.0
 30
0.0
  9
$UCSORGFRONT
 10
0.0
 20
0.0
 30
0.0
  9
$UCSORGBACK
 10
0.0
 20
0.0
 30
0.0
  9
$PUCSBASE
  2

  9
$PUCSNAME
  2

  9
$PUCSORG
 10
0.0
 20
0.0
 30
0.0
  9
$PUCSXDIR
 10
1.0
 20
0.0
 30
0.0
  9
$PUCSYDIR
 10
0.0
 20
1.0
 30
0.0
  9
$PUCSORTHOREF
  2

  9
$PUCSORTHOVIEW
 70
     0
  9
$PUCSORGTOP
 10
0.0
 20
0.0
 30
0.0
  9
$PUCSORGBOTTOM
 10
0.0
 20
0.0
 30
0.0
  9
$PUCSORGLEFT
 10
0.0
 20
0.0
 30
0.0
  9
$PUCSORGRIGHT
 10
0.0
 20
0.0
 30
0.0
  9
$PUCSORGFRONT
 10
0.0
 20
0.0
 30
0.0
  9
$PUCSORGBACK
 10
0.0
 20
0.0
 30
0.0
  9
$USERI1
 70
     0
  9
$USERI2
 70
     0
  9
$USERI3
 70
     0
  9
$USERI4
 70
     0
  9
$USERI5
 70
     0
  9
$USERR1
 40
0.0
  9
$USERR2
 40
0.0
  9
$USERR3
 40
0.0
  9
$USERR4
 40
0.0
  9
$USERR5
 40
0.0
  9
$WORLDVIEW
 70
     1
  9
$SHADEDGE
 70
     3
  9
$SHADEDIF
 70
    70
  9
$TILEMODE
 70
     1
  9
$MAXACTVP
 70
    64
  9
$PINSBASE
 10
0.0
 20
0.0
 30
0.0
  9
$PLIMCHECK
 70
     0
  9
$PEXTMIN
 10
0.0
 20
0.0
 30
0.0
  9
$PEXTMAX
 10
297.0
 20
210.0
 30
0.0
  9
$PLIMMIN
 10
0.0
 20
0.0
  9
$PLIMMAX
 10
297.0
 20
210.0
  9
$UNITMODE
 70
     0
  9
$VISRETAIN
 70
     1
  9
$PLINEGEN
 70
     0
  9
$PSLTSCALE
 70
     1
  9
$TREEDEPTH
 70
  3020
  9
$CMLSTYLE
  2
Standard
  9
$CMLJUST
 70
     0
  9
$CMLSCALE
 40
1.0
  9
$PROXYGRAPHICS
 70
     1
  9
$MEASUREMENT
 70
     1
  9
$CELWEIGHT
370
    -1
  9
$ENDCAPS
280
     0
  9
$JOINSTYLE
280
     0
  9
$LWDISPLAY
290
     0
  9
$INSUNITS
 70
     4
  9
$HYPERLINKBASE
  1

  9
$STYLESHEET
  1

  9
$XEDIT
290
     1
  9
$CEPSNTYPE
380
     0
  9
$PSTYLEMODE
290
     1
  9
$FINGERPRINTGUID
  2
{1930B236-C5D8-4C79-B44C-00B66B416A97}
  9
$VERSIONGUID
  2
{FAEB1C32-E019-11D5-929B-00C0DF256EC4}
  9
$EXTNAMES
290
     1
  9
$PSVPSCALE
 40
0.0
  9
$OLESTARTUP
290
     0
  9
$SORTENTS
280
   127
  9
$INDEXCTL
280
     0
  9
$HIDETEXT
280
     1
  9
$XCLIPFRAME
280
     2
  9
$HALOGAP
280
     0
  9
$OBSCOLOR
 70
   257
  9
$OBSLTYPE
280
     0
  9
$INTERSECTIONDISPLAY
280
     0
  9
$INTERSECTIONCOLOR
 70
   257
  9
$DIMASSOC
280
     1
  9
$PROJECTNAME
  1

  9
$CAMERADISPLAY
290
     0
  9
$LENSLENGTH
 40
50.0
  9
$CAMERAHEIGHT
 40
0.0
  9
$STEPSPERSEC
 40
2.0
  9
$STEPSIZE
 40
6.0
  9
$3DDWFPREC
 40
2.0
  9
$PSOLWIDTH
 40
0.25
  9
$PSOLHEIGHT
 40
4.0
  9
$LOFTANG1
 40
1.570796326794897
  9
$LOFTANG2
 40
1.570796326794897
  9
$LOFTMAG1
 40
0.0
  9
$LOFTMAG2
 40
0.0
  9
$LOFTPARAM
 70
     7
  9
$LOFTNORMALS
280
     1
  9
$LATITUDE
 40
37.795
  9
$LONGITUDE
 40
-122.394
  9
$NORTHDIRECTION
 40
0.0
  9
$TIMEZONE
 70
 -8000
  9
$LIGHTGLYPHDISPLAY
280
     1
  9
$TILEMODELIGHTSYNCH
280
     1
  9
$CMATERIAL
347
44
  9
$SOLIDHIST
280
     1
  9
$SHOWHIST
280
     1
  9
$DWFFRAME
280
     2
  9
$DGNFRAME
280
     2
  9
$REALWORLDSCALE
290
     1
  9
$INTERFERECOLOR
 62
   256
  9
$CSHADOW
280
     0
  9
$SHADOWPLANELOCATION
 40
0.0
  0
ENDSEC
  0
SECTION
  2
CLASSES
  0
CLASS
  1
ACDBDICTIONARYWDFLT
  2
AcDbDictionaryWithDefault
  3
ObjectDBX Classes
 90
        0
 91
        4
280
     0
281
     0
  0
CLASS
  1
VISUALSTYLE
  2
AcDbVisualStyle
  3
ObjectDBX Classes
 90
     4095
 91
        4
280
     0
281
     0
  0
CLASS
  1
MATERIAL
  2
AcDbMaterial
  3
ObjectDBX Classes
 90
     1153
 91
        4
280
     0
281
     0
  0
CLASS
  1
SCALE
  2
AcDbScale
  3
ObjectDBX Classes
 90
     1153
 91
        4
280
     0
281
     0
  0
CLASS
  1
SUN
  2
AcDbSun
  3
SCENEOE
 90
     1153
 91
        4
280
     0
281
     0
  0
CLASS
  1
DICTIONARYVAR
  2
AcDbDictionaryVar
  3
ObjectDBX Classes
 90
        0
 91
        4
280
     0
281
     0
  0
ENDSEC
  0
SECTION
  2
TABLES
  0
TABLE
  2
VPORT
  5
8
330
0
100
AcDbSymbolTable
 70
     1
  0
VPORT
  5
29
330
8
100
AcDbSymbolTableRecord
100
AcDbViewportTableRecord
  2
*Active
 70
     0
 10
0.0
 20
0.0
 11
1.0
 21
1.0
 12
10.42990654205607
 22
4.5
 13
0.0
 23
0.0
 14
0.5
 24
0.5
 15
0.5
 25
0.5
 16
0.0
 26
0.0
 36
1.0
 17
0.0
 27
0.0
 37
0.0
 40
9.0
 41
1.972972972850329
 42
50.0
 43
0.0
 44
0.0
 50
0.0
 51
0.0
 71
     0
 72
   100
 73
     1
 74
     3
 75
     0
 76
     0
 77
     0
 78
     0
281
     0
 65
     1
110
0.0
120
0.0
130
0.0
111
1.0
121
0.0
131
0.0
112
0.0
122
1.0
132
0.0
 79
     0
146
0.0
 60
     3
 61
     5
292
     1
282
     1
141
0.0
142
0.0
 63
   250
361
69
  0
ENDTAB
  0
TABLE
  2
LTYPE
  5
5
330
0
100
AcDbSymbolTable
 70
     9
  0
LTYPE
  5
14
330
5
100
AcDbSymbolTableRecord
100
AcDbLinetypeTableRecord
  2
ByBlock
 70
     0
  3

 72
    65
 73
     0
 40
0.0
  0
LTYPE
  5
15
330
5
100
AcDbSymbolTableRecord
100
AcDbLinetypeTableRecord
  2
ByLayer
 70
     0
  3

 72
    65
 73
     0
 40
0.0
  0
LTYPE
  5
16
330
5
100
AcDbSymbolTableRecord
100
AcDbLinetypeTableRecord
  2
Continuous
 70
     0
  3
Solid line
 72
    65
 73
     0
 40
0.0
  0
LTYPE
  5
B9
330
5
100
AcDbSymbolTableRecord
100
AcDbLinetypeTableRecord
  2
DOT
 70
     0
  3
DOT
 72
    65
 73
     2
 40
4.0
 49
6.0
 74
     0
 49
-2.0
 74
     0
  0
LTYPE
  5
BA
330
5
100
AcDbSymbolTableRecord
100
AcDbLinetypeTableRecord
  2
HIDDEN
 70
     0
  3
HIDDEN
 72
    65
 73
     2
 40
4.2
 49
8.4
 74
     0
 49
-4.2
 74
     0
  0
LTYPE
  5
BB
330
5
100
AcDbSymbolTableRecord
100
AcDbLinetypeTableRecord
  2
DASHDOT
 70
     0
  3
DASHDOT
 72
    65
 73
     4
 40
14.5
 49
30.0
 74
     0
 49
-9.0
 74
     0
 49
2.5
 74
     0
 49
-9.0
 74
     0
  0
LTYPE
  5
BC
330
5
100
AcDbSymbolTableRecord
100
AcDbLinetypeTableRecord
  2
PHANTOM
 70
     0
  3
PHANTOM
 72
    65
 73
     6
 40
12.0
 49
30.0
 74
     0
 49
-9.0
 74
     0
 49
2.5
 74
     0
 49
-5.0
 74
     0
 49
2.5
 74
     0
 49
-9.0
 74
     0
  0
LTYPE
  5
BD
330
5
100
AcDbSymbolTableRecord
100
AcDbLinetypeTableRecord
  2
ACAD_ISO14W100
 70
     0
  3
ACAD_ISO14W100
 72
    65
 73
     8
 40
1.5
 49
12.0
 74
     0
 49
-3.0
 74
     0
 49
0.5
 74
     0
 49
-3.0
 74
     0
 49
0.5
 74
     0
 49
-3.0
 74
     0
 49
0.5
 74
     0
 49
-3.0
 74
     0
  0
LTYPE
  5
BE
330
5
100
AcDbSymbolTableRecord
100
AcDbLinetypeTableRecord
  2
ACAD_ISO06W100
 70
     0
  3
ACAD_ISO06W100
 72
    65
 73
     8
 40
13.5
 49
24.0
 74
     0
 49
-3.0
 74
     0
 49
0.5
 74
     0
 49
-3.0
 74
     0
 49
0.5
 74
     0
 49
-3.0
 74
     0
 49
0.5
 74
     0
 49
-3.0
 74
     0
  0
LTYPE
  5
BF
330
5
100
AcDbSymbolTableRecord
100
AcDbLinetypeTableRecord
  2
ACAD_ISO11W100
 70
     0
  3
ACAD_ISO11W100
 72
    65
 73
     6
 40
15.5
 49
12.0
 74
     0
 49
-3.0
 74
     0
 49
12.0
 74
     0
 49
-3.0
 74
     0
 49
0.5
 74
     0
 49
-3.0
 74
     0
  0
LTYPE
  5
C0
330
5
100
AcDbSymbolTableRecord
100
AcDbLinetypeTableRecord
  2
ACAD_ISO13W100
 70
     0
  3
ACAD_ISO13W100
 72
    65
 73
     8
 40
13.0
 49
12.0
 74
     0
 49
-3.0
 74
     0
 49
12.0
 74
     0
 49
-3.0
 74
     0
 49
0.5
 74
     0
 49
-3.0
 74
     0
 49
0.5
 74
     0
 49
-3.0
 74
     0
  0
ENDTAB
  0
TABLE
  2
LAYER
  5
2
330
0
100
AcDbSymbolTable
 70
    24
  0
LAYER
  5
10
330
2
100
AcDbSymbolTableRecord
100
AcDbLayerTableRecord
  2
0
 70
     0
 62
     7
  6
Continuous
370
    -3
390
F
347
46
348
0
  0
LAYER
  5
C1
330
2
100
AcDbSymbolTableRecord
100
AcDbLayerTableRecord
  2
1
 70
     0
 62
     7
  6
Continuous
370
     9
390
F
347
46
348
0
  0
LAYER
  5
C2
330
2
100
AcDbSymbolTableRecord
100
AcDbLayerTableRecord
  2
2
 70
     0
 62
   134
  6
Continuous
370
     9
390
F
347
46
348
0
  0
LAYER
  5
C3
330
2
100
AcDbSymbolTableRecord
100
AcDbLayerTableRecord
  2
3
 70
     0
 62
   214
  6
Continuous
370
     9
390
F
347
46
348
0
  0
LAYER
  5
C4
330
2
100
AcDbSymbolTableRecord
100
AcDbLayerTableRecord
  2
4
 70
     0
 62
    54
  6
Continuous
370
     9
390
F
347
46
348
0
  0
LAYER
  5
C5
330
2
100
AcDbSymbolTableRecord
100
AcDbLayerTableRecord
  2
5
 70
     0
 62
    94
  6
Continuous
370
     9
390
F
347
46
348
0
  0
LAYER
  5
C6
330
2
100
AcDbSymbolTableRecord
100
AcDbLayerTableRecord
  2
6
 70
     0
 62
    14
  6
Continuous
370
     9
390
F
347
46
348
0
  0
LAYER
  5
C7
330
2
100
AcDbSymbolTableRecord
100
AcDbLayerTableRecord
  2
7
 70
     0
 62
     4
  6
Continuous
370
     9
390
F
347
46
348
0
  0
LAYER
  5
C8
330
2
100
AcDbSymbolTableRecord
100
AcDbLayerTableRecord
  2
8
 70
     0
 62
     6
  6
Continuous
370
     9
390
F
347
46
348
0
  0
LAYER
  5
C9
330
2
100
AcDbSymbolTableRecord
100
AcDbLayerTableRecord
  2
9
 70
     0
 62
     2
  6
Continuous
370
     9
390
F
347
46
348
0
  0
LAYER
  5
CA
330
2
100
AcDbSymbolTableRecord
100
AcDbLayerTableRecord
  2
10
 70
     0
 62
     3
  6
Continuous
370
     9
390
F
347
46
348
0
  0
LAYER
  5
CB
330
2
100
AcDbSymbolTableRecord
100
AcDbLayerTableRecord
  2
11
 70
     0
 62
   251
  6
Continuous
370
     9
390
F
347
46
348
0
  0
LAYER
  5
CC
330
2
100
AcDbSymbolTableRecord
100
AcDbLayerTableRecord
  2
12
 70
     0
 62
   136
  6
Continuous
370
     9
390
F
347
46
348
0
  0
LAYER
  5
CD
330
2
100
AcDbSymbolTableRecord
100
AcDbLayerTableRecord
  2
13
 70
     0
 62
   216
  6
Continuous
370
     9
390
F
347
46
348
0
  0
LAYER
  5
CE
330
2
100
AcDbSymbolTableRecord
100
AcDbLayerTableRecord
  2
14
 70
     0
 62
    56
  6
Continuous
370
     9
390
F
347
46
348
0
  0
LAYER
  5
CF
330
2
100
AcDbSymbolTableRecord
100
AcDbLayerTableRecord
  2
15
 70
     0
 62
    96
  6
Continuous
370
     9
390
F
347
46
348
0
  0
LAYER
  5
D0
330
2
100
AcDbSymbolTableRecord
100
AcDbLayerTableRecord
  2
16
 70
     0
 62
    16
  6
Continuous
370
     9
390
F
347
46
348
0
  0
LAYER
  5
D1
330
2
100
AcDbSymbolTableRecord
100
AcDbLayerTableRecord
  2
17
 70
     0
 62
   132
  6
Continuous
370
     9
390
F
347
46
348
0
  0
LAYER
  5
D2
330
2
100
AcDbSymbolTableRecord
100
AcDbLayerTableRecord
  2
18
 70
     0
 62
   212
  6
Continuous
370
     9
390
F
347
46
348
0
  0
LAYER
  5
D3
330
2
100
AcDbSymbolTableRecord
100
AcDbLayerTableRecord
  2
19
 70
     0
 62
    52
  6
Continuous
370
     9
390
F
347
46
348
0
  0
LAYER
  5
D4
330
2
100
AcDbSymbolTableRecord
100
AcDbLayerTableRecord
  2
20
 70
     0
 62
   250
  6
Continuous
370
     9
390
F
347
46
348
0
  0
LAYER
  5
D5
330
2
100
AcDbSymbolTableRecord
100
AcDbLayerTableRecord
  2
21
 70
     0
 62
   134
  6
Continuous
370
     9
390
F
347
46
348
0
  0
LAYER
  5
D6
330
2
100
AcDbSymbolTableRecord
100
AcDbLayerTableRecord
  2
23
 70
     0
 62
    54
  6
Continuous
370
     9
390
F
347
46
348
0
  0
LAYER
  5
D7
330
2
100
AcDbSymbolTableRecord
100
AcDbLayerTableRecord
  2
128
 70
     0
 62
     7
  6
Continuous
370
     9
390
F
347
46
348
0
  0
ENDTAB
  0
TABLE
  2
STYLE
  5
3
330
0
100
AcDbSymbolTable
 70
     3
  0
STYLE
  5
11
330
3
100
AcDbSymbolTableRecord
100
AcDbTextStyleTableRecord
  2
Standard
 70
     0
 40
0.0
 41
1.0
 50
0.0
 71
     0
 42
5.0
  3
txt
  4
bigfont
  0
STYLE
  5
6C
330
3
100
AcDbSymbolTableRecord
100
AcDbTextStyleTableRecord
  2
T_STANDARD
 70
     4
 40
10.0
 41
1.0
 50
0.0
 71
     0
 42
5.0
  3
txt
  4
bigfont
1001
ACAD
1000

1071
      256
  0
STYLE
  5
115
330
3
100
AcDbSymbolTableRecord
100
AcDbTextStyleTableRecord
  2
ＭＳ 明朝
 70
     0
 40
0.0
 41
1.0
 50
0.0
 71
     0
 42
5.0
  3

  4

1001
ACAD
1000
ＭＳ 明朝
1071
      256
  0
ENDTAB
  0
TABLE
  2
VIEW
  5
6
330
0
100
AcDbSymbolTable
 70
     0
  0
ENDTAB
  0
TABLE
  2
UCS
  5
7
330
0
100
AcDbSymbolTable
 70
     0
  0
ENDTAB
  0
TABLE
  2
APPID
  5
9
330
0
100
AcDbSymbolTable
 70
     2
  0
APPID
  5
12
330
9
100
AcDbSymbolTableRecord
100
AcDbRegAppTableRecord
  2
ACAD
 70
     0
  0
APPID
  5
6B
330
9
100
AcDbSymbolTableRecord
100
AcDbRegAppTableRecord
  2
ODA
 70
     0
  0
ENDTAB
  0
TABLE
  2
DIMSTYLE
  5
A
330
0
100
AcDbSymbolTable
 70
     1
100
AcDbDimStyleTable
  0
DIMSTYLE
105
27
102
{ACAD_REACTORS
330
11F
330
128
330
132
330
13C
330
160
330
16A
330
2BE
330
2C6
330
2DA
330
2E4
330
2EE
330
303
330
338
330
33F
330
34A
330
354
330
35E
102
}
330
A
100
AcDbSymbolTableRecord
100
AcDbDimStyleTableRecord
  2
Standard
 70
     0
178
     0
340
11
  0
ENDTAB
  0
TABLE
  2
BLOCK_RECORD
  5
1
330
0
100
AcDbSymbolTable
 70
    35
  0
BLOCK_RECORD
  5
1F
330
1
100
AcDbSymbolTableRecord
100
AcDbBlockTableRecord
  2
*Model_Space
340
22
 70
     0
280
     1
281
     0
  0
BLOCK_RECORD
  5
1B
330
1
100
AcDbSymbolTableRecord
100
AcDbBlockTableRecord
  2
*Paper_Space
340
1E
 70
     0
280
     1
281
     0
  0
BLOCK_RECORD
  5
23
330
1
100
AcDbSymbolTableRecord
100
AcDbBlockTableRecord
  2
*Paper_Space0
340
26
 70
     0
280
     1
281
     0
  0
BLOCK_RECORD
  5
6D
330
1
100
AcDbSymbolTableRecord
100
AcDbBlockTableRecord
  2
_ORIGIN
340
0
 70
     0
280
     1
281
     0
  0
BLOCK_RECORD
  5
72
330
1
100
AcDbSymbolTableRecord
100
AcDbBlockTableRecord
  2
_DOTBLANK
340
0
 70
     0
280
     1
281
     0
  0
BLOCK_RECORD
  5
77
330
1
100
AcDbSymbolTableRecord
100
AcDbBlockTableRecord
  2
_DOT
340
0
 70
     0
280
     1
281
     0
  0
BLOCK_RECORD
  5
7C
330
1
100
AcDbSymbolTableRecord
100
AcDbBlockTableRecord
  2
_OPEN
340
0
 70
     0
280
     1
281
     0
  0
BLOCK_RECORD
  5
82
330
1
100
AcDbSymbolTableRecord
100
AcDbBlockTableRecord
  2
_CLOSED
340
0
 70
     0
280
     1
281
     0
  0
BLOCK_RECORD
  5
89
330
1
100
AcDbSymbolTableRecord
100
AcDbBlockTableRecord
  2
_CLOSEDBLANK
340
0
 70
     0
280
     1
281
     0
  0
BLOCK_RECORD
  5
8F
330
1
100
AcDbSymbolTableRecord
100
AcDbBlockTableRecord
  2
_ARROWFILLED
340
0
102
{BLKREFS
331
11D
331
11E
331
126
331
127
331
130
331
131
331
13A
331
13B
331
15E
331
15F
331
168
331
169
331
2BC
331
2BD
331
2C4
331
2C5
331
2C7
331
2D8
331
2D9
331
2E2
331
2E3
331
2EC
331
2ED
331
2EF
331
301
331
302
331
328
331
336
331
337
331
33E
331
348
331
349
331
352
331
353
331
35C
331
35D
331
35F
102
}
 70
     0
280
     1
281
     0
  0
BLOCK_RECORD
  5
93
330
1
100
AcDbSymbolTableRecord
100
AcDbBlockTableRecord
  2
_BOXBLANK
340
0
 70
     0
280
     1
281
     0
  0
BLOCK_RECORD
  5
9B
330
1
100
AcDbSymbolTableRecord
100
AcDbBlockTableRecord
  2
_BOXFILLED
340
0
 70
     0
280
     1
281
     0
  0
BLOCK_RECORD
  5
A0
330
1
100
AcDbSymbolTableRecord
100
AcDbBlockTableRecord
  2
_INTEGRAL
340
0
 70
     0
280
     1
281
     0
  0
BLOCK_RECORD
  5
A5
330
1
100
AcDbSymbolTableRecord
100
AcDbBlockTableRecord
  2
_OBLIQUE
340
0
 70
     0
280
     1
281
     0
  0
BLOCK_RECORD
  5
A9
330
1
100
AcDbSymbolTableRecord
100
AcDbBlockTableRecord
  2
_NONE
340
0
 70
     0
280
     1
281
     0
  0
BLOCK_RECORD
  5
AC
330
1
100
AcDbSymbolTableRecord
100
AcDbBlockTableRecord
  2
MARK_OPEN
340
0
 70
     0
280
     1
281
     0
  0
BLOCK_RECORD
  5
B1
330
1
100
AcDbSymbolTableRecord
100
AcDbBlockTableRecord
  2
MARK_ORIGIN
340
0
 70
     0
280
     1
281
     0
  0
BLOCK_RECORD
  5
B5
330
1
100
AcDbSymbolTableRecord
100
AcDbBlockTableRecord
  2
MARK_DOT
340
0
 70
     0
280
     1
281
     0
  0
BLOCK_RECORD
  5
D8
330
1
100
AcDbSymbolTableRecord
100
AcDbBlockTableRecord
  2
*G16
340
0
102
{BLKREFS
331
DF
102
}
 70
     0
280
     1
281
     0
  0
BLOCK_RECORD
  5
116
330
1
100
AcDbSymbolTableRecord
100
AcDbBlockTableRecord
  2
Dim1
340
0
 70
     0
280
     1
281
     0
  0
BLOCK_RECORD
  5
120
330
1
100
AcDbSymbolTableRecord
100
AcDbBlockTableRecord
  2
Dim2
340
0
 70
     0
280
     1
281
     0
  0
BLOCK_RECORD
  5
129
330
1
100
AcDbSymbolTableRecord
100
AcDbBlockTableRecord
  2
Dim3
340
0
 70
     0
280
     1
281
     0
  0
BLOCK_RECORD
  5
133
330
1
100
AcDbSymbolTableRecord
100
AcDbBlockTableRecord
  2
Dim4
340
0
 70
     0
280
     1
281
     0
  0
BLOCK_RECORD
  5
13D
330
1
100
AcDbSymbolTableRecord
100
AcDbBlockTableRecord
  2
*G21
340
0
102
{BLKREFS
331
146
102
}
 70
     0
280
     1
281
     0
  0
BLOCK_RECORD
  5
157
330
1
100
AcDbSymbolTableRecord
100
AcDbBlockTableRecord
  2
Dim5
340
0
 70
     0
280
     1
281
     0
  0
BLOCK_RECORD
  5
161
330
1
100
AcDbSymbolTableRecord
100
AcDbBlockTableRecord
  2
Dim6
340
0
 70
     0
280
     1
281
     0
  0
BLOCK_RECORD
  5
2B5
330
1
100
AcDbSymbolTableRecord
100
AcDbBlockTableRecord
  2
Dim7
340
0
 70
     0
280
     1
281
     0
  0
BLOCK_RECORD
  5
2BF
330
1
100
AcDbSymbolTableRecord
100
AcDbBlockTableRecord
  2
Dim8
340
0
 70
     0
280
     1
281
     0
  0
BLOCK_RECORD
  5
2D1
330
1
100
AcDbSymbolTableRecord
100
AcDbBlockTableRecord
  2
Dim9
340
0
 70
     0
280
     1
281
     0
  0
BLOCK_RECORD
  5
2DB
330
1
100
AcDbSymbolTableRecord
100
AcDbBlockTableRecord
  2
Dim10
340
0
 70
     0
280
     1
281
     0
  0
BLOCK_RECORD
  5
2E5
330
1
100
AcDbSymbolTableRecord
100
AcDbBlockTableRecord
  2
Dim11
340
0
 70
     0
280
     1
281
     0
  0
BLOCK_RECORD
  5
2FA
330
1
100
AcDbSymbolTableRecord
100
AcDbBlockTableRecord
  2
Dim12
340
0
 70
     0
280
     1
281
     0
  0
BLOCK_RECORD
  5
32F
330
1
100
AcDbSymbolTableRecord
100
AcDbBlockTableRecord
  2
Dim13
340
0
 70
     0
280
     1
281
     0
  0
BLOCK_RECORD
  5
339
330
1
100
AcDbSymbolTableRecord
100
AcDbBlockTableRecord
  2
Dim14
340
0
 70
     0
280
     1
281
     0
  0
BLOCK_RECORD
  5
341
330
1
100
AcDbSymbolTableRecord
100
AcDbBlockTableRecord
  2
Dim15
340
0
 70
     0
280
     1
281
     0
  0
BLOCK_RECORD
  5
34B
330
1
100
AcDbSymbolTableRecord
100
AcDbBlockTableRecord
  2
Dim16
340
0
 70
     0
280
     1
281
     0
  0
BLOCK_RECORD
  5
355
330
1
100
AcDbSymbolTableRecord
100
AcDbBlockTableRecord
  2
Dim17
340
0
 70
     0
280
     1
281
     0
  0
ENDTAB
  0
ENDSEC
  0
SECTION
  2
BLOCKS
  0
BLOCK
  5
20
330
1F
100
AcDbEntity
  8
0
100
AcDbBlockBegin
  2
*Model_Space
 70
     0
 10
0.0
 20
0.0
 30
0.0
  3
*Model_Space
  1
*Model_Space
  0
ENDBLK
  5
21
330
1F
100
AcDbEntity
  8
0
100
AcDbBlockEnd
  0
BLOCK
  5
1C
330
1B
100
AcDbEntity
 67
     1
  8
0
100
AcDbBlockBegin
  2
*Paper_Space
 70
     0
 10
0.0
 20
0.0
 30
0.0
  3
*Paper_Space
  1
*Paper_Space
  0
ENDBLK
  5
1D
330
1B
100
AcDbEntity
 67
     1
  8
0
100
AcDbBlockEnd
  0
BLOCK
  5
24
330
23
100
AcDbEntity
  8
0
100
AcDbBlockBegin
  2
*Paper_Space0
 70
     0
 10
0.0
 20
0.0
 30
0.0
  3
*Paper_Space0
  1
*Paper_Space0
  0
ENDBLK
  5
25
330
23
100
AcDbEntity
  8
0
100
AcDbBlockEnd
  0
BLOCK
  5
70
330
6D
100
AcDbEntity
  8
0
100
AcDbBlockBegin
  2
_ORIGIN
 70
     0
 10
0.0
 20
0.0
 30
0.0
  3
_ORIGIN
  1
_ORIGIN
  0
CIRCLE
  5
6E
330
6D
100
AcDbEntity
  8
0
100
AcDbCircle
 10
0.0
 20
0.0
 30
0.0
 40
0.5
  0
LINE
  5
6F
330
6D
100
AcDbEntity
  8
0
100
AcDbLine
 10
0.0
 20
0.0
 30
0.0
 11
-1.0
 21
0.0
 31
0.0
  0
ENDBLK
  5
71
330
6D
100
AcDbEntity
  8
0
100
AcDbBlockEnd
  0
BLOCK
  5
75
330
72
100
AcDbEntity
  8
0
100
AcDbBlockBegin
  2
_DOTBLANK
 70
     0
 10
0.0
 20
0.0
 30
0.0
  3
_DOTBLANK
  1
_DOTBLANK
  0
CIRCLE
  5
73
330
72
100
AcDbEntity
  8
0
100
AcDbCircle
 10
0.0
 20
0.0
 30
0.0
 40
0.5
  0
LINE
  5
74
330
72
100
AcDbEntity
  8
0
100
AcDbLine
 10
-0.5
 20
0.0
 30
0.0
 11
-1.0
 21
0.0
 31
0.0
  0
ENDBLK
  5
76
330
72
100
AcDbEntity
  8
0
100
AcDbBlockEnd
  0
BLOCK
  5
7A
330
77
100
AcDbEntity
  8
0
100
AcDbBlockBegin
  2
_DOT
 70
     0
 10
0.0
 20
0.0
 30
0.0
  3
_DOT
  1
_DOT
  0
LWPOLYLINE
  5
78
330
77
100
AcDbEntity
  8
0
100
AcDbPolyline
 90
        2
 70
     1
 43
0.5
 10
-0.25
 20
0.0
 42
1.0
 10
0.25
 20
0.0
 42
1.0
  0
LINE
  5
79
330
77
100
AcDbEntity
  8
0
100
AcDbLine
 10
-0.5
 20
0.0
 30
0.0
 11
-1.0
 21
0.0
 31
0.0
  0
ENDBLK
  5
7B
330
77
100
AcDbEntity
  8
0
100
AcDbBlockEnd
  0
BLOCK
  5
80
330
7C
100
AcDbEntity
  8
0
100
AcDbBlockBegin
  2
_OPEN
 70
     0
 10
0.0
 20
0.0
 30
0.0
  3
_OPEN
  1
_OPEN
  0
LINE
  5
7D
330
7C
100
AcDbEntity
  8
0
100
AcDbLine
 10
0.0
 20
0.0
 30
0.0
 11
-1.0
 21
0.1666666666666667
 31
0.0
  0
LINE
  5
7E
330
7C
100
AcDbEntity
  8
0
100
AcDbLine
 10
0.0
 20
0.0
 30
0.0
 11
-1.0
 21
-0.1666666666666667
 31
0.0
  0
LINE
  5
7F
330
7C
100
AcDbEntity
  8
0
100
AcDbLine
 10
0.0
 20
0.0
 30
0.0
 11
-1.0
 21
0.0
 31
0.0
  0
ENDBLK
  5
81
330
7C
100
AcDbEntity
  8
0
100
AcDbBlockEnd
  0
BLOCK
  5
87
330
82
100
AcDbEntity
  8
0
100
AcDbBlockBegin
  2
_CLOSED
 70
     0
 10
0.0
 20
0.0
 30
0.0
  3
_CLOSED
  1
_CLOSED
  0
LINE
  5
83
330
82
100
AcDbEntity
  8
0
100
AcDbLine
 10
0.0
 20
0.0
 30
0.0
 11
-1.0
 21
0.1666666666666667
 31
0.0
  0
LINE
  5
84
330
82
100
AcDbEntity
  8
0
100
AcDbLine
 10
0.0
 20
0.0
 30
0.0
 11
-1.0
 21
-0.1666666666666667
 31
0.0
  0
LINE
  5
85
330
82
100
AcDbEntity
  8
0
100
AcDbLine
 10
-1.0
 20
0.1666666666666667
 30
0.0
 11
-1.0
 21
-0.1666666666666667
 31
0.0
  0
LINE
  5
86
330
82
100
AcDbEntity
  8
0
100
AcDbLine
 10
0.0
 20
0.0
 30
0.0
 11
-1.0
 21
0.0
 31
0.0
  0
ENDBLK
  5
88
330
82
100
AcDbEntity
  8
0
100
AcDbBlockEnd
  0
BLOCK
  5
8D
330
89
100
AcDbEntity
  8
0
100
AcDbBlockBegin
  2
_CLOSEDBLANK
 70
     0
 10
0.0
 20
0.0
 30
0.0
  3
_CLOSEDBLANK
  1
_CLOSEDBLANK
  0
LINE
  5
8A
330
89
100
AcDbEntity
  8
0
100
AcDbLine
 10
0.0
 20
0.0
 30
0.0
 11
-1.0
 21
0.1666666666666667
 31
0.0
  0
LINE
  5
8B
330
89
100
AcDbEntity
  8
0
100
AcDbLine
 10
0.0
 20
0.0
 30
0.0
 11
-1.0
 21
-0.1666666666666667
 31
0.0
  0
LINE
  5
8C
330
89
100
AcDbEntity
  8
0
100
AcDbLine
 10
-1.0
 20
0.1666666666666667
 30
0.0
 11
-1.0
 21
-0.1666666666666667
 31
0.0
  0
ENDBLK
  5
8E
330
89
100
AcDbEntity
  8
0
100
AcDbBlockEnd
  0
BLOCK
  5
91
330
8F
100
AcDbEntity
  8
0
100
AcDbBlockBegin
  2
_ARROWFILLED
 70
     0
 10
0.0
 20
0.0
 30
0.0
  3
_ARROWFILLED
  1
_ARROWFILLED
  0
SOLID
  5
90
330
8F
100
AcDbEntity
  8
0
100
AcDbTrace
 10
0.0
 20
0.0
 30
0.0
 11
-1.0
 21
-0.1666666666666667
 31
0.0
 12
-1.0
 22
0.1666666666666667
 32
0.0
 13
0.0
 23
0.0
 33
0.0
  0
ENDBLK
  5
92
330
8F
100
AcDbEntity
  8
0
100
AcDbBlockEnd
  0
BLOCK
  5
99
330
93
100
AcDbEntity
  8
0
100
AcDbBlockBegin
  2
_BOXBLANK
 70
     0
 10
0.0
 20
0.0
 30
0.0
  3
_BOXBLANK
  1
_BOXBLANK
  0
LINE
  5
94
330
93
100
AcDbEntity
  8
0
100
AcDbLine
 10
-0.5
 20
-0.5
 30
0.0
 11
0.5
 21
-0.5
 31
0.0
  0
LINE
  5
95
330
93
100
AcDbEntity
  8
0
100
AcDbLine
 10
0.5
 20
-0.5
 30
0.0
 11
0.5
 21
0.5
 31
0.0
  0
LINE
  5
96
330
93
100
AcDbEntity
  8
0
100
AcDbLine
 10
0.5
 20
0.5
 30
0.0
 11
-0.5
 21
0.5
 31
0.0
  0
LINE
  5
97
330
93
100
AcDbEntity
  8
0
100
AcDbLine
 10
-0.5
 20
0.5
 30
0.0
 11
-0.5
 21
-0.5
 31
0.0
  0
LINE
  5
98
330
93
100
AcDbEntity
  8
0
100
AcDbLine
 10
-0.5
 20
0.0
 30
0.0
 11
-1.0
 21
0.0
 31
0.0
  0
ENDBLK
  5
9A
330
93
100
AcDbEntity
  8
0
100
AcDbBlockEnd
  0
BLOCK
  5
9E
330
9B
100
AcDbEntity
  8
0
100
AcDbBlockBegin
  2
_BOXFILLED
 70
     0
 10
0.0
 20
0.0
 30
0.0
  3
_BOXFILLED
  1
_BOXFILLED
  0
SOLID
  5
9C
330
9B
100
AcDbEntity
  8
0
100
AcDbTrace
 10
-0.5
 20
0.5
 30
0.0
 11
0.5
 21
0.5
 31
0.0
 12
-0.5
 22
-0.5
 32
0.0
 13
0.5
 23
-0.5
 33
0.0
  0
LINE
  5
9D
330
9B
100
AcDbEntity
  8
0
100
AcDbLine
 10
-0.5
 20
0.0
 30
0.0
 11
-1.0
 21
0.0
 31
0.0
  0
ENDBLK
  5
9F
330
9B
100
AcDbEntity
  8
0
100
AcDbBlockEnd
  0
BLOCK
  5
A3
330
A0
100
AcDbEntity
  8
0
100
AcDbBlockBegin
  2
_INTEGRAL
 70
     0
 10
0.0
 20
0.0
 30
0.0
  3
_INTEGRAL
  1
_INTEGRAL
  0
ARC
  5
A1
330
A0
100
AcDbEntity
  8
0
100
AcDbCircle
 10
0.444888
 20
-0.0913346
 30
0.0
 40
0.4541666
100
AcDbArc
 50
101.9999999999999
 51
167.9999999999998
  0
ARC
  5
A2
330
A0
100
AcDbEntity
  8
0
100
AcDbCircle
 10
-0.444888
 20
0.0913346
 30
0.0
 40
0.4541666
100
AcDbArc
 50
281.9999999999997
 51
347.9999999999997
  0
ENDBLK
  5
A4
330
A0
100
AcDbEntity
  8
0
100
AcDbBlockEnd
  0
BLOCK
  5
A7
330
A5
100
AcDbEntity
  8
0
100
AcDbBlockBegin
  2
_OBLIQUE
 70
     0
 10
0.0
 20
0.0
 30
0.0
  3
_OBLIQUE
  1
_OBLIQUE
  0
LINE
  5
A6
330
A5
100
AcDbEntity
  8
0
100
AcDbLine
 10
-0.5
 20
-0.5
 30
0.0
 11
0.5
 21
0.5
 31
0.0
  0
ENDBLK
  5
A8
330
A5
100
AcDbEntity
  8
0
100
AcDbBlockEnd
  0
BLOCK
  5
AA
330
A9
100
AcDbEntity
  8
0
100
AcDbBlockBegin
  2
_NONE
 70
     0
 10
0.0
 20
0.0
 30
0.0
  3
_NONE
  1
_NONE
  0
ENDBLK
  5
AB
330
A9
100
AcDbEntity
  8
0
100
AcDbBlockEnd
  0
BLOCK
  5
AF
330
AC
100
AcDbEntity
  8
0
100
AcDbBlockBegin
  2
MARK_OPEN
 70
     0
 10
0.0
 20
0.0
 30
0.0
  3
MARK_OPEN
  1
MARK_OPEN
  0
LINE
  5
AD
330
AC
100
AcDbEntity
  8
0
100
AcDbLine
 10
0.0
 20
0.0
 30
0.0
 11
-1.0
 21
0.1666666666666667
 31
0.0
  0
LINE
  5
AE
330
AC
100
AcDbEntity
  8
0
100
AcDbLine
 10
0.0
 20
0.0
 30
0.0
 11
-1.0
 21
-0.1666666666666667
 31
0.0
  0
ENDBLK
  5
B0
330
AC
100
AcDbEntity
  8
0
100
AcDbBlockEnd
  0
BLOCK
  5
B3
330
B1
100
AcDbEntity
  8
0
100
AcDbBlockBegin
  2
MARK_ORIGIN
 70
     0
 10
0.0
 20
0.0
 30
0.0
  3
MARK_ORIGIN
  1
MARK_ORIGIN
  0
CIRCLE
  5
B2
330
B1
100
AcDbEntity
  8
0
100
AcDbCircle
 10
0.0
 20
0.0
 30
0.0
 40
0.5
  0
ENDBLK
  5
B4
330
B1
100
AcDbEntity
  8
0
100
AcDbBlockEnd
  0
BLOCK
  5
B7
330
B5
100
AcDbEntity
  8
0
100
AcDbBlockBegin
  2
MARK_DOT
 70
     0
 10
0.0
 20
0.0
 30
0.0
  3
MARK_DOT
  1
MARK_DOT
  0
LWPOLYLINE
  5
B6
330
B5
100
AcDbEntity
  8
0
100
AcDbPolyline
 90
        2
 70
     1
 43
0.5
 10
-0.25
 20
0.0
 42
1.0
 10
0.25
 20
0.0
 42
1.0
  0
ENDBLK
  5
B8
330
B5
100
AcDbEntity
  8
0
100
AcDbBlockEnd
  0
BLOCK
  5
D9
330
D8
100
AcDbEntity
  8
0
100
AcDbBlockBegin
  2
*G16
 70
     1
 10
0.0
 20
0.0
 30
0.0
  3
*G16
  1
*G16
  0
LINE
  5
DB
330
D8
100
AcDbEntity
  8
5
  6
Continuous
 62
    94
370
    50
100
AcDbLine
 10
285.0000000000003
 20
195.0
 30
0.0
 11
10.00000000000028
 21
195.0000000000005
 31
0.0
  0
LINE
  5
DC
330
D8
100
AcDbEntity
  8
5
  6
Continuous
 62
    94
370
    50
100
AcDbLine
 10
10.00000000000028
 20
195.0000000000005
 30
0.0
 11
10.0
 21
10.00000000000044
 31
0.0
  0
LINE
  5
DD
330
D8
100
AcDbEntity
  8
5
  6
Continuous
 62
    94
370
    50
100
AcDbLine
 10
10.0
 20
10.00000000000044
 30
0.0
 11
285.0
 21
10.0
 31
0.0
  0
LINE
  5
DE
330
D8
100
AcDbEntity
  8
5
  6
Continuous
 62
    94
370
    50
100
AcDbLine
 10
285.0
 20
10.0
 30
0.0
 11
285.0000000000003
 21
195.0
 31
0.0
  0
ENDBLK
  5
DA
330
D8
100
AcDbEntity
  8
0
100
AcDbBlockEnd
  0
BLOCK
  5
117
330
116
100
AcDbEntity
  8
0
100
AcDbBlockBegin
  2
Dim1
 70
     0
 10
0.0
 20
0.0
 30
0.0
  3
Dim1
  1
Dim1
  0
LINE
  5
119
330
116
100
AcDbEntity
  8
2
  6
Continuous
 62
   134
370
     9
100
AcDbLine
 10
235.7678182214473
 20
146.7
 30
0.0
 11
235.7678182214473
 21
162.0
 31
0.0
  0
LINE
  5
11A
330
116
100
AcDbEntity
  8
2
  6
Continuous
 62
   134
370
     9
100
AcDbLine
 10
247.7678182214473
 20
149.1412278849442
 30
0.0
 11
247.7678182214473
 21
162.0
 31
0.0
  0
LINE
  5
11B
330
116
100
AcDbEntity
  8
2
  6
Continuous
 62
   134
370
     9
100
AcDbLine
 10
235.7678182214473
 20
160.0
 30
0.0
 11
247.7678182214473
 21
160.0
 31
0.0
  0
MTEXT
  5
11C
330
116
100
AcDbEntity
  8
2
  6
Continuous
 62
   134
370
     9
100
AcDbMText
 10
241.7678182214473
 20
160.0
 30
0.0
 40
4.0
 41
29.52380952380953
 46
4.0
 71
     8
 72
     1
  1
12
  7
ＭＳ 明朝
 73
     1
 44
1.0
1001
ACAD
1000
ACAD_MTEXT_DEFINED_HEIGHT_BEGIN
1070
    46
1040
4.0
1000
ACAD_MTEXT_DEFINED_HEIGHT_END
  0
INSERT
  5
11D
330
116
100
AcDbEntity
  8
2
  6
Continuous
 62
   134
370
     9
100
AcDbBlockReference
  2
_ARROWFILLED
 10
235.7678182214473
 20
160.0
 30
0.0
 41
2.0
 42
2.0
 43
2.0
 50
179.9999999999998
  0
INSERT
  5
11E
330
116
100
AcDbEntity
  8
2
  6
Continuous
 62
   134
370
     9
100
AcDbBlockReference
  2
_ARROWFILLED
 10
247.7678182214473
 20
160.0
 30
0.0
 41
2.0
 42
2.0
 43
2.0
 50
359.9999999999997
  0
ENDBLK
  5
118
330
116
100
AcDbEntity
  8
0
100
AcDbBlockEnd
  0
BLOCK
  5
121
330
120
100
AcDbEntity
  8
0
100
AcDbBlockBegin
  2
Dim2
 70
     0
 10
0.0
 20
0.0
 30
0.0
  3
Dim2
  1
Dim2
  0
LINE
  5
123
330
120
100
AcDbEntity
  8
2
  6
Continuous
 62
   134
370
     9
100
AcDbLine
 10
259.7678182214473
 20
146.7
 30
0.0
 11
259.7678182214473
 21
162.0000000000001
 31
0.0
  0
LINE
  5
124
330
120
100
AcDbEntity
  8
2
  6
Continuous
 62
   134
370
     9
100
AcDbLine
 10
247.7678182214473
 20
160.0
 30
0.0
 11
259.7678182214473
 21
160.0000000000001
 31
0.0
  0
MTEXT
  5
125
330
120
100
AcDbEntity
  8
2
  6
Continuous
 62
   134
370
     9
100
AcDbMText
 10
253.7678182214473
 20
160.0000000000001
 30
0.0
 40
4.0
 41
29.52380952380953
 46
4.0
 71
     8
 72
     1
  1
12
  7
ＭＳ 明朝
 73
     1
 44
1.0
1001
ACAD
1000
ACAD_MTEXT_DEFINED_HEIGHT_BEGIN
1070
    46
1040
4.0
1000
ACAD_MTEXT_DEFINED_HEIGHT_END
  0
INSERT
  5
126
330
120
100
AcDbEntity
  8
2
  6
Continuous
 62
   134
370
     9
100
AcDbBlockReference
  2
_ARROWFILLED
 10
247.7678182214473
 20
160.0
 30
0.0
 41
2.0
 42
2.0
 43
2.0
 50
179.9999999999999
  0
INSERT
  5
127
330
120
100
AcDbEntity
  8
2
  6
Continuous
 62
   134
370
     9
100
AcDbBlockReference
  2
_ARROWFILLED
 10
259.7678182214473
 20
160.0000000000001
 30
0.0
 41
2.0
 42
2.0
 43
2.0
 50
359.9999999999997
  0
ENDBLK
  5
122
330
120
100
AcDbEntity
  8
0
100
AcDbBlockEnd
  0
BLOCK
  5
12A
330
129
100
AcDbEntity
  8
0
100
AcDbBlockBegin
  2
Dim3
 70
     0
 10
0.0
 20
0.0
 30
0.0
  3
Dim3
  1
Dim3
  0
LINE
  5
12C
330
129
100
AcDbEntity
  8
2
  6
Continuous
 62
   134
370
     9
100
AcDbLine
 10
235.7678182214473
 20
146.7
 30
0.0
 11
235.7678182214473
 21
172.0
 31
0.0
  0
LINE
  5
12D
330
129
100
AcDbEntity
  8
2
  6
Continuous
 62
   134
370
     9
100
AcDbLine
 10
259.7678182214473
 20
146.7
 30
0.0
 11
259.7678182214473
 21
172.0000000000001
 31
0.0
  0
LINE
  5
12E
330
129
100
AcDbEntity
  8
2
  6
Continuous
 62
   134
370
     9
100
AcDbLine
 10
235.7678182214473
 20
170.0
 30
0.0
 11
259.7678182214473
 21
170.0000000000001
 31
0.0
  0
MTEXT
  5
12F
330
129
100
AcDbEntity
  8
2
  6
Continuous
 62
   134
370
     9
100
AcDbMText
 10
249.4301166085436
 20
170.0
 30
0.0
 40
4.0
 41
33.33333333333333
 46
4.0
 71
     8
 72
     1
  1
24
  7
ＭＳ 明朝
 73
     1
 44
1.0
1001
ACAD
1000
ACAD_MTEXT_DEFINED_HEIGHT_BEGIN
1070
    46
1040
4.0
1000
ACAD_MTEXT_DEFINED_HEIGHT_END
  0
INSERT
  5
130
330
129
100
AcDbEntity
  8
2
  6
Continuous
 62
   134
370
     9
100
AcDbBlockReference
  2
_ARROWFILLED
 10
235.7678182214473
 20
170.0
 30
0.0
 41
2.0
 42
2.0
 43
2.0
 50
179.9999999999998
  0
INSERT
  5
131
330
129
100
AcDbEntity
  8
2
  6
Continuous
 62
   134
370
     9
100
AcDbBlockReference
  2
_ARROWFILLED
 10
259.7678182214473
 20
170.0000000000001
 30
0.0
 41
2.0
 42
2.0
 43
2.0
 50
359.9999999999997
  0
ENDBLK
  5
12B
330
129
100
AcDbEntity
  8
0
100
AcDbBlockEnd
  0
BLOCK
  5
134
330
133
100
AcDbEntity
  8
0
100
AcDbBlockBegin
  2
Dim4
 70
     0
 10
0.0
 20
0.0
 30
0.0
  3
Dim4
  1
Dim4
  0
LINE
  5
136
330
133
100
AcDbEntity
  8
2
  6
Continuous
 62
   134
370
     9
100
AcDbLine
 10
261.4678182214473
 20
145.0000000000001
 30
0.0
 11
281.4301166085439
 21
145.0
 31
0.0
  0
LINE
  5
137
330
133
100
AcDbEntity
  8
2
  6
Continuous
 62
   134
370
     9
100
AcDbLine
 10
261.4678182214472
 20
115.0
 30
0.0
 11
281.4301166085438
 21
115.0
 31
0.0
  0
LINE
  5
138
330
133
100
AcDbEntity
  8
2
  6
Continuous
 62
   134
370
     9
100
AcDbLine
 10
279.4301166085439
 20
145.0
 30
0.0
 11
279.4301166085438
 21
115.0
 31
0.0
  0
MTEXT
  5
139
330
133
100
AcDbEntity
  8
2
  6
Continuous
 62
   134
370
     9
100
AcDbMText
 10
279.4301166085439
 20
130.0
 30
0.0
 40
4.0
 41
32.38095238095238
 46
4.0
 71
     8
 72
     1
  1
30
  7
ＭＳ 明朝
 11
2.281678389207681E-15
 21
1.0
 31
0.0
 73
     1
 44
1.0
1001
ACAD
1000
ACAD_MTEXT_DEFINED_HEIGHT_BEGIN
1070
    46
1040
4.0
1000
ACAD_MTEXT_DEFINED_HEIGHT_END
  0
INSERT
  5
13A
330
133
100
AcDbEntity
  8
2
  6
Continuous
 62
   134
370
     9
100
AcDbBlockReference
  2
_ARROWFILLED
 10
279.4301166085439
 20
145.0
 30
0.0
 41
2.0
 42
2.0
 43
2.0
 50
89.99999999999991
  0
INSERT
  5
13B
330
133
100
AcDbEntity
  8
2
  6
Continuous
 62
   134
370
     9
100
AcDbBlockReference
  2
_ARROWFILLED
 10
279.4301166085438
 20
115.0
 30
0.0
 41
2.0
 42
2.0
 43
2.0
 50
269.9999999999998
  0
ENDBLK
  5
135
330
133
100
AcDbEntity
  8
0
100
AcDbBlockEnd
  0
BLOCK
  5
13E
330
13D
100
AcDbEntity
  8
0
100
AcDbBlockBegin
  2
*G21
 70
     1
 10
0.0
 20
0.0
 30
0.0
  3
*G21
  1
*G21
  0
LINE
  5
140
330
13D
100
AcDbEntity
  8
1
  6
Continuous
 62
     7
370
    35
100
AcDbLine
 10
240.5257711148412
 20
124.943593539449
 30
0.0
 11
247.0098653280533
 21
121.2
 31
0.0
  0
LINE
  5
141
330
13D
100
AcDbEntity
  8
1
  6
Continuous
 62
     7
370
    35
100
AcDbLine
 10
239.7678182214473
 20
133.743593539449
 30
0.0
 11
239.7678182214473
 21
126.256406460551
 31
0.0
  0
LINE
  5
142
330
13D
100
AcDbEntity
  8
1
  6
Continuous
 62
     7
370
    35
100
AcDbLine
 10
247.0098653280535
 20
138.8
 30
0.0
 11
240.5257711148412
 21
135.056406460551
 31
0.0
  0
LINE
  5
143
330
13D
100
AcDbEntity
  8
1
  6
Continuous
 62
     7
370
    35
100
AcDbLine
 10
255.0098653280535
 20
135.056406460551
 30
0.0
 11
248.5257711148412
 21
138.8
 31
0.0
  0
LINE
  5
144
330
13D
100
AcDbEntity
  8
1
  6
Continuous
 62
     7
370
    35
100
AcDbLine
 10
255.7678182214473
 20
126.256406460551
 30
0.0
 11
255.7678182214473
 21
133.743593539449
 31
0.0
  0
LINE
  5
145
330
13D
100
AcDbEntity
  8
1
  6
Continuous
 62
     7
370
    35
100
AcDbLine
 10
248.5257711148412
 20
121.2
 30
0.0
 11
255.0098653280534
 21
124.9435935394489
 31
0.0
  0
ENDBLK
  5
13F
330
13D
100
AcDbEntity
  8
0
100
AcDbBlockEnd
  0
BLOCK
  5
158
330
157
100
AcDbEntity
  8
0
100
AcDbBlockBegin
  2
Dim5
 70
     0
 10
0.0
 20
0.0
 30
0.0
  3
Dim5
  1
Dim5
  0
LINE
  5
15A
330
157
100
AcDbEntity
  8
2
  6
Continuous
 62
   134
370
     9
100
AcDbLine
 10
250.651687956204
 20
138.8
 30
0.0
 11
272.0
 21
138.8
 31
0.0
  0
LINE
  5
15B
330
157
100
AcDbEntity
  8
2
  6
Continuous
 62
   134
370
     9
100
AcDbLine
 10
250.5257711148412
 20
121.2
 30
0.0
 11
272.0
 21
121.2
 31
0.0
  0
LINE
  5
15C
330
157
100
AcDbEntity
  8
2
  6
Continuous
 62
   134
370
     9
100
AcDbLine
 10
270.0
 20
138.8
 30
0.0
 11
270.0
 21
121.2
 31
0.0
  0
MTEXT
  5
15D
330
157
100
AcDbEntity
  8
2
  6
Continuous
 62
   134
370
     9
100
AcDbMText
 10
270.0
 20
130.0
 30
0.0
 40
4.0
 41
58.0952380952381
 46
4.0
 71
     8
 72
     1
  1
17.6
  7
ＭＳ 明朝
 11
1.837589179357618E-15
 21
1.0
 31
0.0
 73
     1
 44
1.0
1001
ACAD
1000
ACAD_MTEXT_DEFINED_HEIGHT_BEGIN
1070
    46
1040
4.0
1000
ACAD_MTEXT_DEFINED_HEIGHT_END
  0
INSERT
  5
15E
330
157
100
AcDbEntity
  8
2
  6
Continuous
 62
   134
370
     9
100
AcDbBlockReference
  2
_ARROWFILLED
 10
270.0
 20
138.8
 30
0.0
 41
2.0
 42
2.0
 43
2.0
 50
89.99999999999991
  0
INSERT
  5
15F
330
157
100
AcDbEntity
  8
2
  6
Continuous
 62
   134
370
     9
100
AcDbBlockReference
  2
_ARROWFILLED
 10
270.0
 20
121.2
 30
0.0
 41
2.0
 42
2.0
 43
2.0
 50
269.9999999999998
  0
ENDBLK
  5
159
330
157
100
AcDbEntity
  8
0
100
AcDbBlockEnd
  0
BLOCK
  5
162
330
161
100
AcDbEntity
  8
0
100
AcDbBlockBegin
  2
Dim6
 70
     0
 10
0.0
 20
0.0
 30
0.0
  3
Dim6
  1
Dim6
  0
LINE
  5
164
330
161
100
AcDbEntity
  8
2
  6
Continuous
 62
   134
370
     9
100
AcDbLine
 10
239.7678182214473
 20
124.256406460551
 30
0.0
 11
239.7678182214473
 21
97.62066605839387
 31
0.0
  0
LINE
  5
165
330
161
100
AcDbEntity
  8
2
  6
Continuous
 62
   134
370
     9
100
AcDbLine
 10
255.7678182214473
 20
124.256406460551
 30
0.0
 11
255.7678182214473
 21
97.62066605839387
 31
0.0
  0
LINE
  5
166
330
161
100
AcDbEntity
  8
2
  6
Continuous
 62
   134
370
     9
100
AcDbLine
 10
239.7678182214473
 20
99.62066605839387
 30
0.0
 11
255.7678182214473
 21
99.62066605839387
 31
0.0
  0
MTEXT
  5
167
330
161
100
AcDbEntity
  8
2
  6
Continuous
 62
   134
370
     9
100
AcDbMText
 10
247.7678182214473
 20
99.62066605839387
 30
0.0
 40
4.0
 41
29.52380952380953
 46
4.0
 71
     8
 72
     1
  1
16
  7
ＭＳ 明朝
 73
     1
 44
1.0
1001
ACAD
1000
ACAD_MTEXT_DEFINED_HEIGHT_BEGIN
1070
    46
1040
4.0
1000
ACAD_MTEXT_DEFINED_HEIGHT_END
  0
INSERT
  5
168
330
161
100
AcDbEntity
  8
2
  6
Continuous
 62
   134
370
     9
100
AcDbBlockReference
  2
_ARROWFILLED
 10
239.7678182214473
 20
99.62066605839387
 30
0.0
 41
2.0
 42
2.0
 43
2.0
 50
179.9999999999998
  0
INSERT
  5
169
330
161
100
AcDbEntity
  8
2
  6
Continuous
 62
   134
370
     9
100
AcDbBlockReference
  2
_ARROWFILLED
 10
255.7678182214473
 20
99.62066605839387
 30
0.0
 41
2.0
 42
2.0
 43
2.0
 50
359.9999999999997
  0
ENDBLK
  5
163
330
161
100
AcDbEntity
  8
0
100
AcDbBlockEnd
  0
BLOCK
  5
2B6
330
2B5
100
AcDbEntity
  8
0
100
AcDbBlockBegin
  2
Dim7
 70
     0
 10
0.0
 20
0.0
 30
0.0
  3
Dim7
  1
Dim7
  0
LINE
  5
2B8
330
2B5
100
AcDbEntity
  8
2
  6
Continuous
 62
   134
370
     9
100
AcDbLine
 10
117.4091332591771
 20
136.85
 30
0.0
 11
117.4091332591771
 21
153.4808467741927
 31
0.0
  0
LINE
  5
2B9
330
2B5
100
AcDbEntity
  8
2
  6
Continuous
 62
   134
370
     9
100
AcDbLine
 10
182.8749910868008
 20
143.65
 30
0.0
 11
182.8749910868008
 21
153.4808467741927
 31
0.0
  0
LINE
  5
2BA
330
2B5
100
AcDbEntity
  8
2
  6
Continuous
 62
   134
370
     9
100
AcDbLine
 10
117.4091332591771
 20
151.4808467741927
 30
0.0
 11
182.8749910868008
 21
151.4808467741927
 31
0.0
  0
MTEXT
  5
2BB
330
2B5
100
AcDbEntity
  8
2
  6
Continuous
 62
   134
370
     9
100
AcDbMText
 10
145.8613138686132
 20
151.4808467741927
 30
0.0
 40
4.0
 41
213.3333333333333
 46
4.0
 71
     8
 72
     1
  1
ｹｰﾌﾞﾙ長（標準2m）
  7
ＭＳ 明朝
 73
     1
 44
1.0
1001
ACAD
1000
ACAD_MTEXT_DEFINED_HEIGHT_BEGIN
1070
    46
1040
4.0
1000
ACAD_MTEXT_DEFINED_HEIGHT_END
  0
INSERT
  5
2BC
330
2B5
100
AcDbEntity
  8
2
  6
Continuous
 62
   134
370
     9
100
AcDbBlockReference
  2
_ARROWFILLED
 10
117.4091332591771
 20
151.4808467741927
 30
0.0
 41
2.0
 42
2.0
 43
2.0
 50
179.9999999999998
  0
INSERT
  5
2BD
330
2B5
100
AcDbEntity
  8
2
  6
Continuous
 62
   134
370
     9
100
AcDbBlockReference
  2
_ARROWFILLED
 10
182.8749910868008
 20
151.4808467741927
 30
0.0
 41
2.0
 42
2.0
 43
2.0
 50
359.9999999999997
  0
ENDBLK
  5
2B7
330
2B5
100
AcDbEntity
  8
0
100
AcDbBlockEnd
  0
BLOCK
  5
2C0
330
2BF
100
AcDbEntity
  8
0
100
AcDbBlockBegin
  2
Dim8
 70
     0
 10
0.0
 20
0.0
 30
0.0
  3
Dim8
  1
Dim8
  0
LINE
  5
2C2
330
2BF
100
AcDbEntity
  8
2
  6
Continuous
 62
   134
370
     9
100
AcDbLine
 10
163.0697064717426
 20
118.5000000000001
 30
0.0
 11
163.0697064717426
 21
142.7120276911926
 31
0.0
  0
MTEXT
  5
2C3
330
2BF
100
AcDbEntity
  8
2
  6
Continuous
 62
   134
370
     9
100
AcDbMText
 10
163.0697064717426
 20
136.7120276911926
 30
0.0
 40
4.0
 41
30.47619047619047
 46
4.0
 71
     7
 72
     1
  1
φ7
  7
ＭＳ 明朝
 11
1.615544574432587E-15
 21
1.0
 31
0.0
 73
     1
 44
1.0
1001
ACAD
1000
ACAD_MTEXT_DEFINED_HEIGHT_BEGIN
1070
    46
1040
4.0
1000
ACAD_MTEXT_DEFINED_HEIGHT_END
  0
INSERT
  5
2C4
330
2BF
100
AcDbEntity
  8
2
  6
Continuous
 62
   134
370
     9
100
AcDbBlockReference
  2
_ARROWFILLED
 10
163.0697064717426
 20
126.5000000000001
 30
0.0
 41
2.0
 42
2.0
 43
2.0
 50
89.99999999999959
  0
INSERT
  5
2C5
330
2BF
100
AcDbEntity
  8
2
  6
Continuous
 62
   134
370
     9
100
AcDbBlockReference
  2
_ARROWFILLED
 10
163.0697064717426
 20
133.4999999999999
 30
0.0
 41
2.0
 42
2.0
 43
2.0
 50
269.9999999999998
  0
ENDBLK
  5
2C1
330
2BF
100
AcDbEntity
  8
0
100
AcDbBlockEnd
  0
BLOCK
  5
2D2
330
2D1
100
AcDbEntity
  8
0
100
AcDbBlockBegin
  2
Dim9
 70
     0
 10
0.0
 20
0.0
 30
0.0
  3
Dim9
  1
Dim9
  0
LINE
  5
2D4
330
2D1
100
AcDbEntity
  8
2
  6
Continuous
 62
   134
370
     9
100
AcDbLine
 10
187.7918222189025
 20
120.05
 30
0.0
 11
210.6313733798119
 21
120.05
 31
0.0
  0
LINE
  5
2D5
330
2D1
100
AcDbEntity
  8
2
  6
Continuous
 62
   134
370
     9
100
AcDbLine
 10
205.4259588095918
 20
144.5230919561239
 30
0.0
 11
210.6313733798119
 21
144.5230919561239
 31
0.0
  0
LINE
  5
2D6
330
2D1
100
AcDbEntity
  8
2
  6
Continuous
 62
   134
370
     9
100
AcDbLine
 10
209.6313733798119
 20
120.05
 30
0.0
 11
209.6313733798119
 21
144.5230919561239
 31
0.0
  0
MTEXT
  5
2D7
330
2D1
100
AcDbEntity
  8
2
  6
Continuous
 62
   134
370
     9
100
AcDbMText
 10
209.6313733798119
 20
131.0187291834108
 30
0.0
 40
4.0
 41
60.95238095238096
 46
4.0
 71
     8
 72
     1
  1
24.5
  7
ＭＳ 明朝
 11
1.615544574432587E-15
 21
1.0
 31
0.0
 73
     1
 44
1.0
1001
ACAD
1000
ACAD_MTEXT_DEFINED_HEIGHT_BEGIN
1070
    46
1040
4.0
1000
ACAD_MTEXT_DEFINED_HEIGHT_END
  0
INSERT
  5
2D8
330
2D1
100
AcDbEntity
  8
2
  6
Continuous
 62
   134
370
     9
100
AcDbBlockReference
  2
_ARROWFILLED
 10
209.6313733798119
 20
120.05
 30
0.0
 41
2.0
 42
2.0
 43
2.0
 50
269.9999999999998
  0
INSERT
  5
2D9
330
2D1
100
AcDbEntity
  8
2
  6
Continuous
 62
   134
370
     9
100
AcDbBlockReference
  2
_ARROWFILLED
 10
209.6313733798119
 20
144.5230919561239
 30
0.0
 41
2.0
 42
2.0
 43
2.0
 50
89.99999999999991
  0
ENDBLK
  5
2D3
330
2D1
100
AcDbEntity
  8
0
100
AcDbBlockEnd
  0
BLOCK
  5
2DC
330
2DB
100
AcDbEntity
  8
0
100
AcDbBlockBegin
  2
Dim10
 70
     0
 10
0.0
 20
0.0
 30
0.0
  3
Dim10
  1
Dim10
  0
LINE
  5
2DE
330
2DB
100
AcDbEntity
  8
2
  6
Continuous
 62
   134
370
     9
100
AcDbLine
 10
182.8749910868008
 20
142.65
 30
0.0
 11
182.8749910868008
 21
152.4597645082042
 31
0.0
  0
LINE
  5
2DF
330
2DB
100
AcDbEntity
  8
2
  6
Continuous
 62
   134
370
     9
100
AcDbLine
 10
200.8749910868007
 20
142.436961590433
 30
0.0
 11
200.8749910868008
 21
152.4597645082042
 31
0.0
  0
LINE
  5
2E0
330
2DB
100
AcDbEntity
  8
2
  6
Continuous
 62
   134
370
     9
100
AcDbLine
 10
182.8749910868008
 20
151.4597645082042
 30
0.0
 11
200.8749910868008
 21
151.4597645082042
 31
0.0
  0
MTEXT
  5
2E1
330
2DB
100
AcDbEntity
  8
2
  6
Continuous
 62
   134
370
     9
100
AcDbMText
 10
191.1252436783867
 20
151.4597645082042
 30
0.0
 40
4.0
 41
29.52380952380953
 46
4.0
 71
     8
 72
     1
  1
18
  7
ＭＳ 明朝
 73
     1
 44
1.0
1001
ACAD
1000
ACAD_MTEXT_DEFINED_HEIGHT_BEGIN
1070
    46
1040
4.0
1000
ACAD_MTEXT_DEFINED_HEIGHT_END
  0
INSERT
  5
2E2
330
2DB
100
AcDbEntity
  8
2
  6
Continuous
 62
   134
370
     9
100
AcDbBlockReference
  2
_ARROWFILLED
 10
182.8749910868008
 20
151.4597645082042
 30
0.0
 41
2.0
 42
2.0
 43
2.0
 50
179.9999999999998
  0
INSERT
  5
2E3
330
2DB
100
AcDbEntity
  8
2
  6
Continuous
 62
   134
370
     9
100
AcDbBlockReference
  2
_ARROWFILLED
 10
200.8749910868008
 20
151.4597645082042
 30
0.0
 41
2.0
 42
2.0
 43
2.0
 50
359.9999999999997
  0
ENDBLK
  5
2DD
330
2DB
100
AcDbEntity
  8
0
100
AcDbBlockEnd
  0
BLOCK
  5
2E6
330
2E5
100
AcDbEntity
  8
0
100
AcDbBlockBegin
  2
Dim11
 70
     0
 10
0.0
 20
0.0
 30
0.0
  3
Dim11
  1
Dim11
  0
LINE
  5
2E8
330
2E5
100
AcDbEntity
  8
2
  6
Continuous
 62
   134
370
     9
100
AcDbLine
 10
214.4328424919133
 20
144.75
 30
0.0
 11
214.4328424919133
 21
153.4597645082042
 31
0.0
  0
LINE
  5
2E9
330
2E5
100
AcDbEntity
  8
2
  6
Continuous
 62
   134
370
     9
100
AcDbLine
 10
220.4328424919133
 20
144.75
 30
0.0
 11
220.4328424919133
 21
153.4597645082042
 31
0.0
  0
LINE
  5
2EA
330
2E5
100
AcDbEntity
  8
2
  6
Continuous
 62
   134
370
     9
100
AcDbLine
 10
214.4328424919133
 20
151.4597645082042
 30
0.0
 11
220.4328424919133
 21
151.4597645082042
 31
0.0
  0
MTEXT
  5
2EB
330
2E5
100
AcDbEntity
  8
2
  6
Continuous
 62
   134
370
     9
100
AcDbMText
 10
217.4328424919133
 20
151.4597645082042
 30
0.0
 40
4.0
 41
12.38095238095238
 46
4.0
 71
     8
 72
     1
  1
6
  7
ＭＳ 明朝
 73
     1
 44
1.0
1001
ACAD
1000
ACAD_MTEXT_DEFINED_HEIGHT_BEGIN
1070
    46
1040
4.0
1000
ACAD_MTEXT_DEFINED_HEIGHT_END
  0
INSERT
  5
2EC
330
2E5
100
AcDbEntity
  8
2
  6
Continuous
 62
   134
370
     9
100
AcDbBlockReference
  2
_ARROWFILLED
 10
214.4328424919133
 20
151.4597645082042
 30
0.0
 41
2.0
 42
2.0
 43
2.0
 50
179.9999999999998
  0
INSERT
  5
2ED
330
2E5
100
AcDbEntity
  8
2
  6
Continuous
 62
   134
370
     9
100
AcDbBlockReference
  2
_ARROWFILLED
 10
220.4328424919133
 20
151.4597645082042
 30
0.0
 41
2.0
 42
2.0
 43
2.0
 50
359.9999999999997
  0
ENDBLK
  5
2E7
330
2E5
100
AcDbEntity
  8
0
100
AcDbBlockEnd
  0
BLOCK
  5
2FB
330
2FA
100
AcDbEntity
  8
0
100
AcDbBlockBegin
  2
Dim12
 70
     0
 10
0.0
 20
0.0
 30
0.0
  3
Dim12
  1
Dim12
  0
LINE
  5
2FD
330
2FA
100
AcDbEntity
  8
2
  6
Continuous
 62
   134
370
     9
100
AcDbLine
 10
100.4091332591771
 20
146.7
 30
0.0
 11
100.4091332591771
 21
162.0
 31
0.0
  0
LINE
  5
2FE
330
2FA
100
AcDbEntity
  8
2
  6
Continuous
 62
   134
370
     9
100
AcDbLine
 10
117.4091332591771
 20
136.85
 30
0.0
 11
117.4091332591771
 21
162.0
 31
0.0
  0
LINE
  5
2FF
330
2FA
100
AcDbEntity
  8
2
  6
Continuous
 62
   134
370
     9
100
AcDbLine
 10
100.4091332591771
 20
160.0
 30
0.0
 11
117.4091332591771
 21
160.0
 31
0.0
  0
MTEXT
  5
300
330
2FA
100
AcDbEntity
  8
2
  6
Continuous
 62
   134
370
     9
100
AcDbMText
 10
108.9091332591771
 20
160.0
 30
0.0
 40
4.0
 41
29.52380952380953
 46
4.0
 71
     8
 72
     1
  1
17
  7
ＭＳ 明朝
 73
     1
 44
1.0
1001
ACAD
1000
ACAD_MTEXT_DEFINED_HEIGHT_BEGIN
1070
    46
1040
4.0
1000
ACAD_MTEXT_DEFINED_HEIGHT_END
  0
INSERT
  5
301
330
2FA
100
AcDbEntity
  8
2
  6
Continuous
 62
   134
370
     9
100
AcDbBlockReference
  2
_ARROWFILLED
 10
100.4091332591771
 20
160.0
 30
0.0
 41
2.0
 42
2.0
 43
2.0
 50
179.9999999999998
  0
INSERT
  5
302
330
2FA
100
AcDbEntity
  8
2
  6
Continuous
 62
   134
370
     9
100
AcDbBlockReference
  2
_ARROWFILLED
 10
117.4091332591771
 20
160.0
 30
0.0
 41
2.0
 42
2.0
 43
2.0
 50
359.9999999999997
  0
ENDBLK
  5
2FC
330
2FA
100
AcDbEntity
  8
0
100
AcDbBlockEnd
  0
BLOCK
  5
330
330
32F
100
AcDbEntity
  8
0
100
AcDbBlockBegin
  2
Dim13
 70
     0
 10
0.0
 20
0.0
 30
0.0
  3
Dim13
  1
Dim13
  0
LINE
  5
332
330
32F
100
AcDbEntity
  8
2
  6
Continuous
 62
   134
370
     9
100
AcDbLine
 10
53.90913325917714
 20
114.9999999339475
 30
0.0
 11
28.00017475570973
 21
114.9999999339475
 31
0.0
  0
LINE
  5
333
330
32F
100
AcDbEntity
  8
2
  6
Continuous
 62
   134
370
     9
100
AcDbLine
 10
49.40817163709798
 20
130.0
 30
0.0
 11
28.00017475570973
 21
130.0
 31
0.0
  0
LINE
  5
334
330
32F
100
AcDbEntity
  8
2
  6
Continuous
 62
   134
370
     9
100
AcDbLine
 10
30.00017475570973
 20
114.9999999339475
 30
0.0
 11
30.00017475570973
 21
130.0
 31
0.0
  0
MTEXT
  5
335
330
32F
100
AcDbEntity
  8
2
  6
Continuous
 62
   134
370
     9
100
AcDbMText
 10
30.00017475570973
 20
122.4999999669738
 30
0.0
 40
4.0
 41
29.52380952380953
 46
4.0
 71
     8
 72
     1
  1
15
  7
ＭＳ 明朝
 11
1.393499969507555E-15
 21
1.0
 31
0.0
 73
     1
 44
1.0
1001
ACAD
1000
ACAD_MTEXT_DEFINED_HEIGHT_BEGIN
1070
    46
1040
4.0
1000
ACAD_MTEXT_DEFINED_HEIGHT_END
  0
INSERT
  5
336
330
32F
100
AcDbEntity
  8
2
  6
Continuous
 62
   134
370
     9
100
AcDbBlockReference
  2
_ARROWFILLED
 10
30.00017475570973
 20
114.9999999339475
 30
0.0
 41
2.0
 42
2.0
 43
2.0
 50
269.9999999999998
  0
INSERT
  5
337
330
32F
100
AcDbEntity
  8
2
  6
Continuous
 62
   134
370
     9
100
AcDbBlockReference
  2
_ARROWFILLED
 10
30.00017475570973
 20
130.0
 30
0.0
 41
2.0
 42
2.0
 43
2.0
 50
89.99999999999959
  0
ENDBLK
  5
331
330
32F
100
AcDbEntity
  8
0
100
AcDbBlockEnd
  0
BLOCK
  5
33A
330
339
100
AcDbEntity
  8
0
100
AcDbBlockBegin
  2
Dim14
 70
     0
 10
0.0
 20
0.0
 30
0.0
  3
Dim14
  1
Dim14
  0
LINE
  5
33C
330
339
100
AcDbEntity
  8
2
  6
Continuous
 62
   134
370
     9
100
AcDbLine
 10
51.90913325917762
 20
159.9999999999999
 30
0.0
 11
22.83680915379739
 21
159.9999999999999
 31
0.0
  0
MTEXT
  5
33D
330
339
100
AcDbEntity
  8
2
  6
Continuous
 62
   134
370
     9
100
AcDbMText
 10
37.45377475054772
 20
159.9999999999999
 30
0.0
 40
4.0
 41
62.85714285714285
 46
4.0
 71
     8
 72
     1
  1
測定距離
  7
ＭＳ 明朝
 73
     1
 44
1.0
1001
ACAD
1000
ACAD_MTEXT_DEFINED_HEIGHT_BEGIN
1070
    46
1040
4.0
1000
ACAD_MTEXT_DEFINED_HEIGHT_END
  0
INSERT
  5
33E
330
339
100
AcDbEntity
  8
2
  6
Continuous
 62
   134
370
     9
100
AcDbBlockReference
  2
_ARROWFILLED
 10
51.90913325917762
 20
159.9999999999999
 30
0.0
 41
2.0
 42
2.0
 43
2.0
 50
359.9999999999997
  0
ENDBLK
  5
33B
330
339
100
AcDbEntity
  8
0
100
AcDbBlockEnd
  0
BLOCK
  5
342
330
341
100
AcDbEntity
  8
0
100
AcDbBlockBegin
  2
Dim15
 70
     0
 10
0.0
 20
0.0
 30
0.0
  3
Dim15
  1
Dim15
  0
LINE
  5
344
330
341
100
AcDbEntity
  8
2
  6
Continuous
 62
   134
370
     9
100
AcDbLine
 10
51.90913325917715
 20
142.7192540322579
 30
0.0
 11
51.9091332591772
 21
162.0
 31
0.0
  0
LINE
  5
345
330
341
100
AcDbEntity
  8
2
  6
Continuous
 62
   134
370
     9
100
AcDbLine
 10
100.4091332591771
 20
146.7
 30
0.0
 11
100.4091332591771
 21
162.0
 31
0.0
  0
LINE
  5
346
330
341
100
AcDbEntity
  8
2
  6
Continuous
 62
   134
370
     9
100
AcDbLine
 10
51.9091332591772
 20
160.0
 30
0.0
 11
100.4091332591771
 21
160.0
 31
0.0
  0
MTEXT
  5
347
330
341
100
AcDbEntity
  8
2
  6
Continuous
 62
   134
370
     9
100
AcDbMText
 10
76.15913325917714
 20
160.0
 30
0.0
 40
4.0
 41
60.95238095238096
 46
4.0
 71
     8
 72
     1
  1
48.5
  7
ＭＳ 明朝
 73
     1
 44
1.0
1001
ACAD
1000
ACAD_MTEXT_DEFINED_HEIGHT_BEGIN
1070
    46
1040
4.0
1000
ACAD_MTEXT_DEFINED_HEIGHT_END
  0
INSERT
  5
348
330
341
100
AcDbEntity
  8
2
  6
Continuous
 62
   134
370
     9
100
AcDbBlockReference
  2
_ARROWFILLED
 10
51.9091332591772
 20
160.0
 30
0.0
 41
2.0
 42
2.0
 43
2.0
 50
179.9999999999998
  0
INSERT
  5
349
330
341
100
AcDbEntity
  8
2
  6
Continuous
 62
   134
370
     9
100
AcDbBlockReference
  2
_ARROWFILLED
 10
100.4091332591771
 20
160.0
 30
0.0
 41
2.0
 42
2.0
 43
2.0
 50
359.9999999999997
  0
ENDBLK
  5
343
330
341
100
AcDbEntity
  8
0
100
AcDbBlockEnd
  0
BLOCK
  5
34C
330
34B
100
AcDbEntity
  8
0
100
AcDbBlockBegin
  2
Dim16
 70
     0
 10
0.0
 20
0.0
 30
0.0
  3
Dim16
  1
Dim16
  0
LINE
  5
34E
330
34B
100
AcDbEntity
  8
2
  6
Continuous
 62
   134
370
     9
100
AcDbLine
 10
60.57217057692421
 20
139.9999999339475
 30
0.0
 11
75.77934947637718
 21
139.9999999339475
 31
0.0
  0
LINE
  5
34F
330
34B
100
AcDbEntity
  8
2
  6
Continuous
 62
   134
370
     9
100
AcDbLine
 10
60.8288828813339
 20
119.9999999339475
 30
0.0
 11
75.77934947637718
 21
119.9999999339475
 31
0.0
  0
LINE
  5
350
330
34B
100
AcDbEntity
  8
2
  6
Continuous
 62
   134
370
     9
100
AcDbLine
 10
73.77934947637718
 20
139.9999999339475
 30
0.0
 11
73.77934947637718
 21
119.9999999339475
 31
0.0
  0
MTEXT
  5
351
330
34B
100
AcDbEntity
  8
2
  6
Continuous
 62
   134
370
     9
100
AcDbMText
 10
73.77934947637718
 20
133.5000000010889
 30
0.0
 40
4.0
 41
32.38095238095238
 46
4.0
 71
     8
 72
     1
  1
20
  7
ＭＳ 明朝
 11
1.837589179357618E-15
 21
1.0
 31
0.0
 73
     1
 44
1.0
1001
ACAD
1000
ACAD_MTEXT_DEFINED_HEIGHT_BEGIN
1070
    46
1040
4.0
1000
ACAD_MTEXT_DEFINED_HEIGHT_END
  0
INSERT
  5
352
330
34B
100
AcDbEntity
  8
2
  6
Continuous
 62
   134
370
     9
100
AcDbBlockReference
  2
_ARROWFILLED
 10
73.77934947637718
 20
139.9999999339475
 30
0.0
 41
2.0
 42
2.0
 43
2.0
 50
89.9999999999999
  0
INSERT
  5
353
330
34B
100
AcDbEntity
  8
2
  6
Continuous
 62
   134
370
     9
100
AcDbBlockReference
  2
_ARROWFILLED
 10
73.77934947637718
 20
119.9999999339475
 30
0.0
 41
2.0
 42
2.0
 43
2.0
 50
269.9999999999997
  0
ENDBLK
  5
34D
330
34B
100
AcDbEntity
  8
0
100
AcDbBlockEnd
  0
BLOCK
  5
356
330
355
100
AcDbEntity
  8
0
100
AcDbBlockBegin
  2
Dim17
 70
     0
 10
0.0
 20
0.0
 30
0.0
  3
Dim17
  1
Dim17
  0
LINE
  5
358
330
355
100
AcDbEntity
  8
2
  6
Continuous
 62
   134
370
     9
100
AcDbLine
 10
51.90913325917715
 20
142.9999999339475
 30
0.0
 11
51.90913325917717
 21
152.2832661290321
 31
0.0
  0
LINE
  5
359
330
355
100
AcDbEntity
  8
2
  6
Continuous
 62
   134
370
     9
100
AcDbLine
 10
55.90913325917714
 20
144.7207058372196
 30
0.0
 11
55.90913325917714
 21
152.2832661290321
 31
0.0
  0
LINE
  5
35A
330
355
100
AcDbEntity
  8
2
  6
Continuous
 62
   134
370
     9
100
AcDbLine
 10
47.90913325917717
 20
150.2832661290321
 30
0.0
 11
59.90913325917714
 21
150.2832661290321
 31
0.0
  0
MTEXT
  5
35B
330
355
100
AcDbEntity
  8
2
  6
Continuous
 62
   134
370
     9
100
AcDbMText
 10
53.8409849117553
 20
150.2832661290321
 30
0.0
 40
4.0
 41
14.28571428571428
 46
4.0
 71
     8
 72
     1
  1
4
  7
ＭＳ 明朝
 73
     1
 44
1.0
1001
ACAD
1000
ACAD_MTEXT_DEFINED_HEIGHT_BEGIN
1070
    46
1040
4.0
1000
ACAD_MTEXT_DEFINED_HEIGHT_END
  0
INSERT
  5
35C
330
355
100
AcDbEntity
  8
2
  6
Continuous
 62
   134
370
     9
100
AcDbBlockReference
  2
_ARROWFILLED
 10
51.90913325917717
 20
150.2832661290321
 30
0.0
 41
2.0
 42
2.0
 43
2.0
 50
359.9999999999997
  0
INSERT
  5
35D
330
355
100
AcDbEntity
  8
2
  6
Continuous
 62
   134
370
     9
100
AcDbBlockReference
  2
_ARROWFILLED
 10
55.90913325917714
 20
150.2832661290321
 30
0.0
 41
2.0
 42
2.0
 43
2.0
 50
179.9999999999998
  0
ENDBLK
  5
357
330
355
100
AcDbEntity
  8
0
100
AcDbBlockEnd
  0
ENDSEC
  0
SECTION
  2
ENTITIES
  0
INSERT
  5
DF
330
1F
100
AcDbEntity
  8
0
100
AcDbBlockReference
  2
*G16
 10
0.0
 20
0.0
 30
0.0
  0
MTEXT
  5
E0
330
1F
100
AcDbEntity
  8
5
  6
Continuous
 62
    94
370
     9
100
AcDbMText
 10
210.9627483443709
 20
25.65149006622502
 30
0.0
 40
3.5
 41
26.13105605605606
 46
3.5
 71
     7
 72
     1
  1
{\f@ＭＳ 明朝;\W2.000000;\T0.750000;製図}
  7
T_STANDARD
 11
2.832769448823990E-16
 21
-1.0
 31
0.0
 73
     1
 44
1.0
1001
ACAD
1000
ACAD_MTEXT_DEFINED_HEIGHT_BEGIN
1070
    46
1040
3.5
1000
ACAD_MTEXT_DEFINED_HEIGHT_END
  0
MTEXT
  5
E1
330
1F
100
AcDbEntity
  8
5
  6
Continuous
 62
    94
370
     9
100
AcDbMText
 10
230.7955298013246
 20
25.4875827814568
 30
0.0
 40
3.5
 41
25.85245745745746
 46
3.5
 71
     7
 72
     1
  1
{\f@ＭＳ 明朝;\W2.000000;\T0.750000;図番}
  7
T_STANDARD
 11
2.832769448823990E-16
 21
-1.0
 31
0.0
 73
     1
 44
1.0
1001
ACAD
1000
ACAD_MTEXT_DEFINED_HEIGHT_BEGIN
1070
    46
1040
3.5
1000
ACAD_MTEXT_DEFINED_HEIGHT_END
  0
MTEXT
  5
E2
330
1F
100
AcDbEntity
  8
5
  6
Continuous
 62
    94
370
     9
100
AcDbMText
 10
230.7955298013246
 20
38.76407284768196
 30
0.0
 40
3.5
 41
38.53118118118118
 46
3.5
 71
     7
 72
     1
  1
{\f@ＭＳ 明朝;\W2.000000;\T0.750000;図　名}
  7
T_STANDARD
 11
2.832769448823990E-16
 21
-1.0
 31
0.0
 73
     1
 44
1.0
1001
ACAD
1000
ACAD_MTEXT_DEFINED_HEIGHT_BEGIN
1070
    46
1040
3.5
1000
ACAD_MTEXT_DEFINED_HEIGHT_END
  0
MTEXT
  5
E3
330
1F
100
AcDbEntity
  8
5
  6
Continuous
 62
    94
370
     9
100
AcDbMText
 10
165.8882450331127
 20
33.35513245033097
 30
0.0
 40
3.5
 41
24.71816316316316
 46
3.5
 71
     7
 72
     1
  1
{\f@ＭＳ 明朝;\W2.000000;\T0.750000;日付}
  7
T_STANDARD
 11
2.832769448823990E-16
 21
-1.0
 31
0.0
 73
     1
 44
1.0
1001
ACAD
1000
ACAD_MTEXT_DEFINED_HEIGHT_BEGIN
1070
    46
1040
3.5
1000
ACAD_MTEXT_DEFINED_HEIGHT_END
  0
MTEXT
  5
E4
330
1F
100
AcDbEntity
  8
5
  6
Continuous
 62
    94
370
     9
100
AcDbMText
 10
200.96440397351
 20
33.51903973509918
 30
0.0
 40
3.5
 41
25.40470970970971
 46
3.5
 71
     7
 72
     1
  1
{\f@ＭＳ 明朝;\W2.000000;\T0.750000;図法}
  7
T_STANDARD
 11
2.832769448823990E-16
 21
-1.0
 31
0.0
 73
     1
 44
1.0
1001
ACAD
1000
ACAD_MTEXT_DEFINED_HEIGHT_BEGIN
1070
    46
1040
3.5
1000
ACAD_MTEXT_DEFINED_HEIGHT_END
  0
MTEXT
  5
E5
330
1F
100
AcDbEntity
  8
5
  6
Continuous
 62
    94
370
     9
100
AcDbMText
 10
200.8004966887418
 20
41.55049668874156
 30
0.0
 40
3.5
 41
24.94701201201201
 46
3.5
 71
     7
 72
     1
  1
{\f@ＭＳ 明朝;\W2.000000;\T0.750000;尺度}
  7
T_STANDARD
 11
2.832769448823990E-16
 21
-1.0
 31
0.0
 73
     1
 44
1.0
1001
ACAD
1000
ACAD_MTEXT_DEFINED_HEIGHT_BEGIN
1070
    46
1040
3.5
1000
ACAD_MTEXT_DEFINED_HEIGHT_END
  0
MTEXT
  5
E6
330
1F
100
AcDbEntity
  8
5
  6
Continuous
 62
    94
370
     9
100
AcDbMText
 10
165.8882450331126
 20
41.38658940397335
 30
0.0
 40
3.5
 41
25.23556056056056
 46
3.5
 71
     7
 72
     1
  1
{\f@ＭＳ 明朝;\W2.000000;\T0.750000;公差}
  7
T_STANDARD
 11
2.832769448823990E-16
 21
-1.0
 31
0.0
 73
     1
 44
1.0
1001
ACAD
1000
ACAD_MTEXT_DEFINED_HEIGHT_BEGIN
1070
    46
1040
3.5
1000
ACAD_MTEXT_DEFINED_HEIGHT_END
  0
MTEXT
  5
E7
330
1F
100
AcDbEntity
  8
5
  6
Continuous
 62
    94
370
     9
100
AcDbMText
 10
165.8882450331127
 20
25.4875827814568
 30
0.0
 40
3.5
 41
25.63355855855855
 46
3.5
 71
     7
 72
     1
  1
{\f@ＭＳ 明朝;\W2.000000;\T0.750000;承認}
  7
T_STANDARD
 11
2.832769448823990E-16
 21
-1.0
 31
0.0
 73
     1
 44
1.0
1001
ACAD
1000
ACAD_MTEXT_DEFINED_HEIGHT_BEGIN
1070
    46
1040
3.5
1000
ACAD_MTEXT_DEFINED_HEIGHT_END
  0
MTEXT
  5
E8
330
1F
100
AcDbEntity
  8
5
  6
Continuous
 62
    94
370
     9
100
AcDbMText
 10
190.9660596026491
 20
25.4875827814568
 30
0.0
 40
3.5
 41
25.51415915915916
 46
3.5
 71
     7
 72
     1
  1
{\f@ＭＳ 明朝;\W2.000000;\T0.750000;設計}
  7
T_STANDARD
 11
2.832769448823990E-16
 21
-1.0
 31
0.0
 73
     1
 44
1.0
1001
ACAD
1000
ACAD_MTEXT_DEFINED_HEIGHT_BEGIN
1070
    46
1040
3.5
1000
ACAD_MTEXT_DEFINED_HEIGHT_END
  0
MTEXT
  5
E9
330
1F
100
AcDbEntity
  8
5
  6
Continuous
 62
    94
370
     9
100
AcDbMText
 10
184.4097682119206
 20
11.5554635761588
 30
0.0
 40
4.5
 41
262.4128705491682
 46
4.5
 71
     7
 72
     1
  1
{\fＭＳ 明朝|b1;\W2.000000;\T1.416667;ジャパンセンサー株式会社}
 73
     1
 44
1.0
1001
ACAD
1000
ACAD_MTEXT_DEFINED_HEIGHT_BEGIN
1070
    46
1040
4.5
1000
ACAD_MTEXT_DEFINED_HEIGHT_END
  0
LINE
  5
EA
330
1F
100
AcDbEntity
  8
5
  6
Continuous
 62
    94
370
    35
100
AcDbLine
 10
165.0
 20
41.99999999999986
 30
0.0
 11
285.0
 21
41.99999999999986
 31
0.0
  0
LINE
  5
EB
330
1F
100
AcDbEntity
  8
5
  6
Continuous
 62
    94
370
    35
100
AcDbLine
 10
165.0
 20
9.999999999999865
 30
0.0
 11
165.0
 21
41.99999999999986
 31
0.0
  0
LINE
  5
EC
330
1F
100
AcDbEntity
  8
5
  6
Continuous
 62
    94
370
    35
100
AcDbLine
 10
285.0
 20
17.99999999999986
 30
0.0
 11
165.0
 21
17.99999999999986
 31
0.0
  0
LINE
  5
ED
330
1F
100
AcDbEntity
  8
5
  6
Continuous
 62
    94
370
    35
100
AcDbLine
 10
230.0
 20
41.99999999999986
 30
0.0
 11
230.0
 21
17.99999999999986
 31
0.0
  0
LINE
  5
EE
330
1F
100
AcDbEntity
  8
5
  6
Continuous
 62
    94
370
    35
100
AcDbLine
 10
285.0
 20
25.99999999999986
 30
0.0
 11
165.0
 21
25.99999999999986
 31
0.0
  0
LINE
  5
EF
330
1F
100
AcDbEntity
  8
5
  6
Continuous
 62
    94
370
    25
100
AcDbLine
 10
235.0
 20
17.99999999999986
 30
0.0
 11
235.0
 21
41.99999999999986
 31
0.0
  0
LINE
  5
F0
330
1F
100
AcDbEntity
  8
5
  6
Continuous
 62
    94
370
    25
100
AcDbLine
 10
205.0
 20
41.99999999999986
 30
0.0
 11
205.0
 21
25.99999999999986
 31
0.0
  0
LINE
  5
F1
330
1F
100
AcDbEntity
  8
5
  6
Continuous
 62
    94
370
    25
100
AcDbLine
 10
170.0
 20
17.99999999999986
 30
0.0
 11
170.0
 21
41.99999999999986
 31
0.0
  0
LINE
  5
F2
330
1F
100
AcDbEntity
  8
5
  6
Continuous
 62
    94
370
    35
100
AcDbLine
 10
165.0
 20
33.99999999999986
 30
0.0
 11
230.0
 21
33.99999999999986
 31
0.0
  0
LINE
  5
F3
330
1F
100
AcDbEntity
  8
5
  6
Continuous
 62
    94
370
    35
100
AcDbLine
 10
200.0
 20
41.99999999999986
 30
0.0
 11
200.0
 21
25.99999999999986
 31
0.0
  0
LINE
  5
F4
330
1F
100
AcDbEntity
  8
5
  6
Continuous
 62
    94
370
    35
100
AcDbLine
 10
190.0
 20
17.99999999999986
 30
0.0
 11
190.0
 21
25.99999999999986
 31
0.0
  0
LINE
  5
F5
330
1F
100
AcDbEntity
  8
5
  6
Continuous
 62
    94
370
    35
100
AcDbLine
 10
210.0
 20
17.99999999999986
 30
0.0
 11
210.0
 21
25.99999999999986
 31
0.0
  0
LINE
  5
F6
330
1F
100
AcDbEntity
  8
5
  6
Continuous
 62
    94
370
    25
100
AcDbLine
 10
195.0
 20
25.99999999999986
 30
0.0
 11
195.0
 21
17.99999999999986
 31
0.0
  0
LINE
  5
F7
330
1F
100
AcDbEntity
  8
5
  6
Continuous
 62
    94
370
    25
100
AcDbLine
 10
215.0
 20
25.99999999999986
 30
0.0
 11
215.0
 21
17.99999999999986
 31
0.0
  0
MTEXT
  5
F8
330
1F
100
AcDbEntity
  8
5
  6
Continuous
 62
    94
370
     9
100
AcDbMText
 10
209.9793046357617
 20
35.64983443708594
 30
0.0
 40
4.0
 41
35.39339339339339
 46
4.0
 71
     7
 72
     1
  1
{\fＭＳ 明朝;\W2.000000;\T0.750000;１／１}
 73
     1
 44
1.0
1001
ACAD
1000
ACAD_MTEXT_DEFINED_HEIGHT_BEGIN
1070
    46
1040
4.0
1000
ACAD_MTEXT_DEFINED_HEIGHT_END
  0
MTEXT
  5
F9
330
1F
100
AcDbEntity
  8
5
  6
Continuous
 62
    94
370
     9
100
AcDbMText
 10
208.9958609271524
 20
27.29056291390713
 30
0.0
 40
4.0
 41
44.09249249249249
 46
4.0
 71
     7
 72
     1
  1
{\fＭＳ 明朝;\W2.000000;\T0.750000;三角法}
 73
     1
 44
1.0
1001
ACAD
1000
ACAD_MTEXT_DEFINED_HEIGHT_BEGIN
1070
    46
1040
4.0
1000
ACAD_MTEXT_DEFINED_HEIGHT_END
  0
LINE
  5
FA
330
1F
100
AcDbEntity
  8
1
  6
DASHDOT
 62
     7
370
     9
100
AcDbLine
 10
247.7678182214473
 20
140.0
 30
0.0
 11
247.7678182214473
 21
121.2994879645263
 31
0.0
  0
LINE
  5
FB
330
1F
100
AcDbEntity
  8
1
  6
DASHDOT
 62
     7
370
     9
100
AcDbLine
 10
240.3969482947778
 20
130.0
 30
0.0
 11
255.7432989086888
 21
130.0000000000001
 31
0.0
  0
LINE
  5
FC
330
1F
100
AcDbEntity
  8
1
  6
DASHDOT
 62
     7
370
     9
100
AcDbLine
 10
247.7678182214473
 20
112.3409478226084
 30
0.0
 11
247.7678182214473
 21
147.1412278849442
 31
0.0
  0
LINE
  5
FD
330
1F
100
AcDbEntity
  8
1
  6
DASHDOT
 62
     7
370
     9
100
AcDbLine
 10
261.1847206215926
 20
130.0
 30
0.0
 11
233.2871388292845
 21
130.0
 31
0.0
  0
LINE
  5
FE
330
1F
100
AcDbEntity
  8
1
  6
Continuous
 62
     7
370
    35
100
AcDbLine
 10
259.4678182214472
 20
115.0
 30
0.0
 11
259.7678182214473
 21
115.3000000000001
 31
0.0
  0
LINE
  5
FF
330
1F
100
AcDbEntity
  8
1
  6
Continuous
 62
     7
370
    35
100
AcDbLine
 10
259.7678182214473
 20
144.7
 30
0.0
 11
259.7678182214473
 21
115.3000000000001
 31
0.0
  0
LINE
  5
100
330
1F
100
AcDbEntity
  8
1
  6
Continuous
 62
     7
370
    35
100
AcDbLine
 10
236.0678182214473
 20
115.0
 30
0.0
 11
259.4678182214472
 21
115.0
 31
0.0
  0
LINE
  5
101
330
1F
100
AcDbEntity
  8
1
  6
Continuous
 62
     7
370
    35
100
AcDbLine
 10
235.7678182214472
 20
115.3
 30
0.0
 11
236.0678182214473
 21
115.0
 31
0.0
  0
LINE
  5
102
330
1F
100
AcDbEntity
  8
1
  6
Continuous
 62
     7
370
    35
100
AcDbLine
 10
235.7678182214473
 20
144.7
 30
0.0
 11
235.7678182214472
 21
115.3
 31
0.0
  0
LINE
  5
103
330
1F
100
AcDbEntity
  8
1
  6
Continuous
 62
     7
370
    35
100
AcDbLine
 10
236.0678182214473
 20
145.0
 30
0.0
 11
235.7678182214473
 21
144.7
 31
0.0
  0
LINE
  5
104
330
1F
100
AcDbEntity
  8
1
  6
Continuous
 62
     7
370
    35
100
AcDbLine
 10
259.4678182214473
 20
145.0000000000001
 30
0.0
 11
236.0678182214473
 21
145.0
 31
0.0
  0
LINE
  5
105
330
1F
100
AcDbEntity
  8
1
  6
Continuous
 62
     7
370
    35
100
AcDbLine
 10
259.4678182214473
 20
145.0000000000001
 30
0.0
 11
259.7678182214473
 21
144.7
 31
0.0
  0
CIRCLE
  5
106
330
1F
100
AcDbEntity
  8
1
  6
Continuous
 62
     7
370
    35
100
AcDbCircle
 10
257.2678182214464
 20
117.4999999999998
 30
0.0
 40
2.099999999999994
  0
CIRCLE
  5
107
330
1F
100
AcDbEntity
  8
1
  6
Continuous
 62
     7
370
    35
100
AcDbCircle
 10
257.2678182214468
 20
117.5000019072
 30
0.0
 40
1.1
  0
LINE
  5
108
330
1F
100
AcDbEntity
  8
1
  6
DASHDOT
 62
     7
370
     9
100
AcDbLine
 10
257.2678182214468
 20
119.9800904721142
 30
0.0
 11
257.2678182214468
 21
114.56003352572
 31
0.0
  0
LINE
  5
109
330
1F
100
AcDbEntity
  8
1
  6
DASHDOT
 62
     7
370
     9
100
AcDbLine
 10
260.0975344487624
 20
117.4999999999998
 30
0.0
 11
254.7070952998898
 21
117.4999999999998
 31
0.0
  0
LINE
  5
10A
330
1F
100
AcDbEntity
  8
1
  6
DASHDOT
 62
     7
370
     9
100
AcDbLine
 10
259.0904937884979
 20
117.5000019071997
 30
0.0
 11
254.623631608069
 21
117.5000019071997
 31
0.0
  0
LINE
  5
10B
330
1F
100
AcDbEntity
  8
1
  6
DASHDOT
 62
     7
370
     9
100
AcDbLine
 10
257.2678182214464
 20
119.2831752498951
 30
0.0
 11
257.2678182214464
 21
115.7274191674037
 31
0.0
  0
CIRCLE
  5
10C
330
1F
100
AcDbEntity
  8
1
  6
Continuous
 62
     7
370
    35
100
AcDbCircle
 10
238.2678182214478
 20
142.5000019072002
 30
0.0
 40
2.099999999999994
  0
CIRCLE
  5
10D
330
1F
100
AcDbEntity
  8
1
  6
Continuous
 62
     7
370
    35
100
AcDbCircle
 10
238.2678182214473
 20
142.5
 30
0.0
 40
1.1
  0
LINE
  5
10E
330
1F
100
AcDbEntity
  8
1
  6
DASHDOT
 62
     7
370
     9
100
AcDbLine
 10
238.2678182214473
 20
140.0199114350858
 30
0.0
 11
238.2678182214473
 21
145.43996838148
 31
0.0
  0
LINE
  5
10F
330
1F
100
AcDbEntity
  8
1
  6
DASHDOT
 62
     7
370
     9
100
AcDbLine
 10
235.4381019941316
 20
142.5000019072002
 30
0.0
 11
240.8285411430043
 21
142.5000019072002
 31
0.0
  0
LINE
  5
110
330
1F
100
AcDbEntity
  8
1
  6
DASHDOT
 62
     7
370
     9
100
AcDbLine
 10
236.4451426543961
 20
142.5000000000002
 30
0.0
 11
240.9120048348251
 21
142.5000000000003
 31
0.0
  0
LINE
  5
111
330
1F
100
AcDbEntity
  8
1
  6
DASHDOT
 62
     7
370
     9
100
AcDbLine
 10
238.2678182214478
 20
140.7168266573049
 30
0.0
 11
238.2678182214478
 21
144.2725827397962
 31
0.0
  0
MTEXT
  5
112
330
1F
100
AcDbEntity
  8
5
  6
Continuous
 62
    94
370
     9
100
AcDbMText
 10
196.2110927152319
 20
19.75082781456939
 30
0.0
 40
4.0
 41
28.96572572572573
 46
4.0
 71
     7
 72
     1
  1
{\fＭＳ 明朝;\W2.000000;\T0.750000;保田}
 11
0.9999000351152358
 21
0.01413929901197605
 31
0.0
 73
     1
 44
1.0
1001
ACAD
1000
ACAD_MTEXT_DEFINED_HEIGHT_BEGIN
1070
    46
1040
4.0
1000
ACAD_MTEXT_DEFINED_HEIGHT_END
  0
MTEXT
  5
113
330
1F
100
AcDbEntity
  8
5
  6
Continuous
 62
    94
370
     9
100
AcDbMText
 10
216.2077814569537
 20
19.9147350993376
 30
0.0
 40
4.0
 41
28.96572572572573
 46
4.0
 71
     7
 72
     1
  1
{\fＭＳ 明朝;\W2.000000;\T0.750000;保田}
 11
0.9999980613732091
 21
-0.001969073341300012
 31
0.0
 73
     1
 44
1.0
1001
ACAD
1000
ACAD_MTEXT_DEFINED_HEIGHT_BEGIN
1070
    46
1040
4.0
1000
ACAD_MTEXT_DEFINED_HEIGHT_END
  0
MTEXT
  5
114
330
1F
100
AcDbEntity
  8
2
  6
Continuous
 62
   134
370
     9
100
AcDbMText
 10
231.847436767301
 20
98.98007306271609
 30
0.0
 40
3.9999
 41
93.23666001621619
 46
3.9999
 71
     9
 72
     1
  1
{\fＭＳ 明朝;\W1.400000;\T0.750000;XN2A-1870（オムロン）}
 73
     1
 44
1.0
1001
ACAD
1000
ACAD_MTEXT_DEFINED_HEIGHT_BEGIN
1070
    46
1040
3.9999
1000
ACAD_MTEXT_DEFINED_HEIGHT_END
  0
DIMENSION
  5
11F
330
1F
100
AcDbEntity
  8
2
  6
Continuous
 62
   134
370
     9
100
AcDbDimension
280
     0
  2
Dim1
 10
247.7678182214473
 20
160.0
 30
0.0
 11
241.7678182214473
 21
160.0
 31
0.0
 70
   160
  1
12
 71
     8
 42
-1.0
 73
     0
 74
     0
 75
     0
  3
Standard
100
AcDbAlignedDimension
 13
235.7678182214473
 23
144.7
 33
0.0
 14
247.7678182214473
 24
147.1412278849442
 34
0.0
 50
0.0000000000001357
100
AcDbRotatedDimension
1001
ACAD
1000
DSTYLE
1002
{
1070
   279
1070
     1
1070
   340
1005
115
1070
   140
1040
4.0
1070
    40
1040
1.0
1070
   147
1040
0.0
1070
    76
1070
     0
1070
    75
1070
     0
1070
   344
1005
0
1070
   343
1005
0
1070
   173
1070
     1
1070
   289
1070
     2
1070
   288
1070
     1
1070
    77
1070
     1
1070
   172
1070
     1
1070
   174
1070
     0
1070
    74
1070
     0
1070
    73
1070
     0
1070
   284
1070
     8
1070
    78
1070
     8
1070
    42
1040
2.0
1070
    44
1040
2.0
1070
    43
1040
10.0
1070
   271
1070
     2
1070
    41
1040
2.0
1002
}
  0
DIMENSION
  5
128
330
1F
100
AcDbEntity
  8
2
  6
Continuous
 62
   134
370
     9
100
AcDbDimension
280
     0
  2
Dim2
 10
259.7678182214473
 20
160.0000000000001
 30
0.0
 11
253.7678182214473
 21
160.0000000000001
 31
0.0
 70
   160
  1
12
 71
     8
 42
-1.0
 73
     0
 74
     0
 75
     0
  3
Standard
100
AcDbAlignedDimension
 13
247.7678182214473
 23
147.1412278849442
 33
0.0
 14
259.7678182214473
 24
144.7
 34
0.0
 50
0.0000000000001357
100
AcDbRotatedDimension
1001
ACAD
1000
DSTYLE
1002
{
1070
   279
1070
     1
1070
   340
1005
115
1070
   140
1040
4.0
1070
    40
1040
1.0
1070
   147
1040
0.0
1070
    76
1070
     0
1070
    75
1070
     1
1070
   344
1005
0
1070
   343
1005
0
1070
   173
1070
     1
1070
   289
1070
     2
1070
   288
1070
     1
1070
    77
1070
     1
1070
   172
1070
     1
1070
   174
1070
     0
1070
    74
1070
     0
1070
    73
1070
     0
1070
   284
1070
     8
1070
    78
1070
     8
1070
    42
1040
2.0
1070
    44
1040
2.0
1070
    43
1040
10.0
1070
   271
1070
     2
1070
    41
1040
2.0
1002
}
  0
DIMENSION
  5
132
330
1F
100
AcDbEntity
  8
2
  6
Continuous
 62
   134
370
     9
100
AcDbDimension
280
     0
  2
Dim3
 10
259.7678182214473
 20
170.0000000000001
 30
0.0
 11
249.4301166085436
 21
170.0
 31
0.0
 70
   160
  1
<>
 71
     8
 42
-1.0
 73
     0
 74
     0
 75
     0
  3
Standard
100
AcDbAlignedDimension
 13
235.7678182214473
 23
144.7
 33
0.0
 14
259.7678182214473
 24
144.7
 34
0.0
 50
0.0000000000001357
100
AcDbRotatedDimension
1001
ACAD
1000
DSTYLE
1002
{
1070
   279
1070
     1
1070
   340
1005
115
1070
   140
1040
4.0
1070
    40
1040
1.0
1070
   147
1040
0.0
1070
    76
1070
     0
1070
    75
1070
     0
1070
   344
1005
0
1070
   343
1005
0
1070
   173
1070
     1
1070
   289
1070
     2
1070
   288
1070
     1
1070
    77
1070
     1
1070
   172
1070
     1
1070
   174
1070
     0
1070
    74
1070
     0
1070
    73
1070
     0
1070
   284
1070
     8
1070
    78
1070
     8
1070
    42
1040
2.0
1070
    44
1040
2.0
1070
    43
1040
10.0
1070
   271
1070
     2
1070
    41
1040
2.0
1002
}
  0
DIMENSION
  5
13C
330
1F
100
AcDbEntity
  8
2
  6
Continuous
 62
   134
370
     9
100
AcDbDimension
280
     0
  2
Dim4
 10
279.4301166085438
 20
115.0
 30
0.0
 11
279.4301166085439
 21
130.0
 31
0.0
 70
   160
  1
<>
 71
     8
 42
-1.0
 73
     0
 74
     0
 75
     0
 53
89.99999999999987
  3
Standard
100
AcDbAlignedDimension
 13
259.4678182214473
 23
145.0000000000001
 33
0.0
 14
259.4678182214472
 24
115.0
 34
0.0
 50
-90.00000000000021
100
AcDbRotatedDimension
1001
ACAD
1000
DSTYLE
1002
{
1070
   279
1070
     1
1070
   340
1005
115
1070
   140
1040
4.0
1070
    40
1040
1.0
1070
   147
1040
0.0
1070
    76
1070
     0
1070
    75
1070
     0
1070
   344
1005
0
1070
   343
1005
0
1070
   173
1070
     1
1070
   289
1070
     2
1070
   288
1070
     1
1070
    77
1070
     1
1070
   172
1070
     1
1070
   174
1070
     0
1070
    74
1070
     0
1070
    73
1070
     0
1070
   284
1070
     8
1070
    78
1070
     8
1070
    42
1040
2.0
1070
    44
1040
2.0
1070
    43
1040
10.0
1070
   271
1070
     2
1070
    41
1040
2.0
1002
}
  0
INSERT
  5
146
330
1F
100
AcDbEntity
  8
0
100
AcDbBlockReference
  2
*G21
 10
0.0
 20
0.0
 30
0.0
  0
LINE
  5
147
330
1F
100
AcDbEntity
  8
1
  6
Continuous
 62
     7
370
    35
100
AcDbLine
 10
255.0098653280534
 20
124.9435935394489
 30
0.0
 11
255.7678182214473
 21
126.256406460551
 31
0.0
  0
LINE
  5
148
330
1F
100
AcDbEntity
  8
1
  6
Continuous
 62
     7
370
    35
100
AcDbLine
 10
255.7678182214473
 20
133.743593539449
 30
0.0
 11
255.0098653280535
 21
135.056406460551
 31
0.0
  0
LINE
  5
149
330
1F
100
AcDbEntity
  8
1
  6
Continuous
 62
     7
370
    35
100
AcDbLine
 10
240.5257711148412
 20
135.056406460551
 30
0.0
 11
239.7678182214473
 21
133.743593539449
 31
0.0
  0
LINE
  5
14A
330
1F
100
AcDbEntity
  8
1
  6
Continuous
 62
     7
370
    35
100
AcDbLine
 10
239.7678182214473
 20
126.256406460551
 30
0.0
 11
240.5257711148412
 21
124.943593539449
 31
0.0
  0
LINE
  5
14B
330
1F
100
AcDbEntity
  8
1
  6
Continuous
 62
     7
370
    35
100
AcDbLine
 10
240.5257711148412
 20
135.0564064605511
 30
0.0
 11
239.7678182214473
 21
133.743593539449
 31
0.0
  0
LINE
  5
14C
330
1F
100
AcDbEntity
  8
1
  6
Continuous
 62
     7
370
    35
100
AcDbLine
 10
239.7678182214472
 20
126.2564064605511
 30
0.0
 11
240.5257711148412
 21
124.943593539449
 31
0.0
  0
LINE
  5
14D
330
1F
100
AcDbEntity
  8
1
  6
Continuous
 62
     7
370
    35
100
AcDbLine
 10
255.0098653280534
 20
124.9435935394489
 30
0.0
 11
255.7678182214473
 21
126.256406460551
 31
0.0
  0
LINE
  5
14E
330
1F
100
AcDbEntity
  8
1
  6
Continuous
 62
     7
370
    35
100
AcDbLine
 10
255.7678182214474
 20
133.7435935394489
 30
0.0
 11
255.0098653280535
 21
135.056406460551
 31
0.0
  0
LINE
  5
14F
330
1F
100
AcDbEntity
  8
1
  6
Continuous
 62
     7
370
    35
100
AcDbLine
 10
255.7678182214474
 20
133.7435935394489
 30
0.0
 11
255.0098653280535
 21
135.056406460551
 31
0.0
  0
LINE
  5
150
330
1F
100
AcDbEntity
  8
1
  6
Continuous
 62
     7
370
    35
100
AcDbLine
 10
255.7678182214474
 20
133.7435935394489
 30
0.0
 11
255.0098653280535
 21
135.056406460551
 31
0.0
  0
LINE
  5
151
330
1F
100
AcDbEntity
  8
1
  6
Continuous
 62
     7
370
    35
100
AcDbLine
 10
247.0098653280533
 20
121.2
 30
0.0
 11
248.5257711148412
 21
121.2
 31
0.0
  0
LINE
  5
152
330
1F
100
AcDbEntity
  8
1
  6
Continuous
 62
     7
370
    35
100
AcDbLine
 10
255.0098653280534
 20
124.9435935394489
 30
0.0
 11
255.7678182214473
 21
126.256406460551
 31
0.0
  0
LINE
  5
153
330
1F
100
AcDbEntity
  8
1
  6
Continuous
 62
     7
370
    35
100
AcDbLine
 10
247.0098653280533
 20
121.2
 30
0.0
 11
248.5257711148412
 21
121.2
 31
0.0
  0
LINE
  5
154
330
1F
100
AcDbEntity
  8
1
  6
Continuous
 62
     7
370
    35
100
AcDbLine
 10
247.0098653280535
 20
138.8
 30
0.0
 11
248.5257711148412
 21
138.8
 31
0.0
  0
CIRCLE
  5
155
330
1F
100
AcDbEntity
  8
1
  6
Continuous
 62
     7
370
    35
100
AcDbCircle
 10
247.7678182214473
 20
130.0
 30
0.0
 40
3.5
  0
CIRCLE
  5
156
330
1F
100
AcDbEntity
  8
1
  6
Continuous
 62
     7
370
    35
100
AcDbCircle
 10
247.7678182214473
 20
130.0
 30
0.0
 40
8.0
  0
DIMENSION
  5
160
330
1F
100
AcDbEntity
  8
2
  6
Continuous
 62
   134
370
     9
100
AcDbDimension
280
     0
  2
Dim5
 10
270.0
 20
121.2
 30
0.0
 11
270.0
 21
130.0
 31
0.0
 70
   160
  1
<>
 71
     8
 42
-1.0
 73
     0
 74
     0
 75
     0
 53
89.9999999999999
  3
Standard
100
AcDbAlignedDimension
 13
248.651687956204
 23
138.8
 33
0.0
 14
248.5257711148412
 24
121.2
 34
0.0
 50
-89.99999999999991
100
AcDbRotatedDimension
1001
ACAD
1000
DSTYLE
1002
{
1070
   279
1070
     1
1070
   340
1005
115
1070
   140
1040
4.0
1070
    40
1040
1.0
1070
   147
1040
0.0
1070
    76
1070
     0
1070
    75
1070
     0
1070
   344
1005
0
1070
   343
1005
0
1070
   173
1070
     1
1070
   289
1070
     2
1070
   288
1070
     1
1070
    77
1070
     1
1070
   172
1070
     1
1070
   174
1070
     0
1070
    74
1070
     0
1070
    73
1070
     0
1070
   284
1070
     8
1070
    78
1070
     8
1070
    42
1040
2.0
1070
    44
1040
2.0
1070
    43
1040
10.0
1070
   271
1070
     2
1070
    41
1040
2.0
1002
}
  0
DIMENSION
  5
16A
330
1F
100
AcDbEntity
  8
2
  6
Continuous
 62
   134
370
     9
100
AcDbDimension
280
     0
  2
Dim6
 10
255.7678182214473
 20
99.62066605839387
 30
0.0
 11
247.7678182214473
 21
99.62066605839387
 31
0.0
 70
   160
  1
<>
 71
     8
 42
-1.0
 73
     0
 74
     0
 75
     0
  3
Standard
100
AcDbAlignedDimension
 13
239.7678182214473
 23
126.256406460551
 33
0.0
 14
255.7678182214473
 24
126.256406460551
 34
0.0
100
AcDbRotatedDimension
1001
ACAD
1000
DSTYLE
1002
{
1070
   279
1070
     1
1070
   340
1005
115
1070
   140
1040
4.0
1070
    40
1040
1.0
1070
   147
1040
0.0
1070
    76
1070
     0
1070
    75
1070
     0
1070
   344
1005
0
1070
   343
1005
0
1070
   173
1070
     1
1070
   289
1070
     2
1070
   288
1070
     1
1070
    77
1070
     1
1070
   172
1070
     1
1070
   174
1070
     0
1070
    74
1070
     0
1070
    73
1070
     0
1070
   284
1070
     8
1070
    78
1070
     8
1070
    42
1040
2.0
1070
    44
1040
2.0
1070
    43
1040
10.0
1070
   271
1070
     2
1070
    41
1040
2.0
1002
}
  0
MTEXT
  5
16B
330
1F
100
AcDbEntity
  8
5
  6
Continuous
 62
    94
370
     9
100
AcDbMText
 10
172.7723509933776
 20
27.78228476821177
 30
0.0
 40
4.0
 41
31.50012012012012
 46
4.0
 71
     7
 72
     1
  1
{\fＭＳ 明朝;\T0.750000;2014/10/24}
 11
0.9999987145574948
 21
-0.001603397442337932
 31
0.0
 73
     1
 44
1.0
1001
ACAD
1000
ACAD_MTEXT_DEFINED_HEIGHT_BEGIN
1070
    46
1040
4.0
1000
ACAD_MTEXT_DEFINED_HEIGHT_END
  0
LINE
  5
16C
330
1F
100
AcDbEntity
  8
1
  6
Continuous
 62
     7
370
    35
100
AcDbLine
 10
217.6328424919133
 20
123.37
 30
0.0
 11
217.2328424919133
 21
123.37
 31
0.0
  0
LINE
  5
16D
330
1F
100
AcDbEntity
  8
1
  6
Continuous
 62
     7
370
    35
100
AcDbLine
 10
217.6328424919133
 20
122.63
 30
0.0
 11
217.6328424919133
 21
123.37
 31
0.0
  0
LINE
  5
16E
330
1F
100
AcDbEntity
  8
1
  6
Continuous
 62
     7
370
    35
100
AcDbLine
 10
217.2328424919133
 20
122.63
 30
0.0
 11
217.6328424919133
 21
122.63
 31
0.0
  0
LINE
  5
16F
330
1F
100
AcDbEntity
  8
1
  6
Continuous
 62
     7
370
    35
100
AcDbLine
 10
217.2328424919133
 20
123.37
 30
0.0
 11
217.2328424919133
 21
122.63
 31
0.0
  0
LINE
  5
170
330
1F
100
AcDbEntity
  8
1
  6
Continuous
 62
     7
370
    35
100
AcDbLine
 10
217.6328424919133
 20
125.37
 30
0.0
 11
217.2328424919133
 21
125.37
 31
0.0
  0
LINE
  5
171
330
1F
100
AcDbEntity
  8
1
  6
Continuous
 62
     7
370
    35
100
AcDbLine
 10
217.6328424919133
 20
124.63
 30
0.0
 11
217.6328424919133
 21
125.37
 31
0.0
  0
LINE
  5
172
330
1F
100
AcDbEntity
  8
1
  6
Continuous
 62
     7
370
    35
100
AcDbLine
 10
217.2328424919133
 20
124.63
 30
0.0
 11
217.6328424919133
 21
124.63
 31
0.0
  0
LINE
  5
173
330
1F
100
AcDbEntity
  8
1
  6
Continuous
 62
     7
370
    35
100
AcDbLine
 10
217.2328424919133
 20
125.37
 30
0.0
 11
217.2328424919133
 21
124.63
 31
0.0
  0
LINE
  5
174
330
1F
100
AcDbEntity
  8
1
  6
Continuous
 62
     7
370
    35
100
AcDbLine
 10
217.6328424919133
 20
127.37
 30
0.0
 11
217.2328424919133
 21
127.37
 31
0.0
  0
LINE
  5
175
330
1F
100
AcDbEntity
  8
1
  6
Continuous
 62
     7
370
    35
100
AcDbLine
 10
217.6328424919133
 20
126.63
 30
0.0
 11
217.6328424919133
 21
127.37
 31
0.0
  0
LINE
  5
176
330
1F
100
AcDbEntity
  8
1
  6
Continuous
 62
     7
370
    35
100
AcDbLine
 10
217.2328424919133
 20
126.63
 30
0.0
 11
217.6328424919133
 21
126.63
 31
0.0
  0
LINE
  5
177
330
1F
100
AcDbEntity
  8
1
  6
Continuous
 62
     7
370
    35
100
AcDbLine
 10
217.2328424919133
 20
127.37
 30
0.0
 11
217.2328424919133
 21
126.63
 31
0.0
  0
LINE
  5
178
330
1F
100
AcDbEntity
  8
1
  6
Continuous
 62
     7
370
    35
100
AcDbLine
 10
217.6328424919133
 20
129.37
 30
0.0
 11
217.2328424919133
 21
129.37
 31
0.0
  0
LINE
  5
179
330
1F
100
AcDbEntity
  8
1
  6
Continuous
 62
     7
370
    35
100
AcDbLine
 10
217.6328424919133
 20
128.63
 30
0.0
 11
217.6328424919133
 21
129.37
 31
0.0
  0
LINE
  5
17A
330
1F
100
AcDbEntity
  8
1
  6
Continuous
 62
     7
370
    35
100
AcDbLine
 10
217.2328424919133
 20
128.63
 30
0.0
 11
217.6328424919133
 21
128.63
 31
0.0
  0
LINE
  5
17B
330
1F
100
AcDbEntity
  8
1
  6
Continuous
 62
     7
370
    35
100
AcDbLine
 10
217.2328424919133
 20
129.37
 30
0.0
 11
217.2328424919133
 21
128.63
 31
0.0
  0
LINE
  5
17C
330
1F
100
AcDbEntity
  8
1
  6
Continuous
 62
     7
370
    35
100
AcDbLine
 10
217.6328424919133
 20
131.37
 30
0.0
 11
217.2328424919133
 21
131.37
 31
0.0
  0
LINE
  5
17D
330
1F
100
AcDbEntity
  8
1
  6
Continuous
 62
     7
370
    35
100
AcDbLine
 10
217.6328424919133
 20
130.63
 30
0.0
 11
217.6328424919133
 21
131.37
 31
0.0
  0
LINE
  5
17E
330
1F
100
AcDbEntity
  8
1
  6
Continuous
 62
     7
370
    35
100
AcDbLine
 10
217.2328424919133
 20
130.63
 30
0.0
 11
217.6328424919133
 21
130.63
 31
0.0
  0
LINE
  5
17F
330
1F
100
AcDbEntity
  8
1
  6
Continuous
 62
     7
370
    35
100
AcDbLine
 10
217.2328424919133
 20
131.37
 30
0.0
 11
217.2328424919133
 21
130.63
 31
0.0
  0
LINE
  5
180
330
1F
100
AcDbEntity
  8
1
  6
Continuous
 62
     7
370
    35
100
AcDbLine
 10
217.6328424919133
 20
133.37
 30
0.0
 11
217.2328424919133
 21
133.37
 31
0.0
  0
LINE
  5
181
330
1F
100
AcDbEntity
  8
1
  6
Continuous
 62
     7
370
    35
100
AcDbLine
 10
217.6328424919133
 20
132.63
 30
0.0
 11
217.6328424919133
 21
133.37
 31
0.0
  0
LINE
  5
182
330
1F
100
AcDbEntity
  8
1
  6
Continuous
 62
     7
370
    35
100
AcDbLine
 10
217.2328424919133
 20
132.63
 30
0.0
 11
217.6328424919133
 21
132.63
 31
0.0
  0
LINE
  5
183
330
1F
100
AcDbEntity
  8
1
  6
Continuous
 62
     7
370
    35
100
AcDbLine
 10
217.2328424919133
 20
133.37
 30
0.0
 11
217.2328424919133
 21
132.63
 31
0.0
  0
LINE
  5
184
330
1F
100
AcDbEntity
  8
1
  6
Continuous
 62
     7
370
    35
100
AcDbLine
 10
217.6328424919133
 20
135.37
 30
0.0
 11
217.2328424919133
 21
135.37
 31
0.0
  0
LINE
  5
185
330
1F
100
AcDbEntity
  8
1
  6
Continuous
 62
     7
370
    35
100
AcDbLine
 10
217.6328424919133
 20
134.63
 30
0.0
 11
217.6328424919133
 21
135.37
 31
0.0
  0
LINE
  5
186
330
1F
100
AcDbEntity
  8
1
  6
Continuous
 62
     7
370
    35
100
AcDbLine
 10
217.2328424919133
 20
134.63
 30
0.0
 11
217.6328424919133
 21
134.63
 31
0.0
  0
LINE
  5
187
330
1F
100
AcDbEntity
  8
1
  6
Continuous
 62
     7
370
    35
100
AcDbLine
 10
217.2328424919133
 20
135.37
 30
0.0
 11
217.2328424919133
 21
134.63
 31
0.0
  0
LINE
  5
188
330
1F
100
AcDbEntity
  8
1
  6
Continuous
 62
     7
370
    35
100
AcDbLine
 10
217.6328424919133
 20
137.37
 30
0.0
 11
217.2328424919133
 21
137.37
 31
0.0
  0
LINE
  5
189
330
1F
100
AcDbEntity
  8
1
  6
Continuous
 62
     7
370
    35
100
AcDbLine
 10
217.6328424919133
 20
136.63
 30
0.0
 11
217.6328424919133
 21
137.37
 31
0.0
  0
LINE
  5
18A
330
1F
100
AcDbEntity
  8
1
  6
Continuous
 62
     7
370
    35
100
AcDbLine
 10
217.2328424919133
 20
136.63
 30
0.0
 11
217.6328424919133
 21
136.63
 31
0.0
  0
LINE
  5
18B
330
1F
100
AcDbEntity
  8
1
  6
Continuous
 62
     7
370
    35
100
AcDbLine
 10
217.2328424919133
 20
137.37
 30
0.0
 11
217.2328424919133
 21
136.63
 31
0.0
  0
LINE
  5
18C
330
1F
100
AcDbEntity
  8
1
  6
Continuous
 62
     7
370
    35
100
AcDbLine
 10
215.7328424919133
 20
138.6
 30
0.0
 11
219.1328424919133
 21
138.6
 31
0.0
  0
LINE
  5
18D
330
1F
100
AcDbEntity
  8
1
  6
Continuous
 62
     7
370
    35
100
AcDbLine
 10
215.7328424919133
 20
121.4
 30
0.0
 11
215.7328424919133
 21
138.6
 31
0.0
  0
LINE
  5
18E
330
1F
100
AcDbEntity
  8
1
  6
Continuous
 62
     7
370
    35
100
AcDbLine
 10
219.1328424919133
 20
121.4
 30
0.0
 11
215.7328424919133
 21
121.4
 31
0.0
  0
LINE
  5
18F
330
1F
100
AcDbEntity
  8
1
  6
Continuous
 62
     7
370
    35
100
AcDbLine
 10
219.1328424919133
 20
138.6
 30
0.0
 11
219.1328424919133
 21
121.4
 31
0.0
  0
LINE
  5
190
330
1F
100
AcDbEntity
  8
1
  6
Continuous
 62
     7
370
    35
100
AcDbLine
 10
219.1328424919133
 20
144.5230919561239
 30
0.0
 11
215.7328424919133
 21
144.5230919561239
 31
0.0
  0
LINE
  5
191
330
1F
100
AcDbEntity
  8
1
  6
Continuous
 62
     7
370
    35
100
AcDbLine
 10
219.1328424919133
 20
140.55
 30
0.0
 11
219.1328424919133
 21
144.5230919561239
 31
0.0
  0
LINE
  5
192
330
1F
100
AcDbEntity
  8
1
  6
Continuous
 62
     7
370
    35
100
AcDbLine
 10
215.7328424919133
 20
140.55
 30
0.0
 11
215.7328424919133
 21
144.5230919561239
 31
0.0
  0
LINE
  5
193
330
1F
100
AcDbEntity
  8
1
  6
DASHDOT
 62
     7
370
     9
100
AcDbLine
 10
216.335582714404
 20
123.0
 30
0.0
 11
218.525212430661
 21
123.0
 31
0.0
  0
LINE
  5
194
330
1F
100
AcDbEntity
  8
1
  6
DASHDOT
 62
     7
370
     9
100
AcDbLine
 10
216.335582714404
 20
125.0
 30
0.0
 11
218.525212430661
 21
125.0
 31
0.0
  0
LINE
  5
195
330
1F
100
AcDbEntity
  8
1
  6
DASHDOT
 62
     7
370
     9
100
AcDbLine
 10
216.335582714404
 20
127.0
 30
0.0
 11
218.525212430661
 21
127.0
 31
0.0
  0
LINE
  5
196
330
1F
100
AcDbEntity
  8
1
  6
DASHDOT
 62
     7
370
     9
100
AcDbLine
 10
216.335582714404
 20
129.0
 30
0.0
 11
218.525212430661
 21
129.0
 31
0.0
  0
LINE
  5
197
330
1F
100
AcDbEntity
  8
1
  6
DASHDOT
 62
     7
370
     9
100
AcDbLine
 10
216.335582714404
 20
131.0
 30
0.0
 11
218.525212430661
 21
131.0
 31
0.0
  0
LINE
  5
198
330
1F
100
AcDbEntity
  8
1
  6
DASHDOT
 62
     7
370
     9
100
AcDbLine
 10
216.335582714404
 20
133.0
 30
0.0
 11
218.525212430661
 21
133.0
 31
0.0
  0
LINE
  5
199
330
1F
100
AcDbEntity
  8
1
  6
DASHDOT
 62
     7
370
     9
100
AcDbLine
 10
216.335582714404
 20
135.0
 30
0.0
 11
218.525212430661
 21
135.0
 31
0.0
  0
LINE
  5
19A
330
1F
100
AcDbEntity
  8
1
  6
DASHDOT
 62
     7
370
     9
100
AcDbLine
 10
216.335582714404
 20
137.0
 30
0.0
 11
218.525212430661
 21
137.0
 31
0.0
  0
LINE
  5
19B
330
1F
100
AcDbEntity
  8
1
  6
Continuous
 62
     7
370
    35
100
AcDbLine
 10
220.4328424919133
 20
120.05
 30
0.0
 11
220.4328424919133
 21
142.75
 31
0.0
  0
LINE
  5
19C
330
1F
100
AcDbEntity
  8
1
  6
Continuous
 62
     7
370
    35
100
AcDbLine
 10
214.4328424919133
 20
142.75
 30
0.0
 11
214.4328424919133
 21
120.05
 31
0.0
  0
LINE
  5
19D
330
1F
100
AcDbEntity
  8
1
  6
Continuous
 62
     7
370
    35
100
AcDbLine
 10
219.1328424919133
 20
142.75
 30
0.0
 11
220.4328424919133
 21
142.75
 31
0.0
  0
LINE
  5
19E
330
1F
100
AcDbEntity
  8
1
  6
Continuous
 62
     7
370
    35
100
AcDbLine
 10
215.7328424919133
 20
142.75
 30
0.0
 11
214.4328424919133
 21
142.75
 31
0.0
  0
LINE
  5
19F
330
1F
100
AcDbEntity
  8
1
  6
Continuous
 62
     7
370
    35
100
AcDbLine
 10
220.4328424919133
 20
140.55
 30
0.0
 11
219.1328424919133
 21
140.55
 31
0.0
  0
LINE
  5
1A0
330
1F
100
AcDbEntity
  8
1
  6
Continuous
 62
     7
370
    35
100
AcDbLine
 10
214.4328424919133
 20
140.55
 30
0.0
 11
215.7328424919133
 21
140.55
 31
0.0
  0
LINE
  5
1A1
330
1F
100
AcDbEntity
  8
1
  6
Continuous
 62
     7
370
    35
100
AcDbLine
 10
195.3749910868008
 20
121.25
 30
0.0
 11
195.3749910868008
 21
138.75
 31
0.0
  0
LINE
  5
1A2
330
1F
100
AcDbEntity
  8
1
  6
Continuous
 62
     7
370
    35
100
AcDbLine
 10
191.8749910868008
 20
138.75
 30
0.0
 11
195.3749910868008
 21
138.75
 31
0.0
  0
LINE
  5
1A3
330
1F
100
AcDbEntity
  8
1
  6
Continuous
 62
     7
370
    35
100
AcDbLine
 10
191.8749910868008
 20
138.75
 30
0.0
 11
191.8749910868008
 21
140.55
 31
0.0
  0
LINE
  5
1A4
330
1F
100
AcDbEntity
  8
1
  6
Continuous
 62
     7
370
    35
100
AcDbLine
 10
191.8749910868008
 20
121.25
 30
0.0
 11
195.3749910868008
 21
121.25
 31
0.0
  0
LINE
  5
1A5
330
1F
100
AcDbEntity
  8
1
  6
Continuous
 62
     7
370
    35
100
AcDbLine
 10
191.8749910868008
 20
120.25
 30
0.0
 11
191.8749910868008
 21
121.25
 31
0.0
  0
LINE
  5
1A6
330
1F
100
AcDbEntity
  8
1
  6
Continuous
 62
     7
370
    35
100
AcDbLine
 10
186.8884197154545
 20
142.05
 30
0.0
 11
186.2907384761596
 21
142.05
 31
0.0
  0
LINE
  5
1A7
330
1F
100
AcDbEntity
  8
1
  6
Continuous
 62
     7
370
    35
100
AcDbLine
 10
187.5884197154545
 20
142.75
 30
0.0
 11
189.5749910868008
 21
142.75
 31
0.0
  0
LINE
  5
1A8
330
1F
100
AcDbEntity
  8
1
  6
Continuous
 62
     7
370
    35
100
AcDbLine
 10
186.4884197154545
 20
141.65
 30
0.0
 11
182.8749910868008
 21
141.65
 31
0.0
  0
POLYLINE
  5
1A9
330
1F
100
AcDbEntity
  8
1
  6
Continuous
 62
     7
370
    35
100
AcDb2dPolyline
 66
     1
 10
0.0
 20
0.0
 30
0.0
 70
     2
  0
VERTEX
  5
1AA
330
1A9
100
AcDbEntity
  8
1
  6
Continuous
 62
     7
370
    35
100
AcDbVertex
100
AcDb2dVertex
 10
182.8749910868008
 20
141.65
 30
0.0
  0
VERTEX
  5
1AB
330
1A9
100
AcDbEntity
  8
1
  6
Continuous
 62
     7
370
    35
100
AcDbVertex
100
AcDb2dVertex
 10
182.8761751978985
 20
141.6562163137472
 30
0.0
  0
VERTEX
  5
1AC
330
1A9
100
AcDbEntity
  8
1
  6
Continuous
 62
     7
370
    35
100
AcDbVertex
100
AcDb2dVertex
 10
182.8796958043147
 20
141.6746954740894
 30
0.0
  0
VERTEX
  5
1AD
330
1A9
100
AcDbEntity
  8
1
  6
Continuous
 62
     7
370
    35
100
AcDbVertex
100
AcDb2dVertex
 10
182.8854618134754
 20
141.704931553453
 30
0.0
  0
VERTEX
  5
1AE
330
1A9
100
AcDbEntity
  8
1
  6
Continuous
 62
     7
370
    35
100
AcDbVertex
100
AcDb2dVertex
 10
182.8933337787694
 20
141.7460930603633
 30
0.0
  0
VERTEX
  5
1AF
330
1A9
100
AcDbEntity
  8
1
  6
Continuous
 62
     7
370
    35
100
AcDbVertex
100
AcDb2dVertex
 10
182.9031384259368
 20
141.7970415741851
 30
0.0
  0
VERTEX
  5
1B0
330
1A9
100
AcDbEntity
  8
1
  6
Continuous
 62
     7
370
    35
100
AcDbVertex
100
AcDb2dVertex
 10
182.9146820853771
 20
141.8563595131324
 30
0.0
  0
VERTEX
  5
1B1
330
1A9
100
AcDbEntity
  8
1
  6
Continuous
 62
     7
370
    35
100
AcDbVertex
100
AcDb2dVertex
 10
182.9277585391878
 20
141.9223878345929
 30
0.0
  0
VERTEX
  5
1B2
330
1A9
100
AcDbEntity
  8
1
  6
Continuous
 62
     7
370
    35
100
AcDbVertex
100
AcDb2dVertex
 10
182.9421482457474
 20
141.9932737047074
 30
0.0
  0
VERTEX
  5
1B3
330
1A9
100
AcDbEntity
  8
1
  6
Continuous
 62
     7
370
    35
100
AcDbVertex
100
AcDb2dVertex
 10
182.9576083609738
 20
142.067027064077
 30
0.0
  0
VERTEX
  5
1B4
330
1A9
100
AcDbEntity
  8
1
  6
Continuous
 62
     7
370
    35
100
AcDbVertex
100
AcDb2dVertex
 10
182.9738558251
 20
142.1415837931967
 30
0.0
  0
VERTEX
  5
1B5
330
1A9
100
AcDbEntity
  8
1
  6
Continuous
 62
     7
370
    35
100
AcDbVertex
100
AcDb2dVertex
 10
182.9905482910659
 20
142.2148721264647
 30
0.0
  0
VERTEX
  5
1B6
330
1A9
100
AcDbEntity
  8
1
  6
Continuous
 62
     7
370
    35
100
AcDbVertex
100
AcDb2dVertex
 10
183.0072691547804
 20
142.2848783371698
 30
0.0
  0
VERTEX
  5
1B7
330
1A9
100
AcDbEntity
  8
1
  6
Continuous
 62
     7
370
    35
100
AcDbVertex
100
AcDb2dVertex
 10
183.0235229551116
 20
142.3497076906594
 30
0.0
  0
VERTEX
  5
1B8
330
1A9
100
AcDbEntity
  8
1
  6
Continuous
 62
     7
370
    35
100
AcDbVertex
100
AcDb2dVertex
 10
183.0387458356411
 20
142.4076372798579
 30
0.0
  0
VERTEX
  5
1B9
330
1A9
100
AcDbEntity
  8
1
  6
Continuous
 62
     7
370
    35
100
AcDbVertex
100
AcDb2dVertex
 10
183.0523328777724
 20
142.4571585113906
 30
0.0
  0
VERTEX
  5
1BA
330
1A9
100
AcDbEntity
  8
1
  6
Continuous
 62
     7
370
    35
100
AcDbVertex
100
AcDb2dVertex
 10
183.0636805307205
 20
142.4970084716542
 30
0.0
  0
VERTEX
  5
1BB
330
1A9
100
AcDbEntity
  8
1
  6
Continuous
 62
     7
370
    35
100
AcDbVertex
100
AcDb2dVertex
 10
183.0722388755378
 20
142.5261908664435
 30
0.0
  0
VERTEX
  5
1BC
330
1A9
100
AcDbEntity
  8
1
  6
Continuous
 62
     7
370
    35
100
AcDbVertex
100
AcDb2dVertex
 10
183.0775658727167
 20
142.5439883873568
 30
0.0
  0
VERTEX
  5
1BD
330
1A9
100
AcDbEntity
  8
1
  6
Continuous
 62
     7
370
    35
100
AcDbVertex
100
AcDb2dVertex
 10
183.0793746792153
 20
142.5499689730295
 30
0.0
  0
VERTEX
  5
1BE
330
1A9
100
AcDbEntity
  8
1
  6
Continuous
 62
     7
370
    35
100
AcDbVertex
100
AcDb2dVertex
 10
183.0811920615999
 20
142.5559463287439
 30
0.0
  0
VERTEX
  5
1BF
330
1A9
100
AcDbEntity
  8
1
  6
Continuous
 62
     7
370
    35
100
AcDbVertex
100
AcDb2dVertex
 10
183.0866457079288
 20
142.5736964377189
 30
0.0
  0
VERTEX
  5
1C0
330
1A9
100
AcDbEntity
  8
1
  6
Continuous
 62
     7
370
    35
100
AcDbVertex
100
AcDb2dVertex
 10
183.0957369339094
 20
142.6026816041672
 30
0.0
  0
VERTEX
  5
1C1
330
1A9
100
AcDbEntity
  8
1
  6
Continuous
 62
     7
370
    35
100
AcDbVertex
100
AcDb2dVertex
 10
183.1084571765069
 20
142.6420320782325
 30
0.0
  0
VERTEX
  5
1C2
330
1A9
100
AcDbEntity
  8
1
  6
Continuous
 62
     7
370
    35
100
AcDbVertex
100
AcDb2dVertex
 10
183.124771504561
 20
142.6905828457945
 30
0.0
  0
VERTEX
  5
1C3
330
1A9
100
AcDbEntity
  8
1
  6
Continuous
 62
     7
370
    35
100
AcDbVertex
100
AcDb2dVertex
 10
183.1445953742587
 20
142.7469200222445
 30
0.0
  0
VERTEX
  5
1C4
330
1A9
100
AcDbEntity
  8
1
  6
Continuous
 62
     7
370
    35
100
AcDbVertex
100
AcDb2dVertex
 10
183.1677655673655
 20
142.8094328715965
 30
0.0
  0
VERTEX
  5
1C5
330
1A9
100
AcDbEntity
  8
1
  6
Continuous
 62
     7
370
    35
100
AcDbVertex
100
AcDb2dVertex
 10
183.194007649374
 20
142.8763676707143
 30
0.0
  0
VERTEX
  5
1C6
330
1A9
100
AcDbEntity
  8
1
  6
Continuous
 62
     7
370
    35
100
AcDbVertex
100
AcDb2dVertex
 10
183.2229038999748
 20
142.945880413649
 30
0.0
  0
VERTEX
  5
1C7
330
1A9
100
AcDbEntity
  8
1
  6
Continuous
 62
     7
370
    35
100
AcDbVertex
100
AcDb2dVertex
 10
183.2538670711521
 20
143.0160864855478
 30
0.0
  0
VERTEX
  5
1C8
330
1A9
100
AcDbEntity
  8
1
  6
Continuous
 62
     7
370
    35
100
AcDbVertex
100
AcDb2dVertex
 10
183.2861260527126
 20
143.0851066452072
 30
0.0
  0
VERTEX
  5
1C9
330
1A9
100
AcDbEntity
  8
1
  6
Continuous
 62
     7
370
    35
100
AcDbVertex
100
AcDb2dVertex
 10
183.3187291925631
 20
143.1511096568156
 30
0.0
  0
VERTEX
  5
1CA
330
1A9
100
AcDbEntity
  8
1
  6
Continuous
 62
     7
370
    35
100
AcDbVertex
100
AcDb2dVertex
 10
183.3505694510748
 20
143.2123524880588
 30
0.0
  0
VERTEX
  5
1CB
330
1A9
100
AcDbEntity
  8
1
  6
Continuous
 62
     7
370
    35
100
AcDbVertex
100
AcDb2dVertex
 10
183.3804328576239
 20
143.2672190419691
 30
0.0
  0
VERTEX
  5
1CC
330
1A9
100
AcDbEntity
  8
1
  6
Continuous
 62
     7
370
    35
100
AcDbVertex
100
AcDb2dVertex
 10
183.4070682543785
 20
143.3142579473317
 30
0.0
  0
VERTEX
  5
1CD
330
1A9
100
AcDbEntity
  8
1
  6
Continuous
 62
     7
370
    35
100
AcDbVertex
100
AcDb2dVertex
 10
183.4292726495841
 20
143.3522191532662
 30
0.0
  0
VERTEX
  5
1CE
330
1A9
100
AcDbEntity
  8
1
  6
Continuous
 62
     7
370
    35
100
AcDbVertex
100
AcDb2dVertex
 10
183.4459833569834
 20
143.380088194411
 30
0.0
  0
VERTEX
  5
1CF
330
1A9
100
AcDbEntity
  8
1
  6
Continuous
 62
     7
370
    35
100
AcDbVertex
100
AcDb2dVertex
 10
183.4563661245016
 20
143.3971162704049
 30
0.0
  0
VERTEX
  5
1D0
330
1A9
100
AcDbEntity
  8
1
  6
Continuous
 62
     7
370
    35
100
AcDbVertex
100
AcDb2dVertex
 10
183.4598881210819
 20
143.4028439289375
 30
0.0
  0
VERTEX
  5
1D1
330
1A9
100
AcDbEntity
  8
1
  6
Continuous
 62
     7
370
    35
100
AcDbVertex
100
AcDb2dVertex
 10
183.4634249087624
 20
143.408571361581
 30
0.0
  0
VERTEX
  5
1D2
330
1A9
100
AcDbEntity
  8
1
  6
Continuous
 62
     7
370
    35
100
AcDbVertex
100
AcDb2dVertex
 10
183.4740245097287
 20
143.4255945003397
 30
0.0
  0
VERTEX
  5
1D3
330
1A9
100
AcDbEntity
  8
1
  6
Continuous
 62
     7
370
    35
100
AcDbVertex
100
AcDb2dVertex
 10
183.4916349941934
 20
143.4534302179663
 30
0.0
  0
VERTEX
  5
1D4
330
1A9
100
AcDbEntity
  8
1
  6
Continuous
 62
     7
370
    35
100
AcDbVertex
100
AcDb2dVertex
 10
183.5161095972315
 20
143.4912581916785
 30
0.0
  0
VERTEX
  5
1D5
330
1A9
100
AcDbEntity
  8
1
  6
Continuous
 62
     7
370
    35
100
AcDbVertex
100
AcDb2dVertex
 10
183.5471335426384
 20
143.5379101760636
 30
0.0
  0
VERTEX
  5
1D6
330
1A9
100
AcDbEntity
  8
1
  6
Continuous
 62
     7
370
    35
100
AcDbVertex
100
AcDb2dVertex
 10
183.5841516077281
 20
143.5918752302566
 30
0.0
  0
VERTEX
  5
1D7
330
1A9
100
AcDbEntity
  8
1
  6
Continuous
 62
     7
370
    35
100
AcDbVertex
100
AcDb2dVertex
 10
183.626317498805
 20
143.6513336280651
 30
0.0
  0
VERTEX
  5
1D8
330
1A9
100
AcDbEntity
  8
1
  6
Continuous
 62
     7
370
    35
100
AcDbVertex
100
AcDb2dVertex
 10
183.6724817970699
 20
143.7142273056873
 30
0.0
  0
VERTEX
  5
1D9
330
1A9
100
AcDbEntity
  8
1
  6
Continuous
 62
     7
370
    35
100
AcDbVertex
100
AcDb2dVertex
 10
183.7212268119516
 20
143.7783667364346
 30
0.0
  0
VERTEX
  5
1DA
330
1A9
100
AcDbEntity
  8
1
  6
Continuous
 62
     7
370
    35
100
AcDbVertex
100
AcDb2dVertex
 10
183.7709461483618
 20
143.8415649832419
 30
0.0
  0
VERTEX
  5
1DB
330
1A9
100
AcDbEntity
  8
1
  6
Continuous
 62
     7
370
    35
100
AcDbVertex
100
AcDb2dVertex
 10
183.819956666529
 20
143.9017816812901
 30
0.0
  0
VERTEX
  5
1DC
330
1A9
100
AcDbEntity
  8
1
  6
Continuous
 62
     7
370
    35
100
AcDbVertex
100
AcDb2dVertex
 10
183.8666231999642
 20
143.9572549824695
 30
0.0
  0
VERTEX
  5
1DD
330
1A9
100
AcDbEntity
  8
1
  6
Continuous
 62
     7
370
    35
100
AcDbVertex
100
AcDb2dVertex
 10
183.9094736331225
 20
144.006599473018
 30
0.0
  0
VERTEX
  5
1DE
330
1A9
100
AcDbEntity
  8
1
  6
Continuous
 62
     7
370
    35
100
AcDbVertex
100
AcDb2dVertex
 10
183.9472843664484
 20
144.048853087919
 30
0.0
  0
VERTEX
  5
1DF
330
1A9
100
AcDbEntity
  8
1
  6
Continuous
 62
     7
370
    35
100
AcDbVertex
100
AcDb2dVertex
 10
183.9791232083435
 20
144.083465217149
 30
0.0
  0
VERTEX
  5
1E0
330
1A9
100
AcDbEntity
  8
1
  6
Continuous
 62
     7
370
    35
100
AcDbVertex
100
AcDb2dVertex
 10
184.0043466294427
 20
144.1102296249667
 30
0.0
  0
VERTEX
  5
1E1
330
1A9
100
AcDbEntity
  8
1
  6
Continuous
 62
     7
370
    35
100
AcDbVertex
100
AcDb2dVertex
 10
184.0225587074856
 20
144.1291769749929
 30
0.0
  0
VERTEX
  5
1E2
330
1A9
100
AcDbEntity
  8
1
  6
Continuous
 62
     7
370
    35
100
AcDbVertex
100
AcDb2dVertex
 10
184.033547485548
 20
144.1404501369921
 30
0.0
  0
VERTEX
  5
1E3
330
1A9
100
AcDbEntity
  8
1
  6
Continuous
 62
     7
370
    35
100
AcDbVertex
100
AcDb2dVertex
 10
184.0372188604658
 20
144.144189082919
 30
0.0
  0
VERTEX
  5
1E4
330
1A9
100
AcDbEntity
  8
1
  6
Continuous
 62
     7
370
    35
100
AcDbVertex
100
AcDb2dVertex
 10
184.0408772872614
 20
144.1479009634564
 30
0.0
  0
VERTEX
  5
1E5
330
1A9
100
AcDbEntity
  8
1
  6
Continuous
 62
     7
370
    35
100
AcDbVertex
100
AcDb2dVertex
 10
184.0516762308411
 20
144.1587763465758
 30
0.0
  0
VERTEX
  5
1E6
330
1A9
100
AcDbEntity
  8
1
  6
Continuous
 62
     7
370
    35
100
AcDbVertex
100
AcDb2dVertex
 10
184.0691004206153
 20
144.1760651078525
 30
0.0
  0
VERTEX
  5
1E7
330
1A9
100
AcDbEntity
  8
1
  6
Continuous
 62
     7
370
    35
100
AcDbVertex
100
AcDb2dVertex
 10
184.0923353761569
 20
144.1986142981273
 30
0.0
  0
VERTEX
  5
1E8
330
1A9
100
AcDbEntity
  8
1
  6
Continuous
 62
     7
370
    35
100
AcDbVertex
100
AcDb2dVertex
 10
184.1203288277546
 20
144.2249977819314
 30
0.0
  0
VERTEX
  5
1E9
330
1A9
100
AcDbEntity
  8
1
  6
Continuous
 62
     7
370
    35
100
AcDbVertex
100
AcDb2dVertex
 10
184.15186732007
 20
144.2536684261918
 30
0.0
  0
VERTEX
  5
1EA
330
1A9
100
AcDbEntity
  8
1
  6
Continuous
 62
     7
370
    35
100
AcDbVertex
100
AcDb2dVertex
 10
184.1856601035178
 20
144.2831102893627
 30
0.0
  0
VERTEX
  5
1EB
330
1A9
100
AcDbEntity
  8
1
  6
Continuous
 62
     7
370
    35
100
AcDbVertex
100
AcDb2dVertex
 10
184.2204220288991
 20
144.3119698428268
 30
0.0
  0
VERTEX
  5
1EC
330
1A9
100
AcDbEntity
  8
1
  6
Continuous
 62
     7
370
    35
100
AcDbVertex
100
AcDb2dVertex
 10
184.2549477660923
 20
144.3391504131078
 30
0.0
  0
VERTEX
  5
1ED
330
1A9
100
AcDbEntity
  8
1
  6
Continuous
 62
     7
370
    35
100
AcDbVertex
100
AcDb2dVertex
 10
184.2881711298682
 20
144.3638615479622
 30
0.0
  0
VERTEX
  5
1EE
330
1A9
100
AcDbEntity
  8
1
  6
Continuous
 62
     7
370
    35
100
AcDbVertex
100
AcDb2dVertex
 10
184.3192053696361
 20
144.3856232466443
 30
0.0
  0
VERTEX
  5
1EF
330
1A9
100
AcDbEntity
  8
1
  6
Continuous
 62
     7
370
    35
100
AcDbVertex
100
AcDb2dVertex
 10
184.3473626580892
 20
144.4042322757309
 30
0.0
  0
VERTEX
  5
1F0
330
1A9
100
AcDbEntity
  8
1
  6
Continuous
 62
     7
370
    35
100
AcDbVertex
100
AcDb2dVertex
 10
184.3721533799984
 20
144.4197027651152
 30
0.0
  0
VERTEX
  5
1F1
330
1A9
100
AcDbEntity
  8
1
  6
Continuous
 62
     7
370
    35
100
AcDbVertex
100
AcDb2dVertex
 10
184.3932678992138
 20
144.4321952013179
 30
0.0
  0
VERTEX
  5
1F2
330
1A9
100
AcDbEntity
  8
1
  6
Continuous
 62
     7
370
    35
100
AcDbVertex
100
AcDb2dVertex
 10
184.4105450653803
 20
144.441946802667
 30
0.0
  0
VERTEX
  5
1F3
330
1A9
100
AcDbEntity
  8
1
  6
Continuous
 62
     7
370
    35
100
AcDbVertex
100
AcDb2dVertex
 10
184.4239326989662
 20
144.4492127586238
 30
0.0
  0
VERTEX
  5
1F4
330
1A9
100
AcDbEntity
  8
1
  6
Continuous
 62
     7
370
    35
100
AcDbVertex
100
AcDb2dVertex
 10
184.433445640391
 20
144.4542231093016
 30
0.0
  0
VERTEX
  5
1F5
330
1A9
100
AcDbEntity
  8
1
  6
Continuous
 62
     7
370
    35
100
AcDbVertex
100
AcDb2dVertex
 10
184.4391267157419
 20
144.4571554618488
 30
0.0
  0
VERTEX
  5
1F6
330
1A9
100
AcDbEntity
  8
1
  6
Continuous
 62
     7
370
    35
100
AcDbVertex
100
AcDb2dVertex
 10
184.4410152548639
 20
144.4581204424519
 30
0.0
  0
VERTEX
  5
1F7
330
1A9
100
AcDbEntity
  8
1
  6
Continuous
 62
     7
370
    35
100
AcDbVertex
100
AcDb2dVertex
 10
184.4428924768119
 20
144.4590748078844
 30
0.0
  0
VERTEX
  5
1F8
330
1A9
100
AcDbEntity
  8
1
  6
Continuous
 62
     7
370
    35
100
AcDbVertex
100
AcDb2dVertex
 10
184.4484065331618
 20
144.4618498401635
 30
0.0
  0
VERTEX
  5
1F9
330
1A9
100
AcDbEntity
  8
1
  6
Continuous
 62
     7
370
    35
100
AcDbVertex
100
AcDb2dVertex
 10
184.4572176263663
 20
144.4661939111929
 30
0.0
  0
VERTEX
  5
1FA
330
1A9
100
AcDbEntity
  8
1
  6
Continuous
 62
     7
370
    35
100
AcDbVertex
100
AcDb2dVertex
 10
184.468800810479
 20
144.4717272476152
 30
0.0
  0
VERTEX
  5
1FB
330
1A9
100
AcDbEntity
  8
1
  6
Continuous
 62
     7
370
    35
100
AcDbVertex
100
AcDb2dVertex
 10
184.4825012727088
 20
144.4779938563719
 30
0.0
  0
VERTEX
  5
1FC
330
1A9
100
AcDbEntity
  8
1
  6
Continuous
 62
     7
370
    35
100
AcDbVertex
100
AcDb2dVertex
 10
184.4975994702547
 20
144.4845208416435
 30
0.0
  0
VERTEX
  5
1FD
330
1A9
100
AcDbEntity
  8
1
  6
Continuous
 62
     7
370
    35
100
AcDbVertex
100
AcDb2dVertex
 10
184.5133766782971
 20
144.490875083577
 30
0.0
  0
VERTEX
  5
1FE
330
1A9
100
AcDbEntity
  8
1
  6
Continuous
 62
     7
370
    35
100
AcDbVertex
100
AcDb2dVertex
 10
184.5291721493254
 20
144.496708323163
 30
0.0
  0
VERTEX
  5
1FF
330
1A9
100
AcDbEntity
  8
1
  6
Continuous
 62
     7
370
    35
100
AcDbVertex
100
AcDb2dVertex
 10
184.5444252188564
 20
144.5017844613148
 30
0.0
  0
VERTEX
  5
200
330
1A9
100
AcDbEntity
  8
1
  6
Continuous
 62
     7
370
    35
100
AcDbVertex
100
AcDb2dVertex
 10
184.5586988123393
 20
144.5059866775746
 30
0.0
  0
VERTEX
  5
201
330
1A9
100
AcDbEntity
  8
1
  6
Continuous
 62
     7
370
    35
100
AcDbVertex
100
AcDb2dVertex
 10
184.5716842328611
 20
144.5093059481191
 30
0.0
  0
VERTEX
  5
202
330
1A9
100
AcDbEntity
  8
1
  6
Continuous
 62
     7
370
    35
100
AcDbVertex
100
AcDb2dVertex
 10
184.5831901408271
 20
144.5118158363563
 30
0.0
  0
VERTEX
  5
203
330
1A9
100
AcDbEntity
  8
1
  6
Continuous
 62
     7
370
    35
100
AcDbVertex
100
AcDb2dVertex
 10
184.5931207124715
 20
144.5136403798854
 30
0.0
  0
VERTEX
  5
204
330
1A9
100
AcDbEntity
  8
1
  6
Continuous
 62
     7
370
    35
100
AcDbVertex
100
AcDb2dVertex
 10
184.6014487740573
 20
144.5149221828044
 30
0.0
  0
VERTEX
  5
205
330
1A9
100
AcDbEntity
  8
1
  6
Continuous
 62
     7
370
    35
100
AcDbVertex
100
AcDb2dVertex
 10
184.6081892500457
 20
144.5157965221557
 30
0.0
  0
VERTEX
  5
206
330
1A9
100
AcDbEntity
  8
1
  6
Continuous
 62
     7
370
    35
100
AcDbVertex
100
AcDb2dVertex
 10
184.6133768201403
 20
144.5163748381796
 30
0.0
  0
VERTEX
  5
207
330
1A9
100
AcDbEntity
  8
1
  6
Continuous
 62
     7
370
    35
100
AcDbVertex
100
AcDb2dVertex
 10
184.6170497355669
 20
144.5167380911629
 30
0.0
  0
VERTEX
  5
208
330
1A9
100
AcDbEntity
  8
1
  6
Continuous
 62
     7
370
    35
100
AcDbVertex
100
AcDb2dVertex
 10
184.6192398516685
 20
144.5169378911522
 30
0.0
  0
VERTEX
  5
209
330
1A9
100
AcDbEntity
  8
1
  6
Continuous
 62
     7
370
    35
100
AcDbVertex
100
AcDb2dVertex
 10
184.6199675713998
 20
144.5170016764284
 30
0.0
  0
VERTEX
  5
20A
330
1A9
100
AcDbEntity
  8
1
  6
Continuous
 62
     7
370
    35
100
AcDbVertex
100
AcDb2dVertex
 10
184.6206908292223
 20
144.5170638322379
 30
0.0
  0
VERTEX
  5
20B
330
1A9
100
AcDbEntity
  8
1
  6
Continuous
 62
     7
370
    35
100
AcDbVertex
100
AcDb2dVertex
 10
184.6228150040416
 20
144.5172392474356
 30
0.0
  0
VERTEX
  5
20C
330
1A9
100
AcDbEntity
  8
1
  6
Continuous
 62
     7
370
    35
100
AcDbVertex
100
AcDb2dVertex
 10
184.626210096161
 20
144.5174973867317
 30
0.0
  0
VERTEX
  5
20D
330
1A9
100
AcDbEntity
  8
1
  6
Continuous
 62
     7
370
    35
100
AcDbVertex
100
AcDb2dVertex
 10
184.6306806438462
 20
144.5177954582712
 30
0.0
  0
VERTEX
  5
20E
330
1A9
100
AcDbEntity
  8
1
  6
Continuous
 62
     7
370
    35
100
AcDbVertex
100
AcDb2dVertex
 10
184.6359927921924
 20
144.5180884867186
 30
0.0
  0
VERTEX
  5
20F
330
1A9
100
AcDbEntity
  8
1
  6
Continuous
 62
     7
370
    35
100
AcDbVertex
100
AcDb2dVertex
 10
184.6419038448051
 20
144.5183397801709
 30
0.0
  0
VERTEX
  5
210
330
1A9
100
AcDbEntity
  8
1
  6
Continuous
 62
     7
370
    35
100
AcDbVertex
100
AcDb2dVertex
 10
184.6481883185238
 20
144.5185292391818
 30
0.0
  0
VERTEX
  5
211
330
1A9
100
AcDbEntity
  8
1
  6
Continuous
 62
     7
370
    35
100
AcDbVertex
100
AcDb2dVertex
 10
184.6546555542575
 20
144.5186574773092
 30
0.0
  0
VERTEX
  5
212
330
1A9
100
AcDbEntity
  8
1
  6
Continuous
 62
     7
370
    35
100
AcDbVertex
100
AcDb2dVertex
 10
184.6611560773359
 20
144.5187447385436
 30
0.0
  0
VERTEX
  5
213
330
1A9
100
AcDbEntity
  8
1
  6
Continuous
 62
     7
370
    35
100
AcDbVertex
100
AcDb2dVertex
 10
184.6675766311261
 20
144.5188248625471
 30
0.0
  0
VERTEX
  5
214
330
1A9
100
AcDbEntity
  8
1
  6
Continuous
 62
     7
370
    35
100
AcDbVertex
100
AcDb2dVertex
 10
184.6738264758217
 20
144.5189357578366
 30
0.0
  0
VERTEX
  5
215
330
1A9
100
AcDbEntity
  8
1
  6
Continuous
 62
     7
370
    35
100
AcDbVertex
100
AcDb2dVertex
 10
184.679819519682
 20
144.5191087029577
 30
0.0
  0
VERTEX
  5
216
330
1A9
100
AcDbEntity
  8
1
  6
Continuous
 62
     7
370
    35
100
AcDbVertex
100
AcDb2dVertex
 10
184.6854576740841
 20
144.5193590972043
 30
0.0
  0
VERTEX
  5
217
330
1A9
100
AcDbEntity
  8
1
  6
Continuous
 62
     7
370
    35
100
AcDbVertex
100
AcDb2dVertex
 10
184.6906203186638
 20
144.519680950856
 30
0.0
  0
VERTEX
  5
218
330
1A9
100
AcDbEntity
  8
1
  6
Continuous
 62
     7
370
    35
100
AcDbVertex
100
AcDb2dVertex
 10
184.6951630718836
 20
144.5200465181741
 30
0.0
  0
VERTEX
  5
219
330
1A9
100
AcDbEntity
  8
1
  6
Continuous
 62
     7
370
    35
100
AcDbVertex
100
AcDb2dVertex
 10
184.6989266132494
 20
144.5204112465435
 30
0.0
  0
VERTEX
  5
21A
330
1A9
100
AcDbEntity
  8
1
  6
Continuous
 62
     7
370
    35
100
AcDbVertex
100
AcDb2dVertex
 10
184.7017537029612
 20
144.5207229373267
 30
0.0
  0
VERTEX
  5
21B
330
1A9
100
AcDbEntity
  8
1
  6
Continuous
 62
     7
370
    35
100
AcDbVertex
100
AcDb2dVertex
 10
184.7035104311594
 20
144.5209329955343
 30
0.0
  0
VERTEX
  5
21C
330
1A9
100
AcDbEntity
  8
1
  6
Continuous
 62
     7
370
    35
100
AcDbVertex
100
AcDb2dVertex
 10
184.70410661669
 20
144.5210071317687
 30
0.0
  0
VERTEX
  5
21D
330
1A9
100
AcDbEntity
  8
1
  6
Continuous
 62
     7
370
    35
100
AcDbVertex
100
AcDb2dVertex
 10
184.7047055210339
 20
144.5210830373703
 30
0.0
  0
VERTEX
  5
21E
330
1A9
100
AcDbEntity
  8
1
  6
Continuous
 62
     7
370
    35
100
AcDbVertex
100
AcDb2dVertex
 10
184.7065025125264
 20
144.5213183934065
 30
0.0
  0
VERTEX
  5
21F
330
1A9
100
AcDbEntity
  8
1
  6
Continuous
 62
     7
370
    35
100
AcDbVertex
100
AcDb2dVertex
 10
184.7094998871176
 20
144.5217300028731
 30
0.0
  0
VERTEX
  5
220
330
1A9
100
AcDbEntity
  8
1
  6
Continuous
 62
     7
370
    35
100
AcDbVertex
100
AcDb2dVertex
 10
184.713705353096
 20
144.5223274653681
 30
0.0
  0
VERTEX
  5
221
330
1A9
100
AcDbEntity
  8
1
  6
Continuous
 62
     7
370
    35
100
AcDbVertex
100
AcDb2dVertex
 10
184.7191347191178
 20
144.5230919561239
 30
0.0
  0
VERTEX
  5
222
330
1A9
100
AcDbEntity
  8
1
  6
Continuous
 62
     7
370
    35
100
AcDbVertex
100
AcDb2dVertex
 10
184.7258104522942
 20
144.5239575095349
 30
0.0
  0
VERTEX
  5
223
330
1A9
100
AcDbEntity
  8
1
  6
Continuous
 62
     7
370
    35
100
AcDbVertex
100
AcDb2dVertex
 10
184.7337530893344
 20
144.5248021030364
 30
0.0
  0
VERTEX
  5
224
330
1A9
100
AcDbEntity
  8
1
  6
Continuous
 62
     7
370
    35
100
AcDbVertex
100
AcDb2dVertex
 10
184.7429640665012
 20
144.5254537071426
 30
0.0
  0
VERTEX
  5
225
330
1A9
100
AcDbEntity
  8
1
  6
Continuous
 62
     7
370
    35
100
AcDbVertex
100
AcDb2dVertex
 10
184.7534009473716
 20
144.525712756355
 30
0.0
  0
VERTEX
  5
226
330
1A9
100
AcDbEntity
  8
1
  6
Continuous
 62
     7
370
    35
100
AcDbVertex
100
AcDb2dVertex
 10
184.7649486693867
 20
144.5253881078174
 30
0.0
  0
VERTEX
  5
227
330
1A9
100
AcDbEntity
  8
1
  6
Continuous
 62
     7
370
    35
100
AcDbVertex
100
AcDb2dVertex
 10
184.7773925903341
 20
144.5243395930739
 30
0.0
  0
VERTEX
  5
228
330
1A9
100
AcDbEntity
  8
1
  6
Continuous
 62
     7
370
    35
100
AcDbVertex
100
AcDb2dVertex
 10
184.7904001537203
 20
144.5225177641118
 30
0.0
  0
VERTEX
  5
229
330
1A9
100
AcDbEntity
  8
1
  6
Continuous
 62
     7
370
    35
100
AcDbVertex
100
AcDb2dVertex
 10
184.8035175040953
 20
144.519991090285
 30
0.0
  0
VERTEX
  5
22A
330
1A9
100
AcDbEntity
  8
1
  6
Continuous
 62
     7
370
    35
100
AcDbVertex
100
AcDb2dVertex
 10
184.8161853172378
 20
144.5169528712331
 30
0.0
  0
VERTEX
  5
22B
330
1A9
100
AcDbEntity
  8
1
  6
Continuous
 62
     7
370
    35
100
AcDbVertex
100
AcDb2dVertex
 10
184.8277747950165
 20
144.5137041187112
 30
0.0
  0
VERTEX
  5
22C
330
1A9
100
AcDbEntity
  8
1
  6
Continuous
 62
     7
370
    35
100
AcDbVertex
100
AcDb2dVertex
 10
184.8376408608494
 20
144.5106137642946
 30
0.0
  0
VERTEX
  5
22D
330
1A9
100
AcDbEntity
  8
1
  6
Continuous
 62
     7
370
    35
100
AcDbVertex
100
AcDb2dVertex
 10
184.8451859095652
 20
144.5080626154005
 30
0.0
  0
VERTEX
  5
22E
330
1A9
100
AcDbEntity
  8
1
  6
Continuous
 62
     7
370
    35
100
AcDbVertex
100
AcDb2dVertex
 10
184.8499248383967
 20
144.5063813324672
 30
0.0
  0
VERTEX
  5
22F
330
1A9
100
AcDbEntity
  8
1
  6
Continuous
 62
     7
370
    35
100
AcDbVertex
100
AcDb2dVertex
 10
184.8515411387345
 20
144.5057944160627
 30
0.0
  0
VERTEX
  5
230
330
1A9
100
AcDbEntity
  8
1
  6
Continuous
 62
     7
370
    35
100
AcDbVertex
100
AcDb2dVertex
 10
184.8531686908204
 20
144.5051965986445
 30
0.0
  0
VERTEX
  5
231
330
1A9
100
AcDbEntity
  8
1
  6
Continuous
 62
     7
370
    35
100
AcDbVertex
100
AcDb2dVertex
 10
184.8580738451737
 20
144.503353642797
 30
0.0
  0
VERTEX
  5
232
330
1A9
100
AcDbEntity
  8
1
  6
Continuous
 62
     7
370
    35
100
AcDbVertex
100
AcDb2dVertex
 10
184.8663187572863
 20
144.5001168712725
 30
0.0
  0
VERTEX
  5
233
330
1A9
100
AcDbEntity
  8
1
  6
Continuous
 62
     7
370
    35
100
AcDbVertex
100
AcDb2dVertex
 10
184.8779892729561
 20
144.4952401873868
 30
0.0
  0
VERTEX
  5
234
330
1A9
100
AcDbEntity
  8
1
  6
Continuous
 62
     7
370
    35
100
AcDbVertex
100
AcDb2dVertex
 10
184.8931686365079
 20
144.4883897030761
 30
0.0
  0
VERTEX
  5
235
330
1A9
100
AcDbEntity
  8
1
  6
Continuous
 62
     7
370
    35
100
AcDbVertex
100
AcDb2dVertex
 10
184.9119018428809
 20
144.4791686943398
 30
0.0
  0
VERTEX
  5
236
330
1A9
100
AcDbEntity
  8
1
  6
Continuous
 62
     7
370
    35
100
AcDbVertex
100
AcDb2dVertex
 10
184.9341527784376
 20
144.4671638623804
 30
0.0
  0
VERTEX
  5
237
330
1A9
100
AcDbEntity
  8
1
  6
Continuous
 62
     7
370
    35
100
AcDbVertex
100
AcDb2dVertex
 10
184.9597578753384
 20
144.4520144996817
 30
0.0
  0
VERTEX
  5
238
330
1A9
100
AcDbEntity
  8
1
  6
Continuous
 62
     7
370
    35
100
AcDbVertex
100
AcDb2dVertex
 10
184.9883816771779
 20
144.4334998121017
 30
0.0
  0
VERTEX
  5
239
330
1A9
100
AcDbEntity
  8
1
  6
Continuous
 62
     7
370
    35
100
AcDbVertex
100
AcDb2dVertex
 10
185.0194810312375
 20
144.4116329173026
 30
0.0
  0
VERTEX
  5
23A
330
1A9
100
AcDbEntity
  8
1
  6
Continuous
 62
     7
370
    35
100
AcDbVertex
100
AcDb2dVertex
 10
185.0522851114908
 20
144.3867447771484
 30
0.0
  0
VERTEX
  5
23B
330
1A9
100
AcDbEntity
  8
1
  6
Continuous
 62
     7
370
    35
100
AcDbVertex
100
AcDb2dVertex
 10
185.0857977671895
 20
144.3595391717822
 30
0.0
  0
VERTEX
  5
23C
330
1A9
100
AcDbEntity
  8
1
  6
Continuous
 62
     7
370
    35
100
AcDbVertex
100
AcDb2dVertex
 10
185.1188266352338
 20
144.3311017880268
 30
0.0
  0
VERTEX
  5
23D
330
1A9
100
AcDbEntity
  8
1
  6
Continuous
 62
     7
370
    35
100
AcDbVertex
100
AcDb2dVertex
 10
185.1500401915623
 20
144.3028526403304
 30
0.0
  0
VERTEX
  5
23E
330
1A9
100
AcDbEntity
  8
1
  6
Continuous
 62
     7
370
    35
100
AcDbVertex
100
AcDb2dVertex
 10
185.1780498829674
 20
144.2764404240038
 30
0.0
  0
VERTEX
  5
23F
330
1A9
100
AcDbEntity
  8
1
  6
Continuous
 62
     7
370
    35
100
AcDbVertex
100
AcDb2dVertex
 10
185.2015103392822
 20
144.2535882322419
 30
0.0
  0
VERTEX
  5
240
330
1A9
100
AcDbEntity
  8
1
  6
Continuous
 62
     7
370
    35
100
AcDbVertex
100
AcDb2dVertex
 10
185.2192271818229
 20
144.2359101021781
 30
0.0
  0
VERTEX
  5
241
330
1A9
100
AcDbEntity
  8
1
  6
Continuous
 62
     7
370
    35
100
AcDbVertex
100
AcDb2dVertex
 10
185.2302598257532
 20
144.2247248824065
 30
0.0
  0
VERTEX
  5
242
330
1A9
100
AcDbEntity
  8
1
  6
Continuous
 62
     7
370
    35
100
AcDbVertex
100
AcDb2dVertex
 10
185.2340064179918
 20
144.220896274936
 30
0.0
  0
VERTEX
  5
243
330
1A9
100
AcDbEntity
  8
1
  6
Continuous
 62
     7
370
    35
100
AcDbVertex
100
AcDb2dVertex
 10
185.2377708086177
 20
144.2170342311944
 30
0.0
  0
VERTEX
  5
244
330
1A9
100
AcDbEntity
  8
1
  6
Continuous
 62
     7
370
    35
100
AcDbVertex
100
AcDb2dVertex
 10
185.2490643507551
 20
144.2053566293198
 30
0.0
  0
VERTEX
  5
245
330
1A9
100
AcDbEntity
  8
1
  6
Continuous
 62
     7
370
    35
100
AcDbVertex
100
AcDb2dVertex
 10
185.2678636548112
 20
144.185617806413
 30
0.0
  0
VERTEX
  5
246
330
1A9
100
AcDbEntity
  8
1
  6
Continuous
 62
     7
370
    35
100
AcDbVertex
100
AcDb2dVertex
 10
185.2940546039451
 20
144.1574993378792
 30
0.0
  0
VERTEX
  5
247
330
1A9
100
AcDbEntity
  8
1
  6
Continuous
 62
     7
370
    35
100
AcDbVertex
100
AcDb2dVertex
 10
185.3273409328347
 20
144.1207305542762
 30
0.0
  0
VERTEX
  5
248
330
1A9
100
AcDbEntity
  8
1
  6
Continuous
 62
     7
370
    35
100
AcDbVertex
100
AcDb2dVertex
 10
185.367153464028
 20
144.0752281636863
 30
0.0
  0
VERTEX
  5
249
330
1A9
100
AcDbEntity
  8
1
  6
Continuous
 62
     7
370
    35
100
AcDbVertex
100
AcDb2dVertex
 10
185.4125860929308
 20
144.0212320700452
 30
0.0
  0
VERTEX
  5
24A
330
1A9
100
AcDbEntity
  8
1
  6
Continuous
 62
     7
370
    35
100
AcDbVertex
100
AcDb2dVertex
 10
185.4623792108292
 20
143.9594153939027
 30
0.0
  0
VERTEX
  5
24B
330
1A9
100
AcDbEntity
  8
1
  6
Continuous
 62
     7
370
    35
100
AcDbVertex
100
AcDb2dVertex
 10
185.5149607479729
 20
143.8909511200097
 30
0.0
  0
VERTEX
  5
24C
330
1A9
100
AcDbEntity
  8
1
  6
Continuous
 62
     7
370
    35
100
AcDbVertex
100
AcDb2dVertex
 10
185.5685419125044
 20
143.8175247411823
 30
0.0
  0
VERTEX
  5
24D
330
1A9
100
AcDbEntity
  8
1
  6
Continuous
 62
     7
370
    35
100
AcDbVertex
100
AcDb2dVertex
 10
185.6212521305163
 20
143.741290361629
 30
0.0
  0
VERTEX
  5
24E
330
1A9
100
AcDbEntity
  8
1
  6
Continuous
 62
     7
370
    35
100
AcDbVertex
100
AcDb2dVertex
 10
185.6712886655823
 20
143.6647754856797
 30
0.0
  0
VERTEX
  5
24F
330
1A9
100
AcDbEntity
  8
1
  6
Continuous
 62
     7
370
    35
100
AcDbVertex
100
AcDb2dVertex
 10
185.7170530699251
 20
143.5907458761003
 30
0.0
  0
VERTEX
  5
250
330
1A9
100
AcDbEntity
  8
1
  6
Continuous
 62
     7
370
    35
100
AcDbVertex
100
AcDb2dVertex
 10
185.7572497818137
 20
143.5220455957449
 30
0.0
  0
VERTEX
  5
251
330
1A9
100
AcDbEntity
  8
1
  6
Continuous
 62
     7
370
    35
100
AcDbVertex
100
AcDb2dVertex
 10
185.7909310647144
 20
143.4614283998575
 30
0.0
  0
VERTEX
  5
252
330
1A9
100
AcDbEntity
  8
1
  6
Continuous
 62
     7
370
    35
100
AcDbVertex
100
AcDb2dVertex
 10
185.8174849417799
 20
143.4113953420374
 30
0.0
  0
VERTEX
  5
253
330
1A9
100
AcDbEntity
  8
1
  6
Continuous
 62
     7
370
    35
100
AcDbVertex
100
AcDb2dVertex
 10
185.8365758188152
 20
143.3740505386318
 30
0.0
  0
VERTEX
  5
254
330
1A9
100
AcDbEntity
  8
1
  6
Continuous
 62
     7
370
    35
100
AcDbVertex
100
AcDb2dVertex
 10
185.8480579825229
 20
143.3509834462177
 30
0.0
  0
VERTEX
  5
255
330
1A9
100
AcDbEntity
  8
1
  6
Continuous
 62
     7
370
    35
100
AcDbVertex
100
AcDb2dVertex
 10
185.8518876032363
 20
143.3431826299221
 30
0.0
  0
VERTEX
  5
256
330
1A9
100
AcDbEntity
  8
1
  6
Continuous
 62
     7
370
    35
100
AcDbVertex
100
AcDb2dVertex
 10
185.8557003330969
 20
143.3353612104228
 30
0.0
  0
VERTEX
  5
257
330
1A9
100
AcDbEntity
  8
1
  6
Continuous
 62
     7
370
    35
100
AcDbVertex
100
AcDb2dVertex
 10
185.8669355665902
 20
143.3119899637641
 30
0.0
  0
VERTEX
  5
258
330
1A9
100
AcDbEntity
  8
1
  6
Continuous
 62
     7
370
    35
100
AcDbVertex
100
AcDb2dVertex
 10
185.8850071847937
 20
143.2733663208676
 30
0.0
  0
VERTEX
  5
259
330
1A9
100
AcDbEntity
  8
1
  6
Continuous
 62
     7
370
    35
100
AcDbVertex
100
AcDb2dVertex
 10
185.9090101037017
 20
143.2200426453668
 30
0.0
  0
VERTEX
  5
25A
330
1A9
100
AcDbEntity
  8
1
  6
Continuous
 62
     7
370
    35
100
AcDbVertex
100
AcDb2dVertex
 10
185.9378146287912
 20
143.1528958857135
 30
0.0
  0
VERTEX
  5
25B
330
1A9
100
AcDbEntity
  8
1
  6
Continuous
 62
     7
370
    35
100
AcDbVertex
100
AcDb2dVertex
 10
185.9701748157802
 20
143.0731979553766
 30
0.0
  0
VERTEX
  5
25C
330
1A9
100
AcDbEntity
  8
1
  6
Continuous
 62
     7
370
    35
100
AcDbVertex
100
AcDb2dVertex
 10
186.0048331926712
 20
142.9826670583351
 30
0.0
  0
VERTEX
  5
25D
330
1A9
100
AcDbEntity
  8
1
  6
Continuous
 62
     7
370
    35
100
AcDbVertex
100
AcDb2dVertex
 10
186.0406062922035
 20
142.8834831226166
 30
0.0
  0
VERTEX
  5
25E
330
1A9
100
AcDbEntity
  8
1
  6
Continuous
 62
     7
370
    35
100
AcDbVertex
100
AcDb2dVertex
 10
186.0764405499347
 20
142.7782570565164
 30
0.0
  0
VERTEX
  5
25F
330
1A9
100
AcDbEntity
  8
1
  6
Continuous
 62
     7
370
    35
100
AcDbVertex
100
AcDb2dVertex
 10
186.1114350102778
 20
142.6699521939259
 30
0.0
  0
VERTEX
  5
260
330
1A9
100
AcDbEntity
  8
1
  6
Continuous
 62
     7
370
    35
100
AcDbVertex
100
AcDb2dVertex
 10
186.1448343604047
 20
142.5617651051945
 30
0.0
  0
VERTEX
  5
261
330
1A9
100
AcDbEntity
  8
1
  6
Continuous
 62
     7
370
    35
100
AcDbVertex
100
AcDb2dVertex
 10
186.1760015047487
 20
142.4569799969608
 30
0.0
  0
VERTEX
  5
262
330
1A9
100
AcDbEntity
  8
1
  6
Continuous
 62
     7
370
    35
100
AcDbVertex
100
AcDb2dVertex
 10
186.2043820055809
 20
142.3588147514731
 30
0.0
  0
VERTEX
  5
263
330
1A9
100
AcDbEntity
  8
1
  6
Continuous
 62
     7
370
    35
100
AcDbVertex
100
AcDb2dVertex
 10
186.2294727009228
 20
142.2702765968724
 30
0.0
  0
VERTEX
  5
264
330
1A9
100
AcDbEntity
  8
1
  6
Continuous
 62
     7
370
    35
100
AcDbVertex
100
AcDb2dVertex
 10
186.2508038809947
 20
142.1940417126069
 30
0.0
  0
VERTEX
  5
265
330
1A9
100
AcDbEntity
  8
1
  6
Continuous
 62
     7
370
    35
100
AcDbVertex
100
AcDb2dVertex
 10
186.2679394544082
 20
142.1323668514641
 30
0.0
  0
VERTEX
  5
266
330
1A9
100
AcDbEntity
  8
1
  6
Continuous
 62
     7
370
    35
100
AcDbVertex
100
AcDb2dVertex
 10
186.2804939100822
 20
142.0870339424417
 30
0.0
  0
VERTEX
  5
267
330
1A9
100
AcDbEntity
  8
1
  6
Continuous
 62
     7
370
    35
100
AcDbVertex
100
AcDb2dVertex
 10
186.288160034179
 20
142.0593224022633
 30
0.0
  0
VERTEX
  5
268
330
1A9
100
AcDbEntity
  8
1
  6
Continuous
 62
     7
370
    35
100
AcDbVertex
100
AcDb2dVertex
 10
186.2907384761596
 20
142.05
 30
0.0
  0
SEQEND
  5
269
330
1A9
100
AcDbEntity
  8
1
  6
Continuous
 62
     7
370
    35
  0
LINE
  5
26A
330
1F
100
AcDbEntity
  8
1
  6
Continuous
 62
     7
370
    35
100
AcDbLine
 10
182.8749910868008
 20
141.65
 30
0.0
 11
182.8749910868008
 21
120.55
 31
0.0
  0
LINE
  5
26B
330
1F
100
AcDbEntity
  8
1
  6
Continuous
 62
     7
370
    35
100
AcDbLine
 10
186.4884197154545
 20
141.65
 30
0.0
 11
187.5884197154545
 21
142.75
 31
0.0
  0
LINE
  5
26C
330
1F
100
AcDbEntity
  8
1
  6
Continuous
 62
     7
370
    35
100
AcDbLine
 10
200.3749910868007
 20
141.936961590433
 30
0.0
 11
190.0749910868013
 21
142.05
 31
0.0
  0
LINE
  5
26D
330
1F
100
AcDbEntity
  8
1
  6
Continuous
 62
     7
370
    35
100
AcDbLine
 10
200.8749910868007
 20
141.436961590433
 30
0.0
 11
200.8749910868007
 21
120.75
 31
0.0
  0
ARC
  5
26E
330
1F
100
AcDbEntity
  8
1
  6
Continuous
 62
     7
370
    35
100
AcDbCircle
 10
200.3749910868007
 20
141.436961590433
 30
0.0
 40
0.5
100
AcDbArc
 50
0.0
 51
89.99999999999991
  0
LINE
  5
26F
330
1F
100
AcDbEntity
  8
1
  6
Continuous
 62
     7
370
    35
100
AcDbLine
 10
190.0749910868008
 20
142.25
 30
0.0
 11
190.0749910868008
 21
140.55
 31
0.0
  0
ARC
  5
270
330
1F
100
AcDbEntity
  8
1
  6
Continuous
 62
     7
370
    35
100
AcDbCircle
 10
189.5749910868008
 20
142.25
 30
0.0
 40
0.5
100
AcDbArc
 50
0.0
 51
89.99999999999991
  0
LINE
  5
271
330
1F
100
AcDbEntity
  8
1
  6
Continuous
 62
     7
370
    35
100
AcDbLine
 10
190.0749910868008
 20
140.55
 30
0.0
 11
200.8749910868007
 21
140.55
 31
0.0
  0
ARC
  5
272
330
1F
100
AcDbEntity
  8
1
  6
Continuous
 62
     7
370
    35
100
AcDbCircle
 10
200.3749910868007
 20
120.75
 30
0.0
 40
0.5
100
AcDbArc
 50
269.9999999999998
 51
0.0
  0
LINE
  5
273
330
1F
100
AcDbEntity
  8
1
  6
Continuous
 62
     7
370
    35
100
AcDbLine
 10
186.7918222189025
 20
120.25
 30
0.0
 11
200.3749910868007
 21
120.25
 31
0.0
  0
LINE
  5
274
330
1F
100
AcDbEntity
  8
1
  6
Continuous
 62
     7
370
    35
100
AcDbLine
 10
186.7918222189025
 20
120.05
 30
0.0
 11
186.7918222189025
 21
120.25
 31
0.0
  0
LINE
  5
275
330
1F
100
AcDbEntity
  8
1
  6
Continuous
 62
     7
370
    35
100
AcDbLine
 10
186.8749910868008
 20
137.85
 30
0.0
 11
186.8749910868008
 21
121.85
 31
0.0
  0
LINE
  5
276
330
1F
100
AcDbEntity
  8
1
  6
Continuous
 62
     7
370
    35
100
AcDbLine
 10
186.8749910868008
 20
137.85
 30
0.0
 11
185.3749910868008
 21
137.85
 31
0.0
  0
LINE
  5
277
330
1F
100
AcDbEntity
  8
1
  6
Continuous
 62
     7
370
    35
100
AcDbLine
 10
185.3749910868008
 20
137.85
 30
0.0
 11
185.3749910868008
 21
121.85
 31
0.0
  0
LINE
  5
278
330
1F
100
AcDbEntity
  8
1
  6
Continuous
 62
     7
370
    35
100
AcDbLine
 10
185.3749910868008
 20
121.85
 30
0.0
 11
186.8749910868008
 21
121.85
 31
0.0
  0
LINE
  5
279
330
1F
100
AcDbEntity
  8
1
  6
Continuous
 62
     7
370
    35
100
AcDbLine
 10
176.1894887485495
 20
128.5725041975323
 30
0.0
 11
179.6632745543595
 21
127.6
 31
0.0
  0
LINE
  5
27A
330
1F
100
AcDbEntity
  8
1
  6
Continuous
 62
     7
370
    35
100
AcDbLine
 10
176.2383504346882
 20
127.3554163531748
 30
0.0
 11
179.6387826995458
 21
126.4
 31
0.0
  0
LINE
  5
27B
330
1F
100
AcDbEntity
  8
1
  6
Continuous
 62
     7
370
    35
100
AcDbLine
 10
173.3291450060531
 20
128.7732238210617
 30
0.0
 11
179.6632745543595
 21
125.6
 31
0.0
  0
LINE
  5
27C
330
1F
100
AcDbEntity
  8
1
  6
Continuous
 62
     7
370
    35
100
AcDbLine
 10
175.9248538545463
 20
126.2673143605297
 30
0.0
 11
179.6387826995458
 21
124.4
 31
0.0
  0
LINE
  5
27D
330
1F
100
AcDbEntity
  8
1
  6
Continuous
 62
     7
370
    35
100
AcDbLine
 10
182.8749910868008
 20
125.6
 30
0.0
 11
179.6632745543595
 21
125.6
 31
0.0
  0
LINE
  5
27E
330
1F
100
AcDbEntity
  8
1
  6
Continuous
 62
     7
370
    35
100
AcDbLine
 10
182.8749910868008
 20
124.4
 30
0.0
 11
179.6387826995458
 21
124.4
 31
0.0
  0
LINE
  5
27F
330
1F
100
AcDbEntity
  8
1
  6
Continuous
 62
     7
370
    35
100
AcDbLine
 10
182.8749910868008
 20
127.6
 30
0.0
 11
179.6632745543595
 21
127.6
 31
0.0
  0
LINE
  5
280
330
1F
100
AcDbEntity
  8
1
  6
Continuous
 62
     7
370
    35
100
AcDbLine
 10
182.8749910868008
 20
126.4
 30
0.0
 11
179.6387826995458
 21
126.4
 31
0.0
  0
LINE
  5
281
330
1F
100
AcDbEntity
  8
1
  6
Continuous
 62
     7
370
    35
100
AcDbLine
 10
172.8764729675003
 20
130.0
 30
0.0
 11
179.6632745543595
 21
129.6
 31
0.0
  0
LINE
  5
282
330
1F
100
AcDbEntity
  8
1
  6
Continuous
 62
     7
370
    35
100
AcDbLine
 10
172.8764729675003
 20
128.8
 30
0.0
 11
179.6387826995458
 21
128.4
 31
0.0
  0
LINE
  5
283
330
1F
100
AcDbEntity
  8
1
  6
Continuous
 62
     7
370
    35
100
AcDbLine
 10
172.8764729675003
 20
128.8
 30
0.0
 11
171.4088206881203
 21
128.8
 31
0.0
  0
LINE
  5
284
330
1F
100
AcDbEntity
  8
1
  6
Continuous
 62
     7
370
    35
100
AcDbLine
 10
182.8749910868008
 20
129.6
 30
0.0
 11
179.6632745543595
 21
129.6
 31
0.0
  0
LINE
  5
285
330
1F
100
AcDbEntity
  8
1
  6
Continuous
 62
     7
370
    35
100
AcDbLine
 10
182.8749910868008
 20
128.4
 30
0.0
 11
179.6387826995458
 21
128.4
 31
0.0
  0
LINE
  5
286
330
1F
100
AcDbEntity
  8
1
  6
Continuous
 62
     7
370
    35
100
AcDbLine
 10
176.1894887485495
 20
131.4274958024677
 30
0.0
 11
179.6632745543595
 21
132.4
 31
0.0
  0
LINE
  5
287
330
1F
100
AcDbEntity
  8
1
  6
Continuous
 62
     7
370
    35
100
AcDbLine
 10
176.2383504346882
 20
132.6445836468252
 30
0.0
 11
179.6387826995458
 21
133.6
 31
0.0
  0
LINE
  5
288
330
1F
100
AcDbEntity
  8
1
  6
Continuous
 62
     7
370
    35
100
AcDbLine
 10
173.3291450060531
 20
131.2267761789383
 30
0.0
 11
179.6632745543595
 21
134.4
 31
0.0
  0
LINE
  5
289
330
1F
100
AcDbEntity
  8
1
  6
Continuous
 62
     7
370
    35
100
AcDbLine
 10
175.9248538545463
 20
133.7326856394703
 30
0.0
 11
179.6387826995458
 21
135.6
 31
0.0
  0
LINE
  5
28A
330
1F
100
AcDbEntity
  8
1
  6
Continuous
 62
     7
370
    35
100
AcDbLine
 10
182.8749910868008
 20
134.4
 30
0.0
 11
179.6632745543595
 21
134.4
 31
0.0
  0
LINE
  5
28B
330
1F
100
AcDbEntity
  8
1
  6
Continuous
 62
     7
370
    35
100
AcDbLine
 10
182.8749910868008
 20
135.6
 30
0.0
 11
179.6387826995458
 21
135.6
 31
0.0
  0
LINE
  5
28C
330
1F
100
AcDbEntity
  8
1
  6
Continuous
 62
     7
370
    35
100
AcDbLine
 10
182.8749910868008
 20
132.4
 30
0.0
 11
179.6632745543595
 21
132.4
 31
0.0
  0
LINE
  5
28D
330
1F
100
AcDbEntity
  8
1
  6
Continuous
 62
     7
370
    35
100
AcDbLine
 10
182.8749910868008
 20
133.6
 30
0.0
 11
179.6387826995458
 21
133.6
 31
0.0
  0
LINE
  5
28E
330
1F
100
AcDbEntity
  8
1
  6
Continuous
 62
     7
370
    35
100
AcDbLine
 10
172.8764729675003
 20
130.0
 30
0.0
 11
179.6632745543595
 21
130.4
 31
0.0
  0
LINE
  5
28F
330
1F
100
AcDbEntity
  8
1
  6
Continuous
 62
     7
370
    35
100
AcDbLine
 10
172.8764729675003
 20
131.2
 30
0.0
 11
179.6387826995458
 21
131.6
 31
0.0
  0
LINE
  5
290
330
1F
100
AcDbEntity
  8
1
  6
Continuous
 62
     7
370
    35
100
AcDbLine
 10
172.8764729675003
 20
131.2
 30
0.0
 11
171.4088206881203
 21
131.2
 31
0.0
  0
LINE
  5
291
330
1F
100
AcDbEntity
  8
1
  6
Continuous
 62
     7
370
    35
100
AcDbLine
 10
182.8749910868008
 20
130.4
 30
0.0
 11
179.6632745543595
 21
130.4
 31
0.0
  0
LINE
  5
292
330
1F
100
AcDbEntity
  8
1
  6
Continuous
 62
     7
370
    35
100
AcDbLine
 10
182.8749910868008
 20
131.6
 30
0.0
 11
179.6387826995458
 21
131.6
 31
0.0
  0
LINE
  5
293
330
1F
100
AcDbEntity
  8
1
  6
Continuous
 62
     7
370
    35
100
AcDbLine
 10
172.8764729675003
 20
128.4
 30
0.0
 11
179.6632745543595
 21
123.6
 31
0.0
  0
LINE
  5
294
330
1F
100
AcDbEntity
  8
1
  6
Continuous
 62
     7
370
    35
100
AcDbLine
 10
172.8764729675003
 20
127.2
 30
0.0
 11
179.6387826995458
 21
122.4
 31
0.0
  0
LINE
  5
295
330
1F
100
AcDbEntity
  8
1
  6
Continuous
 62
     7
370
    35
100
AcDbLine
 10
172.8764729675003
 20
128.4
 30
0.0
 11
171.4088206881203
 21
128.4
 31
0.0
  0
LINE
  5
296
330
1F
100
AcDbEntity
  8
1
  6
Continuous
 62
     7
370
    35
100
AcDbLine
 10
172.8764729675003
 20
127.2
 30
0.0
 11
171.4088206881203
 21
127.2
 31
0.0
  0
LINE
  5
297
330
1F
100
AcDbEntity
  8
1
  6
Continuous
 62
     7
370
    35
100
AcDbLine
 10
182.8749910868008
 20
123.6
 30
0.0
 11
179.6632745543595
 21
123.6
 31
0.0
  0
LINE
  5
298
330
1F
100
AcDbEntity
  8
1
  6
Continuous
 62
     7
370
    35
100
AcDbLine
 10
182.8749910868008
 20
122.4
 30
0.0
 11
179.6387826995458
 21
122.4
 31
0.0
  0
LINE
  5
299
330
1F
100
AcDbEntity
  8
1
  6
Continuous
 62
     7
370
    35
100
AcDbLine
 10
172.8764729675003
 20
131.6
 30
0.0
 11
179.6632745543595
 21
136.4
 31
0.0
  0
LINE
  5
29A
330
1F
100
AcDbEntity
  8
1
  6
Continuous
 62
     7
370
    35
100
AcDbLine
 10
172.8764729675003
 20
132.8
 30
0.0
 11
179.6387826995458
 21
137.6
 31
0.0
  0
LINE
  5
29B
330
1F
100
AcDbEntity
  8
1
  6
Continuous
 62
     7
370
    35
100
AcDbLine
 10
172.8764729675003
 20
131.6
 30
0.0
 11
171.4088206881203
 21
131.6
 31
0.0
  0
LINE
  5
29C
330
1F
100
AcDbEntity
  8
1
  6
Continuous
 62
     7
370
    35
100
AcDbLine
 10
172.8764729675003
 20
132.8
 30
0.0
 11
171.4088206881203
 21
132.8
 31
0.0
  0
LINE
  5
29D
330
1F
100
AcDbEntity
  8
1
  6
Continuous
 62
     7
370
    35
100
AcDbLine
 10
182.8749910868008
 20
136.4
 30
0.0
 11
179.6632745543595
 21
136.4
 31
0.0
  0
LINE
  5
29E
330
1F
100
AcDbEntity
  8
1
  6
Continuous
 62
     7
370
    35
100
AcDbLine
 10
182.8749910868008
 20
137.6
 30
0.0
 11
179.6387826995458
 21
137.6
 31
0.0
  0
LINE
  5
29F
330
1F
100
AcDbEntity
  8
1
  6
Continuous
 62
     7
370
    35
100
AcDbLine
 10
171.4088206881203
 20
133.5
 30
0.0
 11
171.4088206881203
 21
126.5
 31
0.0
  0
LINE
  5
2A0
330
1F
100
AcDbEntity
  8
1
  6
DASHDOT
 62
     7
370
     9
100
AcDbLine
 10
211.7848961849495
 20
130.0
 30
0.0
 11
222.7794777715833
 21
130.0
 31
0.0
  0
LINE
  5
2A1
330
1F
100
AcDbEntity
  8
1
  6
Continuous
 62
     7
370
    35
100
AcDbLine
 10
214.4328424919133
 20
120.05
 30
0.0
 11
220.4328424919133
 21
120.05
 31
0.0
  0
LINE
  5
2A2
330
1F
100
AcDbEntity
  8
1
  6
DASHDOT
 62
     7
370
     9
100
AcDbLine
 10
217.4328424919133
 20
149.2308454943681
 30
0.0
 11
217.4328424919133
 21
116.2035844818729
 31
0.0
  0
LINE
  5
2A3
330
1F
100
AcDbEntity
  8
1
  6
Continuous
 62
     7
370
    35
100
AcDbLine
 10
172.8764729675003
 20
130.0
 30
0.0
 11
171.4088206881203
 21
130.0
 31
0.0
  0
LINE
  5
2A4
330
1F
100
AcDbEntity
  8
1
  6
DASHDOT
 62
     7
370
     9
100
AcDbLine
 10
181.5692532240855
 20
125.0
 30
0.0
 11
201.7239821287744
 21
125.0
 31
0.0
  0
LINE
  5
2A5
330
1F
100
AcDbEntity
  8
1
  6
DASHDOT
 62
     7
370
     9
100
AcDbLine
 10
181.5692532240855
 20
127.0
 30
0.0
 11
201.7239821287744
 21
127.0
 31
0.0
  0
LINE
  5
2A6
330
1F
100
AcDbEntity
  8
1
  6
DASHDOT
 62
     7
370
     9
100
AcDbLine
 10
181.5692532240855
 20
129.0
 30
0.0
 11
201.7239821287744
 21
129.0
 31
0.0
  0
LINE
  5
2A7
330
1F
100
AcDbEntity
  8
1
  6
DASHDOT
 62
     7
370
     9
100
AcDbLine
 10
181.5692532240855
 20
131.0
 30
0.0
 11
201.7239821287744
 21
131.0
 31
0.0
  0
LINE
  5
2A8
330
1F
100
AcDbEntity
  8
1
  6
DASHDOT
 62
     7
370
     9
100
AcDbLine
 10
181.5692532240855
 20
133.0
 30
0.0
 11
201.7239821287744
 21
133.0
 31
0.0
  0
LINE
  5
2A9
330
1F
100
AcDbEntity
  8
1
  6
DASHDOT
 62
     7
370
     9
100
AcDbLine
 10
181.5692532240855
 20
135.0
 30
0.0
 11
201.7239821287744
 21
135.0
 31
0.0
  0
LINE
  5
2AA
330
1F
100
AcDbEntity
  8
1
  6
DASHDOT
 62
     7
370
     9
100
AcDbLine
 10
181.6249953698398
 20
123.0
 30
0.0
 11
201.7664906206113
 21
123.0
 31
0.0
  0
LINE
  5
2AB
330
1F
100
AcDbEntity
  8
1
  6
DASHDOT
 62
     7
370
     9
100
AcDbLine
 10
181.5692532240855
 20
137.0
 30
0.0
 11
201.7239821287744
 21
137.0
 31
0.0
  0
ARC
  5
2AC
330
1F
100
AcDbEntity
  8
1
  6
Continuous
 62
     7
370
    35
100
AcDbCircle
 10
183.3749910868008
 20
120.55
 30
0.0
 40
0.5
100
AcDbArc
 50
179.9999999999998
 51
269.9999999999998
  0
LINE
  5
2AD
330
1F
100
AcDbEntity
  8
1
  6
Continuous
 62
     7
370
    35
100
AcDbLine
 10
186.7918222189025
 20
120.05
 30
0.0
 11
183.3749910868008
 21
120.05
 31
0.0
  0
LINE
  5
2AE
330
1F
100
AcDbEntity
  8
1
  6
Continuous
 62
     7
370
    35
100
AcDbLine
 10
139.8602041019195
 20
133.4999999999999
 30
0.0
 11
117.4091332591771
 21
133.4999999999999
 31
0.0
  0
LINE
  5
2AF
330
1F
100
AcDbEntity
  8
1
  6
Continuous
 62
     7
370
    35
100
AcDbLine
 10
117.4091332591771
 20
126.5
 30
0.0
 11
137.4268707685862
 21
126.5
 31
0.0
  0
LINE
  5
2B0
330
1F
100
AcDbEntity
  8
1
  6
Continuous
 62
     7
370
    35
100
AcDbLine
 10
171.4088206881203
 20
126.5
 30
0.0
 11
139.5439155605467
 21
126.5000000000002
 31
0.0
  0
LINE
  5
2B1
330
1F
100
AcDbEntity
  8
1
  6
Continuous
 62
     7
370
    35
100
AcDbLine
 10
141.9772488938799
 20
133.5
 30
0.0
 11
171.4088206881203
 21
133.5
 31
0.0
  0
LINE
  5
2B2
330
1F
100
AcDbEntity
  8
1
  6
DASHDOT
 62
     7
370
     9
100
AcDbLine
 10
140.7605822272133
 20
130.0
 30
0.0
 11
204.7214066049278
 21
130.0
 31
0.0
  0
LINE
  5
2B3
330
1F
100
AcDbEntity
  8
1
  6
Continuous
 62
     7
370
     9
100
AcDbLine
 10
142.7885052441997
 20
136.0837690509593
 30
0.0
 11
138.836688299207
 21
124.2283182159812
 31
0.0
  0
LINE
  5
2B4
330
1F
100
AcDbEntity
  8
1
  6
Continuous
 62
     7
370
     9
100
AcDbLine
 10
140.6714604522393
 20
136.0837690509593
 30
0.0
 11
136.7196435072466
 21
124.2283182159812
 31
0.0
  0
DIMENSION
  5
2BE
330
1F
100
AcDbEntity
  8
2
  6
Continuous
 62
   134
370
     9
100
AcDbDimension
280
     0
  2
Dim7
 10
182.8749910868008
 20
151.4808467741927
 30
0.0
 11
145.8613138686132
 21
151.4808467741927
 31
0.0
 70
   160
  1
ｹｰﾌﾞﾙ長（標準2m）
 71
     8
 42
-1.0
 73
     0
 74
     0
 75
     0
  3
Standard
100
AcDbAlignedDimension
 13
117.4091332591771
 23
134.85
 33
0.0
 14
182.8749910868008
 24
141.65
 34
0.0
100
AcDbRotatedDimension
1001
ACAD
1000
DSTYLE
1002
{
1070
   279
1070
     1
1070
   340
1005
115
1070
   140
1040
4.0
1070
    40
1040
1.0
1070
   147
1040
0.0
1070
    76
1070
     0
1070
    75
1070
     0
1070
   344
1005
0
1070
   343
1005
0
1070
   173
1070
     1
1070
   289
1070
     2
1070
   288
1070
     1
1070
    77
1070
     1
1070
   172
1070
     1
1070
   174
1070
     0
1070
    74
1070
     0
1070
    73
1070
     0
1070
   284
1070
     8
1070
    78
1070
     8
1070
    42
1040
2.0
1070
    44
1040
2.0
1070
    43
1040
10.0
1070
   271
1070
     2
1070
    41
1040
2.0
1002
}
  0
DIMENSION
  5
2C6
330
1F
100
AcDbEntity
  8
2
  6
Continuous
 62
   134
370
     9
100
AcDbDimension
280
     0
  2
Dim8
 10
163.0697064717426
 20
133.4999999999999
 30
0.0
 11
163.0697064717426
 21
139.7120276911926
 31
0.0
 70
   160
  1
φ<>
 71
     8
 42
-1.0
 73
     0
 74
     0
 75
     0
  3
Standard
100
AcDbAlignedDimension
 13
163.0697064717426
 23
126.5000000000001
 33
0.0
 14
163.0697064717425
 24
133.4999999999999
 34
0.0
 50
89.99999999999991
100
AcDbRotatedDimension
1001
ACAD
1000
DSTYLE
1002
{
1070
   279
1070
     1
1070
   340
1005
115
1070
   140
1040
4.0
1070
    40
1040
1.0
1070
   147
1040
0.0
1070
    76
1070
     1
1070
    75
1070
     1
1070
   344
1005
0
1070
   343
1005
0
1070
   173
1070
     1
1070
   289
1070
     2
1070
   288
1070
     1
1070
    77
1070
     1
1070
   172
1070
     1
1070
   174
1070
     0
1070
    74
1070
     0
1070
    73
1070
     0
1070
   284
1070
     8
1070
    78
1070
     8
1070
    42
1040
1.0
1070
    44
1040
1.0
1070
    43
1040
10.0
1070
   271
1070
     2
1070
    41
1040
2.0
1002
}
  0
INSERT
  5
2C7
330
1F
100
AcDbEntity
  8
2
  6
Continuous
 62
   134
370
     9
100
AcDbBlockReference
  2
_ARROWFILLED
 10
124.2723171422504
 20
126.3499999999999
 30
0.0
 41
2.0
 42
2.0
 43
2.0
 50
124.1343677099192
  0
POLYLINE
  5
2C8
330
1F
100
AcDbEntity
  8
2
  6
Continuous
 62
   134
370
     9
100
AcDb2dPolyline
 66
     1
 10
0.0
 20
0.0
 30
0.0
  0
VERTEX
  5
2C9
330
2C8
100
AcDbEntity
  8
2
  6
Continuous
 62
   134
370
     9
100
AcDbVertex
100
AcDb2dVertex
 10
124.2723171422504
 20
126.3499999999999
 30
0.0
  0
VERTEX
  5
2CA
330
2C8
100
AcDbEntity
  8
2
  6
Continuous
 62
   134
370
     9
100
AcDbVertex
100
AcDb2dVertex
 10
131.5790926766623
 20
115.5718692851796
 30
0.0
  0
VERTEX
  5
2CB
330
2C8
100
AcDbEntity
  8
2
  6
Continuous
 62
   134
370
     9
100
AcDbVertex
100
AcDb2dVertex
 10
155.0615008812827
 20
115.5718692851796
 30
0.0
  0
SEQEND
  5
2CC
330
2C8
100
AcDbEntity
  8
2
  6
Continuous
 62
   134
370
     9
  0
MTEXT
  5
2CD
330
1F
100
AcDbEntity
  8
2
  6
Continuous
 62
   134
370
     9
100
AcDbMText
 10
133.0615008812827
 20
115.5718692851796
 30
0.0
 40
4.0
 41
33.53452952952952
 46
4.0
 71
     7
 72
     1
  1
{\fＭＳ 明朝|i1;\W1.375000;\T0.750000;　接続ｹｰﾌﾞﾙ}
 73
     1
 44
1.0
1001
ACAD
1000
ACAD_MTEXT_DEFINED_HEIGHT_BEGIN
1070
    46
1040
4.0
1000
ACAD_MTEXT_DEFINED_HEIGHT_END
  0
LINE
  5
2CE
330
1F
100
AcDbEntity
  8
2
  6
Continuous
 62
   134
370
     9
100
AcDbLine
 10
184.7863005158575
 20
144.5230919561239
 30
0.0
 11
204.4259588095918
 21
144.5230919561239
 31
0.0
  0
MTEXT
  5
2CF
330
1F
100
AcDbEntity
  8
2
  6
Continuous
 62
   134
370
     9
100
AcDbMText
 10
202.167091832297
 20
135.3672494165392
 30
0.0
 40
4.0
 41
2.370930930930931
 46
4.0
 71
     7
 72
     1
  1
{\fＭＳ 明朝;\T0.750000;1}
 73
     1
 44
1.0
1001
ACAD
1000
ACAD_MTEXT_DEFINED_HEIGHT_BEGIN
1070
    46
1040
4.0
1000
ACAD_MTEXT_DEFINED_HEIGHT_END
  0
MTEXT
  5
2D0
330
1F
100
AcDbEntity
  8
2
  6
Continuous
 62
   134
370
     9
100
AcDbMText
 10
202.2180995628428
 20
120.9651112672472
 30
0.0
 40
4.0
 41
3.309069069069069
 46
4.0
 71
     7
 72
     1
  1
{\fＭＳ 明朝;\T0.750000;8}
 73
     1
 44
1.0
1001
ACAD
1000
ACAD_MTEXT_DEFINED_HEIGHT_BEGIN
1070
    46
1040
4.0
1000
ACAD_MTEXT_DEFINED_HEIGHT_END
  0
DIMENSION
  5
2DA
330
1F
100
AcDbEntity
  8
2
  6
Continuous
 62
   134
370
     9
100
AcDbDimension
280
     0
  2
Dim9
 10
209.6313733798119
 20
144.5230919561239
 30
0.0
 11
209.6313733798119
 21
131.0187291834108
 31
0.0
 70
   160
  1
<>
 71
     8
 42
-1.0
 73
     0
 74
     0
 75
     0
  3
Standard
100
AcDbAlignedDimension
 13
186.7918222189025
 23
120.05
 33
0.0
 14
204.4259588095918
 24
144.5230919561239
 34
0.0
 50
89.99999999999991
100
AcDbRotatedDimension
1001
ACAD
1000
DSTYLE
1002
{
1070
   279
1070
     1
1070
   340
1005
115
1070
   140
1040
4.0
1070
    40
1040
1.0
1070
   147
1040
0.0
1070
    76
1070
     0
1070
    75
1070
     0
1070
   344
1005
0
1070
   343
1005
0
1070
   173
1070
     1
1070
   289
1070
     2
1070
   288
1070
     1
1070
    77
1070
     1
1070
   172
1070
     1
1070
   174
1070
     0
1070
    74
1070
     0
1070
    73
1070
     0
1070
   284
1070
     8
1070
    78
1070
     8
1070
    42
1040
1.0
1070
    44
1040
1.0
1070
    43
1040
10.0
1070
   271
1070
     2
1070
    41
1040
2.0
1002
}
  0
DIMENSION
  5
2E4
330
1F
100
AcDbEntity
  8
2
  6
Continuous
 62
   134
370
     9
100
AcDbDimension
280
     0
  2
Dim10
 10
200.8749910868008
 20
151.4597645082042
 30
0.0
 11
191.1252436783867
 21
151.4597645082042
 31
0.0
 70
   160
  1
<>
 71
     8
 42
-1.0
 73
     0
 74
     0
 75
     0
  3
Standard
100
AcDbAlignedDimension
 13
182.8749910868008
 23
141.65
 33
0.0
 14
200.8749910868007
 24
141.436961590433
 34
0.0
100
AcDbRotatedDimension
1001
ACAD
1000
DSTYLE
1002
{
1070
   279
1070
     1
1070
   340
1005
115
1070
   140
1040
4.0
1070
    40
1040
1.0
1070
   147
1040
0.0
1070
    76
1070
     0
1070
    75
1070
     0
1070
   344
1005
0
1070
   343
1005
0
1070
   173
1070
     1
1070
   289
1070
     2
1070
   288
1070
     1
1070
    77
1070
     1
1070
   172
1070
     1
1070
   174
1070
     0
1070
    74
1070
     0
1070
    73
1070
     0
1070
   284
1070
     8
1070
    78
1070
     8
1070
    42
1040
1.0
1070
    44
1040
1.0
1070
    43
1040
10.0
1070
   271
1070
     2
1070
    41
1040
2.0
1002
}
  0
DIMENSION
  5
2EE
330
1F
100
AcDbEntity
  8
2
  6
Continuous
 62
   134
370
     9
100
AcDbDimension
280
     0
  2
Dim11
 10
220.4328424919133
 20
151.4597645082042
 30
0.0
 11
217.4328424919133
 21
151.4597645082042
 31
0.0
 70
   160
  1
<>
 71
     8
 42
-1.0
 73
     0
 74
     0
 75
     0
  3
Standard
100
AcDbAlignedDimension
 13
214.4328424919133
 23
142.75
 33
0.0
 14
220.4328424919133
 24
142.75
 34
0.0
100
AcDbRotatedDimension
1001
ACAD
1000
DSTYLE
1002
{
1070
   279
1070
     1
1070
   340
1005
115
1070
   140
1040
4.0
1070
    40
1040
1.0
1070
   147
1040
0.0
1070
    76
1070
     0
1070
    75
1070
     0
1070
   344
1005
0
1070
   343
1005
0
1070
   173
1070
     1
1070
   289
1070
     2
1070
   288
1070
     1
1070
    77
1070
     1
1070
   172
1070
     1
1070
   174
1070
     0
1070
    74
1070
     0
1070
    73
1070
     0
1070
   284
1070
     8
1070
    78
1070
     8
1070
    42
1040
2.0
1070
    44
1040
2.0
1070
    43
1040
10.0
1070
   271
1070
     2
1070
    41
1040
2.0
1002
}
  0
INSERT
  5
2EF
330
1F
100
AcDbEntity
  8
2
  6
Continuous
 62
   134
370
     9
100
AcDbBlockReference
  2
_ARROWFILLED
 10
185.5087694736242
 20
120.05
 30
0.0
 41
2.0
 42
2.0
 43
2.0
 50
142.9872866671436
  0
POLYLINE
  5
2F0
330
1F
100
AcDbEntity
  8
2
  6
Continuous
 62
   134
370
     9
100
AcDb2dPolyline
 66
     1
 10
0.0
 20
0.0
 30
0.0
  0
VERTEX
  5
2F1
330
2F0
100
AcDbEntity
  8
2
  6
Continuous
 62
   134
370
     9
100
AcDbVertex
100
AcDb2dVertex
 10
185.5087694736242
 20
120.05
 30
0.0
  0
VERTEX
  5
2F2
330
2F0
100
AcDbEntity
  8
2
  6
Continuous
 62
   134
370
     9
100
AcDbVertex
100
AcDb2dVertex
 10
198.8394146349142
 20
110.0
 30
0.0
  0
VERTEX
  5
2F3
330
2F0
100
AcDbEntity
  8
2
  6
Continuous
 62
   134
370
     9
100
AcDbVertex
100
AcDb2dVertex
 10
219.1776202800758
 20
110.0
 30
0.0
  0
SEQEND
  5
2F4
330
2F0
100
AcDbEntity
  8
2
  6
Continuous
 62
   134
370
     9
  0
MTEXT
  5
2F5
330
1F
100
AcDbEntity
  8
2
  6
Continuous
 62
   134
370
     9
100
AcDbMText
 10
199.1776202800758
 20
110.0
 30
0.0
 40
4.0
 41
33.76077923255255
 46
4.0
 71
     7
 72
     1
  1
{\fＭＳ 明朝|i1;\W1.428571;\T0.750000;　出力ｺﾈｸﾀ}
 73
     1
 44
1.0
1001
ACAD
1000
ACAD_MTEXT_DEFINED_HEIGHT_BEGIN
1070
    46
1040
4.0
1000
ACAD_MTEXT_DEFINED_HEIGHT_END
  0
LINE
  5
2F6
330
1F
100
AcDbEntity
  8
1
  6
Continuous
 62
     7
370
    35
100
AcDbLine
 10
100.4091332591771
 20
136.3508529610858
 30
0.0
 11
100.4091332591771
 21
123.649147038914
 31
0.0
  0
LINE
  5
2F7
330
1F
100
AcDbEntity
  8
1
  6
Continuous
 62
     7
370
    35
100
AcDbLine
 10
100.1091332591771
 20
145.0
 30
0.0
 11
100.4091332591771
 21
144.7
 31
0.0
  0
LINE
  5
2F8
330
1F
100
AcDbEntity
  8
1
  6
Continuous
 62
     7
370
    35
100
AcDbLine
 10
100.4091332591771
 20
115.3
 30
0.0
 11
100.4091332591771
 21
144.7
 31
0.0
  0
LINE
  5
2F9
330
1F
100
AcDbEntity
  8
1
  6
Continuous
 62
     7
370
    35
100
AcDbLine
 10
100.4091332591771
 20
115.3
 30
0.0
 11
100.1091332591771
 21
115.0
 31
0.0
  0
DIMENSION
  5
303
330
1F
100
AcDbEntity
  8
2
  6
Continuous
 62
   134
370
     9
100
AcDbDimension
280
     0
  2
Dim12
 10
117.4091332591771
 20
160.0
 30
0.0
 11
108.9091332591771
 21
160.0
 31
0.0
 70
   160
  1
<>
 71
     8
 42
-1.0
 73
     0
 74
     0
 75
     0
  3
Standard
100
AcDbAlignedDimension
 13
100.4091332591771
 23
144.7
 33
0.0
 14
117.4091332591771
 24
134.85
 34
0.0
100
AcDbRotatedDimension
1001
ACAD
1000
DSTYLE
1002
{
1070
   279
1070
     1
1070
   340
1005
115
1070
   140
1040
4.0
1070
    40
1040
1.0
1070
   147
1040
0.0
1070
    76
1070
     0
1070
    75
1070
     0
1070
   344
1005
0
1070
   343
1005
0
1070
   173
1070
     1
1070
   289
1070
     2
1070
   288
1070
     1
1070
    77
1070
     1
1070
   172
1070
     1
1070
   174
1070
     0
1070
    74
1070
     0
1070
    73
1070
     0
1070
   284
1070
     8
1070
    78
1070
     8
1070
    42
1040
2.0
1070
    44
1040
2.0
1070
    43
1040
10.0
1070
   271
1070
     2
1070
    41
1040
2.0
1002
}
  0
LINE
  5
304
330
1F
100
AcDbEntity
  8
1
  6
DASHDOT
 62
     7
370
     9
100
AcDbLine
 10
54.44518128572093
 20
130.0
 30
0.0
 11
138.6435374352529
 21
130.0
 31
0.0
  0
LINE
  5
305
330
1F
100
AcDbEntity
  8
1
  6
DASHDOT
 62
     7
370
     9
100
AcDbLine
 10
78.75300852373525
 20
130.0
 30
0.0
 11
120.8483245508242
 21
130.0
 31
0.0
  0
LINE
  5
306
330
1F
100
AcDbEntity
  8
1
  6
DASHDOT
 62
     7
370
     9
100
AcDbLine
 10
57.49542140220782
 20
130.0
 30
0.0
 11
102.8118394868346
 21
130.0
 31
0.0
  0
CIRCLE
  5
307
330
1F
100
AcDbEntity
  8
1
  6
DASHDOT
 62
     7
370
    35
100
AcDbCircle
 10
55.90913325917714
 20
119.9999999339475
 30
0.0
 40
3.0
  0
CIRCLE
  5
308
330
1F
100
AcDbEntity
  8
1
  6
DASHDOT
 62
     7
370
    35
100
AcDbCircle
 10
55.90913325917714
 20
139.9999999339475
 30
0.0
 40
3.0
  0
LINE
  5
309
330
1F
100
AcDbEntity
  8
1
  6
Continuous
 62
     7
370
    35
100
AcDbLine
 10
61.40913325917708
 20
145.0
 30
0.0
 11
61.40913325917708
 21
115.0
 31
0.0
  0
LINE
  5
30A
330
1F
100
AcDbEntity
  8
1
  6
Continuous
 62
     7
370
    35
100
AcDbLine
 10
61.40913325917708
 20
145.0
 30
0.0
 11
100.1091332591771
 21
145.0
 31
0.0
  0
LINE
  5
30B
330
1F
100
AcDbEntity
  8
1
  6
Continuous
 62
     7
370
    35
100
AcDbLine
 10
61.40913325917708
 20
115.0
 30
0.0
 11
100.1091332591771
 21
115.0
 31
0.0
  0
CIRCLE
  5
30C
330
1F
100
AcDbEntity
  8
1
  6
Continuous
 62
     7
370
    35
100
AcDbCircle
 10
55.90913325917714
 20
139.9999999339475
 30
0.0
 40
1.75
  0
CIRCLE
  5
30D
330
1F
100
AcDbEntity
  8
1
  6
Continuous
 62
     7
370
    35
100
AcDbCircle
 10
55.90913325917714
 20
119.9999999339475
 30
0.0
 40
1.75
  0
CIRCLE
  5
30E
330
1F
100
AcDbEntity
  8
1
  6
Continuous
 62
     7
370
    35
100
AcDbCircle
 10
55.90913325917714
 20
139.9999999339475
 30
0.0
 40
1.75
  0
LINE
  5
30F
330
1F
100
AcDbEntity
  8
1
  6
Continuous
 62
     7
370
    35
100
AcDbLine
 10
51.90913325917714
 20
118.9999999339475
 30
0.0
 11
51.90913325917714
 21
140.9999999339475
 31
0.0
  0
LINE
  5
310
330
1F
100
AcDbEntity
  8
1
  6
Continuous
 62
     7
370
    35
100
AcDbLine
 10
61.40913325917708
 20
114.9999999339475
 30
0.0
 11
55.90913287941666
 21
114.9999999339475
 31
0.0
  0
ARC
  5
311
330
1F
100
AcDbEntity
  8
1
  6
Continuous
 62
     7
370
    35
100
AcDbCircle
 10
55.90913325917714
 20
118.9999999339475
 30
0.0
 40
4.0
100
AcDbArc
 50
179.9999999999998
 51
269.9999945603315
  0
LINE
  5
312
330
1F
100
AcDbEntity
  8
1
  6
Continuous
 62
     7
370
    35
100
AcDbLine
 10
61.40913325917708
 20
144.9999999339475
 30
0.0
 11
55.90913325917714
 21
144.9999999339475
 31
0.0
  0
ARC
  5
313
330
1F
100
AcDbEntity
  8
1
  6
Continuous
 62
     7
370
    35
100
AcDbCircle
 10
55.90913325917714
 20
140.9999999339475
 30
0.0
 40
4.0
100
AcDbArc
 50
89.99999999999991
 51
179.9999999999998
  0
LINE
  5
314
330
1F
100
AcDbEntity
  8
1
  6
DASHDOT
 62
     7
370
     9
100
AcDbLine
 10
53.26989461675348
 20
139.9999999339475
 30
0.0
 11
58.57217057692421
 21
139.9999999339475
 31
0.0
  0
LINE
  5
315
330
1F
100
AcDbEntity
  8
1
  6
DASHDOT
 62
     7
370
     9
100
AcDbLine
 10
55.90913325917714
 20
137.763824613891
 30
0.0
 11
55.90913325917714
 21
142.7207058372196
 31
0.0
  0
LINE
  5
316
330
1F
100
AcDbEntity
  8
1
  6
DASHDOT
 62
     7
370
     9
100
AcDbLine
 10
53.05985727678191
 20
139.9999999339475
 30
0.0
 11
58.57217057692421
 21
139.9999999339475
 31
0.0
  0
LINE
  5
317
330
1F
100
AcDbEntity
  8
1
  6
DASHDOT
 62
     7
370
     9
100
AcDbLine
 10
53.33990706341066
 20
119.9999999339475
 30
0.0
 11
58.8288828813339
 21
119.9999999339475
 31
0.0
  0
LINE
  5
318
330
1F
100
AcDbEntity
  8
1
  6
DASHDOT
 62
     7
370
     9
100
AcDbLine
 10
55.90913325917714
 20
117.4022921285871
 30
0.0
 11
55.90913325917714
 21
122.197723973777
 31
0.0
  0
LINE
  5
319
330
1F
100
AcDbEntity
  8
1
  6
Continuous
 62
     7
370
    35
100
AcDbLine
 10
61.40913325917708
 20
143.4013421918885
 30
0.0
 11
61.40913325917708
 21
144.9999999339475
 31
0.0
  0
LINE
  5
31A
330
1F
100
AcDbEntity
  8
1
  6
Continuous
 62
     7
370
    35
100
AcDbLine
 10
61.40913325917708
 20
114.9999999339475
 30
0.0
 11
61.40913325917708
 21
117.0999999519445
 31
0.0
  0
LINE
  5
31B
330
1F
100
AcDbEntity
  8
1
  6
Continuous
 62
     7
370
    35
100
AcDbLine
 10
61.40913325917708
 20
117.0999999519449
 30
0.0
 11
61.40913325917708
 21
140.5000007596036
 31
0.0
  0
LINE
  5
31C
330
1F
100
AcDbEntity
  8
1
  6
Continuous
 62
     7
370
    35
100
AcDbLine
 10
61.40913325917708
 20
143.4013421918885
 30
0.0
 11
61.40913325917708
 21
117.0999999519447
 31
0.0
  0
LINE
  5
31D
330
1F
100
AcDbEntity
  8
1
  6
Continuous
 62
     7
370
    35
100
AcDbLine
 10
61.40837684860915
 20
133.1999999814367
 30
0.0
 11
61.40837684860915
 21
133.5000000010889
 31
0.0
  0
LINE
  5
31E
330
1F
100
AcDbEntity
  8
1
  6
Continuous
 62
     7
370
    35
100
AcDbLine
 10
61.40837684860915
 20
126.7999999919703
 30
0.0
 11
61.40837684860915
 21
126.4999999723185
 31
0.0
  0
LINE
  5
31F
330
1F
100
AcDbEntity
  8
1
  6
Continuous
 62
     7
370
    35
100
AcDbLine
 10
61.40837684860915
 20
126.7999999919703
 30
0.0
 11
61.40837684860915
 21
130.0
 31
0.0
  0
LINE
  5
320
330
1F
100
AcDbEntity
  8
1
  6
Continuous
 62
     7
370
    35
100
AcDbLine
 10
51.90830840919594
 20
136.4999999536747
 30
0.0
 11
51.90819899151685
 21
138.5000000152771
 31
0.0
  0
LINE
  5
321
330
1F
100
AcDbEntity
  8
1
  6
Continuous
 62
     7
370
    35
100
AcDbLine
 10
51.9086640183784
 20
130.0000316113729
 30
0.0
 11
51.90819899151748
 21
121.5000000137806
 31
0.0
  0
LINE
  5
322
330
1F
100
AcDbEntity
  8
1
  6
DOT
 62
     7
370
    35
100
AcDbLine
 10
53.74117081067962
 20
125.0
 30
0.0
 11
55.11503438852233
 21
125.0
 31
0.0
  0
LINE
  5
323
330
1F
100
AcDbEntity
  8
1
  6
DOT
 62
     7
370
    35
100
AcDbLine
 10
53.74117081067962
 20
135.0
 30
0.0
 11
55.11503438852233
 21
135.0
 31
0.0
  0
LINE
  5
324
330
1F
100
AcDbEntity
  8
1
  6
DOT
 62
     7
370
    35
100
AcDbLine
 10
55.11503438852233
 20
135.0
 30
0.0
 11
55.11503438852233
 21
125.0
 31
0.0
  0
ARC
  5
325
330
1F
100
AcDbEntity
  8
1
  6
DOT
 62
     7
370
    35
100
AcDbCircle
 10
60.61503438852233
 20
130.0
 30
0.0
 40
8.5
100
AcDbArc
 50
143.9681243896483
 51
216.0318756103509
  0
LINE
  5
326
330
1F
100
AcDbEntity
  8
1
  6
DOT
 62
     7
370
    35
100
AcDbLine
 10
55.11503438852233
 20
135.0
 30
0.0
 11
55.11503438852233
 21
125.0
 31
0.0
  0
LINE
  5
327
330
1F
100
AcDbEntity
  8
1
  6
DOT
 62
     7
370
    35
100
AcDbLine
 10
55.11503438852233
 20
135.0
 30
0.0
 11
55.11503438852233
 21
125.0
 31
0.0
  0
INSERT
  5
328
330
1F
100
AcDbEntity
  8
2
  6
Continuous
 62
   134
370
     9
100
AcDbBlockReference
  2
_ARROWFILLED
 10
52.81860181833794
 20
126.6139050251702
 30
0.0
 41
2.0
 42
2.0
 43
2.0
 50
59.85208978714503
  0
POLYLINE
  5
329
330
1F
100
AcDbEntity
  8
2
  6
Continuous
 62
   134
370
     9
100
AcDb2dPolyline
 66
     1
 10
0.0
 20
0.0
 30
0.0
  0
VERTEX
  5
32A
330
329
100
AcDbEntity
  8
2
  6
Continuous
 62
   134
370
     9
100
AcDbVertex
100
AcDb2dVertex
 10
52.81860181833794
 20
126.6139050251702
 30
0.0
  0
VERTEX
  5
32B
330
329
100
AcDbEntity
  8
2
  6
Continuous
 62
   134
370
     9
100
AcDbVertex
100
AcDb2dVertex
 10
37.36131386861317
 20
100.0
 30
0.0
  0
VERTEX
  5
32C
330
329
100
AcDbEntity
  8
2
  6
Continuous
 62
   134
370
     9
100
AcDbVertex
100
AcDb2dVertex
 10
23.36131386861317
 20
100.0
 30
0.0
  0
SEQEND
  5
32D
330
329
100
AcDbEntity
  8
2
  6
Continuous
 62
   134
370
     9
  0
MTEXT
  5
32E
330
1F
100
AcDbEntity
  8
2
  6
Continuous
 62
   134
370
     9
100
AcDbMText
 10
31.36131386861317
 20
100.0
 30
0.0
 40
4.0
 41
12.7402002002002
 46
4.0
 71
     9
 72
     1
  1
{\fＭＳ 明朝|i1;\T0.750000;ﾚﾝｽﾞ}
 73
     1
 44
1.0
1001
ACAD
1000
ACAD_MTEXT_DEFINED_HEIGHT_BEGIN
1070
    46
1040
4.0
1000
ACAD_MTEXT_DEFINED_HEIGHT_END
  0
DIMENSION
  5
338
330
1F
100
AcDbEntity
  8
2
  6
Continuous
 62
   134
370
     9
100
AcDbDimension
280
     0
  2
Dim13
 10
30.00017475570973
 20
130.0
 30
0.0
 11
30.00017475570973
 21
122.4999999669738
 31
0.0
 70
   160
  1
<>
 71
     8
 42
-1.0
 73
     0
 74
     0
 75
     0
  3
Standard
100
AcDbAlignedDimension
 13
55.90913325917714
 23
114.9999999339475
 33
0.0
 14
51.40817163709798
 24
130.0
 34
0.0
 50
89.99999999999991
100
AcDbRotatedDimension
1001
ACAD
1000
DSTYLE
1002
{
1070
   279
1070
     1
1070
   340
1005
115
1070
   140
1040
4.0
1070
    40
1040
1.0
1070
   147
1040
0.0
1070
    76
1070
     0
1070
    75
1070
     0
1070
   344
1005
0
1070
   343
1005
0
1070
   173
1070
     1
1070
   289
1070
     2
1070
   288
1070
     1
1070
    77
1070
     1
1070
   172
1070
     1
1070
   174
1070
     0
1070
    74
1070
     0
1070
    73
1070
     0
1070
   284
1070
     8
1070
    78
1070
     8
1070
    42
1040
2.0
1070
    44
1040
2.0
1070
    43
1040
10.0
1070
   271
1070
     2
1070
    41
1040
2.0
1002
}
  0
DIMENSION
  5
33F
330
1F
100
AcDbEntity
  8
2
  6
Continuous
 62
   134
370
     9
100
AcDbDimension
280
     0
  2
Dim14
 10
22.83680915379739
 20
159.9999999999999
 30
0.0
 11
37.45377475054772
 21
159.9999999999999
 31
0.0
 70
   160
  1
測定距離
 71
     8
 42
-1.0
 73
     0
 74
     0
 75
     0
 53
0.0000000000000254
  3
Standard
100
AcDbAlignedDimension
 13
51.90913325917711
 23
128.4999999536745
 33
0.0
 14
22.83680915379671
 24
119.9999999999999
 34
0.0
 50
179.9999999999998
100
AcDbRotatedDimension
1001
ACAD
1000
DSTYLE
1002
{
1070
   279
1070
     1
1070
   340
1005
115
1070
   140
1040
4.0
1070
    40
1040
1.0
1070
   147
1040
0.0
1070
    76
1070
     1
1070
    75
1070
     1
1070
   344
1005
A9
1070
   343
1005
0
1070
   173
1070
     1
1070
   289
1070
     2
1070
   288
1070
     1
1070
    77
1070
     1
1070
   172
1070
     1
1070
   174
1070
     0
1070
    74
1070
     0
1070
    73
1070
     0
1070
   284
1070
     8
1070
    78
1070
     8
1070
    42
1040
2.0
1070
    44
1040
2.0
1070
    43
1040
10.0
1070
   271
1070
     2
1070
    41
1040
2.0
1002
}
  0
MTEXT
  5
340
330
1F
100
AcDbEntity
  8
2
  6
Continuous
 62
   134
370
     9
100
AcDbMText
 10
77.14225270218353
 20
100.0
 30
0.0
 40
4.0
 41
111.3420720720721
 46
4.0
 71
     1
 72
     1
  1
{\fＭＳ 明朝|i1;\W1.500000;\T0.750000;2-φ3.5ザグリφ6深さ3}
 73
     1
 44
1.0
1001
ACAD
1000
ACAD_MTEXT_DEFINED_HEIGHT_BEGIN
1070
    46
1040
4.0
1000
ACAD_MTEXT_DEFINED_HEIGHT_END
  0
DIMENSION
  5
34A
330
1F
100
AcDbEntity
  8
2
  6
Continuous
 62
   134
370
     9
100
AcDbDimension
280
     0
  2
Dim15
 10
100.4091332591771
 20
160.0
 30
0.0
 11
76.15913325917714
 21
160.0
 31
0.0
 70
   160
  1
<>
 71
     8
 42
-1.0
 73
     0
 74
     0
 75
     0
  3
Standard
100
AcDbAlignedDimension
 13
51.90913325917714
 23
140.7192540322579
 33
0.0
 14
100.4091332591771
 24
144.7
 34
0.0
100
AcDbRotatedDimension
1001
ACAD
1000
DSTYLE
1002
{
1070
   279
1070
     1
1070
   340
1005
115
1070
   140
1040
4.0
1070
    40
1040
1.0
1070
   147
1040
0.0
1070
    76
1070
     0
1070
    75
1070
     0
1070
   344
1005
0
1070
   343
1005
0
1070
   173
1070
     1
1070
   289
1070
     2
1070
   288
1070
     1
1070
    77
1070
     1
1070
   172
1070
     1
1070
   174
1070
     0
1070
    74
1070
     0
1070
    73
1070
     0
1070
   284
1070
     8
1070
    78
1070
     8
1070
    42
1040
2.0
1070
    44
1040
2.0
1070
    43
1040
10.0
1070
   271
1070
     2
1070
    41
1040
2.0
1002
}
  0
DIMENSION
  5
354
330
1F
100
AcDbEntity
  8
2
  6
Continuous
 62
   134
370
     9
100
AcDbDimension
280
     0
  2
Dim16
 10
73.77934947637718
 20
119.9999999339475
 30
0.0
 11
73.77934947637718
 21
133.5000000010889
 31
0.0
 70
   160
  1
<>
 71
     8
 42
-1.0
 73
     0
 74
     0
 75
     0
 53
89.9999999999999
  3
Standard
100
AcDbAlignedDimension
 13
58.57217057692421
 23
139.9999999339475
 33
0.0
 14
58.8288828813339
 24
119.9999999339475
 34
0.0
 50
-89.99999999999991
100
AcDbRotatedDimension
1001
ACAD
1000
DSTYLE
1002
{
1070
   279
1070
     1
1070
   340
1005
115
1070
   140
1040
4.0
1070
    40
1040
1.0
1070
   147
1040
0.0
1070
    76
1070
     0
1070
    75
1070
     0
1070
   344
1005
0
1070
   343
1005
0
1070
   173
1070
     1
1070
   289
1070
     2
1070
   288
1070
     1
1070
    77
1070
     1
1070
   172
1070
     1
1070
   174
1070
     0
1070
    74
1070
     0
1070
    73
1070
     0
1070
   284
1070
     8
1070
    78
1070
     8
1070
    42
1040
2.0
1070
    44
1040
2.0
1070
    43
1040
10.0
1070
   271
1070
     2
1070
    41
1040
2.0
1002
}
  0
DIMENSION
  5
35E
330
1F
100
AcDbEntity
  8
2
  6
Continuous
 62
   134
370
     9
100
AcDbDimension
280
     0
  2
Dim17
 10
55.90913325917714
 20
150.2832661290321
 30
0.0
 11
53.8409849117553
 21
150.2832661290321
 31
0.0
 70
   160
  1
<>
 71
     8
 42
-1.0
 73
     0
 74
     0
 75
     0
  3
Standard
100
AcDbAlignedDimension
 13
51.90913325917714
 23
140.9999999339475
 33
0.0
 14
55.90913325917714
 24
142.7207058372196
 34
0.0
100
AcDbRotatedDimension
1001
ACAD
1000
DSTYLE
1002
{
1070
   279
1070
     1
1070
   340
1005
115
1070
   140
1040
4.0
1070
    40
1040
1.0
1070
   147
1040
0.0
1070
    76
1070
     0
1070
    75
1070
     0
1070
   344
1005
0
1070
   343
1005
0
1070
   173
1070
     1
1070
   289
1070
     2
1070
   288
1070
     1
1070
    77
1070
     1
1070
   172
1070
     1
1070
   174
1070
     0
1070
    74
1070
     0
1070
    73
1070
     0
1070
   284
1070
     8
1070
    78
1070
     8
1070
    42
1040
2.0
1070
    44
1040
2.0
1070
    43
1040
10.0
1070
   271
1070
     2
1070
    41
1040
2.0
1002
}
  0
INSERT
  5
35F
330
1F
100
AcDbEntity
  8
2
  6
Continuous
 62
   134
370
     9
100
AcDbBlockReference
  2
_ARROWFILLED
 10
58.0704210998899
 20
117.9194147110866
 30
0.0
 41
2.0
 42
2.0
 43
2.0
 50
133.6124118047243
  0
POLYLINE
  5
360
330
1F
100
AcDbEntity
  8
2
  6
Continuous
 62
   134
370
     9
100
AcDb2dPolyline
 66
     1
 10
0.0
 20
0.0
 30
0.0
  0
VERTEX
  5
361
330
360
100
AcDbEntity
  8
2
  6
Continuous
 62
   134
370
     9
100
AcDbVertex
100
AcDb2dVertex
 10
58.0704210998899
 20
117.9194147110866
 30
0.0
  0
VERTEX
  5
362
330
360
100
AcDbEntity
  8
2
  6
Continuous
 62
   134
370
     9
100
AcDbVertex
100
AcDb2dVertex
 10
75.14225270218353
 20
100.0
 30
0.0
  0
VERTEX
  5
363
330
360
100
AcDbEntity
  8
2
  6
Continuous
 62
   134
370
     9
100
AcDbVertex
100
AcDb2dVertex
 10
93.14225270218353
 20
100.0
 30
0.0
  0
SEQEND
  5
364
330
360
100
AcDbEntity
  8
2
  6
Continuous
 62
   134
370
     9
  0
MTEXT
  5
365
330
1F
100
AcDbEntity
  8
2
  6
Continuous
 62
   134
370
     9
100
AcDbMText
 10
77.14225270218353
 20
100.0
 30
0.0
 40
4.0
 41
48.12932932932933
 46
4.0
 71
     7
 72
     1
  1
{\fＭＳ 明朝|i1;\W2.000000;\T0.750000;　取付穴}
 73
     1
 44
1.0
1001
ACAD
1000
ACAD_MTEXT_DEFINED_HEIGHT_BEGIN
1070
    46
1040
4.0
1000
ACAD_MTEXT_DEFINED_HEIGHT_END
  0
LINE
  5
366
330
1F
100
AcDbEntity
  8
1
  6
Continuous
 62
     7
370
    35
100
AcDbLine
 10
117.4091332591771
 20
134.85
 30
0.0
 11
117.4091332591771
 21
125.15
 31
0.0
  0
MTEXT
  5
367
330
1F
100
AcDbEntity
  8
2
  6
Continuous
 62
   134
370
     9
100
AcDbMText
 10
231.5250727975542
 20
103.8242580048869
 30
0.0
 40
3.9999
 41
109.1986813761261
 46
3.9999
 71
     9
 72
     1
  1
{\fＭＳ 明朝;\W1.500000;\T0.750000;e-CON コネクタ　8ピン}
 73
     1
 44
1.0
1001
ACAD
1000
ACAD_MTEXT_DEFINED_HEIGHT_BEGIN
1070
    46
1040
3.9999
1000
ACAD_MTEXT_DEFINED_HEIGHT_END
  0
MTEXT
  5
368
330
1F
100
AcDbEntity
  8
5
  6
Continuous
 62
    94
370
     9
100
AcDbMText
 10
235.6909381008332
 20
20.40645695364224
 30
0.0
 40
4.0
 41
168.2593393393393
 46
4.0
 71
     7
 72
     1
  1
{\fＭＳ 明朝;\W2.000000;\T0.750000;００５－０６５－Ａ０１３}
 73
     1
 44
1.0
1001
ACAD
1000
ACAD_MTEXT_DEFINED_HEIGHT_BEGIN
1070
    46
1040
4.0
1000
ACAD_MTEXT_DEFINED_HEIGHT_END
  0
LINE
  5
369
330
1F
100
AcDbEntity
  8
1
  6
Continuous
 62
     7
370
    35
100
AcDbLine
 10
103.4091332591771
 20
136.3508529610858
 30
0.0
 11
103.4091332591771
 21
123.649147038914
 31
0.0
  0
LINE
  5
36A
330
1F
100
AcDbEntity
  8
1
  6
Continuous
 62
     7
370
    35
100
AcDbLine
 10
103.4091332591771
 20
138.8
 30
0.0
 11
103.4091332591771
 21
121.2
 31
0.0
  0
LINE
  5
36B
330
1F
100
AcDbEntity
  8
1
  6
Continuous
 62
     7
370
    35
100
AcDbLine
 10
108.4091332591771
 20
138.8
 30
0.0
 11
108.4091332591771
 21
121.2
 31
0.0
  0
LINE
  5
36C
330
1F
100
AcDbEntity
  8
1
  6
Continuous
 62
     7
370
    35
100
AcDbLine
 10
111.4091332591771
 20
121.2
 30
0.0
 11
111.4091332591771
 21
138.8
 31
0.0
  0
LINE
  5
36D
330
1F
100
AcDbEntity
  8
1
  6
Continuous
 62
     7
370
    35
100
AcDbLine
 10
103.4091332591771
 20
136.0
 30
0.0
 11
105.4091332591771
 21
136.0
 31
0.0
  0
LINE
  5
36E
330
1F
100
AcDbEntity
  8
1
  6
Continuous
 62
     7
370
    35
100
AcDbLine
 10
103.4091332591771
 20
124.0
 30
0.0
 11
105.4091332591771
 21
124.0
 31
0.0
  0
LINE
  5
36F
330
1F
100
AcDbEntity
  8
1
  6
Continuous
 62
     7
370
    35
100
AcDbLine
 10
103.4091332591771
 20
138.8
 30
0.0
 11
100.4091332591771
 21
138.8
 31
0.0
  0
LINE
  5
370
330
1F
100
AcDbEntity
  8
1
  6
Continuous
 62
     7
370
    35
100
AcDbLine
 10
100.4091332591771
 20
121.2
 30
0.0
 11
103.4091332591771
 21
121.2
 31
0.0
  0
LINE
  5
371
330
1F
100
AcDbEntity
  8
1
  6
Continuous
 62
     7
370
    35
100
AcDbLine
 10
108.4091332591771
 20
135.056406460551
 30
0.0
 11
111.4091332591771
 21
135.056406460551
 31
0.0
  0
LINE
  5
372
330
1F
100
AcDbEntity
  8
1
  6
Continuous
 62
     7
370
    35
100
AcDbLine
 10
108.4091332591771
 20
133.7435935394491
 30
0.0
 11
111.4091332591771
 21
133.7435935394491
 31
0.0
  0
LINE
  5
373
330
1F
100
AcDbEntity
  8
1
  6
Continuous
 62
     7
370
    35
100
AcDbLine
 10
108.4091332591771
 20
126.256406460551
 30
0.0
 11
111.4091332591771
 21
126.256406460551
 31
0.0
  0
LINE
  5
374
330
1F
100
AcDbEntity
  8
1
  6
Continuous
 62
     7
370
    35
100
AcDbLine
 10
108.4091332591771
 20
124.943593539449
 30
0.0
 11
111.4091332591771
 21
124.943593539449
 31
0.0
  0
LINE
  5
375
330
1F
100
AcDbEntity
  8
1
  6
Continuous
 62
     7
370
    35
100
AcDbLine
 10
100.4091332591771
 20
135.056406460551
 30
0.0
 11
103.4091332591771
 21
135.056406460551
 31
0.0
  0
LINE
  5
376
330
1F
100
AcDbEntity
  8
1
  6
Continuous
 62
     7
370
    35
100
AcDbLine
 10
100.4091332591771
 20
133.7435935394491
 30
0.0
 11
103.4091332591771
 21
133.7435935394491
 31
0.0
  0
LINE
  5
377
330
1F
100
AcDbEntity
  8
1
  6
Continuous
 62
     7
370
    35
100
AcDbLine
 10
100.4091332591771
 20
126.256406460551
 30
0.0
 11
103.4091332591771
 21
126.256406460551
 31
0.0
  0
LINE
  5
378
330
1F
100
AcDbEntity
  8
1
  6
Continuous
 62
     7
370
    35
100
AcDbLine
 10
100.4091332591771
 20
124.943593539449
 30
0.0
 11
103.4091332591771
 21
124.943593539449
 31
0.0
  0
LINE
  5
379
330
1F
100
AcDbEntity
  8
1
  6
Continuous
 62
     7
370
    35
100
AcDbLine
 10
108.4091332591771
 20
138.8
 30
0.0
 11
111.4091332591771
 21
138.8
 31
0.0
  0
LINE
  5
37A
330
1F
100
AcDbEntity
  8
1
  6
Continuous
 62
     7
370
    35
100
AcDbLine
 10
108.4091332591771
 20
121.2
 30
0.0
 11
111.4091332591771
 21
121.2
 31
0.0
  0
LINE
  5
37B
330
1F
100
AcDbEntity
  8
1
  6
Continuous
 62
     7
370
    35
100
AcDbLine
 10
105.4091332591771
 20
138.0000000000001
 30
0.0
 11
105.4091332591771
 21
122.0000000000002
 31
0.0
  0
LINE
  5
37C
330
1F
100
AcDbEntity
  8
1
  6
Continuous
 62
     7
370
    35
100
AcDbLine
 10
115.4091332591772
 20
138.0000000000001
 30
0.0
 11
111.4091332591771
 21
138.0000000000001
 31
0.0
  0
LINE
  5
37D
330
1F
100
AcDbEntity
  8
1
  6
Continuous
 62
     7
370
    35
100
AcDbLine
 10
108.4091332591771
 20
138.0000000000001
 30
0.0
 11
105.4091332591771
 21
138.0000000000001
 31
0.0
  0
LINE
  5
37E
330
1F
100
AcDbEntity
  8
1
  6
Continuous
 62
     7
370
    35
100
AcDbLine
 10
105.4091332591771
 20
122.0000000000002
 30
0.0
 11
108.4091332591771
 21
122.0000000000002
 31
0.0
  0
LINE
  5
37F
330
1F
100
AcDbEntity
  8
1
  6
Continuous
 62
     7
370
    35
100
AcDbLine
 10
111.4091332591771
 20
122.0000000000002
 30
0.0
 11
115.4091332591771
 21
122.0000000000002
 31
0.0
  0
ARC
  5
380
330
1F
100
AcDbEntity
  8
1
  6
Continuous
 62
     7
370
    35
100
AcDbCircle
 10
115.4091332591771
 20
124.0000000000002
 30
0.0
 40
2.0
100
AcDbArc
 50
269.9999999999998
 51
0.0
  0
LINE
  5
381
330
1F
100
AcDbEntity
  8
1
  6
Continuous
 62
     7
370
    35
100
AcDbLine
 10
117.4091332591771
 20
124.0000000000002
 30
0.0
 11
117.4091332591771
 21
136.0000000000001
 31
0.0
  0
ARC
  5
382
330
1F
100
AcDbEntity
  8
1
  6
Continuous
 62
     7
370
    35
100
AcDbCircle
 10
115.4091332591772
 20
136.0000000000001
 30
0.0
 40
2.0
100
AcDbArc
 50
0.0
 51
89.99999999999991
  0
MTEXT
  5
383
330
1F
100
AcDbEntity
  8
5
  6
Continuous
 62
    94
370
     9
100
AcDbMText
 10
239.646523178808
 20
34.9388081887174
 30
0.0
 40
4.0
 41
114.8252652652653
 46
4.0
 71
     7
 72
     1
  1
{\fＭＳ 明朝;\W2.000000;\T0.750000;ＴＨＭＸ　外形図}
 73
     1
 44
1.0
1001
ACAD
1000
ACAD_MTEXT_DEFINED_HEIGHT_BEGIN
1070
    46
1040
4.0
1000
ACAD_MTEXT_DEFINED_HEIGHT_END
  0
MTEXT
  5
384
330
1F
100
AcDbEntity
  8
5
  6
Continuous
 62
    94
370
     9
100
AcDbMText
 10
239.646523178808
 20
27.42694687484767
 30
0.0
 40
4.0
 41
67.79611611611612
 46
4.0
 71
     7
 72
     1
  1
{\fＭＳ 明朝;\W2.000000;\T0.750000;ＨＸ－Ｃ１}
 73
     1
 44
1.0
1001
ACAD
1000
ACAD_MTEXT_DEFINED_HEIGHT_BEGIN
1070
    46
1040
4.0
1000
ACAD_MTEXT_DEFINED_HEIGHT_END
  0
VIEWPORT
  5
6A
330
1B
100
AcDbEntity
 67
     1
  8
0
100
AcDbViewport
 10
148.5
 20
105.0
 30
0.0
 40
297.0
 41
210.0
 68
     1
 69
     1
 12
148.5
 22
105.0
 13
0.0
 23
0.0
 14
0.5
 24
0.5
 15
0.5
 25
0.5
 16
0.0
 26
0.0
 36
1.0
 17
0.0
 27
0.0
 37
0.0
 42
50.0
 43
0.0
 44
0.0
 45
9.0
 50
0.0
 51
0.0
 72
   100
 90
   557152
  1

281
     0
 71
     1
 74
     0
110
0.0
120
0.0
130
0.0
111
1.0
121
0.0
131
0.0
112
0.0
122
1.0
132
0.0
 79
     0
146
0.0
170
     0
 61
     5
292
     1
282
     1
141
0.0
142
0.0
 63
   256
  0
ENDSEC
  0
SECTION
  2
OBJECTS
  0
DICTIONARY
  5
C
330
0
100
AcDbDictionary
281
     1
  3
ACAD_DETAILVIEWSTYLE
350
389
  3
ACAD_GROUP
350
D
  3
ACAD_LAYOUT
350
1A
  3
ACAD_MATERIAL
350
43
  3
ACAD_MLEADERSTYLE
350
388
  3
ACAD_MLINESTYLE
350
17
  3
ACAD_PLOTSETTINGS
350
19
  3
ACAD_PLOTSTYLENAME
350
E
  3
ACAD_SCALELIST
350
47
  3
ACAD_SECTIONVIEWSTYLE
350
38A
  3
ACAD_TABLESTYLE
350
387
  3
ACAD_VISUALSTYLE
350
2A
  3
AcDbVariableDictionary
350
385
  0
SUN
  5
69
330
29
100
AcDbSun
 90
        1
290
     0
 63
     7
421
 16777215
 40
1.0
291
     1
 91
  2455826
 92
 54000000
292
     0
 70
     2
 71
   256
280
     1
  0
DICTIONARY
  5
389
102
{ACAD_REACTORS
330
C
102
}
330
C
100
AcDbDictionary
281
     1
  0
DICTIONARY
  5
D
102
{ACAD_REACTORS
330
C
102
}
330
C
100
AcDbDictionary
281
     1
  0
DICTIONARY
  5
1A
102
{ACAD_REACTORS
330
C
102
}
330
C
100
AcDbDictionary
281
     1
  3
Layout1
350
1E
  3
Layout2
350
26
  3
Model
350
22
  0
DICTIONARY
  5
43
102
{ACAD_REACTORS
330
C
102
}
330
C
100
AcDbDictionary
281
     1
  3
ByBlock
350
45
  3
ByLayer
350
44
  3
Global
350
46
  0
DICTIONARY
  5
388
102
{ACAD_REACTORS
330
C
102
}
330
C
100
AcDbDictionary
281
     1
  0
DICTIONARY
  5
17
102
{ACAD_REACTORS
330
C
102
}
330
C
100
AcDbDictionary
281
     1
  3
Standard
350
18
  0
DICTIONARY
  5
19
102
{ACAD_REACTORS
330
C
102
}
330
C
100
AcDbDictionary
281
     1
  0
ACDBDICTIONARYWDFLT
  5
E
102
{ACAD_REACTORS
330
C
102
}
330
C
100
AcDbDictionary
281
     1
  3
Normal
350
F
100
AcDbDictionaryWithDefault
340
F
  0
DICTIONARY
  5
47
102
{ACAD_REACTORS
330
C
102
}
330
C
100
AcDbDictionary
281
     1
  3
A0
350
48
  3
A1
350
49
  3
A2
350
4A
  3
A3
350
4B
  3
A4
350
4C
  3
A5
350
4D
  3
A6
350
4E
  3
A7
350
4F
  3
A8
350
50
  3
A9
350
51
  3
B0
350
52
  3
B1
350
53
  3
B2
350
54
  3
B3
350
55
  3
B4
350
56
  3
B5
350
57
  3
B6
350
58
  3
B7
350
59
  3
B8
350
5A
  3
B9
350
5B
  3
C0
350
5C
  3
C1
350
5D
  3
C2
350
5E
  3
C3
350
5F
  3
C4
350
60
  3
C5
350
61
  3
C6
350
62
  3
C7
350
63
  3
C8
350
64
  3
C9
350
65
  3
D0
350
66
  3
D1
350
67
  3
D2
350
68
  0
DICTIONARY
  5
38A
102
{ACAD_REACTORS
330
C
102
}
330
C
100
AcDbDictionary
281
     1
  0
DICTIONARY
  5
387
102
{ACAD_REACTORS
330
C
102
}
330
C
100
AcDbDictionary
281
     1
  0
DICTIONARY
  5
2A
102
{ACAD_REACTORS
330
C
102
}
330
C
100
AcDbDictionary
281
     1
  3
2dWireframe
350
2F
  3
Basic
350
32
  3
Brighten
350
36
  3
ColorChange
350
3A
  3
Conceptual
350
34
  3
Dim
350
35
  3
EdgeColorOff
350
3D
  3
Facepattern
350
39
  3
Flat
350
2B
  3
FlatWithEdges
350
2C
  3
Gouraud
350
2D
  3
GouraudWithEdges
350
2E
  3
Hidden
350
31
  3
JitterOff
350
3B
  3
Linepattern
350
38
  3
OverhangOff
350
3C
  3
Realistic
350
33
  3
Shaded
350
42
  3
Shaded with edges
350
41
  3
Shades of Gray
350
3E
  3
Sketchy
350
3F
  3
Thicken
350
37
  3
Wireframe
350
30
  3
X-Ray
350
40
  0
DICTIONARY
  5
385
102
{ACAD_REACTORS
330
C
102
}
330
C
100
AcDbDictionary
281
     1
  3
CANNOSCALE
350
386
  0
LAYOUT
  5
1E
102
{ACAD_REACTORS
330
1A
102
}
330
1A
100
AcDbPlotSettings
  1

  2
none_device
  4

  6

 40
0.0
 41
0.0
 42
0.0
 43
0.0
 44
0.0
 45
0.0
 46
0.0
 47
0.0
 48
0.0
 49
0.0
140
0.0
141
0.0
142
1.0
143
1.0
 70
   688
 72
     0
 73
     0
 74
     5
  7

 75
    16
 76
     0
 77
     2
 78
   300
147
1.0
148
0.0
149
0.0
100
AcDbLayout
  1
Layout1
 70
     1
 71
     1
 10
0.0
 20
0.0
 11
297.0
 21
210.0
 12
0.0
 22
0.0
 32
0.0
 14
0.0
 24
0.0
 34
0.0
 15
297.0
 25
210.0
 35
0.0
146
0.0
 13
0.0
 23
0.0
 33
0.0
 16
1.0
 26
0.0
 36
0.0
 17
0.0
 27
1.0
 37
0.0
 76
     0
330
1B
331
6A
  0
LAYOUT
  5
26
102
{ACAD_REACTORS
330
1A
102
}
330
1A
100
AcDbPlotSettings
  1

  2
none_device
  4

  6

 40
0.0
 41
0.0
 42
0.0
 43
0.0
 44
0.0
 45
0.0
 46
0.0
 47
0.0
 48
0.0
 49
0.0
140
0.0
141
0.0
142
1.0
143
1.0
 70
   688
 72
     0
 73
     0
 74
     5
  7

 75
    16
 76
     0
 77
     2
 78
   300
147
1.0
148
0.0
149
0.0
100
AcDbLayout
  1
Layout2
 70
     1
 71
     2
 10
0.0
 20
0.0
 11
0.0
 21
0.0
 12
0.0
 22
0.0
 32
0.0
 14
0.0
 24
0.0
 34
0.0
 15
0.0
 25
0.0
 35
0.0
146
0.0
 13
0.0
 23
0.0
 33
0.0
 16
1.0
 26
0.0
 36
0.0
 17
0.0
 27
1.0
 37
0.0
 76
     0
330
23
  0
LAYOUT
  5
22
102
{ACAD_REACTORS
330
1A
102
}
330
1A
100
AcDbPlotSettings
  1

  2
none_device
  4
Letter_(8.50_x_11.00_Inches)
  6

 40
6.35
 41
6.35
 42
6.35000508
 43
6.35000508
 44
215.9
 45
279.4
 46
0.0
 47
0.0
 48
0.0
 49
0.0
140
0.0
141
0.0
142
1.0
143
1.0
 70
  1712
 72
     0
 73
     0
 74
     0
  7

 75
     0
 76
     0
 77
     2
 78
   300
147
1.0
148
0.0
149
0.0
100
AcDbLayout
  1
Model
 70
     1
 71
     0
 10
0.0
 20
0.0
 11
297.0
 21
210.0
 12
0.0
 22
0.0
 32
0.0
 14
10.0
 24
9.999999999999865
 34
0.0
 15
285.0000000000003
 25
195.0000000000005
 35
0.0
146
0.0
 13
0.0
 23
0.0
 33
0.0
 16
1.0
 26
0.0
 36
0.0
 17
0.0
 27
1.0
 37
0.0
 76
     0
330
1F
331
29
  0
MATERIAL
  5
45
102
{ACAD_REACTORS
330
43
102
}
330
43
100
AcDbMaterial
  1
ByBlock
 72
     1
 94
      127
  0
MATERIAL
  5
44
102
{ACAD_REACTORS
330
43
102
}
330
43
100
AcDbMaterial
  1
ByLayer
 72
     1
 94
      127
  0
MATERIAL
  5
46
102
{ACAD_REACTORS
330
43
102
}
330
43
100
AcDbMaterial
  1
Global
 72
     1
 94
      127
  0
MLINESTYLE
  5
18
102
{ACAD_REACTORS
330
17
102
}
330
17
100
AcDbMlineStyle
  2
Standard
 70
     0
  3

 62
   256
 51
90.0
 52
90.0
 71
     2
 49
0.5
 62
   256
  6
BYLAYER
 49
-0.5
 62
   256
  6
BYLAYER
  0
ACDBPLACEHOLDER
  5
F
102
{ACAD_REACTORS
330
E
102
}
330
E
  0
SCALE
  5
48
102
{ACAD_REACTORS
330
47
102
}
330
47
100
AcDbScale
 70
     0
300
1:1
140
1.0
141
1.0
290
     1
  0
SCALE
  5
49
102
{ACAD_REACTORS
330
47
102
}
330
47
100
AcDbScale
 70
     0
300
1:2
140
1.0
141
2.0
290
     0
  0
SCALE
  5
4A
102
{ACAD_REACTORS
330
47
102
}
330
47
100
AcDbScale
 70
     0
300
1:4
140
1.0
141
4.0
290
     0
  0
SCALE
  5
4B
102
{ACAD_REACTORS
330
47
102
}
330
47
100
AcDbScale
 70
     0
300
1:5
140
1.0
141
5.0
290
     0
  0
SCALE
  5
4C
102
{ACAD_REACTORS
330
47
102
}
330
47
100
AcDbScale
 70
     0
300
1:8
140
1.0
141
8.0
290
     0
  0
SCALE
  5
4D
102
{ACAD_REACTORS
330
47
102
}
330
47
100
AcDbScale
 70
     0
300
1:10
140
1.0
141
10.0
290
     0
  0
SCALE
  5
4E
102
{ACAD_REACTORS
330
47
102
}
330
47
100
AcDbScale
 70
     0
300
1:16
140
1.0
141
16.0
290
     0
  0
SCALE
  5
4F
102
{ACAD_REACTORS
330
47
102
}
330
47
100
AcDbScale
 70
     0
300
1:20
140
1.0
141
20.0
290
     0
  0
SCALE
  5
50
102
{ACAD_REACTORS
330
47
102
}
330
47
100
AcDbScale
 70
     0
300
1:30
140
1.0
141
30.0
290
     0
  0
SCALE
  5
51
102
{ACAD_REACTORS
330
47
102
}
330
47
100
AcDbScale
 70
     0
300
1:40
140
1.0
141
40.0
290
     0
  0
SCALE
  5
52
102
{ACAD_REACTORS
330
47
102
}
330
47
100
AcDbScale
 70
     0
300
1:50
140
1.0
141
50.0
290
     0
  0
SCALE
  5
53
102
{ACAD_REACTORS
330
47
102
}
330
47
100
AcDbScale
 70
     0
300
1:100
140
1.0
141
100.0
290
     0
  0
SCALE
  5
54
102
{ACAD_REACTORS
330
47
102
}
330
47
100
AcDbScale
 70
     0
300
2:1
140
2.0
141
1.0
290
     0
  0
SCALE
  5
55
102
{ACAD_REACTORS
330
47
102
}
330
47
100
AcDbScale
 70
     0
300
4:1
140
4.0
141
1.0
290
     0
  0
SCALE
  5
56
102
{ACAD_REACTORS
330
47
102
}
330
47
100
AcDbScale
 70
     0
300
8:1
140
8.0
141
1.0
290
     0
  0
SCALE
  5
57
102
{ACAD_REACTORS
330
47
102
}
330
47
100
AcDbScale
 70
     0
300
10:1
140
10.0
141
1.0
290
     0
  0
SCALE
  5
58
102
{ACAD_REACTORS
330
47
102
}
330
47
100
AcDbScale
 70
     0
300
100:1
140
100.0
141
1.0
290
     0
  0
SCALE
  5
59
102
{ACAD_REACTORS
330
47
102
}
330
47
100
AcDbScale
 70
     0
300
1/128" = 1'-0"
140
0.0078125
141
12.0
290
     0
  0
SCALE
  5
5A
102
{ACAD_REACTORS
330
47
102
}
330
47
100
AcDbScale
 70
     0
300
1/64" = 1'-0"
140
0.015625
141
12.0
290
     0
  0
SCALE
  5
5B
102
{ACAD_REACTORS
330
47
102
}
330
47
100
AcDbScale
 70
     0
300
1/32" = 1'-0"
140
0.03125
141
12.0
290
     0
  0
SCALE
  5
5C
102
{ACAD_REACTORS
330
47
102
}
330
47
100
AcDbScale
 70
     0
300
1/16" = 1'-0"
140
0.0625
141
12.0
290
     0
  0
SCALE
  5
5D
102
{ACAD_REACTORS
330
47
102
}
330
47
100
AcDbScale
 70
     0
300
3/32" = 1'-0"
140
0.09375
141
12.0
290
     0
  0
SCALE
  5
5E
102
{ACAD_REACTORS
330
47
102
}
330
47
100
AcDbScale
 70
     0
300
1/8" = 1'-0"
140
0.125
141
12.0
290
     0
  0
SCALE
  5
5F
102
{ACAD_REACTORS
330
47
102
}
330
47
100
AcDbScale
 70
     0
300
3/16" = 1'-0"
140
0.1875
141
12.0
290
     0
  0
SCALE
  5
60
102
{ACAD_REACTORS
330
47
102
}
330
47
100
AcDbScale
 70
     0
300
1/4" = 1'-0"
140
0.25
141
12.0
290
     0
  0
SCALE
  5
61
102
{ACAD_REACTORS
330
47
102
}
330
47
100
AcDbScale
 70
     0
300
3/8" = 1'-0"
140
0.375
141
12.0
290
     0
  0
SCALE
  5
62
102
{ACAD_REACTORS
330
47
102
}
330
47
100
AcDbScale
 70
     0
300
1/2" = 1'-0"
140
0.5
141
12.0
290
     0
  0
SCALE
  5
63
102
{ACAD_REACTORS
330
47
102
}
330
47
100
AcDbScale
 70
     0
300
3/4" = 1'-0"
140
0.75
141
12.0
290
     0
  0
SCALE
  5
64
102
{ACAD_REACTORS
330
47
102
}
330
47
100
AcDbScale
 70
     0
300
1" = 1'-0"
140
1.0
141
12.0
290
     0
  0
SCALE
  5
65
102
{ACAD_REACTORS
330
47
102
}
330
47
100
AcDbScale
 70
     0
300
1-1/2" = 1'-0"
140
1.5
141
12.0
290
     0
  0
SCALE
  5
66
102
{ACAD_REACTORS
330
47
102
}
330
47
100
AcDbScale
 70
     0
300
3" = 1'-0"
140
3.0
141
12.0
290
     0
  0
SCALE
  5
67
102
{ACAD_REACTORS
330
47
102
}
330
47
100
AcDbScale
 70
     0
300
6" = 1'-0"
140
6.0
141
12.0
290
     0
  0
SCALE
  5
68
102
{ACAD_REACTORS
330
47
102
}
330
47
100
AcDbScale
 70
     0
300
1'-0" = 1'-0"
140
12.0
141
12.0
290
     0
  0
VISUALSTYLE
  5
2F
102
{ACAD_REACTORS
330
2A
102
}
330
2A
100
AcDbVisualStyle
  2
2dWireframe
 70
     4
177
     3
291
     0
 70
    58
 90
        0
176
     1
 90
        2
176
     1
 90
        0
176
     1
 90
        0
176
     1
 40
0.6
176
     1
 40
30.0
176
     1
 62
     7
420
 16777215
176
     1
 90
        1
176
     1
 90
        4
176
     1
 62
     7
176
     1
 62
   257
176
     1
 90
        1
176
     1
 90
        1
176
     1
 40
1.0
176
     1
 90
        0
176
     1
 62
   257
176
     1
 40
1.0
176
     1
 90
        1
176
     1
 90
        6
176
     1
 90
        2
176
     1
 62
     7
176
     1
 90
        5
176
     1
 90
        0
176
     1
 90
        0
176
     1
290
     0
176
     1
 90
        1
176
     1
 40
0.0
176
     1
 90
        0
176
     1
290
     1
176
     1
290
     1
176
     1
290
     0
176
     1
290
     0
176
     1
290
     0
176
     1
290
     0
176
     1
290
     0
176
     1
290
     0
176
     1
290
     0
176
     1
 90
       50
176
     1
 40
0.0
176
     1
 40
1.0
176
     1
 90
        0
176
     1
 62
    18
420
        0
176
     1
 90
       50
176
     1
 90
        3
176
     1
 62
     5
420
      255
176
     1
290
     0
176
     1
 90
       50
176
     1
 90
       50
176
     1
 90
       50
176
     1
290
     0
176
     1
 90
       50
176
     1
 62
   256
176
     0
 40
1.0
176
     0
 90
        2
176
     1
  1
strokes_ogs.tif
176
     1
290
     0
176
     1
 40
1.0
176
     1
 40
1.0
176
     1
  0
VISUALSTYLE
  5
32
102
{ACAD_REACTORS
330
2A
102
}
330
2A
100
AcDbVisualStyle
  2
Basic
 70
     7
177
     3
291
     1
 70
    58
 90
        1
176
     1
 90
        0
176
     1
 90
        1
176
     1
 90
        0
176
     1
 40
0.6
176
     1
 40
30.0
176
     1
 62
     7
420
 16777215
176
     1
 90
        0
176
     1
 90
        4
176
     1
 62
     7
176
     1
 62
   257
176
     1
 90
        1
176
     1
 90
        1
176
     1
 40
1.0
176
     1
 90
        8
176
     1
 62
     7
176
     1
 40
1.0
176
     1
 90
        1
176
     1
 90
        6
176
     1
 90
        2
176
     1
 62
     7
176
     1
 90
        5
176
     1
 90
        0
176
     1
 90
        0
176
     1
290
     0
176
     1
 90
        1
176
     1
 40
0.0
176
     1
 90
        0
176
     1
290
     0
176
     1
290
     1
176
     1
290
     1
176
     1
290
     0
176
     1
290
     0
176
     1
290
     0
176
     1
290
     0
176
     1
290
     0
176
     1
290
     0
176
     1
 90
       50
176
     1
 40
0.0
176
     1
 40
1.0
176
     1
 90
        0
176
     1
 62
    18
420
        0
176
     1
 90
       50
176
     1
 90
        3
176
     1
 62
     5
420
      255
176
     1
290
     0
176
     1
 90
       50
176
     1
 90
       50
176
     1
 90
       50
176
     1
290
     0
176
     1
 90
       50
176
     1
 62
   256
176
     0
 40
1.0
176
     0
 90
        2
176
     1
  1
strokes_ogs.tif
176
     1
290
     0
176
     1
 40
1.0
176
     1
 40
1.0
176
     1
  0
VISUALSTYLE
  5
36
102
{ACAD_REACTORS
330
2A
102
}
330
2A
100
AcDbVisualStyle
  2
Brighten
 70
    12
177
     3
291
     1
 70
    58
 90
        2
176
     1
 90
        2
176
     1
 90
        0
176
     1
 90
        0
176
     1
 40
0.6
176
     1
 40
30.0
176
     1
 62
     7
420
 16777215
176
     1
 90
        1
176
     1
 90
        4
176
     1
 62
     7
176
     1
 62
   257
176
     1
 90
        1
176
     1
 90
        1
176
     1
 40
1.0
176
     1
 90
        8
176
     1
 62
     7
176
     1
 40
1.0
176
     1
 90
        1
176
     1
 90
        6
176
     1
 90
        2
176
     1
 62
     7
176
     1
 90
        5
176
     1
 90
        0
176
     1
 90
        0
176
     1
290
     0
176
     1
 90
        1
176
     1
 40
50.0
176
     1
 90
        0
176
     1
290
     0
176
     1
290
     1
176
     1
290
     1
176
     1
290
     0
176
     1
290
     0
176
     1
290
     0
176
     1
290
     0
176
     1
290
     0
176
     1
290
     0
176
     1
 90
       50
176
     1
 40
0.0
176
     1
 40
1.0
176
     1
 90
        0
176
     1
 62
    18
420
        0
176
     1
 90
       50
176
     1
 90
        3
176
     1
 62
     5
420
      255
176
     1
290
     0
176
     1
 90
       50
176
     1
 90
       50
176
     1
 90
       50
176
     1
290
     0
176
     1
 90
       50
176
     1
 62
   256
176
     0
 40
1.0
176
     0
 90
        2
176
     1
  1
strokes_ogs.tif
176
     1
290
     0
176
     1
 40
1.0
176
     1
 40
1.0
176
     1
  0
VISUALSTYLE
  5
3A
102
{ACAD_REACTORS
330
2A
102
}
330
2A
100
AcDbVisualStyle
  2
ColorChange
 70
    16
177
     3
291
     1
 70
    58
 90
        2
176
     1
 90
        2
176
     1
 90
        3
176
     1
 90
        0
176
     1
 40
0.6
176
     1
 40
30.0
176
     1
 62
     8
420
  8421504
176
     1
 90
        1
176
     1
 90
        4
176
     1
 62
     7
176
     1
 62
   257
176
     1
 90
        1
176
     1
 90
        1
176
     1
 40
1.0
176
     1
 90
        8
176
     1
 62
     8
420
  8421504
176
     1
 40
1.0
176
     1
 90
        1
176
     1
 90
        6
176
     1
 90
        2
176
     1
 62
     7
176
     1
 90
        5
176
     1
 90
        0
176
     1
 90
        0
176
     1
290
     0
176
     1
 90
        1
176
     1
 40
0.0
176
     1
 90
        0
176
     1
290
     0
176
     1
290
     1
176
     1
290
     1
176
     1
290
     0
176
     1
290
     0
176
     1
290
     0
176
     1
290
     0
176
     1
290
     0
176
     1
290
     0
176
     1
 90
       50
176
     1
 40
0.0
176
     1
 40
1.0
176
     1
 90
        0
176
     1
 62
    18
420
        0
176
     1
 90
       50
176
     1
 90
        3
176
     1
 62
     5
420
      255
176
     1
290
     0
176
     1
 90
       50
176
     1
 90
       50
176
     1
 90
       50
176
     1
290
     0
176
     1
 90
       50
176
     1
 62
   256
176
     0
 40
1.0
176
     0
 90
        2
176
     1
  1
strokes_ogs.tif
176
     1
290
     0
176
     1
 40
1.0
176
     1
 40
1.0
176
     1
  0
VISUALSTYLE
  5
34
102
{ACAD_REACTORS
330
2A
102
}
330
2A
100
AcDbVisualStyle
  2
Conceptual
 70
     9
177
     3
291
     0
 70
    58
 90
        3
176
     1
 90
        2
176
     1
 90
        0
176
     1
 90
        0
176
     1
 40
0.6
176
     1
 40
30.0
176
     1
 62
     7
420
 16777215
176
     1
 90
        2
176
     1
 90
        2
176
     1
 62
     7
176
     1
 62
   257
176
     1
 90
        1
176
     1
 90
        1
176
     1
 40
179.0
176
     1
 90
        8
176
     1
 62
     7
176
     1
 40
1.0
176
     1
 90
        1
176
     1
 90
        6
176
     1
 90
        2
176
     1
 62
     7
176
     1
 90
        3
176
     1
 90
        0
176
     1
 90
        0
176
     1
290
     0
176
     1
 90
        1
176
     1
 40
0.0
176
     1
 90
        0
176
     1
290
     0
176
     1
290
     1
176
     1
290
     1
176
     1
290
     0
176
     1
290
     0
176
     1
290
     0
176
     1
290
     0
176
     1
290
     0
176
     1
290
     0
176
     1
 90
       50
176
     1
 40
0.0
176
     1
 40
1.0
176
     1
 90
        0
176
     1
 62
    18
420
        0
176
     1
 90
       50
176
     1
 90
        3
176
     1
 62
     5
420
      255
176
     1
290
     0
176
     1
 90
       50
176
     1
 90
       50
176
     1
 90
       50
176
     1
290
     0
176
     1
 90
       50
176
     1
 62
   256
176
     0
 40
1.0
176
     0
 90
        2
176
     1
  1
strokes_ogs.tif
176
     1
290
     0
176
     1
 40
1.0
176
     1
 40
1.0
176
     1
  0
VISUALSTYLE
  5
35
102
{ACAD_REACTORS
330
2A
102
}
330
2A
100
AcDbVisualStyle
  2
Dim
 70
    11
177
     3
291
     1
 70
    58
 90
        2
176
     1
 90
        2
176
     1
 90
        0
176
     1
 90
        0
176
     1
 40
0.6
176
     1
 40
30.0
176
     1
 62
     7
420
 16777215
176
     1
 90
        1
176
     1
 90
        4
176
     1
 62
     7
176
     1
 62
   257
176
     1
 90
        1
176
     1
 90
        1
176
     1
 40
1.0
176
     1
 90
        8
176
     1
 62
     7
176
     1
 40
1.0
176
     1
 90
        1
176
     1
 90
        6
176
     1
 90
        2
176
     1
 62
     7
176
     1
 90
        5
176
     1
 90
        0
176
     1
 90
        0
176
     1
290
     0
176
     1
 90
        1
176
     1
 40
-50.0
176
     1
 90
        0
176
     1
290
     0
176
     1
290
     1
176
     1
290
     1
176
     1
290
     0
176
     1
290
     0
176
     1
290
     0
176
     1
290
     0
176
     1
290
     0
176
     1
290
     0
176
     1
 90
       50
176
     1
 40
0.0
176
     1
 40
1.0
176
     1
 90
        0
176
     1
 62
    18
420
        0
176
     1
 90
       50
176
     1
 90
        3
176
     1
 62
     5
420
      255
176
     1
290
     0
176
     1
 90
       50
176
     1
 90
       50
176
     1
 90
       50
176
     1
290
     0
176
     1
 90
       50
176
     1
 62
   256
176
     0
 40
1.0
176
     0
 90
        2
176
     1
  1
strokes_ogs.tif
176
     1
290
     0
176
     1
 40
1.0
176
     1
 40
1.0
176
     1
  0
VISUALSTYLE
  5
3D
102
{ACAD_REACTORS
330
2A
102
}
330
2A
100
AcDbVisualStyle
  2
EdgeColorOff
 70
    22
177
     3
291
     1
 70
    58
 90
        2
176
     0
 90
        2
176
     0
 90
        0
176
     0
 90
        0
176
     0
 40
0.6
176
     0
 40
30.0
176
     0
 62
     7
420
 16777215
176
     0
 90
        1
176
     0
 90
        4
176
     0
 62
     7
176
     0
 62
   257
176
     0
 90
        1
176
     0
 90
        1
176
     0
 40
1.0
176
     0
 90
        8
176
     2
 62
     7
176
     0
 40
1.0
176
     0
 90
        1
176
     0
 90
        6
176
     0
 90
        2
176
     0
 62
     7
176
     0
 90
        5
176
     0
 90
        0
176
     0
 90
        0
176
     0
290
     0
176
     0
 90
        1
176
     0
 40
0.0
176
     0
 90
        0
176
     0
290
     0
176
     0
290
     1
176
     0
290
     1
176
     0
290
     0
176
     0
290
     0
176
     0
290
     0
176
     0
290
     0
176
     0
290
     0
176
     0
290
     0
176
     0
 90
       50
176
     0
 40
0.0
176
     0
 40
1.0
176
     0
 90
        0
176
     0
 62
    18
420
        0
176
     0
 90
       50
176
     0
 90
        3
176
     0
 62
     5
420
      255
176
     0
290
     0
176
     0
 90
       50
176
     0
 90
       50
176
     0
 90
       50
176
     0
290
     0
176
     0
 90
       50
176
     0
 62
   256
176
     0
 40
1.0
176
     0
 90
        2
176
     0
  1
strokes_ogs.tif
176
     0
290
     0
176
     0
 40
1.0
176
     0
 40
1.0
176
     0
  0
VISUALSTYLE
  5
39
102
{ACAD_REACTORS
330
2A
102
}
330
2A
100
AcDbVisualStyle
  2
Facepattern
 70
    15
177
     3
291
     1
 70
    58
 90
        2
176
     1
 90
        2
176
     1
 90
        0
176
     1
 90
        0
176
     1
 40
0.6
176
     1
 40
30.0
176
     1
 62
     7
420
 16777215
176
     1
 90
        1
176
     1
 90
        4
176
     1
 62
     7
176
     1
 62
   257
176
     1
 90
        1
176
     1
 90
        1
176
     1
 40
1.0
176
     1
 90
        8
176
     1
 62
     7
176
     1
 40
1.0
176
     1
 90
        1
176
     1
 90
        6
176
     1
 90
        2
176
     1
 62
     7
176
     1
 90
        5
176
     1
 90
        0
176
     1
 90
        0
176
     1
290
     0
176
     1
 90
        1
176
     1
 40
0.0
176
     1
 90
        0
176
     1
290
     0
176
     1
290
     1
176
     1
290
     1
176
     1
290
     0
176
     1
290
     0
176
     1
290
     0
176
     1
290
     0
176
     1
290
     0
176
     1
290
     0
176
     1
 90
       50
176
     1
 40
0.0
176
     1
 40
1.0
176
     1
 90
        0
176
     1
 62
    18
420
        0
176
     1
 90
       50
176
     1
 90
        3
176
     1
 62
     5
420
      255
176
     1
290
     0
176
     1
 90
       50
176
     1
 90
       50
176
     1
 90
       50
176
     1
290
     0
176
     1
 90
       50
176
     1
 62
   256
176
     0
 40
1.0
176
     0
 90
        2
176
     1
  1
strokes_ogs.tif
176
     1
290
     0
176
     1
 40
1.0
176
     1
 40
1.0
176
     1
  0
VISUALSTYLE
  5
2B
102
{ACAD_REACTORS
330
2A
102
}
330
2A
100
AcDbVisualStyle
  2
Flat
 70
     0
177
     3
291
     1
 70
    58
 90
        2
176
     1
 90
        1
176
     1
 90
        1
176
     1
 90
        2
176
     1
 40
0.6
176
     1
 40
30.0
176
     1
 62
     7
420
 16777215
176
     1
 90
        0
176
     1
 90
        0
176
     1
 62
     7
176
     1
 62
   257
176
     1
 90
        1
176
     1
 90
        1
176
     1
 40
1.0
176
     1
 90
        8
176
     1
 62
     7
176
     1
 40
1.0
176
     1
 90
        1
176
     1
 90
        6
176
     1
 90
        2
176
     1
 62
     7
176
     1
 90
        5
176
     1
 90
        0
176
     1
 90
        0
176
     1
290
     0
176
     1
 90
       13
176
     1
 40
0.0
176
     1
 90
        0
176
     1
290
     0
176
     1
290
     1
176
     1
290
     1
176
     1
290
     0
176
     1
290
     0
176
     1
290
     0
176
     1
290
     0
176
     1
290
     0
176
     1
290
     0
176
     1
 90
       50
176
     1
 40
0.0
176
     1
 40
1.0
176
     1
 90
        0
176
     1
 62
    18
420
        0
176
     1
 90
       50
176
     1
 90
        3
176
     1
 62
     5
420
      255
176
     1
290
     0
176
     1
 90
       50
176
     1
 90
       50
176
     1
 90
       50
176
     1
290
     0
176
     1
 90
       50
176
     1
 62
   256
176
     0
 40
1.0
176
     0
 90
        2
176
     1
  1
strokes_ogs.tif
176
     1
290
     0
176
     1
 40
1.0
176
     1
 40
1.0
176
     1
  0
VISUALSTYLE
  5
2C
102
{ACAD_REACTORS
330
2A
102
}
330
2A
100
AcDbVisualStyle
  2
FlatWithEdges
 70
     1
177
     3
291
     1
 70
    58
 90
        2
176
     1
 90
        1
176
     1
 90
        1
176
     1
 90
        2
176
     1
 40
0.6
176
     1
 40
30.0
176
     1
 62
     7
420
 16777215
176
     1
 90
        1
176
     1
 90
        0
176
     1
 62
     7
176
     1
 62
   257
176
     1
 90
        1
176
     1
 90
        1
176
     1
 40
1.0
176
     1
 90
        0
176
     1
 62
   257
176
     1
 40
1.0
176
     1
 90
        1
176
     1
 90
        6
176
     1
 90
        2
176
     1
 62
     7
176
     1
 90
        5
176
     1
 90
        0
176
     1
 90
        0
176
     1
290
     0
176
     1
 90
       13
176
     1
 40
0.0
176
     1
 90
        0
176
     1
290
     0
176
     1
290
     1
176
     1
290
     1
176
     1
290
     0
176
     1
290
     0
176
     1
290
     0
176
     1
290
     0
176
     1
290
     0
176
     1
290
     0
176
     1
 90
       50
176
     1
 40
0.0
176
     1
 40
1.0
176
     1
 90
        0
176
     1
 62
    18
420
        0
176
     1
 90
       50
176
     1
 90
        3
176
     1
 62
     5
420
      255
176
     1
290
     0
176
     1
 90
       50
176
     1
 90
       50
176
     1
 90
       50
176
     1
290
     0
176
     1
 90
       50
176
     1
 62
   256
176
     0
 40
1.0
176
     0
 90
        2
176
     1
  1
strokes_ogs.tif
176
     1
290
     0
176
     1
 40
1.0
176
     1
 40
1.0
176
     1
  0
VISUALSTYLE
  5
2D
102
{ACAD_REACTORS
330
2A
102
}
330
2A
100
AcDbVisualStyle
  2
Gouraud
 70
     2
177
     3
291
     1
 70
    58
 90
        2
176
     1
 90
        2
176
     1
 90
        1
176
     1
 90
        2
176
     1
 40
0.6
176
     1
 40
30.0
176
     1
 62
     7
420
 16777215
176
     1
 90
        0
176
     1
 90
        0
176
     1
 62
     7
176
     1
 62
   257
176
     1
 90
        1
176
     1
 90
        1
176
     1
 40
1.0
176
     1
 90
        0
176
     1
 62
     7
176
     1
 40
1.0
176
     1
 90
        1
176
     1
 90
        6
176
     1
 90
        2
176
     1
 62
     7
176
     1
 90
        5
176
     1
 90
        0
176
     1
 90
        0
176
     1
290
     0
176
     1
 90
       13
176
     1
 40
0.0
176
     1
 90
        0
176
     1
290
     0
176
     1
290
     1
176
     1
290
     1
176
     1
290
     0
176
     1
290
     0
176
     1
290
     0
176
     1
290
     0
176
     1
290
     0
176
     1
290
     0
176
     1
 90
       50
176
     1
 40
0.0
176
     1
 40
1.0
176
     1
 90
        0
176
     1
 62
    18
420
        0
176
     1
 90
       50
176
     1
 90
        3
176
     1
 62
     5
420
      255
176
     1
290
     0
176
     1
 90
       50
176
     1
 90
       50
176
     1
 90
       50
176
     1
290
     0
176
     1
 90
       50
176
     1
 62
   256
176
     0
 40
1.0
176
     0
 90
        2
176
     1
  1
strokes_ogs.tif
176
     1
290
     0
176
     1
 40
1.0
176
     1
 40
1.0
176
     1
  0
VISUALSTYLE
  5
2E
102
{ACAD_REACTORS
330
2A
102
}
330
2A
100
AcDbVisualStyle
  2
GouraudWithEdges
 70
     3
177
     3
291
     1
 70
    58
 90
        2
176
     1
 90
        2
176
     1
 90
        1
176
     1
 90
        2
176
     1
 40
0.6
176
     1
 40
30.0
176
     1
 62
     7
420
 16777215
176
     1
 90
        1
176
     1
 90
        0
176
     1
 62
     7
176
     1
 62
   257
176
     1
 90
        1
176
     1
 90
        1
176
     1
 40
1.0
176
     1
 90
        0
176
     1
 62
   257
176
     1
 40
1.0
176
     1
 90
        1
176
     1
 90
        6
176
     1
 90
        2
176
     1
 62
     7
176
     1
 90
        5
176
     1
 90
        0
176
     1
 90
        0
176
     1
290
     0
176
     1
 90
       13
176
     1
 40
0.0
176
     1
 90
        0
176
     1
290
     0
176
     1
290
     1
176
     1
290
     1
176
     1
290
     0
176
     1
290
     0
176
     1
290
     0
176
     1
290
     0
176
     1
290
     0
176
     1
290
     0
176
     1
 90
       50
176
     1
 40
0.0
176
     1
 40
1.0
176
     1
 90
        0
176
     1
 62
    18
420
        0
176
     1
 90
       50
176
     1
 90
        3
176
     1
 62
     5
420
      255
176
     1
290
     0
176
     1
 90
       50
176
     1
 90
       50
176
     1
 90
       50
176
     1
290
     0
176
     1
 90
       50
176
     1
 62
   256
176
     0
 40
1.0
176
     0
 90
        2
176
     1
  1
strokes_ogs.tif
176
     1
290
     0
176
     1
 40
1.0
176
     1
 40
1.0
176
     1
  0
VISUALSTYLE
  5
31
102
{ACAD_REACTORS
330
2A
102
}
330
2A
100
AcDbVisualStyle
  2
Hidden
 70
     6
177
     3
291
     0
 70
    58
 90
        1
176
     1
 90
        2
176
     1
 90
        2
176
     1
 90
        0
176
     1
 40
0.6
176
     1
 40
30.0
176
     1
 62
     7
420
 16777215
176
     1
 90
        2
176
     1
 90
        2
176
     1
 62
     7
176
     1
 62
   257
176
     1
 90
        2
176
     1
 90
        1
176
     1
 40
40.0
176
     1
 90
        0
176
     1
 62
   257
176
     1
 40
1.0
176
     1
 90
        1
176
     1
 90
        6
176
     1
 90
        2
176
     1
 62
     7
176
     1
 90
        3
176
     1
 90
        0
176
     1
 90
        0
176
     1
290
     0
176
     1
 90
        1
176
     1
 40
0.0
176
     1
 90
        0
176
     1
290
     0
176
     1
290
     1
176
     1
290
     1
176
     1
290
     0
176
     1
290
     0
176
     1
290
     0
176
     1
290
     0
176
     1
290
     0
176
     1
290
     0
176
     1
 90
       50
176
     1
 40
0.0
176
     1
 40
1.0
176
     1
 90
        0
176
     1
 62
    18
420
        0
176
     1
 90
       50
176
     1
 90
        3
176
     1
 62
     5
420
      255
176
     1
290
     0
176
     1
 90
       50
176
     1
 90
       50
176
     1
 90
       50
176
     1
290
     0
176
     1
 90
       50
176
     1
 62
   256
176
     0
 40
1.0
176
     0
 90
        2
176
     1
  1
strokes_ogs.tif
176
     1
290
     0
176
     1
 40
1.0
176
     1
 40
1.0
176
     1
  0
VISUALSTYLE
  5
3B
102
{ACAD_REACTORS
330
2A
102
}
330
2A
100
AcDbVisualStyle
  2
JitterOff
 70
    20
177
     3
291
     1
 70
    58
 90
        2
176
     0
 90
        2
176
     0
 90
        0
176
     0
 90
        0
176
     0
 40
0.6
176
     0
 40
30.0
176
     0
 62
     7
420
 16777215
176
     0
 90
        1
176
     0
 90
        4
176
     0
 62
     7
176
     0
 62
   257
176
     0
 90
        1
176
     0
 90
        1
176
     0
 40
1.0
176
     0
 90
       10
176
     2
 62
     7
176
     0
 40
1.0
176
     0
 90
        1
176
     0
 90
        6
176
     0
 90
        2
176
     0
 62
     7
176
     0
 90
        5
176
     0
 90
        0
176
     0
 90
        0
176
     0
290
     0
176
     0
 90
        1
176
     0
 40
0.0
176
     0
 90
        0
176
     0
290
     0
176
     0
290
     1
176
     0
290
     1
176
     0
290
     0
176
     0
290
     0
176
     0
290
     0
176
     0
290
     0
176
     0
290
     0
176
     0
290
     0
176
     0
 90
       50
176
     0
 40
0.0
176
     0
 40
1.0
176
     0
 90
        0
176
     0
 62
    18
420
        0
176
     0
 90
       50
176
     0
 90
        3
176
     0
 62
     5
420
      255
176
     0
290
     0
176
     0
 90
       50
176
     0
 90
       50
176
     0
 90
       50
176
     0
290
     0
176
     0
 90
       50
176
     0
 62
   256
176
     0
 40
1.0
176
     0
 90
        2
176
     0
  1
strokes_ogs.tif
176
     0
290
     0
176
     0
 40
1.0
176
     0
 40
1.0
176
     0
  0
VISUALSTYLE
  5
38
102
{ACAD_REACTORS
330
2A
102
}
330
2A
100
AcDbVisualStyle
  2
Linepattern
 70
    14
177
     3
291
     1
 70
    58
 90
        2
176
     1
 90
        2
176
     1
 90
        0
176
     1
 90
        0
176
     1
 40
0.6
176
     1
 40
30.0
176
     1
 62
     7
420
 16777215
176
     1
 90
        1
176
     1
 90
        4
176
     1
 62
     7
176
     1
 62
   257
176
     1
 90
        7
176
     1
 90
        7
176
     1
 40
1.0
176
     1
 90
        8
176
     1
 62
     7
176
     1
 40
1.0
176
     1
 90
        1
176
     1
 90
        6
176
     1
 90
        2
176
     1
 62
     7
176
     1
 90
        5
176
     1
 90
        0
176
     1
 90
        0
176
     1
290
     0
176
     1
 90
        1
176
     1
 40
0.0
176
     1
 90
        0
176
     1
290
     0
176
     1
290
     1
176
     1
290
     1
176
     1
290
     0
176
     1
290
     0
176
     1
290
     0
176
     1
290
     0
176
     1
290
     0
176
     1
290
     0
176
     1
 90
       50
176
     1
 40
0.0
176
     1
 40
1.0
176
     1
 90
        0
176
     1
 62
    18
420
        0
176
     1
 90
       50
176
     1
 90
        3
176
     1
 62
     5
420
      255
176
     1
290
     0
176
     1
 90
       50
176
     1
 90
       50
176
     1
 90
       50
176
     1
290
     0
176
     1
 90
       50
176
     1
 62
   256
176
     0
 40
1.0
176
     0
 90
        2
176
     1
  1
strokes_ogs.tif
176
     1
290
     0
176
     1
 40
1.0
176
     1
 40
1.0
176
     1
  0
VISUALSTYLE
  5
3C
102
{ACAD_REACTORS
330
2A
102
}
330
2A
100
AcDbVisualStyle
  2
OverhangOff
 70
    21
177
     3
291
     1
 70
    58
 90
        2
176
     0
 90
        2
176
     0
 90
        0
176
     0
 90
        0
176
     0
 40
0.6
176
     0
 40
30.0
176
     0
 62
     7
420
 16777215
176
     0
 90
        1
176
     0
 90
        4
176
     0
 62
     7
176
     0
 62
   257
176
     0
 90
        1
176
     0
 90
        1
176
     0
 40
1.0
176
     0
 90
        9
176
     2
 62
     7
176
     0
 40
1.0
176
     0
 90
        1
176
     0
 90
        6
176
     0
 90
        2
176
     0
 62
     7
176
     0
 90
        5
176
     0
 90
        0
176
     0
 90
        0
176
     0
290
     0
176
     0
 90
        1
176
     0
 40
0.0
176
     0
 90
        0
176
     0
290
     0
176
     0
290
     1
176
     0
290
     1
176
     0
290
     0
176
     0
290
     0
176
     0
290
     0
176
     0
290
     0
176
     0
290
     0
176
     0
290
     0
176
     0
 90
       50
176
     0
 40
0.0
176
     0
 40
1.0
176
     0
 90
        0
176
     0
 62
    18
420
        0
176
     0
 90
       50
176
     0
 90
        3
176
     0
 62
     5
420
      255
176
     0
290
     0
176
     0
 90
       50
176
     0
 90
       50
176
     0
 90
       50
176
     0
290
     0
176
     0
 90
       50
176
     0
 62
   256
176
     0
 40
1.0
176
     0
 90
        2
176
     0
  1
strokes_ogs.tif
176
     0
290
     0
176
     0
 40
1.0
176
     0
 40
1.0
176
     0
  0
VISUALSTYLE
  5
33
102
{ACAD_REACTORS
330
2A
102
}
330
2A
100
AcDbVisualStyle
  2
Realistic
 70
     8
177
     3
291
     0
 70
    58
 90
        2
176
     1
 90
        3
176
     1
 90
        0
176
     1
 90
        2
176
     1
 40
0.6
176
     1
 40
30.0
176
     1
 62
     7
420
 16777215
176
     1
 90
        0
176
     1
 90
        0
176
     1
 62
     7
176
     1
 62
   257
176
     1
 90
        1
176
     1
 90
        1
176
     1
 40
1.0
176
     1
 90
        8
176
     1
 62
   257
176
     1
 40
1.0
176
     1
 90
        1
176
     1
 90
        6
176
     1
 90
        2
176
     1
 62
     7
176
     1
 90
        3
176
     1
 90
        0
176
     1
 90
        0
176
     1
290
     0
176
     1
 90
       13
176
     1
 40
0.0
176
     1
 90
        0
176
     1
290
     0
176
     1
290
     1
176
     1
290
     1
176
     1
290
     0
176
     1
290
     0
176
     1
290
     0
176
     1
290
     0
176
     1
290
     0
176
     1
290
     0
176
     1
 90
       50
176
     1
 40
0.0
176
     1
 40
1.0
176
     1
 90
        0
176
     1
 62
    18
420
        0
176
     1
 90
       50
176
     1
 90
        3
176
     1
 62
     5
420
      255
176
     1
290
     0
176
     1
 90
       50
176
     1
 90
       50
176
     1
 90
       50
176
     1
290
     0
176
     1
 90
       50
176
     1
 62
   256
176
     0
 40
1.0
176
     0
 90
        2
176
     1
  1
strokes_ogs.tif
176
     1
290
     0
176
     1
 40
1.0
176
     1
 40
1.0
176
     1
  0
VISUALSTYLE
  5
42
102
{ACAD_REACTORS
330
2A
102
}
330
2A
100
AcDbVisualStyle
  2
Shaded
 70
    27
177
     3
291
     0
 70
    58
 90
        2
176
     1
 90
        2
176
     1
 90
        1
176
     1
 90
        2
176
     1
 40
0.6
176
     1
 40
30.0
176
     1
 62
     7
420
 16777215
176
     1
 90
        0
176
     1
 90
        4
176
     1
 62
     7
176
     1
 62
   257
176
     1
 90
        1
176
     1
 90
        1
176
     1
 40
1.0
176
     1
 90
        8
176
     1
 62
   257
176
     1
 40
1.0
176
     1
 90
        1
176
     1
 90
        6
176
     1
 90
        2
176
     1
 62
     8
420
  7895160
176
     1
 90
        3
176
     1
 90
        0
176
     1
 90
        0
176
     1
290
     0
176
     1
 90
        5
176
     1
 40
0.0
176
     1
 90
        0
176
     1
290
     0
176
     1
290
     1
176
     1
290
     1
176
     1
290
     0
176
     1
290
     0
176
     1
290
     0
176
     1
290
     0
176
     1
290
     0
176
     1
290
     0
176
     1
 90
       50
176
     1
 40
0.0
176
     1
 40
1.0
176
     1
 90
        0
176
     1
 62
    18
420
        0
176
     1
 90
       50
176
     1
 90
        3
176
     1
 62
     5
420
      255
176
     1
290
     0
176
     1
 90
       50
176
     1
 90
       50
176
     1
 90
       50
176
     1
290
     0
176
     1
 90
       50
176
     1
 62
   256
176
     0
 40
1.0
176
     0
 90
        2
176
     1
  1
strokes_ogs.tif
176
     1
290
     0
176
     1
 40
1.0
176
     1
 40
1.0
176
     1
  0
VISUALSTYLE
  5
41
102
{ACAD_REACTORS
330
2A
102
}
330
2A
100
AcDbVisualStyle
  2
Shaded with edges
 70
    26
177
     3
291
     0
 70
    58
 90
        2
176
     1
 90
        2
176
     1
 90
        1
176
     1
 90
        2
176
     1
 40
0.6
176
     1
 40
30.0
176
     1
 62
     7
420
 16777215
176
     1
 90
        1
176
     1
 90
       10
176
     1
 62
     7
176
     1
 62
   257
176
     1
 90
        2
176
     1
 90
        1
176
     1
 40
1.0
176
     1
 90
        8
176
     1
 62
   257
176
     1
 40
1.0
176
     1
 90
        1
176
     1
 90
        6
176
     1
 90
        2
176
     1
 62
     7
176
     1
 90
        3
176
     1
 90
        0
176
     1
 90
        0
176
     1
290
     0
176
     1
 90
        5
176
     1
 40
0.0
176
     1
 90
        0
176
     1
290
     0
176
     1
290
     1
176
     1
290
     1
176
     1
290
     0
176
     1
290
     0
176
     1
290
     0
176
     1
290
     0
176
     1
290
     0
176
     1
290
     0
176
     1
 90
       50
176
     1
 40
0.0
176
     1
 40
1.0
176
     1
 90
        0
176
     1
 62
    18
420
        0
176
     1
 90
       50
176
     1
 90
        3
176
     1
 62
     5
420
      255
176
     1
290
     0
176
     1
 90
       50
176
     1
 90
       50
176
     1
 90
       50
176
     1
290
     0
176
     1
 90
       50
176
     1
 62
   256
176
     0
 40
1.0
176
     0
 90
        2
176
     1
  1
strokes_ogs.tif
176
     1
290
     0
176
     1
 40
1.0
176
     1
 40
1.0
176
     1
  0
VISUALSTYLE
  5
3E
102
{ACAD_REACTORS
330
2A
102
}
330
2A
100
AcDbVisualStyle
  2
Shades of Gray
 70
    23
177
     3
291
     0
 70
    58
 90
        2
176
     1
 90
        2
176
     1
 90
        3
176
     1
 90
        0
176
     1
 40
0.6
176
     1
 40
30.0
176
     1
 62
     7
420
 16777215
176
     1
 90
        2
176
     1
 90
        2
176
     1
 62
     7
176
     1
 62
     7
176
     1
 90
        1
176
     1
 90
        1
176
     1
 40
40.0
176
     1
 90
        8
176
     1
 62
     7
176
     1
 40
1.0
176
     1
 90
        1
176
     1
 90
        6
176
     1
 90
        2
176
     1
 62
     7
176
     1
 90
        3
176
     1
 90
        0
176
     1
 90
        0
176
     1
290
     0
176
     1
 90
        1
176
     1
 40
0.0
176
     1
 90
        0
176
     1
290
     0
176
     1
290
     1
176
     1
290
     1
176
     1
290
     0
176
     1
290
     0
176
     1
290
     0
176
     1
290
     0
176
     1
290
     0
176
     1
290
     0
176
     1
 90
       50
176
     1
 40
0.0
176
     1
 40
1.0
176
     1
 90
        0
176
     1
 62
    18
420
        0
176
     1
 90
       50
176
     1
 90
        3
176
     1
 62
     5
420
      255
176
     1
290
     0
176
     1
 90
       50
176
     1
 90
       50
176
     1
 90
       50
176
     1
290
     0
176
     1
 90
       50
176
     1
 62
   256
176
     0
 40
1.0
176
     0
 90
        2
176
     1
  1
strokes_ogs.tif
176
     1
290
     0
176
     1
 40
1.0
176
     1
 40
1.0
176
     1
  0
VISUALSTYLE
  5
3F
102
{ACAD_REACTORS
330
2A
102
}
330
2A
100
AcDbVisualStyle
  2
Sketchy
 70
    24
177
     3
291
     0
 70
    58
 90
        1
176
     1
 90
        2
176
     1
 90
        2
176
     1
 90
        0
176
     1
 40
0.6
176
     1
 40
30.0
176
     1
 62
     7
420
 16777215
176
     1
 90
        2
176
     1
 90
        2
176
     1
 62
     7
176
     1
 62
     7
176
     1
 90
        1
176
     1
 90
        1
176
     1
 40
40.0
176
     1
 90
       11
176
     1
 62
     7
176
     1
 40
1.0
176
     1
 90
        1
176
     1
 90
        6
176
     1
 90
        2
176
     1
 62
     7
176
     1
 90
        6
176
     1
 90
        0
176
     1
 90
        0
176
     1
290
     0
176
     1
 90
        1
176
     1
 40
0.0
176
     1
 90
        0
176
     1
290
     0
176
     1
290
     1
176
     1
290
     1
176
     1
290
     0
176
     1
290
     0
176
     1
290
     0
176
     1
290
     0
176
     1
290
     0
176
     1
290
     0
176
     1
 90
       50
176
     1
 40
0.0
176
     1
 40
1.0
176
     1
 90
        0
176
     1
 62
    18
420
        0
176
     1
 90
       50
176
     1
 90
        3
176
     1
 62
     5
420
      255
176
     1
290
     0
176
     1
 90
       50
176
     1
 90
       50
176
     1
 90
       50
176
     1
290
     0
176
     1
 90
       50
176
     1
 62
   256
176
     0
 40
1.0
176
     0
 90
        2
176
     1
  1
strokes_ogs.tif
176
     1
290
     0
176
     1
 40
1.0
176
     1
 40
1.0
176
     1
  0
VISUALSTYLE
  5
37
102
{ACAD_REACTORS
330
2A
102
}
330
2A
100
AcDbVisualStyle
  2
Thicken
 70
    13
177
     3
291
     1
 70
    58
 90
        2
176
     1
 90
        2
176
     1
 90
        0
176
     1
 90
        0
176
     1
 40
0.6
176
     1
 40
30.0
176
     1
 62
     7
420
 16777215
176
     1
 90
        1
176
     1
 90
        4
176
     1
 62
     7
176
     1
 62
   257
176
     1
 90
        1
176
     1
 90
        1
176
     1
 40
1.0
176
     1
 90
       12
176
     1
 62
     7
176
     1
 40
1.0
176
     1
 90
        1
176
     1
 90
        6
176
     1
 90
        2
176
     1
 62
     7
176
     1
 90
        5
176
     1
 90
        0
176
     1
 90
        0
176
     1
290
     0
176
     1
 90
        1
176
     1
 40
0.0
176
     1
 90
        0
176
     1
290
     0
176
     1
290
     1
176
     1
290
     1
176
     1
290
     0
176
     1
290
     0
176
     1
290
     0
176
     1
290
     0
176
     1
290
     0
176
     1
290
     0
176
     1
 90
       50
176
     1
 40
0.0
176
     1
 40
1.0
176
     1
 90
        0
176
     1
 62
    18
420
        0
176
     1
 90
       50
176
     1
 90
        3
176
     1
 62
     5
420
      255
176
     1
290
     0
176
     1
 90
       50
176
     1
 90
       50
176
     1
 90
       50
176
     1
290
     0
176
     1
 90
       50
176
     1
 62
   256
176
     0
 40
1.0
176
     0
 90
        2
176
     1
  1
strokes_ogs.tif
176
     1
290
     0
176
     1
 40
1.0
176
     1
 40
1.0
176
     1
  0
VISUALSTYLE
  5
30
102
{ACAD_REACTORS
330
2A
102
}
330
2A
100
AcDbVisualStyle
  2
Wireframe
 70
     5
177
     3
291
     0
 70
    58
 90
        0
176
     1
 90
        2
176
     1
 90
        0
176
     1
 90
        0
176
     1
 40
0.6
176
     1
 40
30.0
176
     1
 62
     7
420
 16777215
176
     1
 90
        1
176
     1
 90
        4
176
     1
 62
     7
176
     1
 62
   257
176
     1
 90
        1
176
     1
 90
        1
176
     1
 40
1.0
176
     1
 90
        0
176
     1
 62
   257
176
     1
 40
1.0
176
     1
 90
        1
176
     1
 90
        6
176
     1
 90
        2
176
     1
 62
     7
176
     1
 90
        3
176
     1
 90
        0
176
     1
 90
        0
176
     1
290
     0
176
     1
 90
        1
176
     1
 40
0.0
176
     1
 90
        0
176
     1
290
     0
176
     1
290
     1
176
     1
290
     1
176
     1
290
     0
176
     1
290
     0
176
     1
290
     0
176
     1
290
     0
176
     1
290
     0
176
     1
290
     0
176
     1
 90
       50
176
     1
 40
0.0
176
     1
 40
1.0
176
     1
 90
        0
176
     1
 62
    18
420
        0
176
     1
 90
       50
176
     1
 90
        3
176
     1
 62
     5
420
      255
176
     1
290
     0
176
     1
 90
       50
176
     1
 90
       50
176
     1
 90
       50
176
     1
290
     0
176
     1
 90
       50
176
     1
 62
   256
176
     0
 40
1.0
176
     0
 90
        2
176
     1
  1
strokes_ogs.tif
176
     1
290
     0
176
     1
 40
1.0
176
     1
 40
1.0
176
     1
  0
VISUALSTYLE
  5
40
102
{ACAD_REACTORS
330
2A
102
}
330
2A
100
AcDbVisualStyle
  2
X-Ray
 70
    25
177
     3
291
     0
 70
    58
 90
        2
176
     1
 90
        2
176
     1
 90
        1
176
     1
 90
        1
176
     1
 40
0.5
176
     1
 40
30.0
176
     1
 62
     7
420
 16777215
176
     1
 90
        1
176
     1
 90
        0
176
     1
 62
     7
176
     1
 62
   257
176
     1
 90
        1
176
     1
 90
        1
176
     1
 40
1.0
176
     1
 90
        8
176
     1
 62
     7
176
     1
 40
1.0
176
     1
 90
        1
176
     1
 90
        6
176
     1
 90
        2
176
     1
 62
     7
176
     1
 90
        3
176
     1
 90
        0
176
     1
 90
        0
176
     1
290
     0
176
     1
 90
       13
176
     1
 40
0.0
176
     1
 90
        0
176
     1
290
     0
176
     1
290
     1
176
     1
290
     1
176
     1
290
     0
176
     1
290
     0
176
     1
290
     0
176
     1
290
     0
176
     1
290
     0
176
     1
290
     0
176
     1
 90
       50
176
     1
 40
0.0
176
     1
 40
1.0
176
     1
 90
        0
176
     1
 62
    18
420
        0
176
     1
 90
       50
176
     1
 90
        3
176
     1
 62
     5
420
      255
176
     1
290
     0
176
     1
 90
       50
176
     1
 90
       50
176
     1
 90
       50
176
     1
290
     0
176
     1
 90
       50
176
     1
 62
   256
176
     0
 40
1.0
176
     0
 90
        2
176
     1
  1
strokes_ogs.tif
176
     1
290
     0
176
     1
 40
1.0
176
     1
 40
1.0
176
     1
  0
DICTIONARYVAR
  5
386
102
{ACAD_REACTORS
330
385
102
}
330
385
100
DictionaryVariables
280
     0
  1
1:1
  0
ENDSEC
  0
EOF
