  0
SECTION
  2
HEADER
  9
$ACADVER
  1
AC1009
  9
$INSBASE
 10
0.000000
 20
0.000000
  9
$EXTMIN
 10
0.000000
 20
0.000000
  9
$EXTMAX
 10
297.000000
 20
210.000000
  9
$LIMMIN
 10
0.000000
 20
0.000000
  9
$LIMMAX
 10
297.000000
 20
210.000000
  9
$VIEWCTR
 10
148.500000
 20
105.000000
  9
$VIEWSIZE
 40
210.000000
  9
$PEXTMIN
 10
0.000000
 20
0.000000
 30
0.000000
  9
$PEXTMAX
 10
297.000000
 20
210.000000
 30
0.000000
  9
$SNAPMODE
 70
     0
  9
$SNAPUNIT
 10
1.000000
 20
1.000000
  9
$SNAPBASE
 10
0.000000
 20
0.000000
  9
$SNAPANG
 50
0.000000
  9
$SNAPISOPAIR
 70
     0
  9
$SNAPSTYLE
 70
     0
  9
$GRIDMODE
 70
     0
  9
$GRIDUNIT
 10
0.000000
 20
0.000000
  9
$ORTHOMODE
 70
     0
  9
$REGENMODE
 70
     1
  9
$FILLMODE
 70
     1
  9
$QTEXTMODE
 70
     0
  9
$DRAGMODE
 70
     2
  9
$LTSCALE
 40
0.250000
  9
$OSMODE
 70
     0
  9
$ATTMODE
 70
     1
  9
$TEXTSIZE
 40
4.000000
  9
$TRACEWID
 40
0.050000
  9
$TEXTSTYLE
  7
STANDARD
  9
$CLAYER
  8
0
  9
$CELTYPE
  6
BYLAYER
  9
$CECOLOR
 62
   256
  9
$DIMSCALE
 40
1.000000
  9
$DIMASZ
 40
1.000000
  9
$DIMEXO
 40
0.000000
  9
$DIMDLI
 40
0.500000
  9
$DIMRND
 40
0.000000
  9
$DIMDLE
 40
0.000000
  9
$DIMEXE
 40
0.000000
  9
$DIMTP
 40
0.000000
  9
$DIMTM
 40
0.000000
  9
$DIMTXT
 40
4.000000
  9
$DIMCEN
 40
0.000000
  9
$DIMTSZ
 40
0.000000
  9
$DIMTOL
 70
     0
  9
$DIMLIM
 70
     0
  9
$DIMTIH
 70
     1
  9
$DIMTOH
 70
     1
  9
$DIMSE1
 70
     0
  9
$DIMSE2
 70
     0
  9
$DIMTAD
 70
     0
  9
$DIMZIN
 70
     0
  9
$DIMBLK
  1

  9
$DIMASO
 70
     0
  9
$DIMSHO
 70
     0
  9
$DIMPOST
  1

  9
$DIMAPOST
  1

  9
$DIMALT
 70
     0
  9
$DIMALTD
 70
     0
  9
$DIMALTF
 40
25.400000
  9
$DIMLFAC
 40
1.000000
  9
$DIMTOFL
 70
     0
  9
$DIMTVP
 40
0.000000
  9
$DIMTIX
 70
     0
  9
$DIMSOXD
 70
     0
  9
$DIMSAH
 70
     0
  9
$DIMBLKL
  1

  9
$DIMBLKR
  1

  9
$LUNITS
 70
     2
  9
$LUPREC
 70
     2
  9
$AXISMODE
 70
     0
  9
$AXISUNIT
 10
1.000000
 20
1.000000
  9
$SKETCHINC
 40
0.000000
  9
$FILLETRAD
 40
0.000000
  9
$AUNITS
 70
     1
  9
$AUPREC
 70
     2
  9
$MENU
  1
ACAD
  9
$ELEVATION
 40
0.000000
  9
$THICKNESS
 40
0.000000
  9
$VIEWDIR
 10
0.000000
 20
0.000000
 30
1.000000
  9
$LIMCHECK
 70
     1
  9
$BLIPMODE
 70
     1
  9
$CHAMFERA
 40
0.000000
  9
$CHAMFERB
 40
0.000000
  9
$FASTZOOM
 70
     1
  9
$SKPOLY
 70
     0
  9
$TDCREATE
 40
0.000000
  9
$TDUPDATE
 40
0.000000
  9
$TDINDWG
 40
0.000000
  9
$TDUSRTIMER
 40
0.000000
  9
$USRTIMER
 70
     1
  9
$ANGBASE
 50
0.000000
  9
$ANGDIR
 70
     0
  9
$PDMODE
 70
     0
  9
$PDSIZE
 40
0.000000
  9
$PLINEWID
 40
0.000000
  9
$COORDS
 70
     2
  9
$USERI1
 70
     0
  9
$USERI2
 70
     0
  9
$USERI3
 70
     0
  9
$USERI4
 70
     0
  9
$USERI5
 70
     0
  9
$USERR1
 40
0.000000
  9
$USERR2
 40
0.000000
  9
$USERR3
 40
0.000000
  9
$USERR4
 40
0.000000
  9
$USERR5
 40
0.000000
  0
ENDSEC
  0
SECTION
  2
TABLES
  0
TABLE
  2
LTYPE
 70
     5
  0
LTYPE
  2
CONTINUOUS
 70
    64
  3
Solid line
 72
    65
 73
     0
 40
0.0
  0
LTYPE
  2
HIDDEN
 70
    64
  3
------------------------
 72
    65
 73
     2
 40
12.6
 49
8.4
 49
-4.2
  0
LTYPE
  2
DOT
 70
    64
  3
････････････････････････
 72
    65
 73
     2
 40
8.0
 49
6.0
 49
-2.0
  0
LTYPE
  2
DASHDOT
 70
    64
  3
--･--･--･--･--･--･--･--
 72
    65
 73
     4
 40
50.5
 49
30.0
 49
-9.0
 49
2.5
 49
-9.0
  0
LTYPE
  2
DIVIDE
 70
    64
  3
--･･--･･--･･--･･--･･--
 72
    65
 73
     6
 40
58.0
 49
30.0
 49
-9.0
 49
2.5
 49
-5.0
 49
2.5
 49
-9.0
  0
LTYPE
  2
ACAD_ISO06W100
 70
    64
  3
____ ... ____ ... ____
 72
    65
 73
     8
 40
37.5
 49
24.0
 49
-3.0
 49
0.5
 49
-3.0
 49
0.5
 49
-3.0
 49
0.5
 49
-3.0
  0
LTYPE
  2
ACAD_ISO14W100
 70
    64
  3
__ . . . __ . . . __ . . . 
 72
    65
 73
     8
 40
25.5
 49
12.0
 49
-3.0
 49
0.5
 49
-3.0
 49
0.5
 49
-3.0
 49
0.5
 49
-3.0
  0
ENDTAB
  0
TABLE
  2
LAYER
 70
4
  0
LAYER
  2
1
 70
64
 62
7
  6
CONTINUOUS
  0
LAYER
  2
2
 70
64
 62
134
  6
CONTINUOUS
  0
LAYER
  2
5
 70
64
 62
94
  6
CONTINUOUS
  0
LAYER
  2
10
 70
64
 62
3
  6
CONTINUOUS
  0
ENDTAB
  0
TABLE
  2
STYLE
 70
     2
  0
STYLE
  2
STANDARD
 70
    64
 40
0.0
 41
1.0
 50
0.0
 71
     0
 42
0.2
  3
TXT
  4

  0
STYLE
  2
KANJI
 70
    64
 40
0.0
 41
1.0
 50
0.0
 71
     0
 42
0.2
  3
TXT
  4
BIGFONT
  0
ENDTAB
  0
TABLE
  2
VIEW
 70
     0
  0
ENDTAB
  0
ENDSEC
  0
SECTION
  2
BLOCKS
  0
BLOCK
  8
2
 62
134
  6
CONTINUOUS
  2
*D1
 70
    65
 10
0.0
 20
0.0
  0
LINE
  8
2
 62
134
  6
CONTINUOUS
 10
241.804318
 20
168.251832
 11
253.804318
 21
168.251832
  0
LINE
  8
2
 62
134
  6
CONTINUOUS
 10
241.804318
 20
170.251832
 11
241.804318
 21
154.951832
  0
LINE
  8
2
 62
134
  6
CONTINUOUS
 10
253.804318
 20
170.251832
 11
253.804318
 21
157.393060
  0
LINE
  8
2
 62
134
  6
CONTINUOUS
 10
241.804318
 20
168.251832
 11
243.736170
 21
168.769470
  0
LINE
  8
2
 62
134
  6
CONTINUOUS
 10
241.804318
 20
168.251832
 11
243.736170
 21
167.734194
  0
LINE
  8
2
 62
134
  6
CONTINUOUS
 10
243.736170
 20
168.769470
 11
243.736170
 21
167.734194
  0
LINE
  8
2
 62
134
  6
CONTINUOUS
 10
242.287281
 20
168.251832
 11
243.253207
 21
168.510651
  0
LINE
  8
2
 62
134
  6
CONTINUOUS
 10
242.287281
 20
168.251832
 11
243.253207
 21
167.993013
  0
LINE
  8
2
 62
134
  6
CONTINUOUS
 10
243.253207
 20
168.510651
 11
243.253207
 21
167.993013
  0
LINE
  8
2
 62
134
  6
CONTINUOUS
 10
253.804318
 20
168.251832
 11
251.872466
 21
167.734194
  0
LINE
  8
2
 62
134
  6
CONTINUOUS
 10
253.804318
 20
168.251832
 11
251.872466
 21
168.769470
  0
LINE
  8
2
 62
134
  6
CONTINUOUS
 10
251.872466
 20
167.734194
 11
251.872466
 21
168.769470
  0
LINE
  8
2
 62
134
  6
CONTINUOUS
 10
253.321355
 20
168.251832
 11
252.355429
 21
167.993013
  0
LINE
  8
2
 62
134
  6
CONTINUOUS
 10
253.321355
 20
168.251832
 11
252.355429
 21
168.510651
  0
LINE
  8
2
 62
134
  6
CONTINUOUS
 10
252.355429
 20
167.993013
 11
252.355429
 21
168.510651
  0
TEXT
  8
2
 62
134
  6
CONTINUOUS
 10
245.804318
 20
168.251832
 40
4.000000
 41
1.000000
  1
12
  7
KANJI
 50
0.000000
 51
30.000000
  0
ENDBLK
  0
BLOCK
  8
2
 62
134
  6
CONTINUOUS
  2
*D2
 70
    65
 10
0.0
 20
0.0
  0
LINE
  8
2
 62
134
  6
CONTINUOUS
 10
253.804318
 20
168.251832
 11
265.804318
 21
168.251832
  0
LINE
  8
2
 62
134
  6
CONTINUOUS
 10
265.804318
 20
170.251832
 11
265.804318
 21
154.951832
  0
LINE
  8
2
 62
134
  6
CONTINUOUS
 10
253.804318
 20
168.251832
 11
255.736170
 21
168.769470
  0
LINE
  8
2
 62
134
  6
CONTINUOUS
 10
253.804318
 20
168.251832
 11
255.736170
 21
167.734194
  0
LINE
  8
2
 62
134
  6
CONTINUOUS
 10
255.736170
 20
168.769470
 11
255.736170
 21
167.734194
  0
LINE
  8
2
 62
134
  6
CONTINUOUS
 10
254.287281
 20
168.251832
 11
255.253207
 21
168.510651
  0
LINE
  8
2
 62
134
  6
CONTINUOUS
 10
254.287281
 20
168.251832
 11
255.253207
 21
167.993013
  0
LINE
  8
2
 62
134
  6
CONTINUOUS
 10
255.253207
 20
168.510651
 11
255.253207
 21
167.993013
  0
LINE
  8
2
 62
134
  6
CONTINUOUS
 10
265.804318
 20
168.251832
 11
263.872466
 21
167.734194
  0
LINE
  8
2
 62
134
  6
CONTINUOUS
 10
265.804318
 20
168.251832
 11
263.872466
 21
168.769470
  0
LINE
  8
2
 62
134
  6
CONTINUOUS
 10
263.872466
 20
167.734194
 11
263.872466
 21
168.769470
  0
LINE
  8
2
 62
134
  6
CONTINUOUS
 10
265.321355
 20
168.251832
 11
264.355429
 21
167.993013
  0
LINE
  8
2
 62
134
  6
CONTINUOUS
 10
265.321355
 20
168.251832
 11
264.355429
 21
168.510651
  0
LINE
  8
2
 62
134
  6
CONTINUOUS
 10
264.355429
 20
167.993013
 11
264.355429
 21
168.510651
  0
TEXT
  8
2
 62
134
  6
CONTINUOUS
 10
257.804318
 20
168.251832
 40
4.000000
 41
1.000000
  1
12
  7
KANJI
 50
0.000000
 51
30.000000
  0
ENDBLK
  0
BLOCK
  8
2
 62
134
  6
CONTINUOUS
  2
*D3
 70
    65
 10
0.0
 20
0.0
  0
LINE
  8
2
 62
134
  6
CONTINUOUS
 10
241.804318
 20
178.251832
 11
265.804318
 21
178.251832
  0
LINE
  8
2
 62
134
  6
CONTINUOUS
 10
241.804318
 20
180.251832
 11
241.804318
 21
154.951832
  0
LINE
  8
2
 62
134
  6
CONTINUOUS
 10
265.804318
 20
180.251832
 11
265.804318
 21
154.951832
  0
LINE
  8
2
 62
134
  6
CONTINUOUS
 10
241.804318
 20
178.251832
 11
243.736170
 21
178.769470
  0
LINE
  8
2
 62
134
  6
CONTINUOUS
 10
241.804318
 20
178.251832
 11
243.736170
 21
177.734194
  0
LINE
  8
2
 62
134
  6
CONTINUOUS
 10
243.736170
 20
178.769470
 11
243.736170
 21
177.734194
  0
LINE
  8
2
 62
134
  6
CONTINUOUS
 10
242.287281
 20
178.251832
 11
243.253207
 21
178.510651
  0
LINE
  8
2
 62
134
  6
CONTINUOUS
 10
242.287281
 20
178.251832
 11
243.253207
 21
177.993013
  0
LINE
  8
2
 62
134
  6
CONTINUOUS
 10
243.253207
 20
178.510651
 11
243.253207
 21
177.993013
  0
LINE
  8
2
 62
134
  6
CONTINUOUS
 10
265.804318
 20
178.251832
 11
263.872466
 21
177.734194
  0
LINE
  8
2
 62
134
  6
CONTINUOUS
 10
265.804318
 20
178.251832
 11
263.872466
 21
178.769470
  0
LINE
  8
2
 62
134
  6
CONTINUOUS
 10
263.872466
 20
177.734194
 11
263.872466
 21
178.769470
  0
LINE
  8
2
 62
134
  6
CONTINUOUS
 10
265.321355
 20
178.251832
 11
264.355429
 21
177.993013
  0
LINE
  8
2
 62
134
  6
CONTINUOUS
 10
265.321355
 20
178.251832
 11
264.355429
 21
178.510651
  0
LINE
  8
2
 62
134
  6
CONTINUOUS
 10
264.355429
 20
177.993013
 11
264.355429
 21
178.510651
  0
TEXT
  8
2
 62
134
  6
CONTINUOUS
 10
253.466616
 20
178.251832
 40
4.000000
 41
1.000000
  1
24
  7
KANJI
 50
0.000000
 51
30.000000
  0
ENDBLK
  0
BLOCK
  8
2
 62
134
  6
CONTINUOUS
  2
*D4
 70
    65
 10
0.0
 20
0.0
  0
LINE
  8
2
 62
134
  6
CONTINUOUS
 10
245.804318
 20
107.872498
 11
261.804318
 21
107.872498
  0
LINE
  8
2
 62
134
  6
CONTINUOUS
 10
245.804318
 20
105.872498
 11
245.804318
 21
132.508239
  0
LINE
  8
2
 62
134
  6
CONTINUOUS
 10
261.804318
 20
105.872498
 11
261.804318
 21
132.508239
  0
LINE
  8
2
 62
134
  6
CONTINUOUS
 10
245.804318
 20
107.872498
 11
247.736170
 21
108.390136
  0
LINE
  8
2
 62
134
  6
CONTINUOUS
 10
245.804318
 20
107.872498
 11
247.736170
 21
107.354860
  0
LINE
  8
2
 62
134
  6
CONTINUOUS
 10
247.736170
 20
108.390136
 11
247.736170
 21
107.354860
  0
LINE
  8
2
 62
134
  6
CONTINUOUS
 10
246.287281
 20
107.872498
 11
247.253207
 21
108.131317
  0
LINE
  8
2
 62
134
  6
CONTINUOUS
 10
246.287281
 20
107.872498
 11
247.253207
 21
107.613679
  0
LINE
  8
2
 62
134
  6
CONTINUOUS
 10
247.253207
 20
108.131317
 11
247.253207
 21
107.613679
  0
LINE
  8
2
 62
134
  6
CONTINUOUS
 10
261.804318
 20
107.872498
 11
259.872466
 21
107.354860
  0
LINE
  8
2
 62
134
  6
CONTINUOUS
 10
261.804318
 20
107.872498
 11
259.872466
 21
108.390136
  0
LINE
  8
2
 62
134
  6
CONTINUOUS
 10
259.872466
 20
107.354860
 11
259.872466
 21
108.390136
  0
LINE
  8
2
 62
134
  6
CONTINUOUS
 10
261.321355
 20
107.872498
 11
260.355429
 21
107.613679
  0
LINE
  8
2
 62
134
  6
CONTINUOUS
 10
261.321355
 20
107.872498
 11
260.355429
 21
108.131317
  0
LINE
  8
2
 62
134
  6
CONTINUOUS
 10
260.355429
 20
107.613679
 11
260.355429
 21
108.131317
  0
TEXT
  8
2
 62
134
  6
CONTINUOUS
 10
251.804318
 20
107.872498
 40
4.000000
 41
1.000000
  1
16
  7
KANJI
 50
0.000000
 51
30.000000
  0
ENDBLK
  0
BLOCK
  8
2
 62
134
  6
CONTINUOUS
  2
*D5
 70
    65
 10
0.0
 20
0.0
  0
LINE
  8
2
 62
134
  6
CONTINUOUS
 10
123.445633
 20
159.732679
 11
188.911491
 21
159.732679
  0
LINE
  8
2
 62
134
  6
CONTINUOUS
 10
123.445633
 20
161.732679
 11
123.445633
 21
145.101832
  0
LINE
  8
2
 62
134
  6
CONTINUOUS
 10
188.911491
 20
161.732679
 11
188.911491
 21
151.901832
  0
LINE
  8
2
 62
134
  6
CONTINUOUS
 10
123.445633
 20
159.732679
 11
125.377485
 21
160.250317
  0
LINE
  8
2
 62
134
  6
CONTINUOUS
 10
123.445633
 20
159.732679
 11
125.377485
 21
159.215041
  0
LINE
  8
2
 62
134
  6
CONTINUOUS
 10
125.377485
 20
160.250317
 11
125.377485
 21
159.215041
  0
LINE
  8
2
 62
134
  6
CONTINUOUS
 10
123.928596
 20
159.732679
 11
124.894522
 21
159.991498
  0
LINE
  8
2
 62
134
  6
CONTINUOUS
 10
123.928596
 20
159.732679
 11
124.894522
 21
159.473860
  0
LINE
  8
2
 62
134
  6
CONTINUOUS
 10
124.894522
 20
159.991498
 11
124.894522
 21
159.473860
  0
LINE
  8
2
 62
134
  6
CONTINUOUS
 10
188.911491
 20
159.732679
 11
186.979639
 21
159.215041
  0
LINE
  8
2
 62
134
  6
CONTINUOUS
 10
188.911491
 20
159.732679
 11
186.979639
 21
160.250317
  0
LINE
  8
2
 62
134
  6
CONTINUOUS
 10
186.979639
 20
159.215041
 11
186.979639
 21
160.250317
  0
LINE
  8
2
 62
134
  6
CONTINUOUS
 10
188.428528
 20
159.732679
 11
187.462602
 21
159.473860
  0
LINE
  8
2
 62
134
  6
CONTINUOUS
 10
188.428528
 20
159.732679
 11
187.462602
 21
159.991498
  0
LINE
  8
2
 62
134
  6
CONTINUOUS
 10
187.462602
 20
159.473860
 11
187.462602
 21
159.991498
  0
TEXT
  8
2
 62
134
  6
CONTINUOUS
 10
134.897814
 20
159.732679
 40
4.000000
 41
1.000000
  1
ｹｰﾌﾞﾙ長（標準2m）
  7
KANJI
 50
0.000000
 51
30.000000
  0
ENDBLK
  0
BLOCK
  8
2
 62
134
  6
CONTINUOUS
  2
*D6
 70
    65
 10
0.0
 20
0.0
  0
LINE
  8
2
 62
134
  6
CONTINUOUS
 10
169.106206
 20
126.751832
 11
169.106206
 21
150.963860
  0
LINE
  8
2
 62
134
  6
CONTINUOUS
 10
169.106206
 20
134.751832
 11
169.623844
 21
132.819981
  0
LINE
  8
2
 62
134
  6
CONTINUOUS
 10
169.106206
 20
134.751832
 11
168.588568
 21
132.819981
  0
LINE
  8
2
 62
134
  6
CONTINUOUS
 10
169.623844
 20
132.819981
 11
168.588568
 21
132.819981
  0
LINE
  8
2
 62
134
  6
CONTINUOUS
 10
169.106206
 20
134.268869
 11
169.365025
 21
133.302943
  0
LINE
  8
2
 62
134
  6
CONTINUOUS
 10
169.106206
 20
134.268869
 11
168.847387
 21
133.302943
  0
LINE
  8
2
 62
134
  6
CONTINUOUS
 10
169.365025
 20
133.302943
 11
168.847387
 21
133.302943
  0
LINE
  8
2
 62
134
  6
CONTINUOUS
 10
169.106206
 20
141.751832
 11
168.588568
 21
143.683684
  0
LINE
  8
2
 62
134
  6
CONTINUOUS
 10
169.106206
 20
141.751832
 11
169.623844
 21
143.683684
  0
LINE
  8
2
 62
134
  6
CONTINUOUS
 10
168.588568
 20
143.683684
 11
169.623844
 21
143.683684
  0
LINE
  8
2
 62
134
  6
CONTINUOUS
 10
169.106206
 20
142.234795
 11
168.847387
 21
143.200721
  0
LINE
  8
2
 62
134
  6
CONTINUOUS
 10
169.106206
 20
142.234795
 11
169.365025
 21
143.200721
  0
LINE
  8
2
 62
134
  6
CONTINUOUS
 10
168.847387
 20
143.200721
 11
169.365025
 21
143.200721
  0
TEXT
  8
2
 62
134
  6
CONTINUOUS
 10
169.106206
 20
144.963860
 40
4.000000
 41
1.000000
  1
φ7
  7
KANJI
 50
90.000000
 51
0.000000
  0
ENDBLK
  0
BLOCK
  8
2
 62
134
  6
CONTINUOUS
  2
*D7
 70
    65
 10
0.0
 20
0.0
  0
LINE
  8
2
 62
134
  6
CONTINUOUS
 10
220.469342
 20
159.711597
 11
226.469342
 21
159.711597
  0
LINE
  8
2
 62
134
  6
CONTINUOUS
 10
220.469342
 20
161.711597
 11
220.469342
 21
153.001832
  0
LINE
  8
2
 62
134
  6
CONTINUOUS
 10
226.469342
 20
161.711597
 11
226.469342
 21
153.001832
  0
LINE
  8
2
 62
134
  6
CONTINUOUS
 10
220.469342
 20
159.711597
 11
222.401194
 21
160.229235
  0
LINE
  8
2
 62
134
  6
CONTINUOUS
 10
220.469342
 20
159.711597
 11
222.401194
 21
159.193959
  0
LINE
  8
2
 62
134
  6
CONTINUOUS
 10
222.401194
 20
160.229235
 11
222.401194
 21
159.193959
  0
LINE
  8
2
 62
134
  6
CONTINUOUS
 10
220.952305
 20
159.711597
 11
221.918231
 21
159.970416
  0
LINE
  8
2
 62
134
  6
CONTINUOUS
 10
220.952305
 20
159.711597
 11
221.918231
 21
159.452778
  0
LINE
  8
2
 62
134
  6
CONTINUOUS
 10
221.918231
 20
159.970416
 11
221.918231
 21
159.452778
  0
LINE
  8
2
 62
134
  6
CONTINUOUS
 10
226.469342
 20
159.711597
 11
224.537491
 21
159.193959
  0
LINE
  8
2
 62
134
  6
CONTINUOUS
 10
226.469342
 20
159.711597
 11
224.537491
 21
160.229235
  0
LINE
  8
2
 62
134
  6
CONTINUOUS
 10
224.537491
 20
159.193959
 11
224.537491
 21
160.229235
  0
LINE
  8
2
 62
134
  6
CONTINUOUS
 10
225.986379
 20
159.711597
 11
225.020454
 21
159.452778
  0
LINE
  8
2
 62
134
  6
CONTINUOUS
 10
225.986379
 20
159.711597
 11
225.020454
 21
159.970416
  0
LINE
  8
2
 62
134
  6
CONTINUOUS
 10
225.020454
 20
159.452778
 11
225.020454
 21
159.970416
  0
TEXT
  8
2
 62
134
  6
CONTINUOUS
 10
222.469342
 20
159.711597
 40
4.000000
 41
1.000000
  1
6
  7
KANJI
 50
0.000000
 51
30.000000
  0
ENDBLK
  0
BLOCK
  8
2
 62
134
  6
CONTINUOUS
  2
*D8
 70
    65
 10
0.0
 20
0.0
  0
LINE
  8
2
 62
134
  6
CONTINUOUS
 10
106.445633
 20
168.251832
 11
123.445633
 21
168.251832
  0
LINE
  8
2
 62
134
  6
CONTINUOUS
 10
106.445633
 20
170.251832
 11
106.445633
 21
154.951832
  0
LINE
  8
2
 62
134
  6
CONTINUOUS
 10
123.445633
 20
170.251832
 11
123.445633
 21
145.101832
  0
LINE
  8
2
 62
134
  6
CONTINUOUS
 10
106.445633
 20
168.251832
 11
108.377485
 21
168.769470
  0
LINE
  8
2
 62
134
  6
CONTINUOUS
 10
106.445633
 20
168.251832
 11
108.377485
 21
167.734194
  0
LINE
  8
2
 62
134
  6
CONTINUOUS
 10
108.377485
 20
168.769470
 11
108.377485
 21
167.734194
  0
LINE
  8
2
 62
134
  6
CONTINUOUS
 10
106.928596
 20
168.251832
 11
107.894522
 21
168.510651
  0
LINE
  8
2
 62
134
  6
CONTINUOUS
 10
106.928596
 20
168.251832
 11
107.894522
 21
167.993013
  0
LINE
  8
2
 62
134
  6
CONTINUOUS
 10
107.894522
 20
168.510651
 11
107.894522
 21
167.993013
  0
LINE
  8
2
 62
134
  6
CONTINUOUS
 10
123.445633
 20
168.251832
 11
121.513781
 21
167.734194
  0
LINE
  8
2
 62
134
  6
CONTINUOUS
 10
123.445633
 20
168.251832
 11
121.513781
 21
168.769470
  0
LINE
  8
2
 62
134
  6
CONTINUOUS
 10
121.513781
 20
167.734194
 11
121.513781
 21
168.769470
  0
LINE
  8
2
 62
134
  6
CONTINUOUS
 10
122.962670
 20
168.251832
 11
121.996744
 21
167.993013
  0
LINE
  8
2
 62
134
  6
CONTINUOUS
 10
122.962670
 20
168.251832
 11
121.996744
 21
168.510651
  0
LINE
  8
2
 62
134
  6
CONTINUOUS
 10
121.996744
 20
167.993013
 11
121.996744
 21
168.510651
  0
TEXT
  8
2
 62
134
  6
CONTINUOUS
 10
112.945633
 20
168.251832
 40
4.000000
 41
1.000000
  1
17
  7
KANJI
 50
0.000000
 51
30.000000
  0
ENDBLK
  0
BLOCK
  8
2
 62
134
  6
CONTINUOUS
  2
*D9
 70
    65
 10
0.0
 20
0.0
  0
LINE
  8
2
 62
134
  6
CONTINUOUS
 10
57.945633
 20
168.251832
 11
28.873309
 21
168.251832
  0
LINE
  8
2
 62
134
  6
CONTINUOUS
 10
57.945633
 20
168.251832
 11
56.013781
 21
167.734194
  0
LINE
  8
2
 62
134
  6
CONTINUOUS
 10
57.945633
 20
168.251832
 11
56.013781
 21
168.769470
  0
LINE
  8
2
 62
134
  6
CONTINUOUS
 10
56.013781
 20
167.734194
 11
56.013781
 21
168.769470
  0
LINE
  8
2
 62
134
  6
CONTINUOUS
 10
57.462670
 20
168.251832
 11
56.496744
 21
167.993013
  0
LINE
  8
2
 62
134
  6
CONTINUOUS
 10
57.462670
 20
168.251832
 11
56.496744
 21
168.510651
  0
LINE
  8
2
 62
134
  6
CONTINUOUS
 10
56.496744
 20
167.993013
 11
56.496744
 21
168.510651
  0
TEXT
  8
2
 62
134
  6
CONTINUOUS
 10
35.490275
 20
168.251832
 40
4.000000
 41
1.000000
  1
測定距離
  7
KANJI
 50
0.000000
 51
30.000000
  0
ENDBLK
  0
BLOCK
  8
2
 62
134
  6
CONTINUOUS
  2
*D10
 70
    65
 10
0.0
 20
0.0
  0
LINE
  8
2
 62
134
  6
CONTINUOUS
 10
57.945633
 20
168.251832
 11
106.445633
 21
168.251832
  0
LINE
  8
2
 62
134
  6
CONTINUOUS
 10
57.945633
 20
170.251832
 11
57.945633
 21
150.971086
  0
LINE
  8
2
 62
134
  6
CONTINUOUS
 10
106.445633
 20
170.251832
 11
106.445633
 21
154.951832
  0
LINE
  8
2
 62
134
  6
CONTINUOUS
 10
57.945633
 20
168.251832
 11
59.877485
 21
168.769470
  0
LINE
  8
2
 62
134
  6
CONTINUOUS
 10
57.945633
 20
168.251832
 11
59.877485
 21
167.734194
  0
LINE
  8
2
 62
134
  6
CONTINUOUS
 10
59.877485
 20
168.769470
 11
59.877485
 21
167.734194
  0
LINE
  8
2
 62
134
  6
CONTINUOUS
 10
58.428596
 20
168.251832
 11
59.394522
 21
168.510651
  0
LINE
  8
2
 62
134
  6
CONTINUOUS
 10
58.428596
 20
168.251832
 11
59.394522
 21
167.993013
  0
LINE
  8
2
 62
134
  6
CONTINUOUS
 10
59.394522
 20
168.510651
 11
59.394522
 21
167.993013
  0
LINE
  8
2
 62
134
  6
CONTINUOUS
 10
106.445633
 20
168.251832
 11
104.513781
 21
167.734194
  0
LINE
  8
2
 62
134
  6
CONTINUOUS
 10
106.445633
 20
168.251832
 11
104.513781
 21
168.769470
  0
LINE
  8
2
 62
134
  6
CONTINUOUS
 10
104.513781
 20
167.734194
 11
104.513781
 21
168.769470
  0
LINE
  8
2
 62
134
  6
CONTINUOUS
 10
105.962670
 20
168.251832
 11
104.996744
 21
167.993013
  0
LINE
  8
2
 62
134
  6
CONTINUOUS
 10
105.962670
 20
168.251832
 11
104.996744
 21
168.510651
  0
LINE
  8
2
 62
134
  6
CONTINUOUS
 10
104.996744
 20
167.993013
 11
104.996744
 21
168.510651
  0
TEXT
  8
2
 62
134
  6
CONTINUOUS
 10
78.195633
 20
168.251832
 40
4.000000
 41
1.000000
  1
48.5
  7
KANJI
 50
0.000000
 51
30.000000
  0
ENDBLK
  0
BLOCK
  8
2
 62
134
  6
CONTINUOUS
  2
*D11
 70
    65
 10
0.0
 20
0.0
  0
LINE
  8
2
 62
134
  6
CONTINUOUS
 10
79.815849
 20
148.251832
 11
79.815849
 21
128.251832
  0
LINE
  8
2
 62
134
  6
CONTINUOUS
 10
81.815849
 20
148.251832
 11
66.608670
 21
148.251832
  0
LINE
  8
2
 62
134
  6
CONTINUOUS
 10
81.815849
 20
128.251832
 11
66.865383
 21
128.251832
  0
LINE
  8
2
 62
134
  6
CONTINUOUS
 10
79.815849
 20
148.251832
 11
80.333487
 21
146.319980
  0
LINE
  8
2
 62
134
  6
CONTINUOUS
 10
79.815849
 20
148.251832
 11
79.298211
 21
146.319980
  0
LINE
  8
2
 62
134
  6
CONTINUOUS
 10
80.333487
 20
146.319980
 11
79.298211
 21
146.319980
  0
LINE
  8
2
 62
134
  6
CONTINUOUS
 10
79.815849
 20
147.768869
 11
80.074668
 21
146.802943
  0
LINE
  8
2
 62
134
  6
CONTINUOUS
 10
79.815849
 20
147.768869
 11
79.557030
 21
146.802943
  0
LINE
  8
2
 62
134
  6
CONTINUOUS
 10
80.074668
 20
146.802943
 11
79.557030
 21
146.802943
  0
LINE
  8
2
 62
134
  6
CONTINUOUS
 10
79.815849
 20
128.251832
 11
79.298211
 21
130.183684
  0
LINE
  8
2
 62
134
  6
CONTINUOUS
 10
79.815849
 20
128.251832
 11
80.333487
 21
130.183684
  0
LINE
  8
2
 62
134
  6
CONTINUOUS
 10
79.298211
 20
130.183684
 11
80.333487
 21
130.183684
  0
LINE
  8
2
 62
134
  6
CONTINUOUS
 10
79.815849
 20
128.734795
 11
79.557030
 21
129.700721
  0
LINE
  8
2
 62
134
  6
CONTINUOUS
 10
79.815849
 20
128.734795
 11
80.074668
 21
129.700721
  0
LINE
  8
2
 62
134
  6
CONTINUOUS
 10
79.557030
 20
129.700721
 11
80.074668
 21
129.700721
  0
TEXT
  8
2
 62
134
  6
CONTINUOUS
 10
79.815849
 20
139.751832
 40
4.000000
 41
1.000000
  1
20
  7
KANJI
 50
90.000000
 51
30.000000
  0
ENDBLK
  0
BLOCK
  8
2
 62
134
  6
CONTINUOUS
  2
*D12
 70
    65
 10
0.0
 20
0.0
  0
LINE
  8
2
 62
134
  6
CONTINUOUS
 10
53.945633
 20
158.535098
 11
65.945633
 21
158.535098
  0
LINE
  8
2
 62
134
  6
CONTINUOUS
 10
57.945633
 20
160.535098
 11
57.945633
 21
151.251832
  0
LINE
  8
2
 62
134
  6
CONTINUOUS
 10
61.945633
 20
160.535098
 11
61.945633
 21
152.972538
  0
LINE
  8
2
 62
134
  6
CONTINUOUS
 10
57.945633
 20
158.535098
 11
56.013781
 21
158.017460
  0
LINE
  8
2
 62
134
  6
CONTINUOUS
 10
57.945633
 20
158.535098
 11
56.013781
 21
159.052736
  0
LINE
  8
2
 62
134
  6
CONTINUOUS
 10
56.013781
 20
158.017460
 11
56.013781
 21
159.052736
  0
LINE
  8
2
 62
134
  6
CONTINUOUS
 10
57.462670
 20
158.535098
 11
56.496744
 21
158.276279
  0
LINE
  8
2
 62
134
  6
CONTINUOUS
 10
57.462670
 20
158.535098
 11
56.496744
 21
158.793917
  0
LINE
  8
2
 62
134
  6
CONTINUOUS
 10
56.496744
 20
158.276279
 11
56.496744
 21
158.793917
  0
LINE
  8
2
 62
134
  6
CONTINUOUS
 10
61.945633
 20
158.535098
 11
63.877485
 21
159.052736
  0
LINE
  8
2
 62
134
  6
CONTINUOUS
 10
61.945633
 20
158.535098
 11
63.877485
 21
158.017460
  0
LINE
  8
2
 62
134
  6
CONTINUOUS
 10
63.877485
 20
159.052736
 11
63.877485
 21
158.017460
  0
LINE
  8
2
 62
134
  6
CONTINUOUS
 10
62.428596
 20
158.535098
 11
63.394522
 21
158.793917
  0
LINE
  8
2
 62
134
  6
CONTINUOUS
 10
62.428596
 20
158.535098
 11
63.394522
 21
158.276279
  0
LINE
  8
2
 62
134
  6
CONTINUOUS
 10
63.394522
 20
158.793917
 11
63.394522
 21
158.276279
  0
TEXT
  8
2
 62
134
  6
CONTINUOUS
 10
58.877485
 20
158.535098
 40
4.000000
 41
1.000000
  1
4
  7
KANJI
 50
0.000000
 51
30.000000
  0
ENDBLK
  0
BLOCK
  8
2
 62
134
  6
CONTINUOUS
  2
*D13
 70
    65
 10
0.0
 20
0.0
  0
LINE
  8
2
 62
134
  6
CONTINUOUS
 10
32.944695
 20
158.535098
 11
57.944695
 21
158.535098
  0
LINE
  8
2
 62
134
  6
CONTINUOUS
 10
32.944695
 20
159.535098
 11
32.944695
 21
147.751832
  0
LINE
  8
2
 62
134
  6
CONTINUOUS
 10
57.944695
 20
159.535098
 11
57.944695
 21
148.251832
  0
LINE
  8
2
 62
134
  6
CONTINUOUS
 10
32.944695
 20
158.535098
 11
34.876546
 21
159.052736
  0
LINE
  8
2
 62
134
  6
CONTINUOUS
 10
32.944695
 20
158.535098
 11
34.876546
 21
158.017460
  0
LINE
  8
2
 62
134
  6
CONTINUOUS
 10
34.876546
 20
159.052736
 11
34.876546
 21
158.017460
  0
LINE
  8
2
 62
134
  6
CONTINUOUS
 10
33.427658
 20
158.535098
 11
34.393583
 21
158.793917
  0
LINE
  8
2
 62
134
  6
CONTINUOUS
 10
33.427658
 20
158.535098
 11
34.393583
 21
158.276279
  0
LINE
  8
2
 62
134
  6
CONTINUOUS
 10
34.393583
 20
158.793917
 11
34.393583
 21
158.276279
  0
LINE
  8
2
 62
134
  6
CONTINUOUS
 10
57.944695
 20
158.535098
 11
56.012843
 21
158.017460
  0
LINE
  8
2
 62
134
  6
CONTINUOUS
 10
57.944695
 20
158.535098
 11
56.012843
 21
159.052736
  0
LINE
  8
2
 62
134
  6
CONTINUOUS
 10
56.012843
 20
158.017460
 11
56.012843
 21
159.052736
  0
LINE
  8
2
 62
134
  6
CONTINUOUS
 10
57.461732
 20
158.535098
 11
56.495806
 21
158.276279
  0
LINE
  8
2
 62
134
  6
CONTINUOUS
 10
57.461732
 20
158.535098
 11
56.495806
 21
158.793917
  0
LINE
  8
2
 62
134
  6
CONTINUOUS
 10
56.495806
 20
158.276279
 11
56.495806
 21
158.793917
  0
TEXT
  8
2
 62
134
  6
CONTINUOUS
 10
43.444695
 20
158.535098
 40
4.000000
 41
1.000000
  1
25
  7
KANJI
 50
0.000000
 51
0.000000
  0
ENDBLK
  0
BLOCK
  8
2
 62
134
  6
CONTINUOUS
  2
*D14
 70
    65
 10
0.0
 20
0.0
  0
LINE
  8
2
 62
134
  6
CONTINUOUS
 10
272.866518
 20
147.051832
 11
272.866518
 21
129.451832
  0
LINE
  8
2
 62
134
  6
CONTINUOUS
 10
274.866518
 20
147.051832
 11
256.688188
 21
147.051832
  0
LINE
  8
2
 62
134
  6
CONTINUOUS
 10
274.866518
 20
129.451832
 11
256.562271
 21
129.451832
  0
LINE
  8
2
 62
134
  6
CONTINUOUS
 10
272.866518
 20
147.051832
 11
273.384156
 21
145.119981
  0
LINE
  8
2
 62
134
  6
CONTINUOUS
 10
272.866518
 20
147.051832
 11
272.348880
 21
145.119981
  0
LINE
  8
2
 62
134
  6
CONTINUOUS
 10
273.384156
 20
145.119981
 11
272.348880
 21
145.119981
  0
LINE
  8
2
 62
134
  6
CONTINUOUS
 10
272.866518
 20
146.568869
 11
273.125337
 21
145.602943
  0
LINE
  8
2
 62
134
  6
CONTINUOUS
 10
272.866518
 20
146.568869
 11
272.607699
 21
145.602943
  0
LINE
  8
2
 62
134
  6
CONTINUOUS
 10
273.125337
 20
145.602943
 11
272.607699
 21
145.602943
  0
LINE
  8
2
 62
134
  6
CONTINUOUS
 10
272.866518
 20
129.451832
 11
272.348880
 21
131.383684
  0
LINE
  8
2
 62
134
  6
CONTINUOUS
 10
272.866518
 20
129.451832
 11
273.384156
 21
131.383684
  0
LINE
  8
2
 62
134
  6
CONTINUOUS
 10
272.348880
 20
131.383684
 11
273.384156
 21
131.383684
  0
LINE
  8
2
 62
134
  6
CONTINUOUS
 10
272.866518
 20
129.934795
 11
272.607699
 21
130.900721
  0
LINE
  8
2
 62
134
  6
CONTINUOUS
 10
272.866518
 20
129.934795
 11
273.125337
 21
130.900721
  0
LINE
  8
2
 62
134
  6
CONTINUOUS
 10
272.607699
 20
130.900721
 11
273.125337
 21
130.900721
  0
TEXT
  8
2
 62
134
  6
CONTINUOUS
 10
272.866518
 20
134.251832
 40
4.000000
 41
1.000000
  1
17.6
  7
KANJI
 50
90.000000
 51
30.000000
  0
ENDBLK
  0
BLOCK
  8
2
 62
134
  6
CONTINUOUS
  2
*D15
 70
    65
 10
0.0
 20
0.0
  0
LINE
  8
2
 62
134
  6
CONTINUOUS
 10
280.304074
 20
153.251832
 11
280.304074
 21
123.251832
  0
LINE
  8
2
 62
134
  6
CONTINUOUS
 10
282.304074
 20
153.251832
 11
267.504318
 21
153.251832
  0
LINE
  8
2
 62
134
  6
CONTINUOUS
 10
282.304074
 20
123.251832
 11
267.504318
 21
123.251832
  0
LINE
  8
2
 62
134
  6
CONTINUOUS
 10
280.304074
 20
153.251832
 11
280.821712
 21
151.319981
  0
LINE
  8
2
 62
134
  6
CONTINUOUS
 10
280.304074
 20
153.251832
 11
279.786436
 21
151.319981
  0
LINE
  8
2
 62
134
  6
CONTINUOUS
 10
280.821712
 20
151.319981
 11
279.786436
 21
151.319981
  0
LINE
  8
2
 62
134
  6
CONTINUOUS
 10
280.304074
 20
152.768869
 11
280.562893
 21
151.802943
  0
LINE
  8
2
 62
134
  6
CONTINUOUS
 10
280.304074
 20
152.768869
 11
280.045255
 21
151.802943
  0
LINE
  8
2
 62
134
  6
CONTINUOUS
 10
280.562893
 20
151.802943
 11
280.045255
 21
151.802943
  0
LINE
  8
2
 62
134
  6
CONTINUOUS
 10
280.304074
 20
123.251832
 11
279.786436
 21
125.183684
  0
LINE
  8
2
 62
134
  6
CONTINUOUS
 10
280.304074
 20
123.251832
 11
280.821712
 21
125.183684
  0
LINE
  8
2
 62
134
  6
CONTINUOUS
 10
279.786436
 20
125.183684
 11
280.821712
 21
125.183684
  0
LINE
  8
2
 62
134
  6
CONTINUOUS
 10
280.304074
 20
123.734795
 11
280.045255
 21
124.700721
  0
LINE
  8
2
 62
134
  6
CONTINUOUS
 10
280.304074
 20
123.734795
 11
280.562893
 21
124.700721
  0
LINE
  8
2
 62
134
  6
CONTINUOUS
 10
280.045255
 20
124.700721
 11
280.562893
 21
124.700721
  0
TEXT
  8
2
 62
134
  6
CONTINUOUS
 10
280.304074
 20
136.251832
 40
4.000000
 41
1.000000
  1
30
  7
KANJI
 50
90.000000
 51
30.000000
  0
ENDBLK
  0
BLOCK
  8
2
 62
134
  6
CONTINUOUS
  2
*D16
 70
    65
 10
0.0
 20
0.0
  0
LINE
  8
2
 62
134
  6
CONTINUOUS
 10
26.233560
 20
129.251832
 11
26.233560
 21
147.251832
  0
LINE
  8
2
 62
134
  6
CONTINUOUS
 10
25.233560
 20
129.251832
 11
32.444695
 21
129.251832
  0
LINE
  8
2
 62
134
  6
CONTINUOUS
 10
25.233560
 20
147.251832
 11
32.444695
 21
147.251832
  0
LINE
  8
2
 62
134
  6
CONTINUOUS
 10
26.233560
 20
129.251832
 11
25.715921
 21
131.183684
  0
LINE
  8
2
 62
134
  6
CONTINUOUS
 10
26.233560
 20
129.251832
 11
26.751198
 21
131.183684
  0
LINE
  8
2
 62
134
  6
CONTINUOUS
 10
25.715921
 20
131.183684
 11
26.751198
 21
131.183684
  0
LINE
  8
2
 62
134
  6
CONTINUOUS
 10
26.233560
 20
129.734795
 11
25.974741
 21
130.700721
  0
LINE
  8
2
 62
134
  6
CONTINUOUS
 10
26.233560
 20
129.734795
 11
26.492379
 21
130.700721
  0
LINE
  8
2
 62
134
  6
CONTINUOUS
 10
25.974741
 20
130.700721
 11
26.492379
 21
130.700721
  0
LINE
  8
2
 62
134
  6
CONTINUOUS
 10
26.233560
 20
147.251832
 11
26.751198
 21
145.319981
  0
LINE
  8
2
 62
134
  6
CONTINUOUS
 10
26.233560
 20
147.251832
 11
25.715921
 21
145.319981
  0
LINE
  8
2
 62
134
  6
CONTINUOUS
 10
26.751198
 20
145.319981
 11
25.715921
 21
145.319981
  0
LINE
  8
2
 62
134
  6
CONTINUOUS
 10
26.233560
 20
146.768869
 11
26.492379
 21
145.802943
  0
LINE
  8
2
 62
134
  6
CONTINUOUS
 10
26.233560
 20
146.768869
 11
25.974741
 21
145.802943
  0
LINE
  8
2
 62
134
  6
CONTINUOUS
 10
26.492379
 20
145.802943
 11
25.974741
 21
145.802943
  0
TEXT
  8
2
 62
134
  6
CONTINUOUS
 10
26.233560
 20
138.065241
 40
4.000000
 41
1.000000
  1
φ18
  7
KANJI
 50
90.000000
 51
0.000000
  0
ENDBLK
  0
BLOCK
  8
2
 62
134
  6
CONTINUOUS
  2
*D17
 70
    65
 10
0.0
 20
0.0
  0
LINE
  8
2
 62
134
  6
CONTINUOUS
 10
18.556487
 20
123.251832
 11
18.556487
 21
138.251832
  0
LINE
  8
2
 62
134
  6
CONTINUOUS
 10
16.556487
 20
123.251832
 11
59.945633
 21
123.251832
  0
LINE
  8
2
 62
134
  6
CONTINUOUS
 10
16.556487
 20
138.251832
 11
55.444672
 21
138.251832
  0
LINE
  8
2
 62
134
  6
CONTINUOUS
 10
18.556487
 20
123.251832
 11
18.038849
 21
125.183684
  0
LINE
  8
2
 62
134
  6
CONTINUOUS
 10
18.556487
 20
123.251832
 11
19.074125
 21
125.183684
  0
LINE
  8
2
 62
134
  6
CONTINUOUS
 10
18.038849
 20
125.183684
 11
19.074125
 21
125.183684
  0
LINE
  8
2
 62
134
  6
CONTINUOUS
 10
18.556487
 20
123.734795
 11
18.297668
 21
124.700721
  0
LINE
  8
2
 62
134
  6
CONTINUOUS
 10
18.556487
 20
123.734795
 11
18.815306
 21
124.700721
  0
LINE
  8
2
 62
134
  6
CONTINUOUS
 10
18.297668
 20
124.700721
 11
18.815306
 21
124.700721
  0
LINE
  8
2
 62
134
  6
CONTINUOUS
 10
18.556487
 20
138.251832
 11
19.074125
 21
136.319981
  0
LINE
  8
2
 62
134
  6
CONTINUOUS
 10
18.556487
 20
138.251832
 11
18.038849
 21
136.319981
  0
LINE
  8
2
 62
134
  6
CONTINUOUS
 10
19.074125
 20
136.319981
 11
18.038849
 21
136.319981
  0
LINE
  8
2
 62
134
  6
CONTINUOUS
 10
18.556487
 20
137.768869
 11
18.815306
 21
136.802943
  0
LINE
  8
2
 62
134
  6
CONTINUOUS
 10
18.556487
 20
137.768869
 11
18.297668
 21
136.802943
  0
LINE
  8
2
 62
134
  6
CONTINUOUS
 10
18.815306
 20
136.802943
 11
18.297668
 21
136.802943
  0
TEXT
  8
2
 62
134
  6
CONTINUOUS
 10
18.556487
 20
128.751832
 40
4.000000
 41
1.000000
  1
15
  7
KANJI
 50
90.000000
 51
30.000000
  0
ENDBLK
  0
BLOCK
  8
2
 62
134
  6
CONTINUOUS
  2
*D18
 70
    65
 10
0.0
 20
0.0
  0
LINE
  8
2
 62
134
  6
CONTINUOUS
 10
239.767818
 20
99.620666
 11
255.767818
 21
99.620666
  0
LINE
  8
2
 62
134
  6
CONTINUOUS
 10
239.767818
 20
97.620666
 11
239.767818
 21
124.256406
  0
LINE
  8
2
 62
134
  6
CONTINUOUS
 10
255.767818
 20
97.620666
 11
255.767818
 21
124.256406
  0
LINE
  8
2
 62
134
  6
CONTINUOUS
 10
239.767818
 20
99.620666
 11
241.699670
 21
100.138304
  0
LINE
  8
2
 62
134
  6
CONTINUOUS
 10
239.767818
 20
99.620666
 11
241.699670
 21
99.103028
  0
LINE
  8
2
 62
134
  6
CONTINUOUS
 10
241.699670
 20
100.138304
 11
241.699670
 21
99.103028
  0
LINE
  8
2
 62
134
  6
CONTINUOUS
 10
240.250781
 20
99.620666
 11
241.216707
 21
99.879485
  0
LINE
  8
2
 62
134
  6
CONTINUOUS
 10
240.250781
 20
99.620666
 11
241.216707
 21
99.361847
  0
LINE
  8
2
 62
134
  6
CONTINUOUS
 10
241.216707
 20
99.879485
 11
241.216707
 21
99.361847
  0
LINE
  8
2
 62
134
  6
CONTINUOUS
 10
255.767818
 20
99.620666
 11
253.835967
 21
99.103028
  0
LINE
  8
2
 62
134
  6
CONTINUOUS
 10
255.767818
 20
99.620666
 11
253.835967
 21
100.138304
  0
LINE
  8
2
 62
134
  6
CONTINUOUS
 10
253.835967
 20
99.103028
 11
253.835967
 21
100.138304
  0
LINE
  8
2
 62
134
  6
CONTINUOUS
 10
255.284855
 20
99.620666
 11
254.318929
 21
99.361847
  0
LINE
  8
2
 62
134
  6
CONTINUOUS
 10
255.284855
 20
99.620666
 11
254.318929
 21
99.879485
  0
LINE
  8
2
 62
134
  6
CONTINUOUS
 10
254.318929
 20
99.361847
 11
254.318929
 21
99.879485
  0
TEXT
  8
2
 62
134
  6
CONTINUOUS
 10
245.767818
 20
99.620666
 40
4.000000
 41
1.000000
  1
16
  7
KANJI
 50
0.000000
 51
30.000000
  0
ENDBLK
  0
ENDSEC
  0
SECTION
  2
ENTITIES
  0
LINE
  8
5
 62
7
  6
CONTINUOUS
 10
285.000000
 20
195.000000
 11
10.000000
 21
195.000000
  0
LINE
  8
5
 62
7
  6
CONTINUOUS
 10
10.000000
 20
195.000000
 11
10.000000
 21
10.000000
  0
LINE
  8
5
 62
7
  6
CONTINUOUS
 10
10.000000
 20
10.000000
 11
285.000000
 21
10.000000
  0
LINE
  8
5
 62
7
  6
CONTINUOUS
 10
285.000000
 20
10.000000
 11
285.000000
 21
195.000000
  0
TEXT
  8
5
 62
7
  6
CONTINUOUS
 10
210.962748
 20
25.651490
 40
1.750000
 41
4.000000
  1
製図
  7
KANJI
 50
-90.000000
 51
0.000000
  0
TEXT
  8
5
 62
7
  6
CONTINUOUS
 10
230.795530
 20
25.487583
 40
1.750000
 41
4.000000
  1
図番
  7
KANJI
 50
-90.000000
 51
0.000000
  0
TEXT
  8
5
 62
7
  6
CONTINUOUS
 10
230.795530
 20
38.764073
 40
1.750000
 41
4.000000
  1
図　名
  7
KANJI
 50
-90.000000
 51
0.000000
  0
TEXT
  8
5
 62
7
  6
CONTINUOUS
 10
165.888245
 20
33.355132
 40
1.750000
 41
4.000000
  1
日付
  7
KANJI
 50
-90.000000
 51
0.000000
  0
TEXT
  8
5
 62
7
  6
CONTINUOUS
 10
200.964404
 20
33.519040
 40
1.750000
 41
4.000000
  1
図法
  7
KANJI
 50
-90.000000
 51
0.000000
  0
TEXT
  8
5
 62
7
  6
CONTINUOUS
 10
200.800497
 20
41.550497
 40
1.750000
 41
4.000000
  1
尺度
  7
KANJI
 50
-90.000000
 51
0.000000
  0
TEXT
  8
5
 62
7
  6
CONTINUOUS
 10
165.888245
 20
41.386589
 40
1.750000
 41
4.000000
  1
公差
  7
KANJI
 50
-90.000000
 51
0.000000
  0
TEXT
  8
5
 62
7
  6
CONTINUOUS
 10
165.888245
 20
25.487583
 40
1.750000
 41
4.000000
  1
承認
  7
KANJI
 50
-90.000000
 51
0.000000
  0
TEXT
  8
5
 62
7
  6
CONTINUOUS
 10
190.966060
 20
25.487583
 40
1.750000
 41
4.000000
  1
設計
  7
KANJI
 50
-90.000000
 51
0.000000
  0
TEXT
  8
5
 62
7
  6
CONTINUOUS
 10
184.409768
 20
11.555464
 40
4.500000
 41
1.888889
  1
ジャパンセンサー株式会社
  7
KANJI
 50
0.000000
 51
0.000000
  0
LINE
  8
5
 62
7
  6
CONTINUOUS
 10
165.000000
 20
42.000000
 11
285.000000
 21
42.000000
  0
LINE
  8
5
 62
7
  6
CONTINUOUS
 10
165.000000
 20
10.000000
 11
165.000000
 21
42.000000
  0
LINE
  8
5
 62
7
  6
CONTINUOUS
 10
285.000000
 20
18.000000
 11
165.000000
 21
18.000000
  0
LINE
  8
5
 62
7
  6
CONTINUOUS
 10
230.000000
 20
42.000000
 11
230.000000
 21
18.000000
  0
LINE
  8
5
 62
7
  6
CONTINUOUS
 10
285.000000
 20
26.000000
 11
165.000000
 21
26.000000
  0
LINE
  8
5
 62
7
  6
CONTINUOUS
 10
235.000000
 20
18.000000
 11
235.000000
 21
42.000000
  0
LINE
  8
5
 62
7
  6
CONTINUOUS
 10
205.000000
 20
42.000000
 11
205.000000
 21
26.000000
  0
LINE
  8
5
 62
7
  6
CONTINUOUS
 10
170.000000
 20
18.000000
 11
170.000000
 21
42.000000
  0
LINE
  8
5
 62
7
  6
CONTINUOUS
 10
165.000000
 20
34.000000
 11
230.000000
 21
34.000000
  0
LINE
  8
5
 62
7
  6
CONTINUOUS
 10
200.000000
 20
42.000000
 11
200.000000
 21
26.000000
  0
LINE
  8
5
 62
7
  6
CONTINUOUS
 10
190.000000
 20
18.000000
 11
190.000000
 21
26.000000
  0
LINE
  8
5
 62
7
  6
CONTINUOUS
 10
210.000000
 20
18.000000
 11
210.000000
 21
26.000000
  0
LINE
  8
5
 62
7
  6
CONTINUOUS
 10
195.000000
 20
26.000000
 11
195.000000
 21
18.000000
  0
LINE
  8
5
 62
7
  6
CONTINUOUS
 10
215.000000
 20
26.000000
 11
215.000000
 21
18.000000
  0
TEXT
  8
5
 62
7
  6
CONTINUOUS
 10
209.979305
 20
35.649834
 40
4.000000
 41
1.000000
  1
１／１
  7
KANJI
 50
0.000000
 51
0.000000
  0
TEXT
  8
5
 62
7
  6
CONTINUOUS
 10
208.995861
 20
27.290563
 40
4.000000
 41
1.000000
  1
三角法
  7
KANJI
 50
0.000000
 51
0.000000
  0
TEXT
  8
5
 62
7
  6
CONTINUOUS
 10
196.211093
 20
19.750828
 40
4.000000
 41
1.000000
  1
保田
  7
KANJI
 50
0.810149
 51
0.000000
  0
TEXT
  8
5
 62
7
  6
CONTINUOUS
 10
216.207781
 20
19.914735
 40
4.000000
 41
1.000000
  1
保田
  7
KANJI
 50
-0.112820
 51
0.000000
  0
LINE
  8
1
 62
4
  6
DASHDOT
 10
253.804318
 20
148.251832
 11
253.804318
 21
129.551320
  0
LINE
  8
1
 62
4
  6
DASHDOT
 10
246.433448
 20
138.251832
 11
261.779799
 21
138.251832
  0
LINE
  8
1
 62
4
  6
DASHDOT
 10
253.804318
 20
120.592780
 11
253.804318
 21
155.393060
  0
LINE
  8
1
 62
4
  6
DASHDOT
 10
267.221220
 20
138.251832
 11
239.323639
 21
138.251832
  0
LINE
  8
1
 62
7
  6
CONTINUOUS
 10
265.504318
 20
123.251832
 11
265.804318
 21
123.551832
  0
LINE
  8
1
 62
7
  6
CONTINUOUS
 10
265.804318
 20
152.951832
 11
265.804318
 21
123.551832
  0
LINE
  8
1
 62
7
  6
CONTINUOUS
 10
242.104318
 20
123.251832
 11
265.504318
 21
123.251832
  0
LINE
  8
1
 62
7
  6
CONTINUOUS
 10
241.804318
 20
123.551832
 11
242.104318
 21
123.251832
  0
LINE
  8
1
 62
7
  6
CONTINUOUS
 10
241.804318
 20
152.951832
 11
241.804318
 21
123.551832
  0
LINE
  8
1
 62
7
  6
CONTINUOUS
 10
242.104318
 20
153.251832
 11
241.804318
 21
152.951832
  0
LINE
  8
1
 62
7
  6
CONTINUOUS
 10
265.504318
 20
153.251832
 11
242.104318
 21
153.251832
  0
LINE
  8
1
 62
7
  6
CONTINUOUS
 10
265.504318
 20
153.251832
 11
265.804318
 21
152.951832
  0
CIRCLE
  8
1
 62
7
  6
CONTINUOUS
 10
263.304318
 20
125.751832
 40
2.100000
  0
CIRCLE
  8
1
 62
7
  6
CONTINUOUS
 10
263.304318
 20
125.751834
 40
1.100000
  0
LINE
  8
1
 62
214
  6
DASHDOT
 10
263.304318
 20
128.231923
 11
263.304318
 21
122.811866
  0
LINE
  8
1
 62
214
  6
DASHDOT
 10
266.134034
 20
125.751832
 11
260.743595
 21
125.751832
  0
LINE
  8
1
 62
214
  6
DASHDOT
 10
265.126994
 20
125.751834
 11
260.660131
 21
125.751834
  0
LINE
  8
1
 62
214
  6
DASHDOT
 10
263.304318
 20
127.535007
 11
263.304318
 21
123.979251
  0
CIRCLE
  8
1
 62
7
  6
CONTINUOUS
 10
244.304318
 20
150.751834
 40
2.100000
  0
CIRCLE
  8
1
 62
7
  6
CONTINUOUS
 10
244.304318
 20
150.751832
 40
1.100000
  0
LINE
  8
1
 62
214
  6
DASHDOT
 10
244.304318
 20
148.271744
 11
244.304318
 21
153.691801
  0
LINE
  8
1
 62
214
  6
DASHDOT
 10
241.474602
 20
150.751834
 11
246.865041
 21
150.751834
  0
LINE
  8
1
 62
214
  6
DASHDOT
 10
242.481643
 20
150.751832
 11
246.948505
 21
150.751832
  0
LINE
  8
1
 62
214
  6
DASHDOT
 10
244.304318
 20
148.968659
 11
244.304318
 21
152.524415
  0
DIMENSION
  8
2
 62
134
  6
CONTINUOUS
  2
*D1
 10
241.804318
 20
168.251832
 11
247.804318
 21
168.251832
 70
     0
  1
12
 13
241.804318
 23
154.951832
 14
253.804318
 24
157.393060
 50
0.000000
  0
DIMENSION
  8
2
 62
134
  6
CONTINUOUS
  2
*D2
 10
253.804318
 20
168.251832
 11
259.804318
 21
168.251832
 70
     0
  1
12
 13
253.804318
 23
168.251832
 14
265.804318
 24
154.951832
 50
0.000000
  0
DIMENSION
  8
2
 62
134
  6
CONTINUOUS
  2
*D3
 10
241.804318
 20
178.251832
 11
255.466616
 21
178.251832
 70
     0
  1
24
 13
241.804318
 23
154.951832
 14
265.804318
 24
154.951832
 50
0.000000
  0
LINE
  8
1
 62
96
  6
CONTINUOUS
 10
246.562271
 20
133.195426
 11
253.046365
 21
129.451832
  0
LINE
  8
1
 62
96
  6
CONTINUOUS
 10
245.804318
 20
141.995426
 11
245.804318
 21
134.508239
  0
LINE
  8
1
 62
96
  6
CONTINUOUS
 10
253.046365
 20
147.051832
 11
246.562271
 21
143.308239
  0
LINE
  8
1
 62
96
  6
CONTINUOUS
 10
261.046365
 20
143.308239
 11
254.562271
 21
147.051832
  0
LINE
  8
1
 62
96
  6
CONTINUOUS
 10
261.804318
 20
134.508239
 11
261.804318
 21
141.995426
  0
LINE
  8
1
 62
96
  6
CONTINUOUS
 10
254.562271
 20
129.451832
 11
261.046365
 21
133.195426
  0
LINE
  8
1
 62
96
  6
CONTINUOUS
 10
261.046365
 20
133.195426
 11
261.804318
 21
134.508239
  0
LINE
  8
1
 62
96
  6
CONTINUOUS
 10
261.804318
 20
141.995426
 11
261.046365
 21
143.308239
  0
LINE
  8
1
 62
96
  6
CONTINUOUS
 10
246.562271
 20
143.308239
 11
245.804318
 21
141.995426
  0
LINE
  8
1
 62
96
  6
CONTINUOUS
 10
245.804318
 20
134.508239
 11
246.562271
 21
133.195426
  0
LINE
  8
1
 62
96
  6
CONTINUOUS
 10
246.562271
 20
143.308239
 11
245.804318
 21
141.995426
  0
LINE
  8
1
 62
96
  6
CONTINUOUS
 10
245.804318
 20
134.508239
 11
246.562271
 21
133.195426
  0
LINE
  8
1
 62
96
  6
CONTINUOUS
 10
261.046365
 20
133.195426
 11
261.804318
 21
134.508239
  0
LINE
  8
1
 62
96
  6
CONTINUOUS
 10
261.804318
 20
141.995426
 11
261.046365
 21
143.308239
  0
LINE
  8
1
 62
96
  6
CONTINUOUS
 10
261.804318
 20
141.995426
 11
261.046365
 21
143.308239
  0
LINE
  8
1
 62
96
  6
CONTINUOUS
 10
261.804318
 20
141.995426
 11
261.046365
 21
143.308239
  0
LINE
  8
1
 62
96
  6
CONTINUOUS
 10
253.046365
 20
129.451832
 11
254.562271
 21
129.451832
  0
LINE
  8
1
 62
96
  6
CONTINUOUS
 10
261.046365
 20
133.195426
 11
261.804318
 21
134.508239
  0
LINE
  8
1
 62
96
  6
CONTINUOUS
 10
253.046365
 20
129.451832
 11
254.562271
 21
129.451832
  0
LINE
  8
1
 62
96
  6
CONTINUOUS
 10
253.046365
 20
147.051832
 11
254.562271
 21
147.051832
  0
CIRCLE
  8
1
 62
7
  6
CONTINUOUS
 10
253.804318
 20
138.251832
 40
3.500000
  0
CIRCLE
  8
1
 62
7
  6
CONTINUOUS
 10
253.804318
 20
138.251832
 40
8.000000
  0
DIMENSION
  8
2
 62
134
  6
CONTINUOUS
  2
*D4
 10
245.804318
 20
107.872498
 11
253.804318
 21
107.872498
 70
     0
  1
16
 13
245.804318
 23
132.508239
 14
261.804318
 24
132.508239
 50
0.000000
  0
LINE
  8
1
 62
7
  6
CONTINUOUS
 10
223.669342
 20
131.621832
 11
223.269342
 21
131.621832
  0
LINE
  8
1
 62
7
  6
CONTINUOUS
 10
223.669342
 20
130.881832
 11
223.669342
 21
131.621832
  0
LINE
  8
1
 62
7
  6
CONTINUOUS
 10
223.269342
 20
130.881832
 11
223.669342
 21
130.881832
  0
LINE
  8
1
 62
7
  6
CONTINUOUS
 10
223.269342
 20
131.621832
 11
223.269342
 21
130.881832
  0
LINE
  8
1
 62
7
  6
CONTINUOUS
 10
223.669342
 20
133.621832
 11
223.269342
 21
133.621832
  0
LINE
  8
1
 62
7
  6
CONTINUOUS
 10
223.669342
 20
132.881832
 11
223.669342
 21
133.621832
  0
LINE
  8
1
 62
7
  6
CONTINUOUS
 10
223.269342
 20
132.881832
 11
223.669342
 21
132.881832
  0
LINE
  8
1
 62
7
  6
CONTINUOUS
 10
223.269342
 20
133.621832
 11
223.269342
 21
132.881832
  0
LINE
  8
1
 62
7
  6
CONTINUOUS
 10
223.669342
 20
135.621832
 11
223.269342
 21
135.621832
  0
LINE
  8
1
 62
7
  6
CONTINUOUS
 10
223.669342
 20
134.881832
 11
223.669342
 21
135.621832
  0
LINE
  8
1
 62
7
  6
CONTINUOUS
 10
223.269342
 20
134.881832
 11
223.669342
 21
134.881832
  0
LINE
  8
1
 62
7
  6
CONTINUOUS
 10
223.269342
 20
135.621832
 11
223.269342
 21
134.881832
  0
LINE
  8
1
 62
7
  6
CONTINUOUS
 10
223.669342
 20
137.621832
 11
223.269342
 21
137.621832
  0
LINE
  8
1
 62
7
  6
CONTINUOUS
 10
223.669342
 20
136.881832
 11
223.669342
 21
137.621832
  0
LINE
  8
1
 62
7
  6
CONTINUOUS
 10
223.269342
 20
136.881832
 11
223.669342
 21
136.881832
  0
LINE
  8
1
 62
7
  6
CONTINUOUS
 10
223.269342
 20
137.621832
 11
223.269342
 21
136.881832
  0
LINE
  8
1
 62
7
  6
CONTINUOUS
 10
223.669342
 20
139.621832
 11
223.269342
 21
139.621832
  0
LINE
  8
1
 62
7
  6
CONTINUOUS
 10
223.669342
 20
138.881832
 11
223.669342
 21
139.621832
  0
LINE
  8
1
 62
7
  6
CONTINUOUS
 10
223.269342
 20
138.881832
 11
223.669342
 21
138.881832
  0
LINE
  8
1
 62
7
  6
CONTINUOUS
 10
223.269342
 20
139.621832
 11
223.269342
 21
138.881832
  0
LINE
  8
1
 62
7
  6
CONTINUOUS
 10
223.669342
 20
141.621832
 11
223.269342
 21
141.621832
  0
LINE
  8
1
 62
7
  6
CONTINUOUS
 10
223.669342
 20
140.881832
 11
223.669342
 21
141.621832
  0
LINE
  8
1
 62
7
  6
CONTINUOUS
 10
223.269342
 20
140.881832
 11
223.669342
 21
140.881832
  0
LINE
  8
1
 62
7
  6
CONTINUOUS
 10
223.269342
 20
141.621832
 11
223.269342
 21
140.881832
  0
LINE
  8
1
 62
7
  6
CONTINUOUS
 10
223.669342
 20
143.621832
 11
223.269342
 21
143.621832
  0
LINE
  8
1
 62
7
  6
CONTINUOUS
 10
223.669342
 20
142.881832
 11
223.669342
 21
143.621832
  0
LINE
  8
1
 62
7
  6
CONTINUOUS
 10
223.269342
 20
142.881832
 11
223.669342
 21
142.881832
  0
LINE
  8
1
 62
7
  6
CONTINUOUS
 10
223.269342
 20
143.621832
 11
223.269342
 21
142.881832
  0
LINE
  8
1
 62
7
  6
CONTINUOUS
 10
223.669342
 20
145.621832
 11
223.269342
 21
145.621832
  0
LINE
  8
1
 62
7
  6
CONTINUOUS
 10
223.669342
 20
144.881832
 11
223.669342
 21
145.621832
  0
LINE
  8
1
 62
7
  6
CONTINUOUS
 10
223.269342
 20
144.881832
 11
223.669342
 21
144.881832
  0
LINE
  8
1
 62
7
  6
CONTINUOUS
 10
223.269342
 20
145.621832
 11
223.269342
 21
144.881832
  0
LINE
  8
1
 62
7
  6
CONTINUOUS
 10
221.769342
 20
146.851832
 11
225.169342
 21
146.851832
  0
LINE
  8
1
 62
7
  6
CONTINUOUS
 10
221.769342
 20
129.651832
 11
221.769342
 21
146.851832
  0
LINE
  8
1
 62
7
  6
CONTINUOUS
 10
225.169342
 20
129.651832
 11
221.769342
 21
129.651832
  0
LINE
  8
1
 62
7
  6
CONTINUOUS
 10
225.169342
 20
146.851832
 11
225.169342
 21
129.651832
  0
LINE
  8
1
 62
7
  6
CONTINUOUS
 10
225.169342
 20
152.774924
 11
221.769342
 21
152.774924
  0
LINE
  8
1
 62
7
  6
CONTINUOUS
 10
225.169342
 20
148.801832
 11
225.169342
 21
152.774924
  0
LINE
  8
1
 62
7
  6
CONTINUOUS
 10
221.769342
 20
148.801832
 11
221.769342
 21
152.774924
  0
LINE
  8
1
 62
7
  6
DASHDOT
 10
222.372083
 20
131.251832
 11
224.561712
 21
131.251832
  0
LINE
  8
1
 62
7
  6
DASHDOT
 10
222.372083
 20
133.251832
 11
224.561712
 21
133.251832
  0
LINE
  8
1
 62
7
  6
DASHDOT
 10
222.372083
 20
135.251832
 11
224.561712
 21
135.251832
  0
LINE
  8
1
 62
7
  6
DASHDOT
 10
222.372083
 20
137.251832
 11
224.561712
 21
137.251832
  0
LINE
  8
1
 62
7
  6
DASHDOT
 10
222.372083
 20
139.251832
 11
224.561712
 21
139.251832
  0
LINE
  8
1
 62
7
  6
DASHDOT
 10
222.372083
 20
141.251832
 11
224.561712
 21
141.251832
  0
LINE
  8
1
 62
7
  6
DASHDOT
 10
222.372083
 20
143.251832
 11
224.561712
 21
143.251832
  0
LINE
  8
1
 62
7
  6
DASHDOT
 10
222.372083
 20
145.251832
 11
224.561712
 21
145.251832
  0
LINE
  8
1
 62
7
  6
CONTINUOUS
 10
226.469342
 20
128.301832
 11
226.469342
 21
151.001832
  0
LINE
  8
1
 62
7
  6
CONTINUOUS
 10
220.469342
 20
151.001832
 11
220.469342
 21
128.301832
  0
LINE
  8
1
 62
7
  6
CONTINUOUS
 10
225.169342
 20
151.001832
 11
226.469342
 21
151.001832
  0
LINE
  8
1
 62
7
  6
CONTINUOUS
 10
221.769342
 20
151.001832
 11
220.469342
 21
151.001832
  0
LINE
  8
1
 62
7
  6
CONTINUOUS
 10
226.469342
 20
148.801832
 11
225.169342
 21
148.801832
  0
LINE
  8
1
 62
7
  6
CONTINUOUS
 10
220.469342
 20
148.801832
 11
221.769342
 21
148.801832
  0
LINE
  8
1
 62
7
  6
CONTINUOUS
 10
182.225989
 20
136.824336
 11
185.699774
 21
135.851832
  0
LINE
  8
1
 62
7
  6
CONTINUOUS
 10
182.274850
 20
135.607249
 11
185.675283
 21
134.651832
  0
LINE
  8
1
 62
7
  6
CONTINUOUS
 10
179.365645
 20
137.025056
 11
185.699774
 21
133.851832
  0
LINE
  8
1
 62
7
  6
CONTINUOUS
 10
181.961354
 20
134.519147
 11
185.675283
 21
132.651832
  0
LINE
  8
1
 62
7
  6
CONTINUOUS
 10
178.912973
 20
138.251832
 11
185.699774
 21
137.851832
  0
LINE
  8
1
 62
7
  6
CONTINUOUS
 10
178.912973
 20
137.051832
 11
185.675283
 21
136.651832
  0
LINE
  8
1
 62
7
  6
CONTINUOUS
 10
178.912973
 20
137.051832
 11
177.445321
 21
137.051832
  0
LINE
  8
1
 62
7
  6
CONTINUOUS
 10
182.225989
 20
139.679328
 11
185.699774
 21
140.651832
  0
LINE
  8
1
 62
7
  6
CONTINUOUS
 10
182.274850
 20
140.896416
 11
185.675283
 21
141.851832
  0
LINE
  8
1
 62
7
  6
CONTINUOUS
 10
179.365645
 20
139.478608
 11
185.699774
 21
142.651832
  0
LINE
  8
1
 62
7
  6
CONTINUOUS
 10
181.961354
 20
141.984518
 11
185.675283
 21
143.851832
  0
LINE
  8
1
 62
7
  6
CONTINUOUS
 10
178.912973
 20
138.251832
 11
185.699774
 21
138.651832
  0
LINE
  8
1
 62
7
  6
CONTINUOUS
 10
178.912973
 20
139.451832
 11
185.675283
 21
139.851832
  0
LINE
  8
1
 62
7
  6
CONTINUOUS
 10
178.912973
 20
139.451832
 11
177.445321
 21
139.451832
  0
LINE
  8
1
 62
7
  6
CONTINUOUS
 10
178.912973
 20
136.651832
 11
185.699774
 21
131.851832
  0
LINE
  8
1
 62
7
  6
CONTINUOUS
 10
178.912973
 20
135.451832
 11
185.675283
 21
130.651832
  0
LINE
  8
1
 62
7
  6
CONTINUOUS
 10
178.912973
 20
136.651832
 11
177.445321
 21
136.651832
  0
LINE
  8
1
 62
7
  6
CONTINUOUS
 10
178.912973
 20
135.451832
 11
177.445321
 21
135.451832
  0
LINE
  8
1
 62
7
  6
CONTINUOUS
 10
178.912973
 20
139.851832
 11
185.699774
 21
144.651832
  0
LINE
  8
1
 62
7
  6
CONTINUOUS
 10
178.912973
 20
141.051832
 11
185.675283
 21
145.851832
  0
LINE
  8
1
 62
7
  6
CONTINUOUS
 10
178.912973
 20
139.851832
 11
177.445321
 21
139.851832
  0
LINE
  8
1
 62
7
  6
CONTINUOUS
 10
178.912973
 20
141.051832
 11
177.445321
 21
141.051832
  0
LINE
  8
1
 62
7
  6
CONTINUOUS
 10
177.445321
 20
141.751832
 11
177.445321
 21
134.751832
  0
LINE
  8
1
 62
7
  6
DASHDOT
 10
217.821396
 20
138.251832
 11
228.815978
 21
138.251832
  0
LINE
  8
1
 62
7
  6
CONTINUOUS
 10
220.469342
 20
128.301832
 11
226.469342
 21
128.301832
  0
LINE
  8
1
 62
7
  6
DASHDOT
 10
223.469342
 20
157.482678
 11
223.469342
 21
124.455417
  0
LINE
  8
1
 62
7
  6
CONTINUOUS
 10
178.912973
 20
138.251832
 11
177.445321
 21
138.251832
  0
LINE
  8
1
 62
7
  6
CONTINUOUS
 10
145.896704
 20
141.751832
 11
123.445633
 21
141.751832
  0
LINE
  8
1
 62
7
  6
CONTINUOUS
 10
177.445321
 20
134.751832
 11
145.580415
 21
134.751832
  0
LINE
  8
1
 62
7
  6
CONTINUOUS
 10
148.013749
 20
141.751832
 11
177.445321
 21
141.751832
  0
LINE
  8
1
 62
7
  6
DASHDOT
 10
146.797082
 20
138.251832
 11
210.757906
 21
138.251832
  0
LINE
  8
1
 62
7
  6
CONTINUOUS
 10
148.825005
 20
144.335601
 11
144.873188
 21
132.480150
  0
LINE
  8
1
 62
7
  6
CONTINUOUS
 10
146.707960
 20
144.335601
 11
142.756143
 21
132.480150
  0
DIMENSION
  8
2
 62
134
  6
CONTINUOUS
  2
*D5
 10
123.445633
 20
159.732679
 11
151.897814
 21
159.732679
 70
     0
  1
ｹｰﾌﾞﾙ長（標準2m）
 13
123.445633
 23
145.101832
 14
188.911491
 24
151.901832
 50
0.000000
  0
DIMENSION
  8
2
 62
134
  6
CONTINUOUS
  2
*D6
 10
169.106206
 20
134.751832
 11
169.106206
 21
147.963860
 70
     0
  1
φ7
 13
169.106206
 23
134.751832
 14
169.106206
 24
141.751832
 50
90.000000
  0
LINE
  8
2
 62
134
  6
CONTINUOUS
 10
130.308817
 20
134.601832
 11
137.615593
 21
123.823701
  0
LINE
  8
2
 62
134
  6
CONTINUOUS
 10
137.615593
 20
123.823701
 11
161.098001
 21
123.823701
  0
TEXT
  8
2
 62
134
  6
CONTINUOUS
 10
139.098001
 20
123.823701
 40
4.000000
 41
1.000000
  1
　接続ｹｰﾌﾞﾙ
  7
KANJI
 50
0.000000
 51
30.000000
  0
LINE
  8
2
 62
134
  6
CONTINUOUS
 10
130.308817
 20
134.601832
 11
131.821309
 21
133.293258
  0
LINE
  8
2
 62
134
  6
CONTINUOUS
 10
130.308817
 20
134.601832
 11
130.964386
 21
132.712327
  0
LINE
  8
2
 62
134
  6
CONTINUOUS
 10
131.821309
 20
133.293258
 11
130.964386
 21
132.712327
  0
LINE
  8
2
 62
134
  6
CONTINUOUS
 10
130.579825
 20
134.202072
 11
131.336071
 21
133.547785
  0
LINE
  8
2
 62
134
  6
CONTINUOUS
 10
130.579825
 20
134.202072
 11
130.907609
 21
133.257320
  0
LINE
  8
2
 62
134
  6
CONTINUOUS
 10
131.336071
 20
133.547785
 11
130.907609
 21
133.257320
  0
DIMENSION
  8
2
 62
134
  6
CONTINUOUS
  2
*D7
 10
220.469342
 20
159.711597
 11
223.469342
 21
159.711597
 70
     0
  1
6
 13
220.469342
 23
153.001832
 14
226.469342
 24
153.001832
 50
0.000000
  0
LINE
  8
1
 62
4
  6
CONTINUOUS
 10
106.445633
 20
144.602685
 11
106.445633
 21
131.900979
  0
LINE
  8
1
 62
7
  6
CONTINUOUS
 10
106.145633
 20
153.251832
 11
106.445633
 21
152.951832
  0
LINE
  8
1
 62
7
  6
CONTINUOUS
 10
106.445633
 20
123.551832
 11
106.445633
 21
152.951832
  0
LINE
  8
1
 62
7
  6
CONTINUOUS
 10
106.445633
 20
123.551832
 11
106.145633
 21
123.251832
  0
DIMENSION
  8
2
 62
134
  6
CONTINUOUS
  2
*D8
 10
106.445633
 20
168.251832
 11
114.945633
 21
168.251832
 70
     0
  1
17
 13
106.445633
 23
154.951832
 14
123.445633
 24
145.101832
 50
0.000000
  0
LINE
  8
1
 62
7
  6
DASHDOT
 10
60.481681
 20
138.251832
 11
144.680037
 21
138.251832
  0
LINE
  8
1
 62
4
  6
DASHDOT
 10
84.789508
 20
138.251832
 11
126.884824
 21
138.251832
  0
LINE
  8
1
 62
7
  6
DASHDOT
 10
63.531921
 20
138.251832
 11
108.848339
 21
138.251832
  0
CIRCLE
  8
1
 62
7
  6
DASHDOT
 10
61.945633
 20
128.251832
 40
3.000000
  0
CIRCLE
  8
1
 62
7
  6
DASHDOT
 10
61.945633
 20
148.251832
 40
3.000000
  0
LINE
  8
1
 62
7
  6
CONTINUOUS
 10
67.445633
 20
153.251832
 11
67.445633
 21
123.251832
  0
LINE
  8
1
 62
7
  6
CONTINUOUS
 10
67.445633
 20
153.251832
 11
106.145633
 21
153.251832
  0
LINE
  8
1
 62
7
  6
CONTINUOUS
 10
67.445633
 20
123.251832
 11
106.145633
 21
123.251832
  0
CIRCLE
  8
1
 62
7
  6
CONTINUOUS
 10
61.945633
 20
148.251832
 40
1.750000
  0
CIRCLE
  8
1
 62
7
  6
CONTINUOUS
 10
61.945633
 20
128.251832
 40
1.750000
  0
CIRCLE
  8
1
 62
7
  6
CONTINUOUS
 10
61.945633
 20
148.251832
 40
1.750000
  0
LINE
  8
1
 62
7
  6
CONTINUOUS
 10
57.945633
 20
127.251832
 11
57.945633
 21
149.251832
  0
LINE
  8
1
 62
7
  6
CONTINUOUS
 10
67.445633
 20
123.251832
 11
61.945633
 21
123.251832
  0
ARC
  8
1
 62
7
  6
CONTINUOUS
 10
61.945633
 20
127.251832
 40
4.000000
 50
180.000000
 51
-90.000005
  0
LINE
  8
1
 62
7
  6
CONTINUOUS
 10
67.445633
 20
153.251832
 11
61.945633
 21
153.251832
  0
ARC
  8
1
 62
7
  6
CONTINUOUS
 10
61.945633
 20
149.251832
 40
4.000000
 50
90.000000
 51
180.000000
  0
LINE
  8
1
 62
214
  6
DASHDOT
 10
59.306394
 20
148.251832
 11
64.608670
 21
148.251832
  0
LINE
  8
1
 62
214
  6
DASHDOT
 10
61.945633
 20
146.015657
 11
61.945633
 21
150.972538
  0
LINE
  8
1
 62
214
  6
DASHDOT
 10
59.096357
 20
148.251832
 11
64.608670
 21
148.251832
  0
LINE
  8
1
 62
214
  6
DASHDOT
 10
59.376407
 20
128.251832
 11
64.865383
 21
128.251832
  0
LINE
  8
1
 62
214
  6
DASHDOT
 10
61.945633
 20
125.654124
 11
61.945633
 21
130.449556
  0
LINE
  8
1
 62
7
  6
CONTINUOUS
 10
67.445633
 20
151.653174
 11
67.445633
 21
153.251832
  0
LINE
  8
1
 62
7
  6
CONTINUOUS
 10
67.445633
 20
123.251832
 11
67.445633
 21
125.351832
  0
LINE
  8
1
 62
7
  6
CONTINUOUS
 10
67.445633
 20
125.351832
 11
67.445633
 21
148.751833
  0
LINE
  8
1
 62
7
  6
CONTINUOUS
 10
67.445633
 20
151.653174
 11
67.445633
 21
125.351832
  0
LINE
  8
1
 62
7
  6
CONTINUOUS
 10
67.444877
 20
141.451832
 11
67.444877
 21
141.751832
  0
LINE
  8
1
 62
7
  6
CONTINUOUS
 10
67.444877
 20
135.051832
 11
67.444877
 21
134.751832
  0
LINE
  8
1
 62
7
  6
CONTINUOUS
 10
67.444877
 20
135.051832
 11
67.444877
 21
138.251832
  0
LINE
  8
1
 62
11
  6
CONTINUOUS
 10
57.944808
 20
144.751832
 11
57.944699
 21
146.751832
  0
LINE
  8
1
 62
11
  6
CONTINUOUS
 10
57.945164
 20
138.251864
 11
57.944699
 21
129.751832
  0
LINE
  8
1
 62
14
  6
DOT
 10
59.777671
 20
133.251832
 11
61.151534
 21
133.251832
  0
LINE
  8
1
 62
14
  6
DOT
 10
59.777671
 20
143.251832
 11
61.151534
 21
143.251832
  0
LINE
  8
1
 62
14
  6
DOT
 10
61.151534
 20
143.251832
 11
61.151534
 21
133.251832
  0
ARC
  8
1
 62
14
  6
DOT
 10
66.651534
 20
138.251832
 40
8.500000
 50
143.968124
 51
-143.968124
  0
LINE
  8
1
 62
14
  6
DOT
 10
61.151534
 20
143.251832
 11
61.151534
 21
133.251832
  0
LINE
  8
1
 62
212
  6
DOT
 10
61.151534
 20
143.251832
 11
61.151534
 21
133.251832
  0
DIMENSION
  8
2
 62
134
  6
CONTINUOUS
  2
*D9
 10
57.945633
 20
168.251832
 11
43.490275
 21
168.251832
 70
     0
  1
測定距離
 13
57.945633
 23
168.251832
 14
28.873309
 24
168.251832
 50
180.000000
  0
TEXT
  8
2
 62
134
  6
CONTINUOUS
 10
83.178753
 20
104.251832
 40
4.000000
 41
1.000000
  1
2-φ3.5ザグリφ6深さ3
  7
KANJI
 50
0.000000
 51
30.000000
  0
DIMENSION
  8
2
 62
134
  6
CONTINUOUS
  2
*D10
 10
57.945633
 20
168.251832
 11
82.195633
 21
168.251832
 70
     0
  1
48.5
 13
57.945633
 23
150.971086
 14
106.445633
 24
154.951832
 50
0.000000
  0
DIMENSION
  8
2
 62
134
  6
CONTINUOUS
  2
*D11
 10
79.815849
 20
148.251832
 11
79.815849
 21
141.751832
 70
     0
  1
20
 13
66.608670
 23
148.251832
 14
66.865383
 24
128.251832
 50
-90.000000
  0
DIMENSION
  8
2
 62
134
  6
CONTINUOUS
  2
*D12
 10
57.945633
 20
158.535098
 11
59.877485
 21
158.535098
 70
     0
  1
4
 13
57.945633
 23
151.251832
 14
61.945633
 24
152.972538
 50
0.000000
  0
LINE
  8
2
 62
134
  6
CONTINUOUS
 10
64.106921
 20
126.171247
 11
81.178753
 21
108.251832
  0
LINE
  8
2
 62
134
  6
CONTINUOUS
 10
81.178753
 20
108.251832
 11
99.178753
 21
108.251832
  0
TEXT
  8
2
 62
134
  6
CONTINUOUS
 10
83.178753
 20
108.251832
 40
4.000000
 41
1.000000
  1
　取付穴
  7
KANJI
 50
0.000000
 51
30.000000
  0
LINE
  8
2
 62
134
  6
CONTINUOUS
 10
64.106921
 20
126.171247
 11
65.814248
 21
125.129597
  0
LINE
  8
2
 62
134
  6
CONTINUOUS
 10
64.106921
 20
126.171247
 11
65.064685
 21
124.415488
  0
LINE
  8
2
 62
134
  6
CONTINUOUS
 10
65.814248
 20
125.129597
 11
65.064685
 21
124.415488
  0
LINE
  8
2
 62
134
  6
CONTINUOUS
 10
64.440057
 20
125.821571
 11
65.293721
 21
125.300746
  0
LINE
  8
2
 62
134
  6
CONTINUOUS
 10
64.440057
 20
125.821571
 11
64.918939
 21
124.943692
  0
LINE
  8
2
 62
134
  6
CONTINUOUS
 10
65.293721
 20
125.300746
 11
64.918939
 21
124.943692
  0
LINE
  8
1
 62
7
  6
CONTINUOUS
 10
123.445633
 20
143.101832
 11
123.445633
 21
133.401832
  0
TEXT
  8
2
 62
7
  6
CONTINUOUS
 10
195.562623
 20
112.076090
 40
3.999900
 41
1.000000
  1
e-CON コネクタ　8ピン
  7
KANJI
 50
0.000000
 51
0.000000
  0
LINE
  8
1
 62
7
  6
CONTINUOUS
 10
109.445633
 20
144.602685
 11
109.445633
 21
131.900979
  0
LINE
  8
1
 62
7
  6
CONTINUOUS
 10
109.445633
 20
147.051832
 11
109.445633
 21
129.451832
  0
LINE
  8
1
 62
7
  6
CONTINUOUS
 10
114.445633
 20
147.051832
 11
114.445633
 21
129.451832
  0
LINE
  8
1
 62
7
  6
CONTINUOUS
 10
117.445633
 20
129.451832
 11
117.445633
 21
147.051832
  0
LINE
  8
1
 62
7
  6
CONTINUOUS
 10
109.445633
 20
144.251832
 11
111.445633
 21
144.251832
  0
LINE
  8
1
 62
7
  6
CONTINUOUS
 10
109.445633
 20
132.251832
 11
111.445633
 21
132.251832
  0
LINE
  8
1
 62
4
  6
CONTINUOUS
 10
109.445633
 20
147.051832
 11
106.445633
 21
147.051832
  0
LINE
  8
1
 62
4
  6
CONTINUOUS
 10
106.445633
 20
129.451832
 11
109.445633
 21
129.451832
  0
LINE
  8
1
 62
7
  6
CONTINUOUS
 10
114.445633
 20
143.308239
 11
117.445633
 21
143.308239
  0
LINE
  8
1
 62
7
  6
CONTINUOUS
 10
114.445633
 20
141.995426
 11
117.445633
 21
141.995426
  0
LINE
  8
1
 62
7
  6
CONTINUOUS
 10
114.445633
 20
134.508239
 11
117.445633
 21
134.508239
  0
LINE
  8
1
 62
7
  6
CONTINUOUS
 10
114.445633
 20
133.195426
 11
117.445633
 21
133.195426
  0
LINE
  8
1
 62
7
  6
CONTINUOUS
 10
106.445633
 20
143.308239
 11
109.445633
 21
143.308239
  0
LINE
  8
1
 62
7
  6
CONTINUOUS
 10
106.445633
 20
141.995426
 11
109.445633
 21
141.995426
  0
LINE
  8
1
 62
7
  6
CONTINUOUS
 10
106.445633
 20
134.508239
 11
109.445633
 21
134.508239
  0
LINE
  8
1
 62
7
  6
CONTINUOUS
 10
106.445633
 20
133.195426
 11
109.445633
 21
133.195426
  0
LINE
  8
1
 62
7
  6
CONTINUOUS
 10
114.445633
 20
147.051832
 11
117.445633
 21
147.051832
  0
LINE
  8
1
 62
7
  6
CONTINUOUS
 10
114.445633
 20
129.451832
 11
117.445633
 21
129.451832
  0
LINE
  8
1
 62
7
  6
CONTINUOUS
 10
111.445633
 20
146.251832
 11
111.445633
 21
130.251832
  0
LINE
  8
1
 62
4
  6
CONTINUOUS
 10
121.445633
 20
146.251832
 11
117.445633
 21
146.251832
  0
LINE
  8
1
 62
4
  6
CONTINUOUS
 10
114.445633
 20
146.251832
 11
111.445633
 21
146.251832
  0
LINE
  8
1
 62
4
  6
CONTINUOUS
 10
111.445633
 20
130.251832
 11
114.445633
 21
130.251832
  0
LINE
  8
1
 62
4
  6
CONTINUOUS
 10
117.445633
 20
130.251832
 11
121.445633
 21
130.251832
  0
ARC
  8
1
 62
4
  6
CONTINUOUS
 10
121.445633
 20
132.251832
 40
2.000000
 50
-90.000000
 51
0.000000
  0
LINE
  8
1
 62
4
  6
CONTINUOUS
 10
123.445633
 20
132.251832
 11
123.445633
 21
144.251832
  0
ARC
  8
1
 62
4
  6
CONTINUOUS
 10
121.445633
 20
144.251832
 40
2.000000
 50
0.000000
 51
90.000000
  0
LINE
  8
1
 62
7
  6
CONTINUOUS
 10
123.445633
 20
134.751832
 11
143.513371
 21
134.751832
  0
LINE
  8
1
 62
54
  6
CONTINUOUS
 10
32.944695
 20
129.751832
 11
32.944695
 21
146.751832
  0
LINE
  8
1
 62
54
  6
CONTINUOUS
 10
32.944695
 20
129.751832
 11
33.444695
 21
129.251832
  0
LINE
  8
1
 62
54
  6
CONTINUOUS
 10
32.944695
 20
146.751832
 11
33.444695
 21
147.251832
  0
LINE
  8
1
 62
54
  6
CONTINUOUS
 10
57.944695
 20
130.693757
 11
57.944695
 21
131.334332
  0
LINE
  8
1
 62
7
  6
DASHDOT
 10
31.200430
 20
138.251832
 11
64.707214
 21
138.251832
  0
LINE
  8
1
 62
54
  6
CONTINUOUS
 10
57.944695
 20
147.251832
 11
33.444695
 21
147.251832
  0
LINE
  8
1
 62
54
  6
CONTINUOUS
 10
57.944695
 20
129.251832
 11
33.444695
 21
129.251832
  0
LINE
  8
1
 62
54
  6
CONTINUOUS
 10
57.944695
 20
129.251832
 11
57.944695
 21
131.334332
  0
LINE
  8
1
 62
7
  6
DOT
 10
37.944695
 20
130.251842
 11
39.944695
 21
130.251842
  0
LINE
  8
1
 62
7
  6
DOT
 10
37.944695
 20
130.701832
 11
32.944695
 21
130.701832
  0
LINE
  8
1
 62
7
  6
DOT
 10
37.944695
 20
146.251822
 11
39.944695
 21
146.251822
  0
LINE
  8
1
 62
7
  6
DOT
 10
37.944695
 20
145.801832
 11
32.944695
 21
145.801832
  0
LINE
  8
1
 62
54
  6
DOT
 10
37.944695
 20
146.251822
 11
37.944695
 21
130.251842
  0
LINE
  8
1
 62
7
  6
DOT
 10
37.944695
 20
146.251822
 11
32.944695
 21
146.251822
  0
LINE
  8
1
 62
7
  6
DOT
 10
37.944695
 20
130.251842
 11
32.944695
 21
130.251842
  0
LINE
  8
1
 62
54
  6
DOT
 10
39.944695
 20
130.251842
 11
39.944695
 21
146.251822
  0
LINE
  8
1
 62
54
  6
DOT
 10
56.444695
 20
133.251832
 11
39.944695
 21
133.251832
  0
LINE
  8
1
 62
54
  6
DOT
 10
56.444695
 20
143.251832
 11
39.944695
 21
143.251832
  0
LINE
  8
1
 62
54
  6
CONTINUOUS
 10
57.944695
 20
147.251832
 11
57.944695
 21
131.334332
  0
LINE
  8
1
 62
54
  6
DOT
 10
62.944695
 20
146.251832
 11
62.944695
 21
130.251832
  0
LINE
  8
1
 62
54
  6
DOT
 10
58.944695
 20
146.251832
 11
62.944695
 21
146.251832
  0
LINE
  8
1
 62
54
  6
DOT
 10
62.944695
 20
145.169332
 11
58.944695
 21
145.169332
  0
LINE
  8
1
 62
54
  6
DOT
 10
58.944695
 20
146.251832
 11
58.944695
 21
145.169332
  0
LINE
  8
1
 62
54
  6
DOT
 10
58.944695
 20
145.169332
 11
57.944695
 21
145.169332
  0
LINE
  8
1
 62
54
  6
DOT
 10
58.944695
 20
130.251832
 11
62.944695
 21
130.251832
  0
LINE
  8
1
 62
54
  6
DOT
 10
62.944695
 20
131.334332
 11
58.944695
 21
131.334332
  0
LINE
  8
1
 62
54
  6
DOT
 10
58.944695
 20
130.251832
 11
58.944695
 21
131.334332
  0
LINE
  8
1
 62
54
  6
DOT
 10
58.944695
 20
131.334332
 11
57.944695
 21
131.334332
  0
DIMENSION
  8
2
 62
134
  6
CONTINUOUS
  2
*D13
 10
32.944695
 20
158.535098
 11
45.444695
 21
158.535098
 70
     0
  1
25
 13
32.944695
 23
147.751832
 14
57.944695
 24
148.251832
 50
0.000000
  0
DIMENSION
  8
2
 62
134
  6
CONTINUOUS
  2
*D14
 10
272.866518
 20
147.051832
 11
272.866518
 21
138.251832
 70
     0
  1
17.6
 13
256.688188
 23
147.051832
 14
256.562271
 24
129.451832
 50
-90.000000
  0
DIMENSION
  8
2
 62
134
  6
CONTINUOUS
  2
*D15
 10
280.304074
 20
153.251832
 11
280.304074
 21
138.251832
 70
     0
  1
30
 13
267.504318
 23
153.251832
 14
267.504318
 24
123.251832
 50
-90.000000
  0
DIMENSION
  8
2
 62
134
  6
CONTINUOUS
  2
*D16
 10
26.233560
 20
129.251832
 11
26.233560
 21
142.065241
 70
     0
  1
φ18
 13
32.444695
 23
129.251832
 14
32.444695
 24
147.251832
 50
90.000000
  0
DIMENSION
  8
2
 62
134
  6
CONTINUOUS
  2
*D17
 10
18.556487
 20
123.251832
 11
18.556487
 21
130.751832
 70
     0
  1
15
 13
59.945633
 23
123.251832
 14
55.444672
 24
138.251832
 50
90.000000
  0
TEXT
  8
5
 62
7
  6
CONTINUOUS
 10
235.690938
 20
20.406457
 40
4.000000
 41
1.000000
  1
００５－０６５－Ａ０１７
  7
KANJI
 50
0.000000
 51
0.000000
  0
TEXT
  8
5
 62
7
  6
CONTINUOUS
 10
172.772351
 20
27.782285
 40
4.000000
 41
1.000000
  1
2015/8/20
  7
KANJI
 50
-0.091868
 51
0.000000
  0
TEXT
  8
5
 62
7
  6
CONTINUOUS
 10
239.646523
 20
27.426947
 40
4.000000
 41
1.000000
  1
ＨＸ－Ｃ６
  7
KANJI
 50
0.000000
 51
0.000000
  0
LINE
  8
2
 62
7
  6
CONTINUOUS
 10
44.405515
 20
129.251832
 11
32.208769
 21
108.251832
  0
LINE
  8
2
 62
7
  6
CONTINUOUS
 10
32.208769
 20
108.251832
 11
15.981978
 21
108.251832
  0
TEXT
  8
2
 62
7
  6
CONTINUOUS
 10
15.981978
 20
108.251832
 40
4.000000
 41
1.000000
  1
遮光ﾌｰﾄﾞ
  7
KANJI
 50
0.000000
 51
30.000000
  0
LINE
  8
2
 62
7
  6
CONTINUOUS
 10
44.405515
 20
129.251832
 11
43.882892
 21
127.321323
  0
LINE
  8
2
 62
7
  6
CONTINUOUS
 10
44.405515
 20
129.251832
 11
42.987656
 21
127.841274
  0
LINE
  8
2
 62
7
  6
CONTINUOUS
 10
43.882892
 20
127.321323
 11
42.987656
 21
127.841274
  0
LINE
  8
2
 62
7
  6
CONTINUOUS
 10
44.162955
 20
128.834199
 11
43.901643
 21
127.868944
  0
LINE
  8
2
 62
7
  6
CONTINUOUS
 10
44.162955
 20
128.834199
 11
43.454025
 21
128.128920
  0
LINE
  8
2
 62
7
  6
CONTINUOUS
 10
43.901643
 20
127.868944
 11
43.454025
 21
128.128920
  0
TEXT
  8
2
 62
134
  6
CONTINUOUS
 10
10.886859
 20
103.974743
 40
4.000000
 41
1.000000
  1
TMFX-10-25 別売
  7
KANJI
 50
0.000000
 51
30.000000
  0
LINE
  8
2
 62
7
  6
CONTINUOUS
 10
60.686663
 20
133.251832
 11
50.778186
 21
97.094263
  0
LINE
  8
2
 62
7
  6
CONTINUOUS
 10
50.778186
 20
97.094263
 11
41.575084
 21
97.094263
  0
TEXT
  8
2
 62
7
  6
CONTINUOUS
 10
41.575084
 20
97.094263
 40
4.000000
 41
1.000000
  1
ﾚﾝｽﾞ
  7
KANJI
 50
0.000000
 51
30.000000
  0
LINE
  8
2
 62
7
  6
CONTINUOUS
 10
60.686663
 20
133.251832
 11
60.675322
 21
131.251864
  0
LINE
  8
2
 62
7
  6
CONTINUOUS
 10
60.686663
 20
133.251832
 11
59.676858
 21
131.525480
  0
LINE
  8
2
 62
7
  6
CONTINUOUS
 10
60.675322
 20
131.251864
 11
59.676858
 21
131.525480
  0
LINE
  8
2
 62
7
  6
CONTINUOUS
 10
60.559020
 20
132.786042
 11
60.553349
 21
131.786058
  0
LINE
  8
2
 62
7
  6
CONTINUOUS
 10
60.559020
 20
132.786042
 11
60.054117
 21
131.922866
  0
LINE
  8
2
 62
7
  6
CONTINUOUS
 10
60.553349
 20
131.786058
 11
60.054117
 21
131.922866
  0
LINE
  8
10
 62
7
  6
CONTINUOUS
 10
19.025227
 20
54.684051
 11
86.524538
 21
54.684051
  0
LINE
  8
10
 62
7
  6
CONTINUOUS
 10
19.025227
 20
59.350601
 11
86.524538
 21
59.350601
  0
TEXT
  8
10
 62
7
  6
CONTINUOUS
 10
19.310498
 20
60.081450
 40
3.999900
 41
1.000000
  1
該当機種
  7
KANJI
 50
0.000000
 51
0.000000
  0
TEXT
  8
10
 62
7
  6
CONTINUOUS
 10
21.293582
 20
54.672117
 40
3.999900
 41
1.000000
  1
TMHX-TME0050-0200E011
  7
KANJI
 50
0.000000
 51
0.000000
  0
LINE
  8
10
 62
7
  6
CONTINUOUS
 10
19.025227
 20
59.350601
 11
19.025227
 21
50.017501
  0
LINE
  8
10
 62
7
  6
CONTINUOUS
 10
86.524538
 20
50.017501
 11
19.025227
 21
50.017501
  0
LINE
  8
10
 62
134
  6
CONTINUOUS
 10
86.524538
 20
59.350601
 11
86.524538
 21
50.017501
  0
TEXT
  8
10
 62
7
  6
CONTINUOUS
 10
21.293582
 20
50.005567
 40
3.999900
 41
1.000000
  1
TMHX-CME0250-0020E004
  7
KANJI
 50
0.000000
 51
0.000000
  0
TEXT
  8
5
 62
7
  6
CONTINUOUS
 10
239.646523
 20
34.938808
 40
4.000000
 41
1.000000
  1
ＴＭＨＸ　外形図
  7
KANJI
 50
0.000000
 51
0.000000
  0
ARC
  8
1
 62
7
  6
CONTINUOUS
 10
205.211491
 20
148.702320
 40
0.200000
 50
49.347308
 51
86.000000
  0
ARC
  8
1
 62
7
  6
CONTINUOUS
 10
191.611491
 20
150.351832
 40
0.200000
 50
-90.000000
 51
0.000000
  0
ARC
  8
1
 62
7
  6
CONTINUOUS
 10
189.311491
 20
149.751832
 40
0.400000
 50
90.000000
 51
180.000000
  0
ARC
  8
1
 62
7
  6
CONTINUOUS
 10
190.509174
 20
151.851832
 40
0.500000
 50
90.000000
 51
162.817149
  0
ARC
  8
1
 62
7
  6
CONTINUOUS
 10
190.711491
 20
151.851832
 40
0.500000
 50
33.507719
 51
90.000000
  0
ARC
  8
1
 62
7
  6
CONTINUOUS
 10
191.811491
 20
152.001832
 40
0.500000
 50
-146.492281
 51
-90.000000
  0
ARC
  8
1
 62
7
  6
CONTINUOUS
 10
189.411491
 20
148.951832
 40
0.500000
 50
180.000000
 51
-109.144553
  0
ARC
  8
1
 62
7
  6
CONTINUOUS
 10
196.811491
 20
149.351832
 40
0.500000
 50
180.000000
 51
-90.000000
  0
ARC
  8
1
 62
7
  6
CONTINUOUS
 10
206.811491
 20
129.101832
 40
0.600000
 50
-90.000000
 51
0.000000
  0
ARC
  8
1
 62
7
  6
CONTINUOUS
 10
206.811491
 20
148.251832
 40
0.600000
 50
0.000000
 51
90.000000
  0
ARC
  8
1
 62
7
  6
CONTINUOUS
 10
192.711491
 20
150.601832
 40
0.900000
 50
90.000000
 51
180.000000
  0
ARC
  8
1
 62
7
  6
CONTINUOUS
 10
206.411491
 20
149.051832
 40
1.000000
 50
0.000000
 51
90.000000
  0
ARC
  8
1
 62
7
  6
CONTINUOUS
 10
195.311491
 20
150.501832
 40
1.000000
 50
0.000000
 51
90.000000
  0
ARC
  8
1
 62
7
  6
CONTINUOUS
 10
203.282760
 20
154.731832
 40
4.680000
 50
-109.747638
 51
-90.000000
  0
LINE
  8
1
 62
7
  6
CONTINUOUS
 10
193.211491
 20
128.301832
 11
191.811491
 21
128.301832
  0
LINE
  8
1
 62
7
  6
CONTINUOUS
 10
206.811491
 20
128.501832
 11
193.211491
 21
128.501832
  0
LINE
  8
1
 62
7
  6
CONTINUOUS
 10
207.411491
 20
129.201832
 11
191.811491
 21
129.201832
  0
LINE
  8
1
 62
7
  6
CONTINUOUS
 10
191.811491
 20
129.551832
 11
201.811491
 21
129.551832
  0
LINE
  8
1
 62
7
  6
CONTINUOUS
 10
188.911491
 20
148.951832
 11
188.911491
 21
149.751832
  0
LINE
  8
1
 62
7
  6
CONTINUOUS
 10
190.911491
 20
147.501832
 11
190.911491
 21
147.901832
  0
LINE
  8
1
 62
7
  6
CONTINUOUS
 10
191.811491
 20
147.001832
 11
191.811491
 21
128.301832
  0
LINE
  8
1
 62
7
  6
CONTINUOUS
 10
191.811491
 20
150.351832
 11
191.811491
 21
150.601832
  0
LINE
  8
1
 62
7
  6
CONTINUOUS
 10
193.211491
 20
128.501832
 11
193.211491
 21
128.301832
  0
LINE
  8
1
 62
7
  6
CONTINUOUS
 10
196.311491
 20
150.501832
 11
196.311491
 21
149.351832
  0
LINE
  8
1
 62
7
  6
CONTINUOUS
 10
191.128397
 20
152.127857
 11
191.394585
 21
151.725808
  0
LINE
  8
1
 62
7
  6
CONTINUOUS
 10
198.261491
 20
148.851832
 11
198.261491
 21
146.951832
  0
LINE
  8
1
 62
7
  6
CONTINUOUS
 10
199.241491
 20
150.573504
 11
199.241491
 21
151.023504
  0
LINE
  8
1
 62
7
  6
CONTINUOUS
 10
191.811491
 20
147.001832
 11
190.911491
 21
147.501832
  0
LINE
  8
1
 62
7
  6
CONTINUOUS
 10
201.811491
 20
130.812409
 11
201.811491
 21
129.551832
  0
LINE
  8
1
 62
7
  6
CONTINUOUS
 10
201.811491
 20
131.673948
 11
201.811491
 21
130.829717
  0
LINE
  8
1
 62
7
  6
CONTINUOUS
 10
201.811491
 20
132.812409
 11
201.811491
 21
131.691255
  0
LINE
  8
1
 62
7
  6
CONTINUOUS
 10
201.811491
 20
133.673948
 11
201.811491
 21
132.829717
  0
LINE
  8
1
 62
7
  6
CONTINUOUS
 10
201.811491
 20
134.812409
 11
201.811491
 21
133.691255
  0
LINE
  8
1
 62
7
  6
CONTINUOUS
 10
201.811491
 20
135.673948
 11
201.811491
 21
134.829717
  0
LINE
  8
1
 62
7
  6
CONTINUOUS
 10
201.811491
 20
136.812409
 11
201.811491
 21
135.691255
  0
LINE
  8
1
 62
7
  6
CONTINUOUS
 10
201.811491
 20
137.673948
 11
201.811491
 21
136.829717
  0
LINE
  8
1
 62
7
  6
CONTINUOUS
 10
201.811491
 20
138.812409
 11
201.811491
 21
137.691255
  0
LINE
  8
1
 62
7
  6
CONTINUOUS
 10
201.811491
 20
139.673948
 11
201.811491
 21
138.829717
  0
LINE
  8
1
 62
7
  6
CONTINUOUS
 10
201.811491
 20
140.812409
 11
201.811491
 21
139.691255
  0
LINE
  8
1
 62
7
  6
CONTINUOUS
 10
201.811491
 20
141.673948
 11
201.811491
 21
140.829717
  0
LINE
  8
1
 62
7
  6
CONTINUOUS
 10
201.811491
 20
142.812409
 11
201.811491
 21
141.691255
  0
LINE
  8
1
 62
7
  6
CONTINUOUS
 10
201.811491
 20
143.673948
 11
201.811491
 21
142.829717
  0
LINE
  8
1
 62
7
  6
CONTINUOUS
 10
201.811491
 20
144.812409
 11
201.811491
 21
143.691255
  0
LINE
  8
1
 62
7
  6
CONTINUOUS
 10
201.811491
 20
145.673948
 11
201.811491
 21
144.829717
  0
LINE
  8
1
 62
7
  6
CONTINUOUS
 10
201.811491
 20
146.951832
 11
201.811491
 21
145.691255
  0
LINE
  8
1
 62
7
  6
CONTINUOUS
 10
190.911491
 20
147.901832
 11
189.247515
 21
148.479485
  0
LINE
  8
1
 62
7
  6
CONTINUOUS
 10
191.811491
 20
146.951832
 11
201.811491
 21
146.951832
  0
LINE
  8
1
 62
7
  6
CONTINUOUS
 10
198.261491
 20
147.301832
 11
191.271491
 21
147.301832
  0
LINE
  8
1
 62
7
  6
CONTINUOUS
 10
207.411491
 20
147.551832
 11
198.261491
 21
147.551832
  0
LINE
  8
1
 62
7
  6
CONTINUOUS
 10
206.811491
 20
148.851832
 11
196.811491
 21
148.851832
  0
LINE
  8
1
 62
7
  6
CONTINUOUS
 10
196.257721
 20
150.808201
 11
196.911491
 21
150.573504
  0
LINE
  8
1
 62
7
  6
CONTINUOUS
 10
207.411491
 20
149.051832
 11
207.411491
 21
129.101832
  0
LINE
  8
1
 62
7
  6
CONTINUOUS
 10
203.282760
 20
150.051832
 11
206.411491
 21
150.051832
  0
LINE
  8
1
 62
7
  6
CONTINUOUS
 10
189.311491
 20
150.151832
 11
191.611491
 21
150.151832
  0
LINE
  8
1
 62
7
  6
CONTINUOUS
 10
205.225442
 20
148.901832
 11
196.311491
 21
149.525157
  0
LINE
  8
1
 62
7
  6
CONTINUOUS
 10
199.761491
 20
151.023504
 11
201.701491
 21
150.327063
  0
LINE
  8
1
 62
7
  6
CONTINUOUS
 10
196.911491
 20
150.573504
 11
199.241491
 21
150.573504
  0
LINE
  8
1
 62
7
  6
CONTINUOUS
 10
199.241491
 20
151.023504
 11
199.761491
 21
151.023504
  0
LINE
  8
1
 62
7
  6
CONTINUOUS
 10
189.460135
 20
150.151832
 11
190.031491
 21
151.999543
  0
LINE
  8
1
 62
7
  6
CONTINUOUS
 10
191.811491
 20
151.501832
 11
195.311491
 21
151.501832
  0
LINE
  8
1
 62
7
  6
CONTINUOUS
 10
190.509174
 20
152.351832
 11
190.711491
 21
152.351832
  0
LINE
  8
1
 62
7
  6
CONTINUOUS
 10
191.811491
 20
133.851832
 11
185.699774
 21
133.851832
  0
LINE
  8
1
 62
7
  6
CONTINUOUS
 10
191.811491
 20
132.651832
 11
185.675283
 21
132.651832
  0
LINE
  8
1
 62
7
  6
CONTINUOUS
 10
191.811491
 20
135.851832
 11
185.699774
 21
135.851832
  0
LINE
  8
1
 62
7
  6
CONTINUOUS
 10
191.811491
 20
134.651832
 11
185.675283
 21
134.651832
  0
LINE
  8
1
 62
7
  6
CONTINUOUS
 10
191.811491
 20
137.851832
 11
185.699774
 21
137.851832
  0
LINE
  8
1
 62
7
  6
CONTINUOUS
 10
191.811491
 20
136.651832
 11
185.675283
 21
136.651832
  0
LINE
  8
1
 62
7
  6
CONTINUOUS
 10
191.811491
 20
142.651832
 11
185.699774
 21
142.651832
  0
LINE
  8
1
 62
7
  6
CONTINUOUS
 10
191.811491
 20
143.851832
 11
185.675283
 21
143.851832
  0
LINE
  8
1
 62
7
  6
CONTINUOUS
 10
191.811491
 20
140.651832
 11
185.699774
 21
140.651832
  0
LINE
  8
1
 62
7
  6
CONTINUOUS
 10
191.811491
 20
141.851832
 11
185.675283
 21
141.851832
  0
LINE
  8
1
 62
7
  6
CONTINUOUS
 10
191.811491
 20
138.651832
 11
185.699774
 21
138.651832
  0
LINE
  8
1
 62
7
  6
CONTINUOUS
 10
191.811491
 20
139.851832
 11
185.675283
 21
139.851832
  0
LINE
  8
1
 62
7
  6
CONTINUOUS
 10
191.811491
 20
131.851832
 11
185.699774
 21
131.851832
  0
LINE
  8
1
 62
7
  6
CONTINUOUS
 10
191.811491
 20
130.651832
 11
185.675283
 21
130.651832
  0
LINE
  8
1
 62
7
  6
CONTINUOUS
 10
191.811491
 20
144.651832
 11
185.699774
 21
144.651832
  0
LINE
  8
1
 62
7
  6
CONTINUOUS
 10
191.811491
 20
145.851832
 11
185.675283
 21
145.851832
  0
LINE
  8
2
 62
134
  6
CONTINUOUS
 10
196.853793
 20
128.301832
 11
204.875915
 21
118.251832
  0
LINE
  8
2
 62
134
  6
CONTINUOUS
 10
204.875915
 20
118.251832
 11
225.214120
 21
118.251832
  0
TEXT
  8
2
 62
134
  6
CONTINUOUS
 10
205.214120
 20
118.251832
 40
4.000000
 41
1.000000
  1
　出力ｺﾈｸﾀ
  7
KANJI
 50
0.000000
 51
30.000000
  0
LINE
  8
2
 62
134
  6
CONTINUOUS
 10
196.853793
 20
128.301832
 11
198.463531
 21
127.114927
  0
LINE
  8
2
 62
134
  6
CONTINUOUS
 10
196.853793
 20
128.301832
 11
197.654414
 21
126.469073
  0
LINE
  8
2
 62
134
  6
CONTINUOUS
 10
198.463531
 20
127.114927
 11
197.654414
 21
126.469073
  0
LINE
  8
2
 62
134
  6
CONTINUOUS
 10
197.155088
 20
127.924374
 11
197.959957
 21
127.330922
  0
LINE
  8
2
 62
134
  6
CONTINUOUS
 10
197.155088
 20
127.924374
 11
197.555399
 21
127.007995
  0
LINE
  8
2
 62
134
  6
CONTINUOUS
 10
197.959957
 20
127.330922
 11
197.555399
 21
127.007995
  0
DIMENSION
  8
2
 62
134
  6
CONTINUOUS
  2
*D18
 10
239.767818
 20
99.620666
 11
247.767818
 21
99.620666
 70
     0
  1
16
 13
239.767818
 23
124.256406
 14
255.767818
 24
124.256406
 50
0.000000
  0
TEXT
  8
2
 62
7
  6
DOT
 10
183.621873
 20
42.952127
 40
5.000000
 41
1.000000
  1
1
  7
KANJI
 50
0.000000
 51
0.000000
  0
LINE
  8
2
 62
134
  6
CONTINUOUS
 10
184.822375
 20
47.737309
 11
182.426524
 21
43.587574
  0
LINE
  8
2
 62
134
  6
CONTINUOUS
 10
182.426524
 20
43.587574
 11
187.218226
 21
43.587574
  0
LINE
  8
2
 62
134
  6
CONTINUOUS
 10
187.218226
 20
43.587574
 11
184.822375
 21
47.737309
  0
TEXT
  8
2
 62
7
  6
DOT
 10
190.331183
 20
108.609599
 40
5.000000
 41
1.000000
  1
1
  7
KANJI
 50
0.000000
 51
0.000000
  0
LINE
  8
2
 62
134
  6
CONTINUOUS
 10
191.531685
 20
113.394781
 11
189.135834
 21
109.245046
  0
LINE
  8
2
 62
134
  6
CONTINUOUS
 10
189.135834
 20
109.245046
 11
193.927536
 21
109.245046
  0
LINE
  8
2
 62
134
  6
CONTINUOUS
 10
193.927536
 20
109.245046
 11
191.531685
 21
113.394781
  0
TEXT
  8
2
 62
134
  6
CONTINUOUS
 10
190.742135
 20
44.254931
 40
4.000000
 41
1.000000
  1
XN2A-1870（オムロン）表記削除　2021/7/7　保田
  7
KANJI
 50
0.000000
 51
30.000000
  0
ENDSEC
  0
EOF
