  0
SECTION
  2
HEADER
  9
$ACADVER
  1
AC1009
  9
$INSBASE
 10
0.000000
 20
0.000000
  9
$EXTMIN
 10
0.000000
 20
0.000000
  9
$EXTMAX
 10
105.000000
 20
148.500000
  9
$LIMMIN
 10
0.000000
 20
0.000000
  9
$LIMMAX
 10
105.000000
 20
148.500000
  9
$VIEWCTR
 10
52.500000
 20
74.250000
  9
$VIEWSIZE
 40
148.500000
  9
$PEXTMIN
 10
0.000000
 20
0.000000
 30
0.000000
  9
$PEXTMAX
 10
210.000000
 20
297.000000
 30
0.000000
  9
$SNAPMODE
 70
     0
  9
$SNAPUNIT
 10
1.000000
 20
1.000000
  9
$SNAPBASE
 10
0.000000
 20
0.000000
  9
$SNAPANG
 50
0.000000
  9
$SNAPISOPAIR
 70
     0
  9
$SNAPSTYLE
 70
     0
  9
$GRIDMODE
 70
     0
  9
$GRIDUNIT
 10
0.000000
 20
0.000000
  9
$ORTHOMODE
 70
     0
  9
$REGENMODE
 70
     1
  9
$FILLMODE
 70
     1
  9
$QTEXTMODE
 70
     0
  9
$DRAGMODE
 70
     2
  9
$LTSCALE
 40
0.125000
  9
$OSMODE
 70
     0
  9
$ATTMODE
 70
     1
  9
$TEXTSIZE
 40
2.000000
  9
$TRACEWID
 40
0.050000
  9
$TEXTSTYLE
  7
STANDARD
  9
$CLAYER
  8
0
  9
$CELTYPE
  6
BYLAYER
  9
$CECOLOR
 62
   256
  9
$DIMSCALE
 40
1.000000
  9
$DIMASZ
 40
1.000000
  9
$DIMEXO
 40
0.000000
  9
$DIMDLI
 40
0.500000
  9
$DIMRND
 40
0.000000
  9
$DIMDLE
 40
0.000000
  9
$DIMEXE
 40
0.000000
  9
$DIMTP
 40
0.000000
  9
$DIMTM
 40
0.000000
  9
$DIMTXT
 40
4.000000
  9
$DIMCEN
 40
0.000000
  9
$DIMTSZ
 40
0.000000
  9
$DIMTOL
 70
     0
  9
$DIMLIM
 70
     0
  9
$DIMTIH
 70
     1
  9
$DIMTOH
 70
     1
  9
$DIMSE1
 70
     0
  9
$DIMSE2
 70
     0
  9
$DIMTAD
 70
     0
  9
$DIMZIN
 70
     0
  9
$DIMBLK
  1

  9
$DIMASO
 70
     0
  9
$DIMSHO
 70
     0
  9
$DIMPOST
  1

  9
$DIMAPOST
  1

  9
$DIMALT
 70
     0
  9
$DIMALTD
 70
     0
  9
$DIMALTF
 40
25.400000
  9
$DIMLFAC
 40
1.000000
  9
$DIMTOFL
 70
     0
  9
$DIMTVP
 40
0.000000
  9
$DIMTIX
 70
     0
  9
$DIMSOXD
 70
     0
  9
$DIMSAH
 70
     0
  9
$DIMBLKL
  1

  9
$DIMBLKR
  1

  9
$LUNITS
 70
     2
  9
$LUPREC
 70
     2
  9
$AXISMODE
 70
     0
  9
$AXISUNIT
 10
1.000000
 20
1.000000
  9
$SKETCHINC
 40
0.000000
  9
$FILLETRAD
 40
0.000000
  9
$AUNITS
 70
     1
  9
$AUPREC
 70
     2
  9
$MENU
  1
ACAD
  9
$ELEVATION
 40
0.000000
  9
$THICKNESS
 40
0.000000
  9
$VIEWDIR
 10
0.000000
 20
0.000000
 30
1.000000
  9
$LIMCHECK
 70
     1
  9
$BLIPMODE
 70
     1
  9
$CHAMFERA
 40
0.000000
  9
$CHAMFERB
 40
0.000000
  9
$FASTZOOM
 70
     1
  9
$SKPOLY
 70
     0
  9
$TDCREATE
 40
0.000000
  9
$TDUPDATE
 40
0.000000
  9
$TDINDWG
 40
0.000000
  9
$TDUSRTIMER
 40
0.000000
  9
$USRTIMER
 70
     1
  9
$ANGBASE
 50
0.000000
  9
$ANGDIR
 70
     0
  9
$PDMODE
 70
     0
  9
$PDSIZE
 40
0.000000
  9
$PLINEWID
 40
0.000000
  9
$COORDS
 70
     2
  9
$USERI1
 70
     0
  9
$USERI2
 70
     0
  9
$USERI3
 70
     0
  9
$USERI4
 70
     0
  9
$USERI5
 70
     0
  9
$USERR1
 40
0.000000
  9
$USERR2
 40
0.000000
  9
$USERR3
 40
0.000000
  9
$USERR4
 40
0.000000
  9
$USERR5
 40
0.000000
  0
ENDSEC
  0
SECTION
  2
TABLES
  0
TABLE
  2
LTYPE
 70
     5
  0
LTYPE
  2
CONTINUOUS
 70
    64
  3
Solid line
 72
    65
 73
     0
 40
0.0
  0
LTYPE
  2
HIDDEN
 70
    64
  3
------------------------
 72
    65
 73
     2
 40
12.6
 49
8.4
 49
-4.2
  0
LTYPE
  2
DOT
 70
    64
  3
････････････････････････
 72
    65
 73
     2
 40
8.0
 49
6.0
 49
-2.0
  0
LTYPE
  2
DASHDOT
 70
    64
  3
--･--･--･--･--･--･--･--
 72
    65
 73
     4
 40
50.5
 49
30.0
 49
-9.0
 49
2.5
 49
-9.0
  0
LTYPE
  2
DIVIDE
 70
    64
  3
--･･--･･--･･--･･--･･--
 72
    65
 73
     6
 40
58.0
 49
30.0
 49
-9.0
 49
2.5
 49
-5.0
 49
2.5
 49
-9.0
  0
LTYPE
  2
ACAD_ISO06W100
 70
    64
  3
____ ... ____ ... ____
 72
    65
 73
     8
 40
37.5
 49
24.0
 49
-3.0
 49
0.5
 49
-3.0
 49
0.5
 49
-3.0
 49
0.5
 49
-3.0
  0
LTYPE
  2
ACAD_ISO14W100
 70
    64
  3
__ . . . __ . . . __ . . . 
 72
    65
 73
     8
 40
25.5
 49
12.0
 49
-3.0
 49
0.5
 49
-3.0
 49
0.5
 49
-3.0
 49
0.5
 49
-3.0
  0
ENDTAB
  0
TABLE
  2
LAYER
 70
3
  0
LAYER
  2
1
 70
64
 62
7
  6
CONTINUOUS
  0
LAYER
  2
2
 70
64
 62
134
  6
CONTINUOUS
  0
LAYER
  2
5
 70
64
 62
94
  6
CONTINUOUS
  0
ENDTAB
  0
TABLE
  2
STYLE
 70
     2
  0
STYLE
  2
STANDARD
 70
    64
 40
0.0
 41
1.0
 50
0.0
 71
     0
 42
0.2
  3
TXT
  4

  0
STYLE
  2
KANJI
 70
    64
 40
0.0
 41
1.0
 50
0.0
 71
     0
 42
0.2
  3
TXT
  4
BIGFONT
  0
ENDTAB
  0
TABLE
  2
VIEW
 70
     0
  0
ENDTAB
  0
ENDSEC
  0
SECTION
  2
BLOCKS
  0
BLOCK
  8
2
 62
134
  6
CONTINUOUS
  2
*D1
 70
    65
 10
0.0
 20
0.0
  0
LINE
  8
2
 62
134
  6
CONTINUOUS
 10
70.376015
 20
102.991935
 11
50.904366
 21
102.991935
  0
LINE
  8
2
 62
134
  6
CONTINUOUS
 10
58.404362
 20
102.991935
 11
59.370288
 21
103.250755
  0
LINE
  8
2
 62
134
  6
CONTINUOUS
 10
58.404362
 20
102.991935
 11
59.370288
 21
102.733116
  0
LINE
  8
2
 62
134
  6
CONTINUOUS
 10
59.370288
 20
103.250755
 11
59.370288
 21
102.733116
  0
LINE
  8
2
 62
134
  6
CONTINUOUS
 10
58.645843
 20
102.991935
 11
59.128806
 21
103.121345
  0
LINE
  8
2
 62
134
  6
CONTINUOUS
 10
58.645843
 20
102.991935
 11
59.128806
 21
102.862526
  0
LINE
  8
2
 62
134
  6
CONTINUOUS
 10
59.128806
 20
103.121345
 11
59.128806
 21
102.862526
  0
LINE
  8
2
 62
134
  6
CONTINUOUS
 10
54.904366
 20
102.991935
 11
53.938440
 21
102.733116
  0
LINE
  8
2
 62
134
  6
CONTINUOUS
 10
54.904366
 20
102.991935
 11
53.938440
 21
103.250755
  0
LINE
  8
2
 62
134
  6
CONTINUOUS
 10
53.938440
 20
102.733116
 11
53.938440
 21
103.250755
  0
LINE
  8
2
 62
134
  6
CONTINUOUS
 10
54.662885
 20
102.991935
 11
54.179922
 21
102.862526
  0
LINE
  8
2
 62
134
  6
CONTINUOUS
 10
54.662885
 20
102.991935
 11
54.179922
 21
103.121345
  0
LINE
  8
2
 62
134
  6
CONTINUOUS
 10
54.179922
 20
102.862526
 11
54.179922
 21
103.121345
  0
TEXT
  8
2
 62
134
  6
CONTINUOUS
 10
59.876015
 20
102.991935
 40
2.000000
 41
1.000000
  1
φ3.5
  7
KANJI
 50
0.000000
 51
0.000000
  0
ENDBLK
  0
BLOCK
  8
2
 62
134
  6
CONTINUOUS
  2
*D2
 70
    65
 10
0.0
 20
0.0
  0
LINE
  8
2
 62
134
  6
CONTINUOUS
 10
74.090207
 20
108.654996
 11
74.090207
 21
99.154996
  0
LINE
  8
2
 62
134
  6
CONTINUOUS
 10
74.590207
 20
108.654996
 11
55.930734
 21
108.654996
  0
LINE
  8
2
 62
134
  6
CONTINUOUS
 10
74.590207
 20
99.154996
 11
55.930734
 21
99.154996
  0
LINE
  8
2
 62
134
  6
CONTINUOUS
 10
74.090207
 20
108.654996
 11
74.349026
 21
107.689070
  0
LINE
  8
2
 62
134
  6
CONTINUOUS
 10
74.090207
 20
108.654996
 11
73.831388
 21
107.689070
  0
LINE
  8
2
 62
134
  6
CONTINUOUS
 10
74.349026
 20
107.689070
 11
73.831388
 21
107.689070
  0
LINE
  8
2
 62
134
  6
CONTINUOUS
 10
74.090207
 20
108.413514
 11
74.219616
 21
107.930551
  0
LINE
  8
2
 62
134
  6
CONTINUOUS
 10
74.090207
 20
108.413514
 11
73.960797
 21
107.930551
  0
LINE
  8
2
 62
134
  6
CONTINUOUS
 10
74.219616
 20
107.930551
 11
73.960797
 21
107.930551
  0
LINE
  8
2
 62
134
  6
CONTINUOUS
 10
74.090207
 20
99.154996
 11
73.831388
 21
100.120922
  0
LINE
  8
2
 62
134
  6
CONTINUOUS
 10
74.090207
 20
99.154996
 11
74.349026
 21
100.120922
  0
LINE
  8
2
 62
134
  6
CONTINUOUS
 10
73.831388
 20
100.120922
 11
74.349026
 21
100.120922
  0
LINE
  8
2
 62
134
  6
CONTINUOUS
 10
74.090207
 20
99.396477
 11
73.960797
 21
99.879440
  0
LINE
  8
2
 62
134
  6
CONTINUOUS
 10
74.090207
 20
99.396477
 11
74.219616
 21
99.879440
  0
LINE
  8
2
 62
134
  6
CONTINUOUS
 10
73.960797
 20
99.879440
 11
74.219616
 21
99.879440
  0
TEXT
  8
2
 62
134
  6
CONTINUOUS
 10
74.090207
 20
100.654996
 40
2.000000
 41
0.500000
  1
9.5
  7
KANJI
 50
90.000000
 51
0.000000
  0
ENDBLK
  0
BLOCK
  8
2
 62
134
  6
CONTINUOUS
  2
*D3
 70
    65
 10
0.0
 20
0.0
  0
LINE
  8
2
 62
134
  6
CONTINUOUS
 10
52.362897
 20
110.073084
 11
64.493285
 21
110.073084
  0
LINE
  8
2
 62
134
  6
CONTINUOUS
 10
56.362897
 20
110.073084
 11
55.396971
 21
109.814265
  0
LINE
  8
2
 62
134
  6
CONTINUOUS
 10
56.362897
 20
110.073084
 11
55.396971
 21
110.331903
  0
LINE
  8
2
 62
134
  6
CONTINUOUS
 10
55.396971
 20
109.814265
 11
55.396971
 21
110.331903
  0
LINE
  8
2
 62
134
  6
CONTINUOUS
 10
56.121415
 20
110.073084
 11
55.638452
 21
109.943675
  0
LINE
  8
2
 62
134
  6
CONTINUOUS
 10
56.121415
 20
110.073084
 11
55.638452
 21
110.202494
  0
LINE
  8
2
 62
134
  6
CONTINUOUS
 10
55.638452
 20
109.943675
 11
55.638452
 21
110.202494
  0
LINE
  8
2
 62
134
  6
CONTINUOUS
 10
56.962897
 20
110.073084
 11
57.928822
 21
110.331903
  0
LINE
  8
2
 62
134
  6
CONTINUOUS
 10
56.962897
 20
110.073084
 11
57.928822
 21
109.814265
  0
LINE
  8
2
 62
134
  6
CONTINUOUS
 10
57.928822
 20
110.331903
 11
57.928822
 21
109.814265
  0
LINE
  8
2
 62
134
  6
CONTINUOUS
 10
57.204378
 20
110.073084
 11
57.687341
 21
110.202494
  0
LINE
  8
2
 62
134
  6
CONTINUOUS
 10
57.204378
 20
110.073084
 11
57.687341
 21
109.943675
  0
LINE
  8
2
 62
134
  6
CONTINUOUS
 10
57.687341
 20
110.202494
 11
57.687341
 21
109.943675
  0
TEXT
  8
2
 62
134
  6
CONTINUOUS
 10
59.493285
 20
110.073084
 40
2.000000
 41
1.000000
  1
φ0.6
  7
KANJI
 50
0.000000
 51
0.000000
  0
ENDBLK
  0
ENDSEC
  0
SECTION
  2
ENTITIES
  0
TEXT
  8
5
 62
94
  6
CONTINUOUS
 10
62.215971
 20
12.429830
 40
0.875000
 41
4.000000
  1
製図
  7
KANJI
 50
-90.000000
 51
0.000000
  0
TEXT
  8
5
 62
94
  6
CONTINUOUS
 10
72.132362
 20
12.347876
 40
0.875000
 41
4.000000
  1
図番
  7
KANJI
 50
-90.000000
 51
0.000000
  0
TEXT
  8
5
 62
94
  6
CONTINUOUS
 10
72.132362
 20
18.986121
 40
0.875000
 41
4.000000
  1
図　名
  7
KANJI
 50
-90.000000
 51
0.000000
  0
TEXT
  8
5
 62
94
  6
CONTINUOUS
 10
39.678720
 20
16.281651
 40
0.875000
 41
4.000000
  1
日付
  7
KANJI
 50
-90.000000
 51
0.000000
  0
TEXT
  8
5
 62
94
  6
CONTINUOUS
 10
57.216799
 20
16.363605
 40
0.875000
 41
4.000000
  1
図法
  7
KANJI
 50
-90.000000
 51
0.000000
  0
TEXT
  8
5
 62
94
  6
CONTINUOUS
 10
57.134846
 20
20.379333
 40
0.875000
 41
4.000000
  1
尺度
  7
KANJI
 50
-90.000000
 51
0.000000
  0
TEXT
  8
5
 62
94
  6
CONTINUOUS
 10
39.678720
 20
20.297379
 40
0.875000
 41
4.000000
  1
公差
  7
KANJI
 50
-90.000000
 51
0.000000
  0
TEXT
  8
5
 62
94
  6
CONTINUOUS
 10
39.678720
 20
12.347876
 40
0.875000
 41
4.000000
  1
承認
  7
KANJI
 50
-90.000000
 51
0.000000
  0
TEXT
  8
5
 62
94
  6
CONTINUOUS
 10
52.217627
 20
12.347876
 40
0.875000
 41
4.000000
  1
設計
  7
KANJI
 50
-90.000000
 51
0.000000
  0
TEXT
  8
5
 62
94
  6
CONTINUOUS
 10
48.939481
 20
5.381816
 40
2.250000
 41
1.888889
  1
ジャパンセンサー株式会社
  7
KANJI
 50
0.000000
 51
0.000000
  0
LINE
  8
5
 62
94
  6
CONTINUOUS
 10
39.234597
 20
20.604085
 11
99.234597
 21
20.604085
  0
LINE
  8
5
 62
94
  6
CONTINUOUS
 10
39.234597
 20
4.604085
 11
39.234597
 21
20.604085
  0
LINE
  8
5
 62
94
  6
CONTINUOUS
 10
99.234597
 20
8.604085
 11
39.234597
 21
8.604085
  0
LINE
  8
5
 62
94
  6
CONTINUOUS
 10
71.734597
 20
20.604085
 11
71.734597
 21
8.604085
  0
LINE
  8
5
 62
94
  6
CONTINUOUS
 10
99.234597
 20
12.604085
 11
39.234597
 21
12.604085
  0
LINE
  8
5
 62
94
  6
CONTINUOUS
 10
74.234597
 20
8.604085
 11
74.234597
 21
20.604085
  0
LINE
  8
5
 62
94
  6
CONTINUOUS
 10
59.234597
 20
20.604085
 11
59.234597
 21
12.604085
  0
LINE
  8
5
 62
94
  6
CONTINUOUS
 10
41.734597
 20
8.604085
 11
41.734597
 21
20.604085
  0
LINE
  8
5
 62
94
  6
CONTINUOUS
 10
39.234597
 20
16.604085
 11
71.734597
 21
16.604085
  0
LINE
  8
5
 62
94
  6
CONTINUOUS
 10
56.734597
 20
20.604085
 11
56.734597
 21
12.604085
  0
LINE
  8
5
 62
94
  6
CONTINUOUS
 10
51.734597
 20
8.604085
 11
51.734597
 21
12.604085
  0
LINE
  8
5
 62
94
  6
CONTINUOUS
 10
61.734597
 20
8.604085
 11
61.734597
 21
12.604085
  0
LINE
  8
5
 62
94
  6
CONTINUOUS
 10
54.234597
 20
12.604085
 11
54.234597
 21
8.604085
  0
LINE
  8
5
 62
94
  6
CONTINUOUS
 10
64.234597
 20
12.604085
 11
64.234597
 21
8.604085
  0
TEXT
  8
5
 62
94
  6
CONTINUOUS
 10
61.232528
 20
13.249366
 40
2.000000
 41
1.000000
  1
三角法
  7
KANJI
 50
0.000000
 51
0.000000
  0
TEXT
  8
5
 62
94
  6
CONTINUOUS
 10
55.824656
 20
9.573573
 40
2.000000
 41
1.000000
  1
須藤
  7
KANJI
 50
0.000000
 51
0.000000
  0
TEXT
  8
5
 62
94
  6
CONTINUOUS
 10
62.548081
 20
17.466289
 40
2.000000
 41
1.000000
  1
２／１
  7
KANJI
 50
0.000000
 51
0.000000
  0
TEXT
  8
5
 62
94
  6
CONTINUOUS
 10
65.824656
 20
9.573573
 40
2.000000
 41
1.000000
  1
須藤
  7
KANJI
 50
0.000000
 51
0.000000
  0
LINE
  8
5
 62
94
  6
CONTINUOUS
 10
6.734597
 20
142.104085
 11
6.734597
 21
4.604085
  0
LINE
  8
5
 62
94
  6
CONTINUOUS
 10
6.734597
 20
4.604085
 11
99.234597
 21
4.604085
  0
LINE
  8
5
 62
94
  6
CONTINUOUS
 10
99.234597
 20
4.604085
 11
99.234597
 21
142.104085
  0
LINE
  8
5
 62
94
  6
CONTINUOUS
 10
99.234597
 20
142.104085
 11
6.734597
 21
142.104085
  0
LINE
  8
1
 62
7
  6
CONTINUOUS
 10
57.895059
 20
99.154996
 11
57.896339
 21
99.155734
  0
LINE
  8
1
 62
7
  6
CONTINUOUS
 10
57.896339
 20
99.155734
 11
57.900144
 21
99.157931
  0
LINE
  8
1
 62
7
  6
CONTINUOUS
 10
57.900144
 20
99.157931
 11
57.906370
 21
99.161532
  0
LINE
  8
1
 62
7
  6
CONTINUOUS
 10
57.906370
 20
99.161532
 11
57.914846
 21
99.166464
  0
LINE
  8
1
 62
7
  6
CONTINUOUS
 10
57.914846
 20
99.166464
 11
57.925341
 21
99.172653
  0
LINE
  8
1
 62
7
  6
CONTINUOUS
 10
57.925341
 20
99.172653
 11
57.937566
 21
99.180032
  0
LINE
  8
1
 62
7
  6
CONTINUOUS
 10
57.937566
 20
99.180032
 11
57.951186
 21
99.188554
  0
LINE
  8
1
 62
7
  6
CONTINUOUS
 10
57.951186
 20
99.188554
 11
57.965825
 21
99.198180
  0
LINE
  8
1
 62
7
  6
CONTINUOUS
 10
57.965825
 20
99.198180
 11
57.981081
 21
99.208858
  0
LINE
  8
1
 62
7
  6
CONTINUOUS
 10
57.981081
 20
99.208858
 11
57.996534
 21
99.220492
  0
LINE
  8
1
 62
7
  6
CONTINUOUS
 10
57.996534
 20
99.220492
 11
58.011761
 21
99.232908
  0
LINE
  8
1
 62
7
  6
CONTINUOUS
 10
58.011761
 20
99.232908
 11
58.026344
 21
99.245821
  0
LINE
  8
1
 62
7
  6
CONTINUOUS
 10
58.026344
 20
99.245821
 11
58.039888
 21
99.258823
  0
LINE
  8
1
 62
7
  6
CONTINUOUS
 10
58.039888
 20
99.258823
 11
58.052025
 21
99.271391
  0
LINE
  8
1
 62
7
  6
CONTINUOUS
 10
58.052025
 20
99.271391
 11
58.062429
 21
99.282913
  0
LINE
  8
1
 62
7
  6
CONTINUOUS
 10
58.062429
 20
99.282913
 11
58.070822
 21
99.292747
  0
LINE
  8
1
 62
7
  6
CONTINUOUS
 10
58.070822
 20
99.292747
 11
58.076981
 21
99.300285
  0
LINE
  8
1
 62
7
  6
CONTINUOUS
 10
58.076981
 20
99.300285
 11
58.080743
 21
99.305029
  0
LINE
  8
1
 62
7
  6
CONTINUOUS
 10
58.080743
 20
99.305029
 11
58.082008
 21
99.306648
  0
LINE
  8
1
 62
7
  6
CONTINUOUS
 10
58.082008
 20
99.306648
 11
58.083272
 21
99.308280
  0
LINE
  8
1
 62
7
  6
CONTINUOUS
 10
58.083272
 20
99.308280
 11
58.087031
 21
99.313200
  0
LINE
  8
1
 62
7
  6
CONTINUOUS
 10
58.087031
 20
99.313200
 11
58.093173
 21
99.321473
  0
LINE
  8
1
 62
7
  6
CONTINUOUS
 10
58.093173
 20
99.321473
 11
58.101516
 21
99.333158
  0
LINE
  8
1
 62
7
  6
CONTINUOUS
 10
58.101516
 20
99.333158
 11
58.111799
 21
99.348258
  0
LINE
  8
1
 62
7
  6
CONTINUOUS
 10
58.111799
 20
99.348258
 11
58.123689
 21
99.366657
  0
LINE
  8
1
 62
7
  6
CONTINUOUS
 10
58.123689
 20
99.366657
 11
58.136788
 21
99.388073
  0
LINE
  8
1
 62
7
  6
CONTINUOUS
 10
58.136788
 20
99.388073
 11
58.150647
 21
99.412031
  0
LINE
  8
1
 62
7
  6
CONTINUOUS
 10
58.150647
 20
99.412031
 11
58.164791
 21
99.437869
  0
LINE
  8
1
 62
7
  6
CONTINUOUS
 10
58.164791
 20
99.437869
 11
58.178747
 21
99.464764
  0
LINE
  8
1
 62
7
  6
CONTINUOUS
 10
58.178747
 20
99.464764
 11
58.192072
 21
99.491798
  0
LINE
  8
1
 62
7
  6
CONTINUOUS
 10
58.192072
 20
99.491798
 11
58.204380
 21
99.518021
  0
LINE
  8
1
 62
7
  6
CONTINUOUS
 10
58.204380
 20
99.518021
 11
58.215365
 21
99.542523
  0
LINE
  8
1
 62
7
  6
CONTINUOUS
 10
58.215365
 20
99.542523
 11
58.224808
 21
99.564496
  0
LINE
  8
1
 62
7
  6
CONTINUOUS
 10
58.224808
 20
99.564496
 11
58.232575
 21
99.583270
  0
LINE
  8
1
 62
7
  6
CONTINUOUS
 10
58.232575
 20
99.583270
 11
58.238605
 21
99.598331
  0
LINE
  8
1
 62
7
  6
CONTINUOUS
 10
58.238605
 20
99.598331
 11
58.242890
 21
99.609316
  0
LINE
  8
1
 62
7
  6
CONTINUOUS
 10
58.242890
 20
99.609316
 11
58.245446
 21
99.615991
  0
LINE
  8
1
 62
7
  6
CONTINUOUS
 10
58.245446
 20
99.615991
 11
58.246296
 21
99.618229
  0
LINE
  8
1
 62
7
  6
CONTINUOUS
 10
58.246296
 20
99.618229
 11
58.247139
 21
99.620463
  0
LINE
  8
1
 62
7
  6
CONTINUOUS
 10
58.247139
 20
99.620463
 11
58.249615
 21
99.627085
  0
LINE
  8
1
 62
7
  6
CONTINUOUS
 10
58.249615
 20
99.627085
 11
58.253566
 21
99.637854
  0
LINE
  8
1
 62
7
  6
CONTINUOUS
 10
58.253566
 20
99.637854
 11
58.258754
 21
99.652403
  0
LINE
  8
1
 62
7
  6
CONTINUOUS
 10
58.258754
 20
99.652403
 11
58.264891
 21
99.670266
  0
LINE
  8
1
 62
7
  6
CONTINUOUS
 10
58.264891
 20
99.670266
 11
58.271674
 21
99.690919
  0
LINE
  8
1
 62
7
  6
CONTINUOUS
 10
58.271674
 20
99.690919
 11
58.278819
 21
99.713814
  0
LINE
  8
1
 62
7
  6
CONTINUOUS
 10
58.278819
 20
99.713814
 11
58.286079
 21
99.738397
  0
LINE
  8
1
 62
7
  6
CONTINUOUS
 10
58.286079
 20
99.738397
 11
58.293261
 21
99.764114
  0
LINE
  8
1
 62
7
  6
CONTINUOUS
 10
58.293261
 20
99.764114
 11
58.300220
 21
99.790404
  0
LINE
  8
1
 62
7
  6
CONTINUOUS
 10
58.300220
 20
99.790404
 11
58.306850
 21
99.816687
  0
LINE
  8
1
 62
7
  6
CONTINUOUS
 10
58.306850
 20
99.816687
 11
58.313067
 21
99.842340
  0
LINE
  8
1
 62
7
  6
CONTINUOUS
 10
58.313067
 20
99.842340
 11
58.318790
 21
99.866694
  0
LINE
  8
1
 62
7
  6
CONTINUOUS
 10
58.318790
 20
99.866694
 11
58.323927
 21
99.889037
  0
LINE
  8
1
 62
7
  6
CONTINUOUS
 10
58.323927
 20
99.889037
 11
58.328372
 21
99.908636
  0
LINE
  8
1
 62
7
  6
CONTINUOUS
 10
58.328372
 20
99.908636
 11
58.332004
 21
99.924781
  0
LINE
  8
1
 62
7
  6
CONTINUOUS
 10
58.332004
 20
99.924781
 11
58.334705
 21
99.936833
  0
LINE
  8
1
 62
7
  6
CONTINUOUS
 10
58.334705
 20
99.936833
 11
58.336373
 21
99.944283
  0
LINE
  8
1
 62
7
  6
CONTINUOUS
 10
58.336373
 20
99.944283
 11
58.336937
 21
99.946805
  0
LINE
  8
1
 62
7
  6
CONTINUOUS
 10
58.336937
 20
99.946805
 11
58.337503
 21
99.949334
  0
LINE
  8
1
 62
7
  6
CONTINUOUS
 10
58.337503
 20
99.949334
 11
58.339194
 21
99.956897
  0
LINE
  8
1
 62
7
  6
CONTINUOUS
 10
58.339194
 20
99.956897
 11
58.341989
 21
99.969412
  0
LINE
  8
1
 62
7
  6
CONTINUOUS
 10
58.341989
 20
99.969412
 11
58.345841
 21
99.986720
  0
LINE
  8
1
 62
7
  6
CONTINUOUS
 10
58.345841
 20
99.986720
 11
58.350666
 21
100.008546
  0
LINE
  8
1
 62
7
  6
CONTINUOUS
 10
58.350666
 20
100.008546
 11
58.356333
 21
100.034478
  0
LINE
  8
1
 62
7
  6
CONTINUOUS
 10
58.356333
 20
100.034478
 11
58.362657
 21
100.063934
  0
LINE
  8
1
 62
7
  6
CONTINUOUS
 10
58.362657
 20
100.063934
 11
58.369406
 21
100.096167
  0
LINE
  8
1
 62
7
  6
CONTINUOUS
 10
58.369406
 20
100.096167
 11
58.376311
 21
100.130274
  0
LINE
  8
1
 62
7
  6
CONTINUOUS
 10
58.376311
 20
100.130274
 11
58.383091
 21
100.165236
  0
LINE
  8
1
 62
7
  6
CONTINUOUS
 10
58.383091
 20
100.165236
 11
58.389481
 21
100.199970
  0
LINE
  8
1
 62
7
  6
CONTINUOUS
 10
58.389481
 20
100.199970
 11
58.395256
 21
100.233389
  0
LINE
  8
1
 62
7
  6
CONTINUOUS
 10
58.395256
 20
100.233389
 11
58.400252
 21
100.264462
  0
LINE
  8
1
 62
7
  6
CONTINUOUS
 10
58.400252
 20
100.264462
 11
58.404382
 21
100.292265
  0
LINE
  8
1
 62
7
  6
CONTINUOUS
 10
58.404382
 20
100.292265
 11
58.407627
 21
100.316016
  0
LINE
  8
1
 62
7
  6
CONTINUOUS
 10
58.407627
 20
100.316016
 11
58.410027
 21
100.335092
  0
LINE
  8
1
 62
7
  6
CONTINUOUS
 10
58.410027
 20
100.335092
 11
58.411655
 21
100.349028
  0
LINE
  8
1
 62
7
  6
CONTINUOUS
 10
58.411655
 20
100.349028
 11
58.412592
 21
100.357510
  0
LINE
  8
1
 62
7
  6
CONTINUOUS
 10
58.412592
 20
100.357510
 11
58.412897
 21
100.360357
  0
LINE
  8
1
 62
7
  6
CONTINUOUS
 10
58.412897
 20
100.360357
 11
58.413196
 21
100.363200
  0
LINE
  8
1
 62
7
  6
CONTINUOUS
 10
58.413196
 20
100.363200
 11
58.414056
 21
100.371634
  0
LINE
  8
1
 62
7
  6
CONTINUOUS
 10
58.414056
 20
100.371634
 11
58.415365
 21
100.385378
  0
LINE
  8
1
 62
7
  6
CONTINUOUS
 10
58.415365
 20
100.385378
 11
58.416955
 21
100.403990
  0
LINE
  8
1
 62
7
  6
CONTINUOUS
 10
58.416955
 20
100.403990
 11
58.418628
 21
100.426904
  0
LINE
  8
1
 62
7
  6
CONTINUOUS
 10
58.418628
 20
100.426904
 11
58.420180
 21
100.453467
  0
LINE
  8
1
 62
7
  6
CONTINUOUS
 10
58.420180
 20
100.453467
 11
58.421427
 21
100.482972
  0
LINE
  8
1
 62
7
  6
CONTINUOUS
 10
58.421427
 20
100.482972
 11
58.422233
 21
100.514683
  0
LINE
  8
1
 62
7
  6
CONTINUOUS
 10
58.422233
 20
100.514683
 11
58.422519
 21
100.547846
  0
LINE
  8
1
 62
7
  6
CONTINUOUS
 10
58.422519
 20
100.547846
 11
58.422271
 21
100.581687
  0
LINE
  8
1
 62
7
  6
CONTINUOUS
 10
58.422271
 20
100.581687
 11
58.421535
 21
100.615409
  0
LINE
  8
1
 62
7
  6
CONTINUOUS
 10
58.421535
 20
100.615409
 11
58.420407
 21
100.648179
  0
LINE
  8
1
 62
7
  6
CONTINUOUS
 10
58.420407
 20
100.648179
 11
58.419019
 21
100.679126
  0
LINE
  8
1
 62
7
  6
CONTINUOUS
 10
58.419019
 20
100.679126
 11
58.417519
 21
100.707360
  0
LINE
  8
1
 62
7
  6
CONTINUOUS
 10
58.417519
 20
100.707360
 11
58.416054
 21
100.731991
  0
LINE
  8
1
 62
7
  6
CONTINUOUS
 10
58.416054
 20
100.731991
 11
58.414762
 21
100.752181
  0
LINE
  8
1
 62
7
  6
CONTINUOUS
 10
58.414762
 20
100.752181
 11
58.413754
 21
100.767193
  0
LINE
  8
1
 62
7
  6
CONTINUOUS
 10
58.413754
 20
100.767193
 11
58.413115
 21
100.776447
  0
LINE
  8
1
 62
7
  6
CONTINUOUS
 10
58.413115
 20
100.776447
 11
58.412897
 21
100.779574
  0
LINE
  8
1
 62
7
  6
CONTINUOUS
 10
58.412897
 20
100.779574
 11
58.412676
 21
100.782709
  0
LINE
  8
1
 62
7
  6
CONTINUOUS
 10
58.412676
 20
100.782709
 11
58.412009
 21
100.792067
  0
LINE
  8
1
 62
7
  6
CONTINUOUS
 10
58.412009
 20
100.792067
 11
58.410879
 21
100.807505
  0
LINE
  8
1
 62
7
  6
CONTINUOUS
 10
58.410879
 20
100.807505
 11
58.409257
 21
100.828744
  0
LINE
  8
1
 62
7
  6
CONTINUOUS
 10
58.409257
 20
100.828744
 11
58.407102
 21
100.855328
  0
LINE
  8
1
 62
7
  6
CONTINUOUS
 10
58.407102
 20
100.855328
 11
58.404362
 21
100.886592
  0
LINE
  8
1
 62
7
  6
CONTINUOUS
 10
58.404362
 20
100.886592
 11
58.400983
 21
100.921637
  0
LINE
  8
1
 62
7
  6
CONTINUOUS
 10
58.400983
 20
100.921637
 11
58.396922
 21
100.959352
  0
LINE
  8
1
 62
7
  6
CONTINUOUS
 10
58.396922
 20
100.959352
 11
58.392160
 21
100.998460
  0
LINE
  8
1
 62
7
  6
CONTINUOUS
 10
58.392160
 20
100.998460
 11
58.386724
 21
101.037601
  0
LINE
  8
1
 62
7
  6
CONTINUOUS
 10
58.386724
 20
101.037601
 11
58.380704
 21
101.075434
  0
LINE
  8
1
 62
7
  6
CONTINUOUS
 10
58.380704
 20
101.075434
 11
58.374262
 21
101.110736
  0
LINE
  8
1
 62
7
  6
CONTINUOUS
 10
58.374262
 20
101.110736
 11
58.367639
 21
101.142492
  0
LINE
  8
1
 62
7
  6
CONTINUOUS
 10
58.367639
 20
101.142492
 11
58.361142
 21
101.169947
  0
LINE
  8
1
 62
7
  6
CONTINUOUS
 10
58.361142
 20
101.169947
 11
58.355125
 21
101.192617
  0
LINE
  8
1
 62
7
  6
CONTINUOUS
 10
58.355125
 20
101.192617
 11
58.349954
 21
101.210258
  0
LINE
  8
1
 62
7
  6
CONTINUOUS
 10
58.349954
 20
101.210258
 11
58.345972
 21
101.222805
  0
LINE
  8
1
 62
7
  6
CONTINUOUS
 10
58.345972
 20
101.222805
 11
58.343461
 21
101.230294
  0
LINE
  8
1
 62
7
  6
CONTINUOUS
 10
58.343461
 20
101.230294
 11
58.342602
 21
101.232782
  0
LINE
  8
1
 62
7
  6
CONTINUOUS
 10
58.342602
 20
101.232782
 11
58.341737
 21
101.235254
  0
LINE
  8
1
 62
7
  6
CONTINUOUS
 10
58.341737
 20
101.235254
 11
58.339125
 21
101.242508
  0
LINE
  8
1
 62
7
  6
CONTINUOUS
 10
58.339125
 20
101.242508
 11
58.334727
 21
101.254083
  0
LINE
  8
1
 62
7
  6
CONTINUOUS
 10
58.334727
 20
101.254083
 11
58.328510
 21
101.269283
  0
LINE
  8
1
 62
7
  6
CONTINUOUS
 10
58.328510
 20
101.269283
 11
58.320480
 21
101.287266
  0
LINE
  8
1
 62
7
  6
CONTINUOUS
 10
58.320480
 20
101.287266
 11
58.310723
 21
101.307147
  0
LINE
  8
1
 62
7
  6
CONTINUOUS
 10
58.310723
 20
101.307147
 11
58.299436
 21
101.328091
  0
LINE
  8
1
 62
7
  6
CONTINUOUS
 10
58.299436
 20
101.328091
 11
58.286930
 21
101.349382
  0
LINE
  8
1
 62
7
  6
CONTINUOUS
 10
58.286930
 20
101.349382
 11
58.273625
 21
101.370454
  0
LINE
  8
1
 62
7
  6
CONTINUOUS
 10
58.273625
 20
101.370454
 11
58.260020
 21
101.390886
  0
LINE
  8
1
 62
7
  6
CONTINUOUS
 10
58.260020
 20
101.390886
 11
58.246640
 21
101.410369
  0
LINE
  8
1
 62
7
  6
CONTINUOUS
 10
58.246640
 20
101.410369
 11
58.233992
 21
101.428656
  0
LINE
  8
1
 62
7
  6
CONTINUOUS
 10
58.233992
 20
101.428656
 11
58.222510
 21
101.445506
  0
LINE
  8
1
 62
7
  6
CONTINUOUS
 10
58.222510
 20
101.445506
 11
58.212529
 21
101.460645
  0
LINE
  8
1
 62
7
  6
CONTINUOUS
 10
58.212529
 20
101.460645
 11
58.204268
 21
101.473752
  0
LINE
  8
1
 62
7
  6
CONTINUOUS
 10
58.204268
 20
101.473752
 11
58.197839
 21
101.484473
  0
LINE
  8
1
 62
7
  6
CONTINUOUS
 10
58.197839
 20
101.484473
 11
58.193270
 21
101.492449
  0
LINE
  8
1
 62
7
  6
CONTINUOUS
 10
58.193270
 20
101.492449
 11
58.190548
 21
101.497375
  0
LINE
  8
1
 62
7
  6
CONTINUOUS
 10
58.190548
 20
101.497375
 11
58.189645
 21
101.499042
  0
LINE
  8
1
 62
7
  6
CONTINUOUS
 10
58.189645
 20
101.499042
 11
58.188748
 21
101.500713
  0
LINE
  8
1
 62
7
  6
CONTINUOUS
 10
58.188748
 20
101.500713
 11
58.186118
 21
101.505712
  0
LINE
  8
1
 62
7
  6
CONTINUOUS
 10
58.186118
 20
101.505712
 11
58.181933
 21
101.513985
  0
LINE
  8
1
 62
7
  6
CONTINUOUS
 10
58.181933
 20
101.513985
 11
58.176460
 21
101.525430
  0
LINE
  8
1
 62
7
  6
CONTINUOUS
 10
58.176460
 20
101.525430
 11
58.170029
 21
101.539876
  0
LINE
  8
1
 62
7
  6
CONTINUOUS
 10
58.170029
 20
101.539876
 11
58.162987
 21
101.557066
  0
LINE
  8
1
 62
7
  6
CONTINUOUS
 10
58.162987
 20
101.557066
 11
58.155667
 21
101.576643
  0
LINE
  8
1
 62
7
  6
CONTINUOUS
 10
58.155667
 20
101.576643
 11
58.148359
 21
101.598145
  0
LINE
  8
1
 62
7
  6
CONTINUOUS
 10
58.148359
 20
101.598145
 11
58.141290
 21
101.621008
  0
LINE
  8
1
 62
7
  6
CONTINUOUS
 10
58.141290
 20
101.621008
 11
58.134624
 21
101.644585
  0
LINE
  8
1
 62
7
  6
CONTINUOUS
 10
58.134624
 20
101.644585
 11
58.128470
 21
101.668175
  0
LINE
  8
1
 62
7
  6
CONTINUOUS
 10
58.128470
 20
101.668175
 11
58.122892
 21
101.691051
  0
LINE
  8
1
 62
7
  6
CONTINUOUS
 10
58.122892
 20
101.691051
 11
58.117930
 21
101.712502
  0
LINE
  8
1
 62
7
  6
CONTINUOUS
 10
58.117930
 20
101.712502
 11
58.113619
 21
101.731861
  0
LINE
  8
1
 62
7
  6
CONTINUOUS
 10
58.113619
 20
101.731861
 11
58.109995
 21
101.748536
  0
LINE
  8
1
 62
7
  6
CONTINUOUS
 10
58.109995
 20
101.748536
 11
58.107102
 21
101.762030
  0
LINE
  8
1
 62
7
  6
CONTINUOUS
 10
58.107102
 20
101.762030
 11
58.104989
 21
101.771949
  0
LINE
  8
1
 62
7
  6
CONTINUOUS
 10
58.104989
 20
101.771949
 11
58.103700
 21
101.778013
  0
LINE
  8
1
 62
7
  6
CONTINUOUS
 10
58.103700
 20
101.778013
 11
58.103267
 21
101.780053
  0
LINE
  8
1
 62
7
  6
CONTINUOUS
 10
55.430734
 20
99.154996
 11
55.429454
 21
99.155734
  0
LINE
  8
1
 62
7
  6
CONTINUOUS
 10
55.429454
 20
99.155734
 11
55.425649
 21
99.157931
  0
LINE
  8
1
 62
7
  6
CONTINUOUS
 10
55.425649
 20
99.157931
 11
55.419424
 21
99.161532
  0
LINE
  8
1
 62
7
  6
CONTINUOUS
 10
55.419424
 20
99.161532
 11
55.410947
 21
99.166464
  0
LINE
  8
1
 62
7
  6
CONTINUOUS
 10
55.410947
 20
99.166464
 11
55.400452
 21
99.172653
  0
LINE
  8
1
 62
7
  6
CONTINUOUS
 10
55.400452
 20
99.172653
 11
55.388227
 21
99.180032
  0
LINE
  8
1
 62
7
  6
CONTINUOUS
 10
55.388227
 20
99.180032
 11
55.374608
 21
99.188554
  0
LINE
  8
1
 62
7
  6
CONTINUOUS
 10
55.374608
 20
99.188554
 11
55.359968
 21
99.198180
  0
LINE
  8
1
 62
7
  6
CONTINUOUS
 10
55.359968
 20
99.198180
 11
55.344712
 21
99.208858
  0
LINE
  8
1
 62
7
  6
CONTINUOUS
 10
55.344712
 20
99.208858
 11
55.329259
 21
99.220492
  0
LINE
  8
1
 62
7
  6
CONTINUOUS
 10
55.329259
 20
99.220492
 11
55.314033
 21
99.232908
  0
LINE
  8
1
 62
7
  6
CONTINUOUS
 10
55.314033
 20
99.232908
 11
55.299449
 21
99.245821
  0
LINE
  8
1
 62
7
  6
CONTINUOUS
 10
55.299449
 20
99.245821
 11
55.285906
 21
99.258823
  0
LINE
  8
1
 62
7
  6
CONTINUOUS
 10
55.285906
 20
99.258823
 11
55.273768
 21
99.271391
  0
LINE
  8
1
 62
7
  6
CONTINUOUS
 10
55.273768
 20
99.271391
 11
55.263364
 21
99.282913
  0
LINE
  8
1
 62
7
  6
CONTINUOUS
 10
55.263364
 20
99.282913
 11
55.254971
 21
99.292747
  0
LINE
  8
1
 62
7
  6
CONTINUOUS
 10
55.254971
 20
99.292747
 11
55.248812
 21
99.300285
  0
LINE
  8
1
 62
7
  6
CONTINUOUS
 10
55.248812
 20
99.300285
 11
55.245051
 21
99.305029
  0
LINE
  8
1
 62
7
  6
CONTINUOUS
 10
55.245051
 20
99.305029
 11
55.243786
 21
99.306648
  0
LINE
  8
1
 62
7
  6
CONTINUOUS
 10
55.243786
 20
99.306648
 11
55.242521
 21
99.308280
  0
LINE
  8
1
 62
7
  6
CONTINUOUS
 10
55.242521
 20
99.308280
 11
55.238763
 21
99.313200
  0
LINE
  8
1
 62
7
  6
CONTINUOUS
 10
55.238763
 20
99.313200
 11
55.232620
 21
99.321473
  0
LINE
  8
1
 62
7
  6
CONTINUOUS
 10
55.232620
 20
99.321473
 11
55.224278
 21
99.333158
  0
LINE
  8
1
 62
7
  6
CONTINUOUS
 10
55.224278
 20
99.333158
 11
55.213994
 21
99.348258
  0
LINE
  8
1
 62
7
  6
CONTINUOUS
 10
55.213994
 20
99.348258
 11
55.202104
 21
99.366657
  0
LINE
  8
1
 62
7
  6
CONTINUOUS
 10
55.202104
 20
99.366657
 11
55.189005
 21
99.388073
  0
LINE
  8
1
 62
7
  6
CONTINUOUS
 10
55.189005
 20
99.388073
 11
55.175146
 21
99.412031
  0
LINE
  8
1
 62
7
  6
CONTINUOUS
 10
55.175146
 20
99.412031
 11
55.161002
 21
99.437869
  0
LINE
  8
1
 62
7
  6
CONTINUOUS
 10
55.161002
 20
99.437869
 11
55.147046
 21
99.464764
  0
LINE
  8
1
 62
7
  6
CONTINUOUS
 10
55.147046
 20
99.464764
 11
55.133721
 21
99.491798
  0
LINE
  8
1
 62
7
  6
CONTINUOUS
 10
55.133721
 20
99.491798
 11
55.121413
 21
99.518021
  0
LINE
  8
1
 62
7
  6
CONTINUOUS
 10
55.121413
 20
99.518021
 11
55.110428
 21
99.542523
  0
LINE
  8
1
 62
7
  6
CONTINUOUS
 10
55.110428
 20
99.542523
 11
55.100986
 21
99.564496
  0
LINE
  8
1
 62
7
  6
CONTINUOUS
 10
55.100986
 20
99.564496
 11
55.093219
 21
99.583270
  0
LINE
  8
1
 62
7
  6
CONTINUOUS
 10
55.093219
 20
99.583270
 11
55.087188
 21
99.598331
  0
LINE
  8
1
 62
7
  6
CONTINUOUS
 10
55.087188
 20
99.598331
 11
55.082903
 21
99.609316
  0
LINE
  8
1
 62
7
  6
CONTINUOUS
 10
55.082903
 20
99.609316
 11
55.080347
 21
99.615991
  0
LINE
  8
1
 62
7
  6
CONTINUOUS
 10
55.080347
 20
99.615991
 11
55.079498
 21
99.618229
  0
LINE
  8
1
 62
7
  6
CONTINUOUS
 10
55.079498
 20
99.618229
 11
55.078654
 21
99.620463
  0
LINE
  8
1
 62
7
  6
CONTINUOUS
 10
55.078654
 20
99.620463
 11
55.076178
 21
99.627085
  0
LINE
  8
1
 62
7
  6
CONTINUOUS
 10
55.076178
 20
99.627085
 11
55.072227
 21
99.637854
  0
LINE
  8
1
 62
7
  6
CONTINUOUS
 10
55.072227
 20
99.637854
 11
55.067040
 21
99.652403
  0
LINE
  8
1
 62
7
  6
CONTINUOUS
 10
55.067040
 20
99.652403
 11
55.060903
 21
99.670266
  0
LINE
  8
1
 62
7
  6
CONTINUOUS
 10
55.060903
 20
99.670266
 11
55.054119
 21
99.690919
  0
LINE
  8
1
 62
7
  6
CONTINUOUS
 10
55.054119
 20
99.690919
 11
55.046974
 21
99.713814
  0
LINE
  8
1
 62
7
  6
CONTINUOUS
 10
55.046974
 20
99.713814
 11
55.039714
 21
99.738397
  0
LINE
  8
1
 62
7
  6
CONTINUOUS
 10
55.039714
 20
99.738397
 11
55.032532
 21
99.764114
  0
LINE
  8
1
 62
7
  6
CONTINUOUS
 10
55.032532
 20
99.764114
 11
55.025574
 21
99.790404
  0
LINE
  8
1
 62
7
  6
CONTINUOUS
 10
55.025574
 20
99.790404
 11
55.018944
 21
99.816687
  0
LINE
  8
1
 62
7
  6
CONTINUOUS
 10
55.018944
 20
99.816687
 11
55.012726
 21
99.842340
  0
LINE
  8
1
 62
7
  6
CONTINUOUS
 10
55.012726
 20
99.842340
 11
55.007003
 21
99.866694
  0
LINE
  8
1
 62
7
  6
CONTINUOUS
 10
55.007003
 20
99.866694
 11
55.001866
 21
99.889037
  0
LINE
  8
1
 62
7
  6
CONTINUOUS
 10
55.001866
 20
99.889037
 11
54.997422
 21
99.908636
  0
LINE
  8
1
 62
7
  6
CONTINUOUS
 10
54.997422
 20
99.908636
 11
54.993789
 21
99.924781
  0
LINE
  8
1
 62
7
  6
CONTINUOUS
 10
54.993789
 20
99.924781
 11
54.991088
 21
99.936833
  0
LINE
  8
1
 62
7
  6
CONTINUOUS
 10
54.991088
 20
99.936833
 11
54.989420
 21
99.944283
  0
LINE
  8
1
 62
7
  6
CONTINUOUS
 10
54.989420
 20
99.944283
 11
54.988856
 21
99.946805
  0
LINE
  8
1
 62
7
  6
CONTINUOUS
 10
54.988856
 20
99.946805
 11
54.988290
 21
99.949334
  0
LINE
  8
1
 62
7
  6
CONTINUOUS
 10
54.988290
 20
99.949334
 11
54.986599
 21
99.956897
  0
LINE
  8
1
 62
7
  6
CONTINUOUS
 10
54.986599
 20
99.956897
 11
54.983804
 21
99.969412
  0
LINE
  8
1
 62
7
  6
CONTINUOUS
 10
54.983804
 20
99.969412
 11
54.979952
 21
99.986720
  0
LINE
  8
1
 62
7
  6
CONTINUOUS
 10
54.979952
 20
99.986720
 11
54.975127
 21
100.008546
  0
LINE
  8
1
 62
7
  6
CONTINUOUS
 10
54.975127
 20
100.008546
 11
54.969460
 21
100.034478
  0
LINE
  8
1
 62
7
  6
CONTINUOUS
 10
54.969460
 20
100.034478
 11
54.963136
 21
100.063934
  0
LINE
  8
1
 62
7
  6
CONTINUOUS
 10
54.963136
 20
100.063934
 11
54.956387
 21
100.096167
  0
LINE
  8
1
 62
7
  6
CONTINUOUS
 10
54.956387
 20
100.096167
 11
54.949483
 21
100.130274
  0
LINE
  8
1
 62
7
  6
CONTINUOUS
 10
54.949483
 20
100.130274
 11
54.942702
 21
100.165236
  0
LINE
  8
1
 62
7
  6
CONTINUOUS
 10
54.942702
 20
100.165236
 11
54.936312
 21
100.199970
  0
LINE
  8
1
 62
7
  6
CONTINUOUS
 10
54.936312
 20
100.199970
 11
54.930538
 21
100.233389
  0
LINE
  8
1
 62
7
  6
CONTINUOUS
 10
54.930538
 20
100.233389
 11
54.925541
 21
100.264462
  0
LINE
  8
1
 62
7
  6
CONTINUOUS
 10
54.925541
 20
100.264462
 11
54.921411
 21
100.292265
  0
LINE
  8
1
 62
7
  6
CONTINUOUS
 10
54.921411
 20
100.292265
 11
54.918166
 21
100.316016
  0
LINE
  8
1
 62
7
  6
CONTINUOUS
 10
54.918166
 20
100.316016
 11
54.915766
 21
100.335092
  0
LINE
  8
1
 62
7
  6
CONTINUOUS
 10
54.915766
 20
100.335092
 11
54.914138
 21
100.349028
  0
LINE
  8
1
 62
7
  6
CONTINUOUS
 10
54.914138
 20
100.349028
 11
54.913201
 21
100.357510
  0
LINE
  8
1
 62
7
  6
CONTINUOUS
 10
54.913201
 20
100.357510
 11
54.912897
 21
100.360357
  0
LINE
  8
1
 62
7
  6
CONTINUOUS
 10
54.912897
 20
100.360357
 11
54.912597
 21
100.363200
  0
LINE
  8
1
 62
7
  6
CONTINUOUS
 10
54.912597
 20
100.363200
 11
54.911737
 21
100.371634
  0
LINE
  8
1
 62
7
  6
CONTINUOUS
 10
54.911737
 20
100.371634
 11
54.910429
 21
100.385378
  0
LINE
  8
1
 62
7
  6
CONTINUOUS
 10
54.910429
 20
100.385378
 11
54.908838
 21
100.403990
  0
LINE
  8
1
 62
7
  6
CONTINUOUS
 10
54.908838
 20
100.403990
 11
54.907165
 21
100.426904
  0
LINE
  8
1
 62
7
  6
CONTINUOUS
 10
54.907165
 20
100.426904
 11
54.905614
 21
100.453467
  0
LINE
  8
1
 62
7
  6
CONTINUOUS
 10
54.905614
 20
100.453467
 11
54.904366
 21
100.482972
  0
LINE
  8
1
 62
7
  6
CONTINUOUS
 10
54.904366
 20
100.482972
 11
54.903560
 21
100.514683
  0
LINE
  8
1
 62
7
  6
CONTINUOUS
 10
54.903560
 20
100.514683
 11
54.903274
 21
100.547846
  0
LINE
  8
1
 62
7
  6
CONTINUOUS
 10
54.903274
 20
100.547846
 11
54.903522
 21
100.581687
  0
LINE
  8
1
 62
7
  6
CONTINUOUS
 10
54.903522
 20
100.581687
 11
54.904258
 21
100.615409
  0
LINE
  8
1
 62
7
  6
CONTINUOUS
 10
54.904258
 20
100.615409
 11
54.905386
 21
100.648179
  0
LINE
  8
1
 62
7
  6
CONTINUOUS
 10
54.905386
 20
100.648179
 11
54.906774
 21
100.679126
  0
LINE
  8
1
 62
7
  6
CONTINUOUS
 10
54.906774
 20
100.679126
 11
54.908275
 21
100.707360
  0
LINE
  8
1
 62
7
  6
CONTINUOUS
 10
54.908275
 20
100.707360
 11
54.909739
 21
100.731991
  0
LINE
  8
1
 62
7
  6
CONTINUOUS
 10
54.909739
 20
100.731991
 11
54.911032
 21
100.752181
  0
LINE
  8
1
 62
7
  6
CONTINUOUS
 10
54.911032
 20
100.752181
 11
54.912039
 21
100.767193
  0
LINE
  8
1
 62
7
  6
CONTINUOUS
 10
54.912039
 20
100.767193
 11
54.912678
 21
100.776447
  0
LINE
  8
1
 62
7
  6
CONTINUOUS
 10
54.912678
 20
100.776447
 11
54.912897
 21
100.779574
  0
LINE
  8
1
 62
7
  6
CONTINUOUS
 10
54.912897
 20
100.779574
 11
54.913117
 21
100.782709
  0
LINE
  8
1
 62
7
  6
CONTINUOUS
 10
54.913117
 20
100.782709
 11
54.913784
 21
100.792067
  0
LINE
  8
1
 62
7
  6
CONTINUOUS
 10
54.913784
 20
100.792067
 11
54.914914
 21
100.807505
  0
LINE
  8
1
 62
7
  6
CONTINUOUS
 10
54.914914
 20
100.807505
 11
54.916536
 21
100.828744
  0
LINE
  8
1
 62
7
  6
CONTINUOUS
 10
54.916536
 20
100.828744
 11
54.918692
 21
100.855328
  0
LINE
  8
1
 62
7
  6
CONTINUOUS
 10
54.918692
 20
100.855328
 11
54.921432
 21
100.886592
  0
LINE
  8
1
 62
7
  6
CONTINUOUS
 10
54.921432
 20
100.886592
 11
54.924810
 21
100.921637
  0
LINE
  8
1
 62
7
  6
CONTINUOUS
 10
54.924810
 20
100.921637
 11
54.928871
 21
100.959352
  0
LINE
  8
1
 62
7
  6
CONTINUOUS
 10
54.928871
 20
100.959352
 11
54.933633
 21
100.998460
  0
LINE
  8
1
 62
7
  6
CONTINUOUS
 10
54.933633
 20
100.998460
 11
54.939069
 21
101.037601
  0
LINE
  8
1
 62
7
  6
CONTINUOUS
 10
54.939069
 20
101.037601
 11
54.945090
 21
101.075434
  0
LINE
  8
1
 62
7
  6
CONTINUOUS
 10
54.945090
 20
101.075434
 11
54.951531
 21
101.110736
  0
LINE
  8
1
 62
7
  6
CONTINUOUS
 10
54.951531
 20
101.110736
 11
54.958154
 21
101.142492
  0
LINE
  8
1
 62
7
  6
CONTINUOUS
 10
54.958154
 20
101.142492
 11
54.964651
 21
101.169947
  0
LINE
  8
1
 62
7
  6
CONTINUOUS
 10
54.964651
 20
101.169947
 11
54.970669
 21
101.192617
  0
LINE
  8
1
 62
7
  6
CONTINUOUS
 10
54.970669
 20
101.192617
 11
54.975840
 21
101.210258
  0
LINE
  8
1
 62
7
  6
CONTINUOUS
 10
54.975840
 20
101.210258
 11
54.979821
 21
101.222805
  0
LINE
  8
1
 62
7
  6
CONTINUOUS
 10
54.979821
 20
101.222805
 11
54.982333
 21
101.230294
  0
LINE
  8
1
 62
7
  6
CONTINUOUS
 10
54.982333
 20
101.230294
 11
54.983191
 21
101.232782
  0
LINE
  8
1
 62
7
  6
CONTINUOUS
 10
54.983191
 20
101.232782
 11
54.984056
 21
101.235254
  0
LINE
  8
1
 62
7
  6
CONTINUOUS
 10
54.984056
 20
101.235254
 11
54.986668
 21
101.242508
  0
LINE
  8
1
 62
7
  6
CONTINUOUS
 10
54.986668
 20
101.242508
 11
54.991066
 21
101.254083
  0
LINE
  8
1
 62
7
  6
CONTINUOUS
 10
54.991066
 20
101.254083
 11
54.997284
 21
101.269283
  0
LINE
  8
1
 62
7
  6
CONTINUOUS
 10
54.997284
 20
101.269283
 11
55.005314
 21
101.287266
  0
LINE
  8
1
 62
7
  6
CONTINUOUS
 10
55.005314
 20
101.287266
 11
55.015070
 21
101.307147
  0
LINE
  8
1
 62
7
  6
CONTINUOUS
 10
55.015070
 20
101.307147
 11
55.026358
 21
101.328091
  0
LINE
  8
1
 62
7
  6
CONTINUOUS
 10
55.026358
 20
101.328091
 11
55.038864
 21
101.349382
  0
LINE
  8
1
 62
7
  6
CONTINUOUS
 10
55.038864
 20
101.349382
 11
55.052168
 21
101.370454
  0
LINE
  8
1
 62
7
  6
CONTINUOUS
 10
55.052168
 20
101.370454
 11
55.065774
 21
101.390886
  0
LINE
  8
1
 62
7
  6
CONTINUOUS
 10
55.065774
 20
101.390886
 11
55.079153
 21
101.410369
  0
LINE
  8
1
 62
7
  6
CONTINUOUS
 10
55.079153
 20
101.410369
 11
55.091802
 21
101.428656
  0
LINE
  8
1
 62
7
  6
CONTINUOUS
 10
55.091802
 20
101.428656
 11
55.103283
 21
101.445506
  0
LINE
  8
1
 62
7
  6
CONTINUOUS
 10
55.103283
 20
101.445506
 11
55.113264
 21
101.460645
  0
LINE
  8
1
 62
7
  6
CONTINUOUS
 10
55.113264
 20
101.460645
 11
55.121525
 21
101.473752
  0
LINE
  8
1
 62
7
  6
CONTINUOUS
 10
55.121525
 20
101.473752
 11
55.127955
 21
101.484473
  0
LINE
  8
1
 62
7
  6
CONTINUOUS
 10
55.127955
 20
101.484473
 11
55.132523
 21
101.492449
  0
LINE
  8
1
 62
7
  6
CONTINUOUS
 10
55.132523
 20
101.492449
 11
55.135245
 21
101.497375
  0
LINE
  8
1
 62
7
  6
CONTINUOUS
 10
55.135245
 20
101.497375
 11
55.136149
 21
101.499042
  0
LINE
  8
1
 62
7
  6
CONTINUOUS
 10
55.136149
 20
101.499042
 11
55.137046
 21
101.500713
  0
LINE
  8
1
 62
7
  6
CONTINUOUS
 10
55.137046
 20
101.500713
 11
55.139675
 21
101.505712
  0
LINE
  8
1
 62
7
  6
CONTINUOUS
 10
55.139675
 20
101.505712
 11
55.143861
 21
101.513985
  0
LINE
  8
1
 62
7
  6
CONTINUOUS
 10
55.143861
 20
101.513985
 11
55.149333
 21
101.525430
  0
LINE
  8
1
 62
7
  6
CONTINUOUS
 10
55.149333
 20
101.525430
 11
55.155764
 21
101.539876
  0
LINE
  8
1
 62
7
  6
CONTINUOUS
 10
55.155764
 20
101.539876
 11
55.162806
 21
101.557066
  0
LINE
  8
1
 62
7
  6
CONTINUOUS
 10
55.162806
 20
101.557066
 11
55.170126
 21
101.576643
  0
LINE
  8
1
 62
7
  6
CONTINUOUS
 10
55.170126
 20
101.576643
 11
55.177435
 21
101.598145
  0
LINE
  8
1
 62
7
  6
CONTINUOUS
 10
55.177435
 20
101.598145
 11
55.184504
 21
101.621008
  0
LINE
  8
1
 62
7
  6
CONTINUOUS
 10
55.184504
 20
101.621008
 11
55.191169
 21
101.644585
  0
LINE
  8
1
 62
7
  6
CONTINUOUS
 10
55.191169
 20
101.644585
 11
55.197323
 21
101.668175
  0
LINE
  8
1
 62
7
  6
CONTINUOUS
 10
55.197323
 20
101.668175
 11
55.202902
 21
101.691051
  0
LINE
  8
1
 62
7
  6
CONTINUOUS
 10
55.202902
 20
101.691051
 11
55.207864
 21
101.712502
  0
LINE
  8
1
 62
7
  6
CONTINUOUS
 10
55.207864
 20
101.712502
 11
55.212175
 21
101.731861
  0
LINE
  8
1
 62
7
  6
CONTINUOUS
 10
55.212175
 20
101.731861
 11
55.215799
 21
101.748536
  0
LINE
  8
1
 62
7
  6
CONTINUOUS
 10
55.215799
 20
101.748536
 11
55.218691
 21
101.762030
  0
LINE
  8
1
 62
7
  6
CONTINUOUS
 10
55.218691
 20
101.762030
 11
55.220804
 21
101.771949
  0
LINE
  8
1
 62
7
  6
CONTINUOUS
 10
55.220804
 20
101.771949
 11
55.222093
 21
101.778013
  0
LINE
  8
1
 62
7
  6
CONTINUOUS
 10
55.222093
 20
101.778013
 11
55.222526
 21
101.780053
  0
LINE
  8
1
 62
7
  6
CONTINUOUS
 10
55.430734
 20
99.154996
 11
57.895059
 21
99.154996
  0
LINE
  8
1
 62
7
  6
CONTINUOUS
 10
55.430734
 20
108.654996
 11
55.429454
 21
108.654257
  0
LINE
  8
1
 62
7
  6
CONTINUOUS
 10
55.429454
 20
108.654257
 11
55.425649
 21
108.652061
  0
LINE
  8
1
 62
7
  6
CONTINUOUS
 10
55.425649
 20
108.652061
 11
55.419424
 21
108.648460
  0
LINE
  8
1
 62
7
  6
CONTINUOUS
 10
55.419424
 20
108.648460
 11
55.410947
 21
108.643527
  0
LINE
  8
1
 62
7
  6
CONTINUOUS
 10
55.410947
 20
108.643527
 11
55.400452
 21
108.637339
  0
LINE
  8
1
 62
7
  6
CONTINUOUS
 10
55.400452
 20
108.637339
 11
55.388227
 21
108.629960
  0
LINE
  8
1
 62
7
  6
CONTINUOUS
 10
55.388227
 20
108.629960
 11
55.374608
 21
108.621438
  0
LINE
  8
1
 62
7
  6
CONTINUOUS
 10
55.374608
 20
108.621438
 11
55.359968
 21
108.611812
  0
LINE
  8
1
 62
7
  6
CONTINUOUS
 10
55.359968
 20
108.611812
 11
55.344712
 21
108.601134
  0
LINE
  8
1
 62
7
  6
CONTINUOUS
 10
55.344712
 20
108.601134
 11
55.329259
 21
108.589500
  0
LINE
  8
1
 62
7
  6
CONTINUOUS
 10
55.329259
 20
108.589500
 11
55.314033
 21
108.577084
  0
LINE
  8
1
 62
7
  6
CONTINUOUS
 10
55.314033
 20
108.577084
 11
55.299449
 21
108.564171
  0
LINE
  8
1
 62
7
  6
CONTINUOUS
 10
55.299449
 20
108.564171
 11
55.285906
 21
108.551168
  0
LINE
  8
1
 62
7
  6
CONTINUOUS
 10
55.285906
 20
108.551168
 11
55.273768
 21
108.538601
  0
LINE
  8
1
 62
7
  6
CONTINUOUS
 10
55.273768
 20
108.538601
 11
55.263364
 21
108.527079
  0
LINE
  8
1
 62
7
  6
CONTINUOUS
 10
55.263364
 20
108.527079
 11
55.254971
 21
108.517245
  0
LINE
  8
1
 62
7
  6
CONTINUOUS
 10
55.254971
 20
108.517245
 11
55.248812
 21
108.509706
  0
LINE
  8
1
 62
7
  6
CONTINUOUS
 10
55.248812
 20
108.509706
 11
55.245051
 21
108.504963
  0
LINE
  8
1
 62
7
  6
CONTINUOUS
 10
55.245051
 20
108.504963
 11
55.243786
 21
108.503343
  0
LINE
  8
1
 62
7
  6
CONTINUOUS
 10
55.243786
 20
108.503343
 11
55.242521
 21
108.501712
  0
LINE
  8
1
 62
7
  6
CONTINUOUS
 10
55.242521
 20
108.501712
 11
55.238763
 21
108.496791
  0
LINE
  8
1
 62
7
  6
CONTINUOUS
 10
55.238763
 20
108.496791
 11
55.232620
 21
108.488519
  0
LINE
  8
1
 62
7
  6
CONTINUOUS
 10
55.232620
 20
108.488519
 11
55.224278
 21
108.476834
  0
LINE
  8
1
 62
7
  6
CONTINUOUS
 10
55.224278
 20
108.476834
 11
55.213994
 21
108.461734
  0
LINE
  8
1
 62
7
  6
CONTINUOUS
 10
55.213994
 20
108.461734
 11
55.202104
 21
108.443335
  0
LINE
  8
1
 62
7
  6
CONTINUOUS
 10
55.202104
 20
108.443335
 11
55.189005
 21
108.421919
  0
LINE
  8
1
 62
7
  6
CONTINUOUS
 10
55.189005
 20
108.421919
 11
55.175146
 21
108.397960
  0
LINE
  8
1
 62
7
  6
CONTINUOUS
 10
55.175146
 20
108.397960
 11
55.161002
 21
108.372123
  0
LINE
  8
1
 62
7
  6
CONTINUOUS
 10
55.161002
 20
108.372123
 11
55.147046
 21
108.345227
  0
LINE
  8
1
 62
7
  6
CONTINUOUS
 10
55.147046
 20
108.345227
 11
55.133721
 21
108.318193
  0
LINE
  8
1
 62
7
  6
CONTINUOUS
 10
55.133721
 20
108.318193
 11
55.121413
 21
108.291971
  0
LINE
  8
1
 62
7
  6
CONTINUOUS
 10
55.121413
 20
108.291971
 11
55.110428
 21
108.267468
  0
LINE
  8
1
 62
7
  6
CONTINUOUS
 10
55.110428
 20
108.267468
 11
55.100986
 21
108.245496
  0
LINE
  8
1
 62
7
  6
CONTINUOUS
 10
55.100986
 20
108.245496
 11
55.093219
 21
108.226722
  0
LINE
  8
1
 62
7
  6
CONTINUOUS
 10
55.093219
 20
108.226722
 11
55.087188
 21
108.211661
  0
LINE
  8
1
 62
7
  6
CONTINUOUS
 10
55.087188
 20
108.211661
 11
55.082903
 21
108.200676
  0
LINE
  8
1
 62
7
  6
CONTINUOUS
 10
55.082903
 20
108.200676
 11
55.080347
 21
108.194001
  0
LINE
  8
1
 62
7
  6
CONTINUOUS
 10
55.080347
 20
108.194001
 11
55.079498
 21
108.191763
  0
LINE
  8
1
 62
7
  6
CONTINUOUS
 10
55.079498
 20
108.191763
 11
55.078654
 21
108.189528
  0
LINE
  8
1
 62
7
  6
CONTINUOUS
 10
55.078654
 20
108.189528
 11
55.076178
 21
108.182907
  0
LINE
  8
1
 62
7
  6
CONTINUOUS
 10
55.076178
 20
108.182907
 11
55.072227
 21
108.172137
  0
LINE
  8
1
 62
7
  6
CONTINUOUS
 10
55.072227
 20
108.172137
 11
55.067040
 21
108.157589
  0
LINE
  8
1
 62
7
  6
CONTINUOUS
 10
55.067040
 20
108.157589
 11
55.060903
 21
108.139726
  0
LINE
  8
1
 62
7
  6
CONTINUOUS
 10
55.060903
 20
108.139726
 11
55.054119
 21
108.119073
  0
LINE
  8
1
 62
7
  6
CONTINUOUS
 10
55.054119
 20
108.119073
 11
55.046974
 21
108.096177
  0
LINE
  8
1
 62
7
  6
CONTINUOUS
 10
55.046974
 20
108.096177
 11
55.039714
 21
108.071595
  0
LINE
  8
1
 62
7
  6
CONTINUOUS
 10
55.039714
 20
108.071595
 11
55.032532
 21
108.045878
  0
LINE
  8
1
 62
7
  6
CONTINUOUS
 10
55.032532
 20
108.045878
 11
55.025574
 21
108.019587
  0
LINE
  8
1
 62
7
  6
CONTINUOUS
 10
55.025574
 20
108.019587
 11
55.018944
 21
107.993305
  0
LINE
  8
1
 62
7
  6
CONTINUOUS
 10
55.018944
 20
107.993305
 11
55.012726
 21
107.967652
  0
LINE
  8
1
 62
7
  6
CONTINUOUS
 10
55.012726
 20
107.967652
 11
55.007003
 21
107.943298
  0
LINE
  8
1
 62
7
  6
CONTINUOUS
 10
55.007003
 20
107.943298
 11
55.001866
 21
107.920955
  0
LINE
  8
1
 62
7
  6
CONTINUOUS
 10
55.001866
 20
107.920955
 11
54.997422
 21
107.901355
  0
LINE
  8
1
 62
7
  6
CONTINUOUS
 10
54.997422
 20
107.901355
 11
54.993789
 21
107.885211
  0
LINE
  8
1
 62
7
  6
CONTINUOUS
 10
54.993789
 20
107.885211
 11
54.991088
 21
107.873159
  0
LINE
  8
1
 62
7
  6
CONTINUOUS
 10
54.991088
 20
107.873159
 11
54.989420
 21
107.865708
  0
LINE
  8
1
 62
7
  6
CONTINUOUS
 10
54.989420
 20
107.865708
 11
54.988856
 21
107.863187
  0
LINE
  8
1
 62
7
  6
CONTINUOUS
 10
54.988856
 20
107.863187
 11
54.988290
 21
107.860658
  0
LINE
  8
1
 62
7
  6
CONTINUOUS
 10
54.988290
 20
107.860658
 11
54.986599
 21
107.853095
  0
LINE
  8
1
 62
7
  6
CONTINUOUS
 10
54.986599
 20
107.853095
 11
54.983804
 21
107.840579
  0
LINE
  8
1
 62
7
  6
CONTINUOUS
 10
54.983804
 20
107.840579
 11
54.979952
 21
107.823272
  0
LINE
  8
1
 62
7
  6
CONTINUOUS
 10
54.979952
 20
107.823272
 11
54.975127
 21
107.801445
  0
LINE
  8
1
 62
7
  6
CONTINUOUS
 10
54.975127
 20
107.801445
 11
54.969460
 21
107.775514
  0
LINE
  8
1
 62
7
  6
CONTINUOUS
 10
54.969460
 20
107.775514
 11
54.963136
 21
107.746058
  0
LINE
  8
1
 62
7
  6
CONTINUOUS
 10
54.963136
 20
107.746058
 11
54.956387
 21
107.713825
  0
LINE
  8
1
 62
7
  6
CONTINUOUS
 10
54.956387
 20
107.713825
 11
54.949483
 21
107.679718
  0
LINE
  8
1
 62
7
  6
CONTINUOUS
 10
54.949483
 20
107.679718
 11
54.942702
 21
107.644755
  0
LINE
  8
1
 62
7
  6
CONTINUOUS
 10
54.942702
 20
107.644755
 11
54.936312
 21
107.610021
  0
LINE
  8
1
 62
7
  6
CONTINUOUS
 10
54.936312
 20
107.610021
 11
54.930538
 21
107.576602
  0
LINE
  8
1
 62
7
  6
CONTINUOUS
 10
54.930538
 20
107.576602
 11
54.925541
 21
107.545530
  0
LINE
  8
1
 62
7
  6
CONTINUOUS
 10
54.925541
 20
107.545530
 11
54.921411
 21
107.517727
  0
LINE
  8
1
 62
7
  6
CONTINUOUS
 10
54.921411
 20
107.517727
 11
54.918166
 21
107.493976
  0
LINE
  8
1
 62
7
  6
CONTINUOUS
 10
54.918166
 20
107.493976
 11
54.915766
 21
107.474900
  0
LINE
  8
1
 62
7
  6
CONTINUOUS
 10
54.915766
 20
107.474900
 11
54.914138
 21
107.460964
  0
LINE
  8
1
 62
7
  6
CONTINUOUS
 10
54.914138
 20
107.460964
 11
54.913201
 21
107.452482
  0
LINE
  8
1
 62
7
  6
CONTINUOUS
 10
54.913201
 20
107.452482
 11
54.912897
 21
107.449635
  0
LINE
  8
1
 62
7
  6
CONTINUOUS
 10
54.912897
 20
107.449635
 11
54.912597
 21
107.446791
  0
LINE
  8
1
 62
7
  6
CONTINUOUS
 10
54.912597
 20
107.446791
 11
54.911737
 21
107.438357
  0
LINE
  8
1
 62
7
  6
CONTINUOUS
 10
54.911737
 20
107.438357
 11
54.910429
 21
107.424614
  0
LINE
  8
1
 62
7
  6
CONTINUOUS
 10
54.910429
 20
107.424614
 11
54.908838
 21
107.406001
  0
LINE
  8
1
 62
7
  6
CONTINUOUS
 10
54.908838
 20
107.406001
 11
54.907165
 21
107.383087
  0
LINE
  8
1
 62
7
  6
CONTINUOUS
 10
54.907165
 20
107.383087
 11
54.905614
 21
107.356524
  0
LINE
  8
1
 62
7
  6
CONTINUOUS
 10
54.905614
 20
107.356524
 11
54.904366
 21
107.327019
  0
LINE
  8
1
 62
7
  6
CONTINUOUS
 10
54.904366
 20
107.327019
 11
54.903560
 21
107.295309
  0
LINE
  8
1
 62
7
  6
CONTINUOUS
 10
54.903560
 20
107.295309
 11
54.903274
 21
107.262146
  0
LINE
  8
1
 62
7
  6
CONTINUOUS
 10
54.903274
 20
107.262146
 11
54.903522
 21
107.228304
  0
LINE
  8
1
 62
7
  6
CONTINUOUS
 10
54.903522
 20
107.228304
 11
54.904258
 21
107.194582
  0
LINE
  8
1
 62
7
  6
CONTINUOUS
 10
54.904258
 20
107.194582
 11
54.905386
 21
107.161813
  0
LINE
  8
1
 62
7
  6
CONTINUOUS
 10
54.905386
 20
107.161813
 11
54.906774
 21
107.130866
  0
LINE
  8
1
 62
7
  6
CONTINUOUS
 10
54.906774
 20
107.130866
 11
54.908275
 21
107.102632
  0
LINE
  8
1
 62
7
  6
CONTINUOUS
 10
54.908275
 20
107.102632
 11
54.909739
 21
107.078000
  0
LINE
  8
1
 62
7
  6
CONTINUOUS
 10
54.909739
 20
107.078000
 11
54.911032
 21
107.057810
  0
LINE
  8
1
 62
7
  6
CONTINUOUS
 10
54.911032
 20
107.057810
 11
54.912039
 21
107.042799
  0
LINE
  8
1
 62
7
  6
CONTINUOUS
 10
54.912039
 20
107.042799
 11
54.912678
 21
107.033545
  0
LINE
  8
1
 62
7
  6
CONTINUOUS
 10
54.912678
 20
107.033545
 11
54.912897
 21
107.030417
  0
LINE
  8
1
 62
7
  6
CONTINUOUS
 10
54.912897
 20
107.030417
 11
54.913117
 21
107.027283
  0
LINE
  8
1
 62
7
  6
CONTINUOUS
 10
54.913117
 20
107.027283
 11
54.913784
 21
107.017924
  0
LINE
  8
1
 62
7
  6
CONTINUOUS
 10
54.913784
 20
107.017924
 11
54.914914
 21
107.002486
  0
LINE
  8
1
 62
7
  6
CONTINUOUS
 10
54.914914
 20
107.002486
 11
54.916536
 21
106.981248
  0
LINE
  8
1
 62
7
  6
CONTINUOUS
 10
54.916536
 20
106.981248
 11
54.918692
 21
106.954663
  0
LINE
  8
1
 62
7
  6
CONTINUOUS
 10
54.918692
 20
106.954663
 11
54.921432
 21
106.923400
  0
LINE
  8
1
 62
7
  6
CONTINUOUS
 10
54.921432
 20
106.923400
 11
54.924810
 21
106.888355
  0
LINE
  8
1
 62
7
  6
CONTINUOUS
 10
54.924810
 20
106.888355
 11
54.928871
 21
106.850640
  0
LINE
  8
1
 62
7
  6
CONTINUOUS
 10
54.928871
 20
106.850640
 11
54.933633
 21
106.811532
  0
LINE
  8
1
 62
7
  6
CONTINUOUS
 10
54.933633
 20
106.811532
 11
54.939069
 21
106.772391
  0
LINE
  8
1
 62
7
  6
CONTINUOUS
 10
54.939069
 20
106.772391
 11
54.945090
 21
106.734558
  0
LINE
  8
1
 62
7
  6
CONTINUOUS
 10
54.945090
 20
106.734558
 11
54.951531
 21
106.699256
  0
LINE
  8
1
 62
7
  6
CONTINUOUS
 10
54.951531
 20
106.699256
 11
54.958154
 21
106.667500
  0
LINE
  8
1
 62
7
  6
CONTINUOUS
 10
54.958154
 20
106.667500
 11
54.964651
 21
106.640045
  0
LINE
  8
1
 62
7
  6
CONTINUOUS
 10
54.964651
 20
106.640045
 11
54.970669
 21
106.617375
  0
LINE
  8
1
 62
7
  6
CONTINUOUS
 10
54.970669
 20
106.617375
 11
54.975840
 21
106.599734
  0
LINE
  8
1
 62
7
  6
CONTINUOUS
 10
54.975840
 20
106.599734
 11
54.979821
 21
106.587186
  0
LINE
  8
1
 62
7
  6
CONTINUOUS
 10
54.979821
 20
106.587186
 11
54.982333
 21
106.579697
  0
LINE
  8
1
 62
7
  6
CONTINUOUS
 10
54.982333
 20
106.579697
 11
54.983191
 21
106.577209
  0
LINE
  8
1
 62
7
  6
CONTINUOUS
 10
54.983191
 20
106.577209
 11
54.984056
 21
106.574738
  0
LINE
  8
1
 62
7
  6
CONTINUOUS
 10
54.984056
 20
106.574738
 11
54.986668
 21
106.567484
  0
LINE
  8
1
 62
7
  6
CONTINUOUS
 10
54.986668
 20
106.567484
 11
54.991066
 21
106.555908
  0
LINE
  8
1
 62
7
  6
CONTINUOUS
 10
54.991066
 20
106.555908
 11
54.997284
 21
106.540708
  0
LINE
  8
1
 62
7
  6
CONTINUOUS
 10
54.997284
 20
106.540708
 11
55.005314
 21
106.522726
  0
LINE
  8
1
 62
7
  6
CONTINUOUS
 10
55.005314
 20
106.522726
 11
55.015070
 21
106.502845
  0
LINE
  8
1
 62
7
  6
CONTINUOUS
 10
55.015070
 20
106.502845
 11
55.026358
 21
106.481901
  0
LINE
  8
1
 62
7
  6
CONTINUOUS
 10
55.026358
 20
106.481901
 11
55.038864
 21
106.460609
  0
LINE
  8
1
 62
7
  6
CONTINUOUS
 10
55.038864
 20
106.460609
 11
55.052168
 21
106.439538
  0
LINE
  8
1
 62
7
  6
CONTINUOUS
 10
55.052168
 20
106.439538
 11
55.065774
 21
106.419106
  0
LINE
  8
1
 62
7
  6
CONTINUOUS
 10
55.065774
 20
106.419106
 11
55.079153
 21
106.399622
  0
LINE
  8
1
 62
7
  6
CONTINUOUS
 10
55.079153
 20
106.399622
 11
55.091802
 21
106.381335
  0
LINE
  8
1
 62
7
  6
CONTINUOUS
 10
55.091802
 20
106.381335
 11
55.103283
 21
106.364486
  0
LINE
  8
1
 62
7
  6
CONTINUOUS
 10
55.103283
 20
106.364486
 11
55.113264
 21
106.349347
  0
LINE
  8
1
 62
7
  6
CONTINUOUS
 10
55.113264
 20
106.349347
 11
55.121525
 21
106.336239
  0
LINE
  8
1
 62
7
  6
CONTINUOUS
 10
55.121525
 20
106.336239
 11
55.127955
 21
106.325519
  0
LINE
  8
1
 62
7
  6
CONTINUOUS
 10
55.127955
 20
106.325519
 11
55.132523
 21
106.317542
  0
LINE
  8
1
 62
7
  6
CONTINUOUS
 10
55.132523
 20
106.317542
 11
55.135245
 21
106.312616
  0
LINE
  8
1
 62
7
  6
CONTINUOUS
 10
55.135245
 20
106.312616
 11
55.136149
 21
106.310950
  0
LINE
  8
1
 62
7
  6
CONTINUOUS
 10
55.136149
 20
106.310950
 11
55.137046
 21
106.309278
  0
LINE
  8
1
 62
7
  6
CONTINUOUS
 10
55.137046
 20
106.309278
 11
55.139675
 21
106.304279
  0
LINE
  8
1
 62
7
  6
CONTINUOUS
 10
55.139675
 20
106.304279
 11
55.143861
 21
106.296006
  0
LINE
  8
1
 62
7
  6
CONTINUOUS
 10
55.143861
 20
106.296006
 11
55.149333
 21
106.284562
  0
LINE
  8
1
 62
7
  6
CONTINUOUS
 10
55.149333
 20
106.284562
 11
55.155764
 21
106.270116
  0
LINE
  8
1
 62
7
  6
CONTINUOUS
 10
55.155764
 20
106.270116
 11
55.162806
 21
106.252926
  0
LINE
  8
1
 62
7
  6
CONTINUOUS
 10
55.162806
 20
106.252926
 11
55.170126
 21
106.233348
  0
LINE
  8
1
 62
7
  6
CONTINUOUS
 10
55.170126
 20
106.233348
 11
55.177435
 21
106.211846
  0
LINE
  8
1
 62
7
  6
CONTINUOUS
 10
55.177435
 20
106.211846
 11
55.184504
 21
106.188984
  0
LINE
  8
1
 62
7
  6
CONTINUOUS
 10
55.184504
 20
106.188984
 11
55.191169
 21
106.165406
  0
LINE
  8
1
 62
7
  6
CONTINUOUS
 10
55.191169
 20
106.165406
 11
55.197323
 21
106.141817
  0
LINE
  8
1
 62
7
  6
CONTINUOUS
 10
55.197323
 20
106.141817
 11
55.202902
 21
106.118941
  0
LINE
  8
1
 62
7
  6
CONTINUOUS
 10
55.202902
 20
106.118941
 11
55.207864
 21
106.097490
  0
LINE
  8
1
 62
7
  6
CONTINUOUS
 10
55.207864
 20
106.097490
 11
55.212175
 21
106.078131
  0
LINE
  8
1
 62
7
  6
CONTINUOUS
 10
55.212175
 20
106.078131
 11
55.215799
 21
106.061455
  0
LINE
  8
1
 62
7
  6
CONTINUOUS
 10
55.215799
 20
106.061455
 11
55.218691
 21
106.047961
  0
LINE
  8
1
 62
7
  6
CONTINUOUS
 10
55.218691
 20
106.047961
 11
55.220804
 21
106.038042
  0
LINE
  8
1
 62
7
  6
CONTINUOUS
 10
55.220804
 20
106.038042
 11
55.222093
 21
106.031978
  0
LINE
  8
1
 62
7
  6
CONTINUOUS
 10
55.222093
 20
106.031978
 11
55.222526
 21
106.029939
  0
LINE
  8
1
 62
7
  6
CONTINUOUS
 10
57.895059
 20
108.654996
 11
57.896339
 21
108.654257
  0
LINE
  8
1
 62
7
  6
CONTINUOUS
 10
57.896339
 20
108.654257
 11
57.900144
 21
108.652061
  0
LINE
  8
1
 62
7
  6
CONTINUOUS
 10
57.900144
 20
108.652061
 11
57.906370
 21
108.648460
  0
LINE
  8
1
 62
7
  6
CONTINUOUS
 10
57.906370
 20
108.648460
 11
57.914846
 21
108.643527
  0
LINE
  8
1
 62
7
  6
CONTINUOUS
 10
57.914846
 20
108.643527
 11
57.925341
 21
108.637339
  0
LINE
  8
1
 62
7
  6
CONTINUOUS
 10
57.925341
 20
108.637339
 11
57.937566
 21
108.629960
  0
LINE
  8
1
 62
7
  6
CONTINUOUS
 10
57.937566
 20
108.629960
 11
57.951186
 21
108.621438
  0
LINE
  8
1
 62
7
  6
CONTINUOUS
 10
57.951186
 20
108.621438
 11
57.965825
 21
108.611812
  0
LINE
  8
1
 62
7
  6
CONTINUOUS
 10
57.965825
 20
108.611812
 11
57.981081
 21
108.601134
  0
LINE
  8
1
 62
7
  6
CONTINUOUS
 10
57.981081
 20
108.601134
 11
57.996534
 21
108.589500
  0
LINE
  8
1
 62
7
  6
CONTINUOUS
 10
57.996534
 20
108.589500
 11
58.011761
 21
108.577084
  0
LINE
  8
1
 62
7
  6
CONTINUOUS
 10
58.011761
 20
108.577084
 11
58.026344
 21
108.564171
  0
LINE
  8
1
 62
7
  6
CONTINUOUS
 10
58.026344
 20
108.564171
 11
58.039888
 21
108.551168
  0
LINE
  8
1
 62
7
  6
CONTINUOUS
 10
58.039888
 20
108.551168
 11
58.052025
 21
108.538601
  0
LINE
  8
1
 62
7
  6
CONTINUOUS
 10
58.052025
 20
108.538601
 11
58.062429
 21
108.527079
  0
LINE
  8
1
 62
7
  6
CONTINUOUS
 10
58.062429
 20
108.527079
 11
58.070822
 21
108.517245
  0
LINE
  8
1
 62
7
  6
CONTINUOUS
 10
58.070822
 20
108.517245
 11
58.076981
 21
108.509706
  0
LINE
  8
1
 62
7
  6
CONTINUOUS
 10
58.076981
 20
108.509706
 11
58.080743
 21
108.504963
  0
LINE
  8
1
 62
7
  6
CONTINUOUS
 10
58.080743
 20
108.504963
 11
58.082008
 21
108.503343
  0
LINE
  8
1
 62
7
  6
CONTINUOUS
 10
58.082008
 20
108.503343
 11
58.083272
 21
108.501712
  0
LINE
  8
1
 62
7
  6
CONTINUOUS
 10
58.083272
 20
108.501712
 11
58.087031
 21
108.496791
  0
LINE
  8
1
 62
7
  6
CONTINUOUS
 10
58.087031
 20
108.496791
 11
58.093173
 21
108.488519
  0
LINE
  8
1
 62
7
  6
CONTINUOUS
 10
58.093173
 20
108.488519
 11
58.101516
 21
108.476834
  0
LINE
  8
1
 62
7
  6
CONTINUOUS
 10
58.101516
 20
108.476834
 11
58.111799
 21
108.461734
  0
LINE
  8
1
 62
7
  6
CONTINUOUS
 10
58.111799
 20
108.461734
 11
58.123689
 21
108.443335
  0
LINE
  8
1
 62
7
  6
CONTINUOUS
 10
58.123689
 20
108.443335
 11
58.136788
 21
108.421919
  0
LINE
  8
1
 62
7
  6
CONTINUOUS
 10
58.136788
 20
108.421919
 11
58.150647
 21
108.397960
  0
LINE
  8
1
 62
7
  6
CONTINUOUS
 10
58.150647
 20
108.397960
 11
58.164791
 21
108.372123
  0
LINE
  8
1
 62
7
  6
CONTINUOUS
 10
58.164791
 20
108.372123
 11
58.178747
 21
108.345227
  0
LINE
  8
1
 62
7
  6
CONTINUOUS
 10
58.178747
 20
108.345227
 11
58.192072
 21
108.318193
  0
LINE
  8
1
 62
7
  6
CONTINUOUS
 10
58.192072
 20
108.318193
 11
58.204380
 21
108.291971
  0
LINE
  8
1
 62
7
  6
CONTINUOUS
 10
58.204380
 20
108.291971
 11
58.215365
 21
108.267468
  0
LINE
  8
1
 62
7
  6
CONTINUOUS
 10
58.215365
 20
108.267468
 11
58.224808
 21
108.245496
  0
LINE
  8
1
 62
7
  6
CONTINUOUS
 10
58.224808
 20
108.245496
 11
58.232575
 21
108.226722
  0
LINE
  8
1
 62
7
  6
CONTINUOUS
 10
58.232575
 20
108.226722
 11
58.238605
 21
108.211661
  0
LINE
  8
1
 62
7
  6
CONTINUOUS
 10
58.238605
 20
108.211661
 11
58.242890
 21
108.200676
  0
LINE
  8
1
 62
7
  6
CONTINUOUS
 10
58.242890
 20
108.200676
 11
58.245446
 21
108.194001
  0
LINE
  8
1
 62
7
  6
CONTINUOUS
 10
58.245446
 20
108.194001
 11
58.246296
 21
108.191763
  0
LINE
  8
1
 62
7
  6
CONTINUOUS
 10
58.246296
 20
108.191763
 11
58.247139
 21
108.189528
  0
LINE
  8
1
 62
7
  6
CONTINUOUS
 10
58.247139
 20
108.189528
 11
58.249615
 21
108.182907
  0
LINE
  8
1
 62
7
  6
CONTINUOUS
 10
58.249615
 20
108.182907
 11
58.253566
 21
108.172137
  0
LINE
  8
1
 62
7
  6
CONTINUOUS
 10
58.253566
 20
108.172137
 11
58.258754
 21
108.157589
  0
LINE
  8
1
 62
7
  6
CONTINUOUS
 10
58.258754
 20
108.157589
 11
58.264891
 21
108.139726
  0
LINE
  8
1
 62
7
  6
CONTINUOUS
 10
58.264891
 20
108.139726
 11
58.271674
 21
108.119073
  0
LINE
  8
1
 62
7
  6
CONTINUOUS
 10
58.271674
 20
108.119073
 11
58.278819
 21
108.096177
  0
LINE
  8
1
 62
7
  6
CONTINUOUS
 10
58.278819
 20
108.096177
 11
58.286079
 21
108.071595
  0
LINE
  8
1
 62
7
  6
CONTINUOUS
 10
58.286079
 20
108.071595
 11
58.293261
 21
108.045878
  0
LINE
  8
1
 62
7
  6
CONTINUOUS
 10
58.293261
 20
108.045878
 11
58.300220
 21
108.019587
  0
LINE
  8
1
 62
7
  6
CONTINUOUS
 10
58.300220
 20
108.019587
 11
58.306850
 21
107.993305
  0
LINE
  8
1
 62
7
  6
CONTINUOUS
 10
58.306850
 20
107.993305
 11
58.313067
 21
107.967652
  0
LINE
  8
1
 62
7
  6
CONTINUOUS
 10
58.313067
 20
107.967652
 11
58.318790
 21
107.943298
  0
LINE
  8
1
 62
7
  6
CONTINUOUS
 10
58.318790
 20
107.943298
 11
58.323927
 21
107.920955
  0
LINE
  8
1
 62
7
  6
CONTINUOUS
 10
58.323927
 20
107.920955
 11
58.328372
 21
107.901355
  0
LINE
  8
1
 62
7
  6
CONTINUOUS
 10
58.328372
 20
107.901355
 11
58.332004
 21
107.885211
  0
LINE
  8
1
 62
7
  6
CONTINUOUS
 10
58.332004
 20
107.885211
 11
58.334705
 21
107.873159
  0
LINE
  8
1
 62
7
  6
CONTINUOUS
 10
58.334705
 20
107.873159
 11
58.336373
 21
107.865708
  0
LINE
  8
1
 62
7
  6
CONTINUOUS
 10
58.336373
 20
107.865708
 11
58.336937
 21
107.863187
  0
LINE
  8
1
 62
7
  6
CONTINUOUS
 10
58.336937
 20
107.863187
 11
58.337503
 21
107.860658
  0
LINE
  8
1
 62
7
  6
CONTINUOUS
 10
58.337503
 20
107.860658
 11
58.339194
 21
107.853095
  0
LINE
  8
1
 62
7
  6
CONTINUOUS
 10
58.339194
 20
107.853095
 11
58.341989
 21
107.840579
  0
LINE
  8
1
 62
7
  6
CONTINUOUS
 10
58.341989
 20
107.840579
 11
58.345841
 21
107.823272
  0
LINE
  8
1
 62
7
  6
CONTINUOUS
 10
58.345841
 20
107.823272
 11
58.350666
 21
107.801445
  0
LINE
  8
1
 62
7
  6
CONTINUOUS
 10
58.350666
 20
107.801445
 11
58.356333
 21
107.775514
  0
LINE
  8
1
 62
7
  6
CONTINUOUS
 10
58.356333
 20
107.775514
 11
58.362657
 21
107.746058
  0
LINE
  8
1
 62
7
  6
CONTINUOUS
 10
58.362657
 20
107.746058
 11
58.369406
 21
107.713825
  0
LINE
  8
1
 62
7
  6
CONTINUOUS
 10
58.369406
 20
107.713825
 11
58.376311
 21
107.679718
  0
LINE
  8
1
 62
7
  6
CONTINUOUS
 10
58.376311
 20
107.679718
 11
58.383091
 21
107.644755
  0
LINE
  8
1
 62
7
  6
CONTINUOUS
 10
58.383091
 20
107.644755
 11
58.389481
 21
107.610021
  0
LINE
  8
1
 62
7
  6
CONTINUOUS
 10
58.389481
 20
107.610021
 11
58.395256
 21
107.576602
  0
LINE
  8
1
 62
7
  6
CONTINUOUS
 10
58.395256
 20
107.576602
 11
58.400252
 21
107.545530
  0
LINE
  8
1
 62
7
  6
CONTINUOUS
 10
58.400252
 20
107.545530
 11
58.404382
 21
107.517727
  0
LINE
  8
1
 62
7
  6
CONTINUOUS
 10
58.404382
 20
107.517727
 11
58.407627
 21
107.493976
  0
LINE
  8
1
 62
7
  6
CONTINUOUS
 10
58.407627
 20
107.493976
 11
58.410027
 21
107.474900
  0
LINE
  8
1
 62
7
  6
CONTINUOUS
 10
58.410027
 20
107.474900
 11
58.411655
 21
107.460964
  0
LINE
  8
1
 62
7
  6
CONTINUOUS
 10
58.411655
 20
107.460964
 11
58.412592
 21
107.452482
  0
LINE
  8
1
 62
7
  6
CONTINUOUS
 10
58.412592
 20
107.452482
 11
58.412897
 21
107.449635
  0
LINE
  8
1
 62
7
  6
CONTINUOUS
 10
58.412897
 20
107.449635
 11
58.413196
 21
107.446791
  0
LINE
  8
1
 62
7
  6
CONTINUOUS
 10
58.413196
 20
107.446791
 11
58.414056
 21
107.438357
  0
LINE
  8
1
 62
7
  6
CONTINUOUS
 10
58.414056
 20
107.438357
 11
58.415365
 21
107.424614
  0
LINE
  8
1
 62
7
  6
CONTINUOUS
 10
58.415365
 20
107.424614
 11
58.416955
 21
107.406001
  0
LINE
  8
1
 62
7
  6
CONTINUOUS
 10
58.416955
 20
107.406001
 11
58.418628
 21
107.383087
  0
LINE
  8
1
 62
7
  6
CONTINUOUS
 10
58.418628
 20
107.383087
 11
58.420180
 21
107.356524
  0
LINE
  8
1
 62
7
  6
CONTINUOUS
 10
58.420180
 20
107.356524
 11
58.421427
 21
107.327019
  0
LINE
  8
1
 62
7
  6
CONTINUOUS
 10
58.421427
 20
107.327019
 11
58.422233
 21
107.295309
  0
LINE
  8
1
 62
7
  6
CONTINUOUS
 10
58.422233
 20
107.295309
 11
58.422519
 21
107.262146
  0
LINE
  8
1
 62
7
  6
CONTINUOUS
 10
58.422519
 20
107.262146
 11
58.422271
 21
107.228304
  0
LINE
  8
1
 62
7
  6
CONTINUOUS
 10
58.422271
 20
107.228304
 11
58.421535
 21
107.194582
  0
LINE
  8
1
 62
7
  6
CONTINUOUS
 10
58.421535
 20
107.194582
 11
58.420407
 21
107.161813
  0
LINE
  8
1
 62
7
  6
CONTINUOUS
 10
58.420407
 20
107.161813
 11
58.419019
 21
107.130866
  0
LINE
  8
1
 62
7
  6
CONTINUOUS
 10
58.419019
 20
107.130866
 11
58.417519
 21
107.102632
  0
LINE
  8
1
 62
7
  6
CONTINUOUS
 10
58.417519
 20
107.102632
 11
58.416054
 21
107.078000
  0
LINE
  8
1
 62
7
  6
CONTINUOUS
 10
58.416054
 20
107.078000
 11
58.414762
 21
107.057810
  0
LINE
  8
1
 62
7
  6
CONTINUOUS
 10
58.414762
 20
107.057810
 11
58.413754
 21
107.042799
  0
LINE
  8
1
 62
7
  6
CONTINUOUS
 10
58.413754
 20
107.042799
 11
58.413115
 21
107.033545
  0
LINE
  8
1
 62
7
  6
CONTINUOUS
 10
58.413115
 20
107.033545
 11
58.412897
 21
107.030417
  0
LINE
  8
1
 62
7
  6
CONTINUOUS
 10
58.412897
 20
107.030417
 11
58.412676
 21
107.027283
  0
LINE
  8
1
 62
7
  6
CONTINUOUS
 10
58.412676
 20
107.027283
 11
58.412009
 21
107.017924
  0
LINE
  8
1
 62
7
  6
CONTINUOUS
 10
58.412009
 20
107.017924
 11
58.410879
 21
107.002486
  0
LINE
  8
1
 62
7
  6
CONTINUOUS
 10
58.410879
 20
107.002486
 11
58.409257
 21
106.981248
  0
LINE
  8
1
 62
7
  6
CONTINUOUS
 10
58.409257
 20
106.981248
 11
58.407102
 21
106.954663
  0
LINE
  8
1
 62
7
  6
CONTINUOUS
 10
58.407102
 20
106.954663
 11
58.404362
 21
106.923400
  0
LINE
  8
1
 62
7
  6
CONTINUOUS
 10
58.404362
 20
106.923400
 11
58.400983
 21
106.888355
  0
LINE
  8
1
 62
7
  6
CONTINUOUS
 10
58.400983
 20
106.888355
 11
58.396922
 21
106.850640
  0
LINE
  8
1
 62
7
  6
CONTINUOUS
 10
58.396922
 20
106.850640
 11
58.392160
 21
106.811532
  0
LINE
  8
1
 62
7
  6
CONTINUOUS
 10
58.392160
 20
106.811532
 11
58.386724
 21
106.772391
  0
LINE
  8
1
 62
7
  6
CONTINUOUS
 10
58.386724
 20
106.772391
 11
58.380704
 21
106.734558
  0
LINE
  8
1
 62
7
  6
CONTINUOUS
 10
58.380704
 20
106.734558
 11
58.374262
 21
106.699256
  0
LINE
  8
1
 62
7
  6
CONTINUOUS
 10
58.374262
 20
106.699256
 11
58.367639
 21
106.667500
  0
LINE
  8
1
 62
7
  6
CONTINUOUS
 10
58.367639
 20
106.667500
 11
58.361142
 21
106.640045
  0
LINE
  8
1
 62
7
  6
CONTINUOUS
 10
58.361142
 20
106.640045
 11
58.355125
 21
106.617375
  0
LINE
  8
1
 62
7
  6
CONTINUOUS
 10
58.355125
 20
106.617375
 11
58.349954
 21
106.599734
  0
LINE
  8
1
 62
7
  6
CONTINUOUS
 10
58.349954
 20
106.599734
 11
58.345972
 21
106.587186
  0
LINE
  8
1
 62
7
  6
CONTINUOUS
 10
58.345972
 20
106.587186
 11
58.343461
 21
106.579697
  0
LINE
  8
1
 62
7
  6
CONTINUOUS
 10
58.343461
 20
106.579697
 11
58.342602
 21
106.577209
  0
LINE
  8
1
 62
7
  6
CONTINUOUS
 10
58.342602
 20
106.577209
 11
58.341737
 21
106.574738
  0
LINE
  8
1
 62
7
  6
CONTINUOUS
 10
58.341737
 20
106.574738
 11
58.339125
 21
106.567484
  0
LINE
  8
1
 62
7
  6
CONTINUOUS
 10
58.339125
 20
106.567484
 11
58.334727
 21
106.555908
  0
LINE
  8
1
 62
7
  6
CONTINUOUS
 10
58.334727
 20
106.555908
 11
58.328510
 21
106.540708
  0
LINE
  8
1
 62
7
  6
CONTINUOUS
 10
58.328510
 20
106.540708
 11
58.320480
 21
106.522726
  0
LINE
  8
1
 62
7
  6
CONTINUOUS
 10
58.320480
 20
106.522726
 11
58.310723
 21
106.502845
  0
LINE
  8
1
 62
7
  6
CONTINUOUS
 10
58.310723
 20
106.502845
 11
58.299436
 21
106.481901
  0
LINE
  8
1
 62
7
  6
CONTINUOUS
 10
58.299436
 20
106.481901
 11
58.286930
 21
106.460609
  0
LINE
  8
1
 62
7
  6
CONTINUOUS
 10
58.286930
 20
106.460609
 11
58.273625
 21
106.439538
  0
LINE
  8
1
 62
7
  6
CONTINUOUS
 10
58.273625
 20
106.439538
 11
58.260020
 21
106.419106
  0
LINE
  8
1
 62
7
  6
CONTINUOUS
 10
58.260020
 20
106.419106
 11
58.246640
 21
106.399622
  0
LINE
  8
1
 62
7
  6
CONTINUOUS
 10
58.246640
 20
106.399622
 11
58.233992
 21
106.381335
  0
LINE
  8
1
 62
7
  6
CONTINUOUS
 10
58.233992
 20
106.381335
 11
58.222510
 21
106.364486
  0
LINE
  8
1
 62
7
  6
CONTINUOUS
 10
58.222510
 20
106.364486
 11
58.212529
 21
106.349347
  0
LINE
  8
1
 62
7
  6
CONTINUOUS
 10
58.212529
 20
106.349347
 11
58.204268
 21
106.336239
  0
LINE
  8
1
 62
7
  6
CONTINUOUS
 10
58.204268
 20
106.336239
 11
58.197839
 21
106.325519
  0
LINE
  8
1
 62
7
  6
CONTINUOUS
 10
58.197839
 20
106.325519
 11
58.193270
 21
106.317542
  0
LINE
  8
1
 62
7
  6
CONTINUOUS
 10
58.193270
 20
106.317542
 11
58.190548
 21
106.312616
  0
LINE
  8
1
 62
7
  6
CONTINUOUS
 10
58.190548
 20
106.312616
 11
58.189645
 21
106.310950
  0
LINE
  8
1
 62
7
  6
CONTINUOUS
 10
58.189645
 20
106.310950
 11
58.188748
 21
106.309278
  0
LINE
  8
1
 62
7
  6
CONTINUOUS
 10
58.188748
 20
106.309278
 11
58.186118
 21
106.304279
  0
LINE
  8
1
 62
7
  6
CONTINUOUS
 10
58.186118
 20
106.304279
 11
58.181933
 21
106.296006
  0
LINE
  8
1
 62
7
  6
CONTINUOUS
 10
58.181933
 20
106.296006
 11
58.176460
 21
106.284562
  0
LINE
  8
1
 62
7
  6
CONTINUOUS
 10
58.176460
 20
106.284562
 11
58.170029
 21
106.270116
  0
LINE
  8
1
 62
7
  6
CONTINUOUS
 10
58.170029
 20
106.270116
 11
58.162987
 21
106.252926
  0
LINE
  8
1
 62
7
  6
CONTINUOUS
 10
58.162987
 20
106.252926
 11
58.155667
 21
106.233348
  0
LINE
  8
1
 62
7
  6
CONTINUOUS
 10
58.155667
 20
106.233348
 11
58.148359
 21
106.211846
  0
LINE
  8
1
 62
7
  6
CONTINUOUS
 10
58.148359
 20
106.211846
 11
58.141290
 21
106.188984
  0
LINE
  8
1
 62
7
  6
CONTINUOUS
 10
58.141290
 20
106.188984
 11
58.134624
 21
106.165406
  0
LINE
  8
1
 62
7
  6
CONTINUOUS
 10
58.134624
 20
106.165406
 11
58.128470
 21
106.141817
  0
LINE
  8
1
 62
7
  6
CONTINUOUS
 10
58.128470
 20
106.141817
 11
58.122892
 21
106.118941
  0
LINE
  8
1
 62
7
  6
CONTINUOUS
 10
58.122892
 20
106.118941
 11
58.117930
 21
106.097490
  0
LINE
  8
1
 62
7
  6
CONTINUOUS
 10
58.117930
 20
106.097490
 11
58.113619
 21
106.078131
  0
LINE
  8
1
 62
7
  6
CONTINUOUS
 10
58.113619
 20
106.078131
 11
58.109995
 21
106.061455
  0
LINE
  8
1
 62
7
  6
CONTINUOUS
 10
58.109995
 20
106.061455
 11
58.107102
 21
106.047961
  0
LINE
  8
1
 62
7
  6
CONTINUOUS
 10
58.107102
 20
106.047961
 11
58.104989
 21
106.038042
  0
LINE
  8
1
 62
7
  6
CONTINUOUS
 10
58.104989
 20
106.038042
 11
58.103700
 21
106.031978
  0
LINE
  8
1
 62
7
  6
CONTINUOUS
 10
58.103700
 20
106.031978
 11
58.103267
 21
106.029939
  0
LINE
  8
1
 62
7
  6
CONTINUOUS
 10
57.895059
 20
108.654996
 11
55.430734
 21
108.654996
  0
LINE
  8
1
 62
7
  6
CONTINUOUS
 10
58.103267
 20
106.029939
 11
58.103267
 21
101.780053
  0
LINE
  8
1
 62
7
  6
CONTINUOUS
 10
55.222526
 20
106.029939
 11
55.222526
 21
101.780053
  0
LINE
  8
1
 62
7
  6
CONTINUOUS
 10
58.404362
 20
103.590827
 11
58.404362
 21
101.414581
  0
LINE
  8
1
 62
7
  6
CONTINUOUS
 10
54.904366
 20
103.537748
 11
54.904366
 21
101.388041
  0
DIMENSION
  8
2
 62
134
  6
CONTINUOUS
  2
*D1
 10
58.404362
 20
102.991935
 11
65.126015
 21
102.991935
 70
     0
  1
φ3.5
 13
58.404362
 23
102.991935
 14
54.904366
 24
102.991935
 50
180.000000
  0
TEXT
  8
2
 62
134
  6
CONTINUOUS
 10
65.376015
 20
102.991935
 40
2.000000
 41
1.000000
  1
±0.5
  7
KANJI
 50
0.000000
 51
0.000000
  0
LINE
  8
1
 62
7
  6
DASHDOT
 10
33.101412
 20
103.904996
 11
69.662190
 21
103.904996
  0
LINE
  8
1
 62
7
  6
CONTINUOUS
 10
56.362897
 20
110.669150
 11
56.362897
 21
108.654996
  0
ARC
  8
1
 62
7
  6
CONTINUOUS
 10
55.362897
 20
110.669150
 40
1.000000
 50
0.000000
 51
135.000000
  0
LINE
  8
1
 62
7
  6
CONTINUOUS
 10
56.962897
 20
108.654996
 11
56.962897
 21
110.669150
  0
ARC
  8
1
 62
7
  6
CONTINUOUS
 10
55.362897
 20
110.669150
 40
1.600000
 50
0.000000
 51
135.000000
  0
LINE
  8
1
 62
7
  6
CONTINUOUS
 10
40.304221
 20
109.204996
 11
40.866459
 21
109.204996
  0
LINE
  8
1
 62
7
  6
CONTINUOUS
 10
40.866459
 20
105.804996
 11
40.304221
 21
105.804996
  0
LINE
  8
1
 62
7
  6
DASHDOT
 10
29.889989
 20
107.504996
 11
40.866459
 21
107.504996
  0
LINE
  8
1
 62
7
  6
CONTINUOUS
 10
40.866459
 20
109.204996
 11
40.304221
 21
109.204996
  0
LINE
  8
1
 62
7
  6
CONTINUOUS
 10
40.304221
 20
105.804996
 11
40.866459
 21
105.804996
  0
LINE
  8
1
 62
7
  6
CONTINUOUS
 10
51.937621
 20
105.504996
 11
51.937621
 21
109.504996
  0
LINE
  8
1
 62
7
  6
CONTINUOUS
 10
51.937621
 20
109.504996
 11
40.866459
 21
109.504996
  0
LINE
  8
1
 62
7
  6
CONTINUOUS
 10
40.866459
 20
109.504996
 11
40.866459
 21
105.504996
  0
LINE
  8
1
 62
7
  6
CONTINUOUS
 10
40.866459
 20
105.504996
 11
51.937621
 21
105.504996
  0
ARC
  8
1
 62
7
  6
CONTINUOUS
 10
37.673370
 20
100.060042
 40
5.000000
 50
103.087568
 51
116.235785
  0
LINE
  8
1
 62
7
  6
CONTINUOUS
 10
40.304221
 20
105.804996
 11
36.541170
 21
104.930167
  0
ARC
  8
1
 62
7
  6
CONTINUOUS
 10
34.004221
 20
107.504996
 40
3.300000
 50
63.717964
 51
-63.764215
  0
ARC
  8
1
 62
7
  6
CONTINUOUS
 10
37.679379
 20
114.946986
 40
5.000000
 50
-116.282036
 51
-103.064883
  0
LINE
  8
1
 62
7
  6
CONTINUOUS
 10
40.304221
 20
109.204996
 11
36.549107
 21
110.076412
  0
CIRCLE
  8
1
 62
7
  6
CONTINUOUS
 10
34.004221
 20
107.504996
 40
1.850000
  0
ARC
  8
1
 62
7
  6
CONTINUOUS
 10
37.673370
 20
114.949950
 40
5.000000
 50
-116.235785
 51
-103.087568
  0
LINE
  8
1
 62
7
  6
CONTINUOUS
 10
40.304221
 20
109.204996
 11
36.541170
 21
110.079825
  0
ARC
  8
1
 62
7
  6
CONTINUOUS
 10
34.004221
 20
107.504996
 40
3.300000
 50
63.764215
 51
-63.717964
  0
ARC
  8
1
 62
7
  6
CONTINUOUS
 10
37.679379
 20
100.063006
 40
5.000000
 50
103.064883
 51
116.282036
  0
LINE
  8
1
 62
7
  6
CONTINUOUS
 10
40.304221
 20
105.804996
 11
36.549107
 21
104.933579
  0
CIRCLE
  8
1
 62
7
  6
CONTINUOUS
 10
34.004221
 20
107.504996
 40
1.850000
  0
LINE
  8
1
 62
7
  6
CONTINUOUS
 10
51.937621
 20
108.658088
 11
54.655790
 21
111.376257
  0
LINE
  8
1
 62
7
  6
CONTINUOUS
 10
54.231526
 20
111.800521
 11
51.936001
 21
109.504996
  0
LINE
  8
1
 62
7
  6
DASHDOT
 10
29.889989
 20
107.504996
 11
52.604503
 21
107.504996
  0
ARC
  8
1
 62
7
  6
CONTINUOUS
 10
55.362897
 20
97.140842
 40
1.000000
 50
-135.000000
 51
0.000000
  0
ARC
  8
1
 62
7
  6
CONTINUOUS
 10
55.362897
 20
97.140842
 40
1.600000
 50
-135.000000
 51
0.000000
  0
LINE
  8
1
 62
7
  6
CONTINUOUS
 10
40.304221
 20
98.604996
 11
40.866459
 21
98.604996
  0
LINE
  8
1
 62
7
  6
CONTINUOUS
 10
40.866459
 20
102.004996
 11
40.304221
 21
102.004996
  0
LINE
  8
1
 62
7
  6
DASHDOT
 10
29.889989
 20
100.304996
 11
40.866459
 21
100.304996
  0
LINE
  8
1
 62
7
  6
CONTINUOUS
 10
40.866459
 20
98.604996
 11
40.304221
 21
98.604996
  0
LINE
  8
1
 62
7
  6
CONTINUOUS
 10
40.304221
 20
102.004996
 11
40.866459
 21
102.004996
  0
LINE
  8
1
 62
7
  6
CONTINUOUS
 10
51.937621
 20
102.304996
 11
51.937621
 21
98.304996
  0
LINE
  8
1
 62
7
  6
CONTINUOUS
 10
51.937621
 20
98.304996
 11
40.866459
 21
98.304996
  0
LINE
  8
1
 62
7
  6
CONTINUOUS
 10
40.866459
 20
98.304996
 11
40.866459
 21
102.304996
  0
LINE
  8
1
 62
7
  6
CONTINUOUS
 10
40.866459
 20
102.304996
 11
51.937621
 21
102.304996
  0
ARC
  8
1
 62
7
  6
CONTINUOUS
 10
37.673370
 20
107.749950
 40
5.000000
 50
-116.235785
 51
-103.087568
  0
LINE
  8
1
 62
7
  6
CONTINUOUS
 10
40.304221
 20
102.004996
 11
36.541170
 21
102.879825
  0
ARC
  8
1
 62
7
  6
CONTINUOUS
 10
34.004221
 20
100.304996
 40
3.300000
 50
63.764215
 51
-63.717964
  0
ARC
  8
1
 62
7
  6
CONTINUOUS
 10
37.679379
 20
92.863006
 40
5.000000
 50
103.064883
 51
116.282036
  0
LINE
  8
1
 62
7
  6
CONTINUOUS
 10
40.304221
 20
98.604996
 11
36.549107
 21
97.733579
  0
CIRCLE
  8
1
 62
7
  6
CONTINUOUS
 10
34.004221
 20
100.304996
 40
1.850000
  0
ARC
  8
1
 62
7
  6
CONTINUOUS
 10
37.673370
 20
92.860042
 40
5.000000
 50
103.087568
 51
116.235785
  0
LINE
  8
1
 62
7
  6
CONTINUOUS
 10
40.304221
 20
98.604996
 11
36.541170
 21
97.730167
  0
ARC
  8
1
 62
7
  6
CONTINUOUS
 10
34.004221
 20
100.304996
 40
3.300000
 50
63.717964
 51
-63.764215
  0
ARC
  8
1
 62
7
  6
CONTINUOUS
 10
37.679379
 20
107.746986
 40
5.000000
 50
-116.282036
 51
-103.064883
  0
LINE
  8
1
 62
7
  6
CONTINUOUS
 10
40.304221
 20
102.004996
 11
36.549107
 21
102.876412
  0
CIRCLE
  8
1
 62
7
  6
CONTINUOUS
 10
34.004221
 20
100.304996
 40
1.850000
  0
LINE
  8
1
 62
7
  6
CONTINUOUS
 10
51.937621
 20
99.151904
 11
54.655790
 21
96.433735
  0
LINE
  8
1
 62
7
  6
CONTINUOUS
 10
54.231526
 20
96.009471
 11
51.936001
 21
98.304996
  0
LINE
  8
1
 62
7
  6
DASHDOT
 10
29.889989
 20
100.304996
 11
52.604503
 21
100.304996
  0
LINE
  8
1
 62
7
  6
DASHDOT
 10
34.004221
 20
111.312192
 11
34.004221
 21
96.497799
  0
LINE
  8
1
 62
7
  6
DASHDOT
 10
34.004221
 20
96.248929
 11
34.004221
 21
111.561063
  0
LINE
  8
1
 62
7
  6
CONTINUOUS
 10
56.362897
 20
99.154996
 11
56.362897
 21
97.140842
  0
LINE
  8
1
 62
7
  6
CONTINUOUS
 10
56.962897
 20
97.140842
 11
56.962897
 21
99.154996
  0
LINE
  8
1
 62
7
  6
DASHDOT
 10
56.662897
 20
110.091602
 11
56.662897
 21
96.704996
  0
DIMENSION
  8
2
 62
134
  6
CONTINUOUS
  2
*D2
 10
74.090207
 20
108.654996
 11
74.090207
 21
103.904996
 70
     0
  1
9.5
 13
55.930734
 23
108.654996
 14
55.930734
 24
99.154996
 50
-90.000000
  0
TEXT
  8
2
 62
134
  6
CONTINUOUS
 10
74.090207
 20
104.154996
 40
2.000000
 41
1.000000
  1
±1
  7
KANJI
 50
90.000000
 51
0.000000
  0
DIMENSION
  8
2
 62
134
  6
CONTINUOUS
  2
*D3
 10
56.362897
 20
110.073084
 11
61.993285
 21
110.073084
 70
     0
  1
φ0.6
 13
56.362897
 23
110.073084
 14
56.962897
 24
110.073084
 50
0.000000
  0
TEXT
  8
2
 62
134
  6
CONTINUOUS
 10
35.390932
 20
76.663018
 40
2.000000
 41
1.000000
  1
質量：0.5g
  7
KANJI
 50
0.000000
 51
0.000000
  0
TEXT
  8
2
 62
134
  6
CONTINUOUS
 10
35.577947
 20
82.174724
 40
2.000000
 41
1.000000
  1
抵抗値：250Ω/TR-251T
  7
KANJI
 50
0.000000
 51
0.000000
  0
TEXT
  8
2
 62
134
  6
CONTINUOUS
 10
43.617954
 20
79.567154
 40
2.000000
 41
1.000000
  1
500Ω/TR-501T
  7
KANJI
 50
0.000000
 51
0.000000
  0
TEXT
  8
2
 62
134
  6
CONTINUOUS
 10
28.696180
 20
113.785884
 40
3.000000
 41
1.000000
  1
M3圧着端子
  7
KANJI
 50
0.000000
 51
0.000000
  0
TEXT
  8
5
 62
94
  6
CONTINUOUS
 10
74.610994
 20
9.646300
 40
2.000000
 41
1.000000
  1
００５－０６５－Ａ１８４
  7
KANJI
 50
0.000000
 51
0.000000
  0
TEXT
  8
5
 62
94
  6
CONTINUOUS
 10
44.277904
 20
13.519931
 40
2.000000
 41
0.500000
  1
2014/01/28
  7
KANJI
 50
0.000000
 51
0.000000
  0
TEXT
  8
5
 62
94
  6
CONTINUOUS
 10
75.566654
 20
15.464153
 40
2.000000
 41
1.000000
  1
0～5V/0～10V 変換抵抗
  7
KANJI
 50
0.000000
 51
0.000000
  0
TEXT
  8
5
 62
94
  6
CONTINUOUS
 10
75.566654
 20
13.207707
 40
2.000000
 41
1.000000
  1
外形図
  7
KANJI
 50
0.000000
 51
0.000000
  0
TEXT
  8
5
 62
94
  6
CONTINUOUS
 10
75.199705
 20
18.052073
 40
2.000000
 41
0.750000
  1
ＴＲ－２５１Ｔ／ＴＲ－５０１Ｔ
  7
KANJI
 50
0.000000
 51
0.000000
  0
ENDSEC
  0
EOF
