  0
SECTION
  2
HEADER
  9
$ACADVER
  1
AC1009
  9
$INSBASE
 10
0.000000
 20
0.000000
  9
$EXTMIN
 10
0.000000
 20
0.000000
  9
$EXTMAX
 10
105.000000
 20
148.500000
  9
$LIMMIN
 10
0.000000
 20
0.000000
  9
$LIMMAX
 10
105.000000
 20
148.500000
  9
$VIEWCTR
 10
52.500000
 20
74.250000
  9
$VIEWSIZE
 40
148.500000
  9
$PEXTMIN
 10
0.000000
 20
0.000000
 30
0.000000
  9
$PEXTMAX
 10
210.000000
 20
297.000000
 30
0.000000
  9
$SNAPMODE
 70
     0
  9
$SNAPUNIT
 10
1.000000
 20
1.000000
  9
$SNAPBASE
 10
0.000000
 20
0.000000
  9
$SNAPANG
 50
0.000000
  9
$SNAPISOPAIR
 70
     0
  9
$SNAPSTYLE
 70
     0
  9
$GRIDMODE
 70
     0
  9
$GRIDUNIT
 10
0.000000
 20
0.000000
  9
$ORTHOMODE
 70
     0
  9
$REGENMODE
 70
     1
  9
$FILLMODE
 70
     1
  9
$QTEXTMODE
 70
     0
  9
$DRAGMODE
 70
     2
  9
$LTSCALE
 40
0.125000
  9
$OSMODE
 70
     0
  9
$ATTMODE
 70
     1
  9
$TEXTSIZE
 40
2.000000
  9
$TRACEWID
 40
0.050000
  9
$TEXTSTYLE
  7
STANDARD
  9
$CLAYER
  8
0
  9
$CELTYPE
  6
BYLAYER
  9
$CECOLOR
 62
   256
  9
$DIMSCALE
 40
1.000000
  9
$DIMASZ
 40
1.000000
  9
$DIMEXO
 40
0.000000
  9
$DIMDLI
 40
0.500000
  9
$DIMRND
 40
0.000000
  9
$DIMDLE
 40
0.000000
  9
$DIMEXE
 40
0.000000
  9
$DIMTP
 40
0.000000
  9
$DIMTM
 40
0.000000
  9
$DIMTXT
 40
4.000000
  9
$DIMCEN
 40
0.000000
  9
$DIMTSZ
 40
0.000000
  9
$DIMTOL
 70
     0
  9
$DIMLIM
 70
     0
  9
$DIMTIH
 70
     1
  9
$DIMTOH
 70
     1
  9
$DIMSE1
 70
     0
  9
$DIMSE2
 70
     0
  9
$DIMTAD
 70
     0
  9
$DIMZIN
 70
     0
  9
$DIMBLK
  1

  9
$DIMASO
 70
     0
  9
$DIMSHO
 70
     0
  9
$DIMPOST
  1

  9
$DIMAPOST
  1

  9
$DIMALT
 70
     0
  9
$DIMALTD
 70
     0
  9
$DIMALTF
 40
25.400000
  9
$DIMLFAC
 40
1.000000
  9
$DIMTOFL
 70
     0
  9
$DIMTVP
 40
0.000000
  9
$DIMTIX
 70
     0
  9
$DIMSOXD
 70
     0
  9
$DIMSAH
 70
     0
  9
$DIMBLKL
  1

  9
$DIMBLKR
  1

  9
$LUNITS
 70
     2
  9
$LUPREC
 70
     2
  9
$AXISMODE
 70
     0
  9
$AXISUNIT
 10
1.000000
 20
1.000000
  9
$SKETCHINC
 40
0.000000
  9
$FILLETRAD
 40
0.000000
  9
$AUNITS
 70
     1
  9
$AUPREC
 70
     2
  9
$MENU
  1
ACAD
  9
$ELEVATION
 40
0.000000
  9
$THICKNESS
 40
0.000000
  9
$VIEWDIR
 10
0.000000
 20
0.000000
 30
1.000000
  9
$LIMCHECK
 70
     1
  9
$BLIPMODE
 70
     1
  9
$CHAMFERA
 40
0.000000
  9
$CHAMFERB
 40
0.000000
  9
$FASTZOOM
 70
     1
  9
$SKPOLY
 70
     0
  9
$TDCREATE
 40
0.000000
  9
$TDUPDATE
 40
0.000000
  9
$TDINDWG
 40
0.000000
  9
$TDUSRTIMER
 40
0.000000
  9
$USRTIMER
 70
     1
  9
$ANGBASE
 50
0.000000
  9
$ANGDIR
 70
     0
  9
$PDMODE
 70
     0
  9
$PDSIZE
 40
0.000000
  9
$PLINEWID
 40
0.000000
  9
$COORDS
 70
     2
  9
$USERI1
 70
     0
  9
$USERI2
 70
     0
  9
$USERI3
 70
     0
  9
$USERI4
 70
     0
  9
$USERI5
 70
     0
  9
$USERR1
 40
0.000000
  9
$USERR2
 40
0.000000
  9
$USERR3
 40
0.000000
  9
$USERR4
 40
0.000000
  9
$USERR5
 40
0.000000
  0
ENDSEC
  0
SECTION
  2
TABLES
  0
TABLE
  2
LTYPE
 70
     5
  0
LTYPE
  2
CONTINUOUS
 70
    64
  3
Solid line
 72
    65
 73
     0
 40
0.0
  0
LTYPE
  2
HIDDEN
 70
    64
  3
------------------------
 72
    65
 73
     2
 40
12.6
 49
8.4
 49
-4.2
  0
LTYPE
  2
DOT
 70
    64
  3
････････････････････････
 72
    65
 73
     2
 40
8.0
 49
6.0
 49
-2.0
  0
LTYPE
  2
DASHDOT
 70
    64
  3
--･--･--･--･--･--･--･--
 72
    65
 73
     4
 40
50.5
 49
30.0
 49
-9.0
 49
2.5
 49
-9.0
  0
LTYPE
  2
DIVIDE
 70
    64
  3
--･･--･･--･･--･･--･･--
 72
    65
 73
     6
 40
58.0
 49
30.0
 49
-9.0
 49
2.5
 49
-5.0
 49
2.5
 49
-9.0
  0
LTYPE
  2
ACAD_ISO06W100
 70
    64
  3
____ ... ____ ... ____
 72
    65
 73
     8
 40
37.5
 49
24.0
 49
-3.0
 49
0.5
 49
-3.0
 49
0.5
 49
-3.0
 49
0.5
 49
-3.0
  0
LTYPE
  2
ACAD_ISO14W100
 70
    64
  3
__ . . . __ . . . __ . . . 
 72
    65
 73
     8
 40
25.5
 49
12.0
 49
-3.0
 49
0.5
 49
-3.0
 49
0.5
 49
-3.0
 49
0.5
 49
-3.0
  0
ENDTAB
  0
TABLE
  2
LAYER
 70
3
  0
LAYER
  2
1
 70
64
 62
7
  6
CONTINUOUS
  0
LAYER
  2
2
 70
64
 62
134
  6
CONTINUOUS
  0
LAYER
  2
5
 70
64
 62
94
  6
CONTINUOUS
  0
ENDTAB
  0
TABLE
  2
STYLE
 70
     2
  0
STYLE
  2
STANDARD
 70
    64
 40
0.0
 41
1.0
 50
0.0
 71
     0
 42
0.2
  3
TXT
  4

  0
STYLE
  2
KANJI
 70
    64
 40
0.0
 41
1.0
 50
0.0
 71
     0
 42
0.2
  3
TXT
  4
BIGFONT
  0
ENDTAB
  0
TABLE
  2
VIEW
 70
     0
  0
ENDTAB
  0
ENDSEC
  0
SECTION
  2
BLOCKS
  0
BLOCK
  8
2
 62
134
  6
CONTINUOUS
  2
*D1
 70
    65
 10
0.0
 20
0.0
  0
LINE
  8
2
 62
134
  6
CONTINUOUS
 10
49.387612
 20
90.119668
 11
64.387612
 21
90.119668
  0
LINE
  8
2
 62
134
  6
CONTINUOUS
 10
49.387612
 20
89.619668
 11
49.387612
 21
94.085880
  0
LINE
  8
2
 62
134
  6
CONTINUOUS
 10
64.387612
 20
89.619668
 11
64.387612
 21
94.919914
  0
LINE
  8
2
 62
134
  6
CONTINUOUS
 10
49.387612
 20
90.119668
 11
50.353538
 21
90.378487
  0
LINE
  8
2
 62
134
  6
CONTINUOUS
 10
49.387612
 20
90.119668
 11
50.353538
 21
89.860849
  0
LINE
  8
2
 62
134
  6
CONTINUOUS
 10
50.353538
 20
90.378487
 11
50.353538
 21
89.860849
  0
LINE
  8
2
 62
134
  6
CONTINUOUS
 10
49.629093
 20
90.119668
 11
50.112056
 21
90.249077
  0
LINE
  8
2
 62
134
  6
CONTINUOUS
 10
49.629093
 20
90.119668
 11
50.112056
 21
89.990258
  0
LINE
  8
2
 62
134
  6
CONTINUOUS
 10
50.112056
 20
90.249077
 11
50.112056
 21
89.990258
  0
LINE
  8
2
 62
134
  6
CONTINUOUS
 10
64.387612
 20
90.119668
 11
63.421686
 21
89.860849
  0
LINE
  8
2
 62
134
  6
CONTINUOUS
 10
64.387612
 20
90.119668
 11
63.421686
 21
90.378487
  0
LINE
  8
2
 62
134
  6
CONTINUOUS
 10
63.421686
 20
89.860849
 11
63.421686
 21
90.378487
  0
LINE
  8
2
 62
134
  6
CONTINUOUS
 10
64.146131
 20
90.119668
 11
63.663168
 21
89.990258
  0
LINE
  8
2
 62
134
  6
CONTINUOUS
 10
64.146131
 20
90.119668
 11
63.663168
 21
90.249077
  0
LINE
  8
2
 62
134
  6
CONTINUOUS
 10
63.663168
 20
89.990258
 11
63.663168
 21
90.249077
  0
TEXT
  8
2
 62
134
  6
CONTINUOUS
 10
53.887612
 20
90.119668
 40
2.000000
 41
1.000000
  1
15以上
  7
KANJI
 50
0.000000
 51
0.000000
  0
ENDBLK
  0
BLOCK
  8
2
 62
134
  6
CONTINUOUS
  2
*D2
 70
    65
 10
0.0
 20
0.0
  0
LINE
  8
2
 62
134
  6
CONTINUOUS
 10
60.387612
 20
90.119668
 11
75.051571
 21
90.119668
  0
LINE
  8
2
 62
134
  6
CONTINUOUS
 10
64.387612
 20
89.619668
 11
64.387612
 21
94.919914
  0
LINE
  8
2
 62
134
  6
CONTINUOUS
 10
68.387612
 20
89.619668
 11
68.387612
 21
96.919914
  0
LINE
  8
2
 62
134
  6
CONTINUOUS
 10
64.387612
 20
90.119668
 11
63.421686
 21
89.860849
  0
LINE
  8
2
 62
134
  6
CONTINUOUS
 10
64.387612
 20
90.119668
 11
63.421686
 21
90.378487
  0
LINE
  8
2
 62
134
  6
CONTINUOUS
 10
63.421686
 20
89.860849
 11
63.421686
 21
90.378487
  0
LINE
  8
2
 62
134
  6
CONTINUOUS
 10
64.146131
 20
90.119668
 11
63.663168
 21
89.990258
  0
LINE
  8
2
 62
134
  6
CONTINUOUS
 10
64.146131
 20
90.119668
 11
63.663168
 21
90.249077
  0
LINE
  8
2
 62
134
  6
CONTINUOUS
 10
63.663168
 20
89.990258
 11
63.663168
 21
90.249077
  0
LINE
  8
2
 62
134
  6
CONTINUOUS
 10
68.387612
 20
90.119668
 11
69.353538
 21
90.378487
  0
LINE
  8
2
 62
134
  6
CONTINUOUS
 10
68.387612
 20
90.119668
 11
69.353538
 21
89.860849
  0
LINE
  8
2
 62
134
  6
CONTINUOUS
 10
69.353538
 20
90.378487
 11
69.353538
 21
89.860849
  0
LINE
  8
2
 62
134
  6
CONTINUOUS
 10
68.629093
 20
90.119668
 11
69.112056
 21
90.249077
  0
LINE
  8
2
 62
134
  6
CONTINUOUS
 10
68.629093
 20
90.119668
 11
69.112056
 21
89.990258
  0
LINE
  8
2
 62
134
  6
CONTINUOUS
 10
69.112056
 20
90.249077
 11
69.112056
 21
89.990258
  0
TEXT
  8
2
 62
134
  6
CONTINUOUS
 10
70.051571
 20
90.119668
 40
2.000000
 41
1.000000
  1
4以上
  7
KANJI
 50
0.000000
 51
0.000000
  0
ENDBLK
  0
BLOCK
  8
2
 62
134
  6
CONTINUOUS
  2
*D3
 70
    65
 10
0.0
 20
0.0
  0
LINE
  8
2
 62
134
  6
CONTINUOUS
 10
38.387612
 20
90.119668
 11
49.387612
 21
90.119668
  0
LINE
  8
2
 62
134
  6
CONTINUOUS
 10
38.387612
 20
89.619668
 11
38.387612
 21
93.669914
  0
LINE
  8
2
 62
134
  6
CONTINUOUS
 10
49.387612
 20
89.619668
 11
49.387612
 21
94.085880
  0
LINE
  8
2
 62
134
  6
CONTINUOUS
 10
38.387612
 20
90.119668
 11
39.353538
 21
90.378487
  0
LINE
  8
2
 62
134
  6
CONTINUOUS
 10
38.387612
 20
90.119668
 11
39.353538
 21
89.860849
  0
LINE
  8
2
 62
134
  6
CONTINUOUS
 10
39.353538
 20
90.378487
 11
39.353538
 21
89.860849
  0
LINE
  8
2
 62
134
  6
CONTINUOUS
 10
38.629093
 20
90.119668
 11
39.112056
 21
90.249077
  0
LINE
  8
2
 62
134
  6
CONTINUOUS
 10
38.629093
 20
90.119668
 11
39.112056
 21
89.990258
  0
LINE
  8
2
 62
134
  6
CONTINUOUS
 10
39.112056
 20
90.249077
 11
39.112056
 21
89.990258
  0
LINE
  8
2
 62
134
  6
CONTINUOUS
 10
49.387612
 20
90.119668
 11
48.421686
 21
89.860849
  0
LINE
  8
2
 62
134
  6
CONTINUOUS
 10
49.387612
 20
90.119668
 11
48.421686
 21
90.378487
  0
LINE
  8
2
 62
134
  6
CONTINUOUS
 10
48.421686
 20
89.860849
 11
48.421686
 21
90.378487
  0
LINE
  8
2
 62
134
  6
CONTINUOUS
 10
49.146131
 20
90.119668
 11
48.663168
 21
89.990258
  0
LINE
  8
2
 62
134
  6
CONTINUOUS
 10
49.146131
 20
90.119668
 11
48.663168
 21
90.249077
  0
LINE
  8
2
 62
134
  6
CONTINUOUS
 10
48.663168
 20
89.990258
 11
48.663168
 21
90.249077
  0
TEXT
  8
2
 62
134
  6
CONTINUOUS
 10
41.174411
 20
90.119668
 40
2.000000
 41
0.500000
  1
11
  7
KANJI
 50
0.000000
 51
0.000000
  0
ENDBLK
  0
BLOCK
  8
2
 62
134
  6
CONTINUOUS
  2
*D4
 70
    65
 10
0.0
 20
0.0
  0
LINE
  8
2
 62
134
  6
CONTINUOUS
 10
34.391366
 20
94.169914
 11
34.391366
 21
99.169914
  0
LINE
  8
2
 62
134
  6
CONTINUOUS
 10
33.891366
 20
94.169914
 11
37.887612
 21
94.169914
  0
LINE
  8
2
 62
134
  6
CONTINUOUS
 10
33.891366
 20
99.169914
 11
37.887612
 21
99.169914
  0
LINE
  8
2
 62
134
  6
CONTINUOUS
 10
34.391366
 20
94.169914
 11
34.132547
 21
95.135840
  0
LINE
  8
2
 62
134
  6
CONTINUOUS
 10
34.391366
 20
94.169914
 11
34.650185
 21
95.135840
  0
LINE
  8
2
 62
134
  6
CONTINUOUS
 10
34.132547
 20
95.135840
 11
34.650185
 21
95.135840
  0
LINE
  8
2
 62
134
  6
CONTINUOUS
 10
34.391366
 20
94.411396
 11
34.261957
 21
94.894359
  0
LINE
  8
2
 62
134
  6
CONTINUOUS
 10
34.391366
 20
94.411396
 11
34.520776
 21
94.894359
  0
LINE
  8
2
 62
134
  6
CONTINUOUS
 10
34.261957
 20
94.894359
 11
34.520776
 21
94.894359
  0
LINE
  8
2
 62
134
  6
CONTINUOUS
 10
34.391366
 20
99.169914
 11
34.650185
 21
98.203989
  0
LINE
  8
2
 62
134
  6
CONTINUOUS
 10
34.391366
 20
99.169914
 11
34.132547
 21
98.203989
  0
LINE
  8
2
 62
134
  6
CONTINUOUS
 10
34.650185
 20
98.203989
 11
34.132547
 21
98.203989
  0
LINE
  8
2
 62
134
  6
CONTINUOUS
 10
34.391366
 20
98.928433
 11
34.520776
 21
98.445470
  0
LINE
  8
2
 62
134
  6
CONTINUOUS
 10
34.391366
 20
98.928433
 11
34.261957
 21
98.445470
  0
LINE
  8
2
 62
134
  6
CONTINUOUS
 10
34.520776
 20
98.445470
 11
34.261957
 21
98.445470
  0
TEXT
  8
2
 62
134
  6
CONTINUOUS
 10
34.391366
 20
93.973000
 40
2.000000
 41
1.000000
  1
φ5
  7
KANJI
 50
90.000000
 51
0.000000
  0
ENDBLK
  0
BLOCK
  8
2
 62
134
  6
CONTINUOUS
  2
*D5
 70
    65
 10
0.0
 20
0.0
  0
LINE
  8
2
 62
134
  6
CONTINUOUS
 10
79.394695
 20
91.669914
 11
79.394695
 21
101.669914
  0
LINE
  8
2
 62
134
  6
CONTINUOUS
 10
79.894695
 20
95.669914
 11
66.031000
 21
95.669914
  0
LINE
  8
2
 62
134
  6
CONTINUOUS
 10
79.894695
 20
97.669914
 11
70.952519
 21
97.669914
  0
LINE
  8
2
 62
134
  6
CONTINUOUS
 10
79.394695
 20
95.669914
 11
79.653514
 21
94.703989
  0
LINE
  8
2
 62
134
  6
CONTINUOUS
 10
79.394695
 20
95.669914
 11
79.135876
 21
94.703989
  0
LINE
  8
2
 62
134
  6
CONTINUOUS
 10
79.653514
 20
94.703989
 11
79.135876
 21
94.703989
  0
LINE
  8
2
 62
134
  6
CONTINUOUS
 10
79.394695
 20
95.428433
 11
79.524105
 21
94.945470
  0
LINE
  8
2
 62
134
  6
CONTINUOUS
 10
79.394695
 20
95.428433
 11
79.265286
 21
94.945470
  0
LINE
  8
2
 62
134
  6
CONTINUOUS
 10
79.524105
 20
94.945470
 11
79.265286
 21
94.945470
  0
LINE
  8
2
 62
134
  6
CONTINUOUS
 10
79.394695
 20
97.669914
 11
79.135876
 21
98.635840
  0
LINE
  8
2
 62
134
  6
CONTINUOUS
 10
79.394695
 20
97.669914
 11
79.653514
 21
98.635840
  0
LINE
  8
2
 62
134
  6
CONTINUOUS
 10
79.135876
 20
98.635840
 11
79.653514
 21
98.635840
  0
LINE
  8
2
 62
134
  6
CONTINUOUS
 10
79.394695
 20
97.911396
 11
79.265286
 21
98.394359
  0
LINE
  8
2
 62
134
  6
CONTINUOUS
 10
79.394695
 20
97.911396
 11
79.524105
 21
98.394359
  0
LINE
  8
2
 62
134
  6
CONTINUOUS
 10
79.265286
 20
98.394359
 11
79.524105
 21
98.394359
  0
TEXT
  8
2
 62
134
  6
CONTINUOUS
 10
79.394695
 20
99.718370
 40
2.000000
 41
0.500000
  1
2
  7
KANJI
 50
90.000000
 51
0.000000
  0
ENDBLK
  0
BLOCK
  8
2
 62
134
  6
CONTINUOUS
  2
*D6
 70
    65
 10
0.0
 20
0.0
  0
LINE
  8
2
 62
134
  6
CONTINUOUS
 10
53.670423
 20
93.419914
 11
53.670423
 21
105.603420
  0
LINE
  8
2
 62
134
  6
CONTINUOUS
 10
53.670423
 20
97.419914
 11
53.929242
 21
96.453989
  0
LINE
  8
2
 62
134
  6
CONTINUOUS
 10
53.670423
 20
97.419914
 11
53.411604
 21
96.453989
  0
LINE
  8
2
 62
134
  6
CONTINUOUS
 10
53.929242
 20
96.453989
 11
53.411604
 21
96.453989
  0
LINE
  8
2
 62
134
  6
CONTINUOUS
 10
53.670423
 20
97.178433
 11
53.799833
 21
96.695470
  0
LINE
  8
2
 62
134
  6
CONTINUOUS
 10
53.670423
 20
97.178433
 11
53.541013
 21
96.695470
  0
LINE
  8
2
 62
134
  6
CONTINUOUS
 10
53.799833
 20
96.695470
 11
53.541013
 21
96.695470
  0
LINE
  8
2
 62
134
  6
CONTINUOUS
 10
53.670423
 20
97.919914
 11
53.411604
 21
98.885840
  0
LINE
  8
2
 62
134
  6
CONTINUOUS
 10
53.670423
 20
97.919914
 11
53.929242
 21
98.885840
  0
LINE
  8
2
 62
134
  6
CONTINUOUS
 10
53.411604
 20
98.885840
 11
53.929242
 21
98.885840
  0
LINE
  8
2
 62
134
  6
CONTINUOUS
 10
53.670423
 20
98.161396
 11
53.541013
 21
98.644359
  0
LINE
  8
2
 62
134
  6
CONTINUOUS
 10
53.670423
 20
98.161396
 11
53.799833
 21
98.644359
  0
LINE
  8
2
 62
134
  6
CONTINUOUS
 10
53.541013
 20
98.644359
 11
53.799833
 21
98.644359
  0
TEXT
  8
2
 62
134
  6
CONTINUOUS
 10
53.670423
 20
100.603420
 40
2.000000
 41
1.000000
  1
φ0.5
  7
KANJI
 50
90.000000
 51
0.000000
  0
ENDBLK
  0
ENDSEC
  0
SECTION
  2
ENTITIES
  0
TEXT
  8
5
 62
94
  6
CONTINUOUS
 10
62.215971
 20
12.429830
 40
0.875000
 41
4.000000
  1
製図
  7
KANJI
 50
-90.000000
 51
0.000000
  0
TEXT
  8
5
 62
94
  6
CONTINUOUS
 10
72.132362
 20
12.347876
 40
0.875000
 41
4.000000
  1
図番
  7
KANJI
 50
-90.000000
 51
0.000000
  0
TEXT
  8
5
 62
94
  6
CONTINUOUS
 10
72.132362
 20
18.986121
 40
0.875000
 41
4.000000
  1
図　名
  7
KANJI
 50
-90.000000
 51
0.000000
  0
TEXT
  8
5
 62
94
  6
CONTINUOUS
 10
39.678720
 20
16.281651
 40
0.875000
 41
4.000000
  1
日付
  7
KANJI
 50
-90.000000
 51
0.000000
  0
TEXT
  8
5
 62
94
  6
CONTINUOUS
 10
57.216799
 20
16.363605
 40
0.875000
 41
4.000000
  1
図法
  7
KANJI
 50
-90.000000
 51
0.000000
  0
TEXT
  8
5
 62
94
  6
CONTINUOUS
 10
57.134846
 20
20.379333
 40
0.875000
 41
4.000000
  1
尺度
  7
KANJI
 50
-90.000000
 51
0.000000
  0
TEXT
  8
5
 62
94
  6
CONTINUOUS
 10
39.678720
 20
20.297379
 40
0.875000
 41
4.000000
  1
公差
  7
KANJI
 50
-90.000000
 51
0.000000
  0
TEXT
  8
5
 62
94
  6
CONTINUOUS
 10
39.678720
 20
12.347876
 40
0.875000
 41
4.000000
  1
承認
  7
KANJI
 50
-90.000000
 51
0.000000
  0
TEXT
  8
5
 62
94
  6
CONTINUOUS
 10
52.217627
 20
12.347876
 40
0.875000
 41
4.000000
  1
設計
  7
KANJI
 50
-90.000000
 51
0.000000
  0
TEXT
  8
5
 62
94
  6
CONTINUOUS
 10
48.939481
 20
5.381816
 40
2.250000
 41
1.888889
  1
ジャパンセンサー株式会社
  7
KANJI
 50
0.000000
 51
0.000000
  0
LINE
  8
5
 62
94
  6
CONTINUOUS
 10
39.234597
 20
20.604085
 11
99.234597
 21
20.604085
  0
LINE
  8
5
 62
94
  6
CONTINUOUS
 10
39.234597
 20
4.604085
 11
39.234597
 21
20.604085
  0
LINE
  8
5
 62
94
  6
CONTINUOUS
 10
99.234597
 20
8.604085
 11
39.234597
 21
8.604085
  0
LINE
  8
5
 62
94
  6
CONTINUOUS
 10
71.734597
 20
20.604085
 11
71.734597
 21
8.604085
  0
LINE
  8
5
 62
94
  6
CONTINUOUS
 10
99.234597
 20
12.604085
 11
39.234597
 21
12.604085
  0
LINE
  8
5
 62
94
  6
CONTINUOUS
 10
74.234597
 20
8.604085
 11
74.234597
 21
20.604085
  0
LINE
  8
5
 62
94
  6
CONTINUOUS
 10
59.234597
 20
20.604085
 11
59.234597
 21
12.604085
  0
LINE
  8
5
 62
94
  6
CONTINUOUS
 10
41.734597
 20
8.604085
 11
41.734597
 21
20.604085
  0
LINE
  8
5
 62
94
  6
CONTINUOUS
 10
39.234597
 20
16.604085
 11
71.734597
 21
16.604085
  0
LINE
  8
5
 62
94
  6
CONTINUOUS
 10
56.734597
 20
20.604085
 11
56.734597
 21
12.604085
  0
LINE
  8
5
 62
94
  6
CONTINUOUS
 10
51.734597
 20
8.604085
 11
51.734597
 21
12.604085
  0
LINE
  8
5
 62
94
  6
CONTINUOUS
 10
61.734597
 20
8.604085
 11
61.734597
 21
12.604085
  0
LINE
  8
5
 62
94
  6
CONTINUOUS
 10
54.234597
 20
12.604085
 11
54.234597
 21
8.604085
  0
LINE
  8
5
 62
94
  6
CONTINUOUS
 10
64.234597
 20
12.604085
 11
64.234597
 21
8.604085
  0
TEXT
  8
5
 62
94
  6
CONTINUOUS
 10
61.232528
 20
13.249366
 40
2.000000
 41
1.000000
  1
三角法
  7
KANJI
 50
0.000000
 51
0.000000
  0
TEXT
  8
5
 62
94
  6
CONTINUOUS
 10
55.824656
 20
9.573573
 40
2.000000
 41
1.000000
  1
須藤
  7
KANJI
 50
0.000000
 51
0.000000
  0
TEXT
  8
5
 62
94
  6
CONTINUOUS
 10
62.548081
 20
17.466289
 40
2.000000
 41
1.000000
  1
２／１
  7
KANJI
 50
0.000000
 51
0.000000
  0
TEXT
  8
5
 62
94
  6
CONTINUOUS
 10
65.824656
 20
9.573573
 40
2.000000
 41
1.000000
  1
須藤
  7
KANJI
 50
0.000000
 51
0.000000
  0
LINE
  8
5
 62
94
  6
CONTINUOUS
 10
6.734597
 20
142.104085
 11
6.734597
 21
4.604085
  0
LINE
  8
5
 62
94
  6
CONTINUOUS
 10
6.734597
 20
4.604085
 11
99.234597
 21
4.604085
  0
LINE
  8
5
 62
94
  6
CONTINUOUS
 10
99.234597
 20
4.604085
 11
99.234597
 21
142.104085
  0
LINE
  8
5
 62
94
  6
CONTINUOUS
 10
99.234597
 20
142.104085
 11
6.734597
 21
142.104085
  0
TEXT
  8
5
 62
94
  6
CONTINUOUS
 10
44.277904
 20
13.519931
 40
2.000000
 41
0.500000
  1
2014/01/24
  7
KANJI
 50
0.000000
 51
0.000000
  0
TEXT
  8
5
 62
94
  6
CONTINUOUS
 10
75.566654
 20
13.207707
 40
2.000000
 41
1.000000
  1
外形図
  7
KANJI
 50
0.000000
 51
0.000000
  0
TEXT
  8
5
 62
94
  6
CONTINUOUS
 10
75.199705
 20
18.052073
 40
2.000000
 41
1.000000
  1
ＴＣ－１０５Ｎ
  7
KANJI
 50
0.000000
 51
0.000000
  0
TEXT
  8
5
 62
94
  6
CONTINUOUS
 10
75.566654
 20
15.464153
 40
2.000000
 41
1.000000
  1
ｱﾅﾛｸﾞ出力用終端ｺﾝﾃﾞﾝｻ
  7
KANJI
 50
0.000000
 51
0.000000
  0
TEXT
  8
5
 62
94
  6
CONTINUOUS
 10
74.610994
 20
9.646300
 40
2.000000
 41
1.000000
  1
００５－０６５－Ａ１８３
  7
KANJI
 50
0.000000
 51
0.000000
  0
LINE
  8
1
 62
7
  6
CONTINUOUS
 10
38.387612
 20
94.169914
 11
38.387612
 21
99.169914
  0
LINE
  8
1
 62
7
  6
CONTINUOUS
 10
49.387612
 20
98.753949
 11
49.387231
 21
98.755938
  0
LINE
  8
1
 62
7
  6
CONTINUOUS
 10
49.387231
 20
98.755938
 11
49.386097
 21
98.761851
  0
LINE
  8
1
 62
7
  6
CONTINUOUS
 10
49.386097
 20
98.761851
 11
49.384236
 21
98.771521
  0
LINE
  8
1
 62
7
  6
CONTINUOUS
 10
49.384236
 20
98.771521
 11
49.381683
 21
98.784666
  0
LINE
  8
1
 62
7
  6
CONTINUOUS
 10
49.381683
 20
98.784666
 11
49.378468
 21
98.800887
  0
LINE
  8
1
 62
7
  6
CONTINUOUS
 10
49.378468
 20
98.800887
 11
49.374607
 21
98.819664
  0
LINE
  8
1
 62
7
  6
CONTINUOUS
 10
49.374607
 20
98.819664
 11
49.370104
 21
98.840376
  0
LINE
  8
1
 62
7
  6
CONTINUOUS
 10
49.370104
 20
98.840376
 11
49.364950
 21
98.862319
  0
LINE
  8
1
 62
7
  6
CONTINUOUS
 10
49.364950
 20
98.862319
 11
49.359143
 21
98.884742
  0
LINE
  8
1
 62
7
  6
CONTINUOUS
 10
49.359143
 20
98.884742
 11
49.352711
 21
98.906893
  0
LINE
  8
1
 62
7
  6
CONTINUOUS
 10
49.352711
 20
98.906893
 11
49.345733
 21
98.928065
  0
LINE
  8
1
 62
7
  6
CONTINUOUS
 10
49.345733
 20
98.928065
 11
49.338362
 21
98.947641
  0
LINE
  8
1
 62
7
  6
CONTINUOUS
 10
49.338362
 20
98.947641
 11
49.330837
 21
98.965127
  0
LINE
  8
1
 62
7
  6
CONTINUOUS
 10
49.330837
 20
98.965127
 11
49.323477
 21
98.980168
  0
LINE
  8
1
 62
7
  6
CONTINUOUS
 10
49.323477
 20
98.980168
 11
49.316664
 21
98.992548
  0
LINE
  8
1
 62
7
  6
CONTINUOUS
 10
49.316664
 20
98.992548
 11
49.310805
 21
99.002164
  0
LINE
  8
1
 62
7
  6
CONTINUOUS
 10
49.310805
 20
99.002164
 11
49.306289
 21
99.008999
  0
LINE
  8
1
 62
7
  6
CONTINUOUS
 10
49.306289
 20
99.008999
 11
49.303437
 21
99.013077
  0
LINE
  8
1
 62
7
  6
CONTINUOUS
 10
49.303437
 20
99.013077
 11
49.302462
 21
99.014432
  0
LINE
  8
1
 62
7
  6
CONTINUOUS
 10
49.302462
 20
99.014432
 11
49.301478
 21
99.015778
  0
LINE
  8
1
 62
7
  6
CONTINUOUS
 10
49.301478
 20
99.015778
 11
49.298507
 21
99.019729
  0
LINE
  8
1
 62
7
  6
CONTINUOUS
 10
49.298507
 20
99.019729
 11
49.293497
 21
99.026031
  0
LINE
  8
1
 62
7
  6
CONTINUOUS
 10
49.293497
 20
99.026031
 11
49.286393
 21
99.034292
  0
LINE
  8
1
 62
7
  6
CONTINUOUS
 10
49.286393
 20
99.034292
 11
49.277177
 21
99.044024
  0
LINE
  8
1
 62
7
  6
CONTINUOUS
 10
49.277177
 20
99.044024
 11
49.265909
 21
99.054693
  0
LINE
  8
1
 62
7
  6
CONTINUOUS
 10
49.265909
 20
99.054693
 11
49.252760
 21
99.065766
  0
LINE
  8
1
 62
7
  6
CONTINUOUS
 10
49.252760
 20
99.065766
 11
49.238029
 21
99.076758
  0
LINE
  8
1
 62
7
  6
CONTINUOUS
 10
49.238029
 20
99.076758
 11
49.222141
 21
99.087262
  0
LINE
  8
1
 62
7
  6
CONTINUOUS
 10
49.222141
 20
99.087262
 11
49.205624
 21
99.096970
  0
LINE
  8
1
 62
7
  6
CONTINUOUS
 10
49.205624
 20
99.096970
 11
49.189063
 21
99.105673
  0
LINE
  8
1
 62
7
  6
CONTINUOUS
 10
49.189063
 20
99.105673
 11
49.173058
 21
99.113259
  0
LINE
  8
1
 62
7
  6
CONTINUOUS
 10
49.173058
 20
99.113259
 11
49.158172
 21
99.119689
  0
LINE
  8
1
 62
7
  6
CONTINUOUS
 10
49.158172
 20
99.119689
 11
49.144893
 21
99.124982
  0
LINE
  8
1
 62
7
  6
CONTINUOUS
 10
49.144893
 20
99.124982
 11
49.133610
 21
99.129187
  0
LINE
  8
1
 62
7
  6
CONTINUOUS
 10
49.133610
 20
99.129187
 11
49.124606
 21
99.132370
  0
LINE
  8
1
 62
7
  6
CONTINUOUS
 10
49.124606
 20
99.132370
 11
49.118070
 21
99.134591
  0
LINE
  8
1
 62
7
  6
CONTINUOUS
 10
49.118070
 20
99.134591
 11
49.114111
 21
99.135902
  0
LINE
  8
1
 62
7
  6
CONTINUOUS
 10
49.114111
 20
99.135902
 11
49.112786
 21
99.136336
  0
LINE
  8
1
 62
7
  6
CONTINUOUS
 10
49.112786
 20
99.136336
 11
49.111465
 21
99.136765
  0
LINE
  8
1
 62
7
  6
CONTINUOUS
 10
49.111465
 20
99.136765
 11
49.107556
 21
99.138020
  0
LINE
  8
1
 62
7
  6
CONTINUOUS
 10
49.107556
 20
99.138020
 11
49.101218
 21
99.140002
  0
LINE
  8
1
 62
7
  6
CONTINUOUS
 10
49.101218
 20
99.140002
 11
49.092687
 21
99.142563
  0
LINE
  8
1
 62
7
  6
CONTINUOUS
 10
49.092687
 20
99.142563
 11
49.082247
 21
99.145523
  0
LINE
  8
1
 62
7
  6
CONTINUOUS
 10
49.082247
 20
99.145523
 11
49.070193
 21
99.148691
  0
LINE
  8
1
 62
7
  6
CONTINUOUS
 10
49.070193
 20
99.148691
 11
49.056805
 21
99.151890
  0
LINE
  8
1
 62
7
  6
CONTINUOUS
 10
49.056805
 20
99.151890
 11
49.042342
 21
99.154967
  0
LINE
  8
1
 62
7
  6
CONTINUOUS
 10
49.042342
 20
99.154967
 11
49.027044
 21
99.157810
  0
LINE
  8
1
 62
7
  6
CONTINUOUS
 10
49.027044
 20
99.157810
 11
49.011154
 21
99.160349
  0
LINE
  8
1
 62
7
  6
CONTINUOUS
 10
49.011154
 20
99.160349
 11
48.994949
 21
99.162551
  0
LINE
  8
1
 62
7
  6
CONTINUOUS
 10
48.994949
 20
99.162551
 11
48.978772
 21
99.164416
  0
LINE
  8
1
 62
7
  6
CONTINUOUS
 10
48.978772
 20
99.164416
 11
48.963048
 21
99.165962
  0
LINE
  8
1
 62
7
  6
CONTINUOUS
 10
48.963048
 20
99.165962
 11
48.948288
 21
99.167218
  0
LINE
  8
1
 62
7
  6
CONTINUOUS
 10
48.948288
 20
99.167218
 11
48.935067
 21
99.168211
  0
LINE
  8
1
 62
7
  6
CONTINUOUS
 10
48.935067
 20
99.168211
 11
48.923981
 21
99.168964
  0
LINE
  8
1
 62
7
  6
CONTINUOUS
 10
48.923981
 20
99.168964
 11
48.915589
 21
99.169494
  0
LINE
  8
1
 62
7
  6
CONTINUOUS
 10
48.915589
 20
99.169494
 11
48.910352
 21
99.169810
  0
LINE
  8
1
 62
7
  6
CONTINUOUS
 10
48.910352
 20
99.169810
 11
48.908571
 21
99.169914
  0
LINE
  8
1
 62
7
  6
CONTINUOUS
 10
48.908571
 20
99.169914
 11
48.906780
 21
99.170018
  0
LINE
  8
1
 62
7
  6
CONTINUOUS
 10
48.906780
 20
99.170018
 11
48.901401
 21
99.170324
  0
LINE
  8
1
 62
7
  6
CONTINUOUS
 10
48.901401
 20
99.170324
 11
48.892423
 21
99.170810
  0
LINE
  8
1
 62
7
  6
CONTINUOUS
 10
48.892423
 20
99.170810
 11
48.879875
 21
99.171443
  0
LINE
  8
1
 62
7
  6
CONTINUOUS
 10
48.879875
 20
99.171443
 11
48.863869
 21
99.172171
  0
LINE
  8
1
 62
7
  6
CONTINUOUS
 10
48.863869
 20
99.172171
 11
48.844658
 21
99.172933
  0
LINE
  8
1
 62
7
  6
CONTINUOUS
 10
48.844658
 20
99.172933
 11
48.822670
 21
99.173655
  0
LINE
  8
1
 62
7
  6
CONTINUOUS
 10
48.822670
 20
99.173655
 11
48.798519
 21
99.174262
  0
LINE
  8
1
 62
7
  6
CONTINUOUS
 10
48.798519
 20
99.174262
 11
48.772984
 21
99.174680
  0
LINE
  8
1
 62
7
  6
CONTINUOUS
 10
48.772984
 20
99.174680
 11
48.746957
 21
99.174854
  0
LINE
  8
1
 62
7
  6
CONTINUOUS
 10
48.746957
 20
99.174854
 11
48.721377
 21
99.174750
  0
LINE
  8
1
 62
7
  6
CONTINUOUS
 10
48.721377
 20
99.174750
 11
48.697140
 21
99.174368
  0
LINE
  8
1
 62
7
  6
CONTINUOUS
 10
48.697140
 20
99.174368
 11
48.675035
 21
99.173744
  0
LINE
  8
1
 62
7
  6
CONTINUOUS
 10
48.675035
 20
99.173744
 11
48.655689
 21
99.172947
  0
LINE
  8
1
 62
7
  6
CONTINUOUS
 10
48.655689
 20
99.172947
 11
48.639544
 21
99.172073
  0
LINE
  8
1
 62
7
  6
CONTINUOUS
 10
48.639544
 20
99.172073
 11
48.626868
 21
99.171232
  0
LINE
  8
1
 62
7
  6
CONTINUOUS
 10
48.626868
 20
99.171232
 11
48.617787
 21
99.170535
  0
LINE
  8
1
 62
7
  6
CONTINUOUS
 10
48.617787
 20
99.170535
 11
48.612341
 21
99.170075
  0
LINE
  8
1
 62
7
  6
CONTINUOUS
 10
48.612341
 20
99.170075
 11
48.610528
 21
99.169914
  0
LINE
  8
1
 62
7
  6
CONTINUOUS
 10
48.610528
 20
99.169914
 11
48.608724
 21
99.169751
  0
LINE
  8
1
 62
7
  6
CONTINUOUS
 10
48.608724
 20
99.169751
 11
48.603416
 21
99.169246
  0
LINE
  8
1
 62
7
  6
CONTINUOUS
 10
48.603416
 20
99.169246
 11
48.594905
 21
99.168362
  0
LINE
  8
1
 62
7
  6
CONTINUOUS
 10
48.594905
 20
99.168362
 11
48.583654
 21
99.167037
  0
LINE
  8
1
 62
7
  6
CONTINUOUS
 10
48.583654
 20
99.167037
 11
48.570238
 21
99.165193
  0
LINE
  8
1
 62
7
  6
CONTINUOUS
 10
48.570238
 20
99.165193
 11
48.555283
 21
99.162750
  0
LINE
  8
1
 62
7
  6
CONTINUOUS
 10
48.555283
 20
99.162750
 11
48.539412
 21
99.159630
  0
LINE
  8
1
 62
7
  6
CONTINUOUS
 10
48.539412
 20
99.159630
 11
48.523196
 21
99.155782
  0
LINE
  8
1
 62
7
  6
CONTINUOUS
 10
48.523196
 20
99.155782
 11
48.507129
 21
99.151193
  0
LINE
  8
1
 62
7
  6
CONTINUOUS
 10
48.507129
 20
99.151193
 11
48.491614
 21
99.145904
  0
LINE
  8
1
 62
7
  6
CONTINUOUS
 10
48.491614
 20
99.145904
 11
48.476966
 21
99.140025
  0
LINE
  8
1
 62
7
  6
CONTINUOUS
 10
48.476966
 20
99.140025
 11
48.463436
 21
99.133738
  0
LINE
  8
1
 62
7
  6
CONTINUOUS
 10
48.463436
 20
99.133738
 11
48.451223
 21
99.127294
  0
LINE
  8
1
 62
7
  6
CONTINUOUS
 10
48.451223
 20
99.127294
 11
48.440506
 21
99.121001
  0
LINE
  8
1
 62
7
  6
CONTINUOUS
 10
48.440506
 20
99.121001
 11
48.431446
 21
99.115200
  0
LINE
  8
1
 62
7
  6
CONTINUOUS
 10
48.431446
 20
99.115200
 11
48.424199
 21
99.110238
  0
LINE
  8
1
 62
7
  6
CONTINUOUS
 10
48.424199
 20
99.110238
 11
48.418904
 21
99.106432
  0
LINE
  8
1
 62
7
  6
CONTINUOUS
 10
48.418904
 20
99.106432
 11
48.415677
 21
99.104037
  0
LINE
  8
1
 62
7
  6
CONTINUOUS
 10
48.415677
 20
99.104037
 11
48.414592
 21
99.103220
  0
LINE
  8
1
 62
7
  6
CONTINUOUS
 10
48.414592
 20
99.103220
 11
48.413508
 21
99.102397
  0
LINE
  8
1
 62
7
  6
CONTINUOUS
 10
48.413508
 20
99.102397
 11
48.410287
 21
99.099915
  0
LINE
  8
1
 62
7
  6
CONTINUOUS
 10
48.410287
 20
99.099915
 11
48.405026
 21
99.095747
  0
LINE
  8
1
 62
7
  6
CONTINUOUS
 10
48.405026
 20
99.095747
 11
48.397882
 21
99.089875
  0
LINE
  8
1
 62
7
  6
CONTINUOUS
 10
48.397882
 20
99.089875
 11
48.389071
 21
99.082321
  0
LINE
  8
1
 62
7
  6
CONTINUOUS
 10
48.389071
 20
99.082321
 11
48.378862
 21
99.073184
  0
LINE
  8
1
 62
7
  6
CONTINUOUS
 10
48.378862
 20
99.073184
 11
48.367567
 21
99.062658
  0
LINE
  8
1
 62
7
  6
CONTINUOUS
 10
48.367567
 20
99.062658
 11
48.355531
 21
99.051047
  0
LINE
  8
1
 62
7
  6
CONTINUOUS
 10
48.355531
 20
99.051047
 11
48.343120
 21
99.038750
  0
LINE
  8
1
 62
7
  6
CONTINUOUS
 10
48.343120
 20
99.038750
 11
48.330701
 21
99.026229
  0
LINE
  8
1
 62
7
  6
CONTINUOUS
 10
48.330701
 20
99.026229
 11
48.318630
 21
99.013970
  0
LINE
  8
1
 62
7
  6
CONTINUOUS
 10
48.318630
 20
99.013970
 11
48.307240
 21
99.002433
  0
LINE
  8
1
 62
7
  6
CONTINUOUS
 10
48.307240
 20
99.002433
 11
48.296825
 21
98.992007
  0
LINE
  8
1
 62
7
  6
CONTINUOUS
 10
48.296825
 20
98.992007
 11
48.287635
 21
98.982984
  0
LINE
  8
1
 62
7
  6
CONTINUOUS
 10
48.287635
 20
98.982984
 11
48.279872
 21
98.975549
  0
LINE
  8
1
 62
7
  6
CONTINUOUS
 10
48.279872
 20
98.975549
 11
48.273690
 21
98.969786
  0
LINE
  8
1
 62
7
  6
CONTINUOUS
 10
48.273690
 20
98.969786
 11
48.269202
 21
98.965706
  0
LINE
  8
1
 62
7
  6
CONTINUOUS
 10
48.269202
 20
98.965706
 11
48.266481
 21
98.963281
  0
LINE
  8
1
 62
7
  6
CONTINUOUS
 10
48.266481
 20
98.963281
 11
48.265570
 21
98.962477
  0
LINE
  8
1
 62
7
  6
CONTINUOUS
 10
48.265570
 20
98.962477
 11
48.264661
 21
98.961680
  0
LINE
  8
1
 62
7
  6
CONTINUOUS
 10
48.264661
 20
98.961680
 11
48.261969
 21
98.959346
  0
LINE
  8
1
 62
7
  6
CONTINUOUS
 10
48.261969
 20
98.959346
 11
48.257596
 21
98.955644
  0
LINE
  8
1
 62
7
  6
CONTINUOUS
 10
48.257596
 20
98.955644
 11
48.251700
 21
98.950834
  0
LINE
  8
1
 62
7
  6
CONTINUOUS
 10
48.251700
 20
98.950834
 11
48.244471
 21
98.945238
  0
LINE
  8
1
 62
7
  6
CONTINUOUS
 10
48.244471
 20
98.945238
 11
48.236114
 21
98.939205
  0
LINE
  8
1
 62
7
  6
CONTINUOUS
 10
48.236114
 20
98.939205
 11
48.226836
 21
98.933079
  0
LINE
  8
1
 62
7
  6
CONTINUOUS
 10
48.226836
 20
98.933079
 11
48.216834
 21
98.927167
  0
LINE
  8
1
 62
7
  6
CONTINUOUS
 10
48.216834
 20
98.927167
 11
48.206301
 21
98.921715
  0
LINE
  8
1
 62
7
  6
CONTINUOUS
 10
48.206301
 20
98.921715
 11
48.195430
 21
98.916895
  0
LINE
  8
1
 62
7
  6
CONTINUOUS
 10
48.195430
 20
98.916895
 11
48.184435
 21
98.912803
  0
LINE
  8
1
 62
7
  6
CONTINUOUS
 10
48.184435
 20
98.912803
 11
48.173560
 21
98.909466
  0
LINE
  8
1
 62
7
  6
CONTINUOUS
 10
48.173560
 20
98.909466
 11
48.163093
 21
98.906849
  0
LINE
  8
1
 62
7
  6
CONTINUOUS
 10
48.163093
 20
98.906849
 11
48.153359
 21
98.904879
  0
LINE
  8
1
 62
7
  6
CONTINUOUS
 10
48.153359
 20
98.904879
 11
48.144714
 21
98.903460
  0
LINE
  8
1
 62
7
  6
CONTINUOUS
 10
48.144714
 20
98.903460
 11
48.137516
 21
98.902488
  0
LINE
  8
1
 62
7
  6
CONTINUOUS
 10
48.137516
 20
98.902488
 11
48.132099
 21
98.901871
  0
LINE
  8
1
 62
7
  6
CONTINUOUS
 10
48.132099
 20
98.901871
 11
48.128730
 21
98.901532
  0
LINE
  8
1
 62
7
  6
CONTINUOUS
 10
48.128730
 20
98.901532
 11
48.127587
 21
98.901424
  0
LINE
  8
1
 62
7
  6
CONTINUOUS
 10
48.127587
 20
98.901424
 11
48.126439
 21
98.901320
  0
LINE
  8
1
 62
7
  6
CONTINUOUS
 10
48.126439
 20
98.901320
 11
48.122994
 21
98.901028
  0
LINE
  8
1
 62
7
  6
CONTINUOUS
 10
48.122994
 20
98.901028
 11
48.117261
 21
98.900610
  0
LINE
  8
1
 62
7
  6
CONTINUOUS
 10
48.117261
 20
98.900610
 11
48.109261
 21
98.900150
  0
LINE
  8
1
 62
7
  6
CONTINUOUS
 10
48.109261
 20
98.900150
 11
48.099052
 21
98.899741
  0
LINE
  8
1
 62
7
  6
CONTINUOUS
 10
48.099052
 20
98.899741
 11
48.086739
 21
98.899464
  0
LINE
  8
1
 62
7
  6
CONTINUOUS
 10
48.086739
 20
98.899464
 11
48.072499
 21
98.899371
  0
LINE
  8
1
 62
7
  6
CONTINUOUS
 10
48.072499
 20
98.899371
 11
48.056590
 21
98.899475
  0
LINE
  8
1
 62
7
  6
CONTINUOUS
 10
48.056590
 20
98.899475
 11
48.039359
 21
98.899752
  0
LINE
  8
1
 62
7
  6
CONTINUOUS
 10
48.039359
 20
98.899752
 11
48.021241
 21
98.900145
  0
LINE
  8
1
 62
7
  6
CONTINUOUS
 10
48.021241
 20
98.900145
 11
48.002748
 21
98.900581
  0
LINE
  8
1
 62
7
  6
CONTINUOUS
 10
48.002748
 20
98.900581
 11
47.984453
 21
98.900985
  0
LINE
  8
1
 62
7
  6
CONTINUOUS
 10
47.984453
 20
98.900985
 11
47.966961
 21
98.901301
  0
LINE
  8
1
 62
7
  6
CONTINUOUS
 10
47.966961
 20
98.901301
 11
47.950883
 21
98.901498
  0
LINE
  8
1
 62
7
  6
CONTINUOUS
 10
47.950883
 20
98.901498
 11
47.936802
 21
98.901577
  0
LINE
  8
1
 62
7
  6
CONTINUOUS
 10
47.936802
 20
98.901577
 11
47.925246
 21
98.901565
  0
LINE
  8
1
 62
7
  6
CONTINUOUS
 10
47.925246
 20
98.901565
 11
47.916654
 21
98.901506
  0
LINE
  8
1
 62
7
  6
CONTINUOUS
 10
47.916654
 20
98.901506
 11
47.911362
 21
98.901448
  0
LINE
  8
1
 62
7
  6
CONTINUOUS
 10
47.911362
 20
98.901448
 11
47.909574
 21
98.901424
  0
LINE
  8
1
 62
7
  6
CONTINUOUS
 10
47.909574
 20
98.901424
 11
47.907783
 21
98.901398
  0
LINE
  8
1
 62
7
  6
CONTINUOUS
 10
47.907783
 20
98.901398
 11
47.902437
 21
98.901309
  0
LINE
  8
1
 62
7
  6
CONTINUOUS
 10
47.902437
 20
98.901309
 11
47.893629
 21
98.901128
  0
LINE
  8
1
 62
7
  6
CONTINUOUS
 10
47.893629
 20
98.901128
 11
47.881531
 21
98.900817
  0
LINE
  8
1
 62
7
  6
CONTINUOUS
 10
47.881531
 20
98.900817
 11
47.866419
 21
98.900353
  0
LINE
  8
1
 62
7
  6
CONTINUOUS
 10
47.866419
 20
98.900353
 11
47.848688
 21
98.899736
  0
LINE
  8
1
 62
7
  6
CONTINUOUS
 10
47.848688
 20
98.899736
 11
47.828865
 21
98.899001
  0
LINE
  8
1
 62
7
  6
CONTINUOUS
 10
47.828865
 20
98.899001
 11
47.807593
 21
98.898223
  0
LINE
  8
1
 62
7
  6
CONTINUOUS
 10
47.807593
 20
98.898223
 11
47.785603
 21
98.897506
  0
LINE
  8
1
 62
7
  6
CONTINUOUS
 10
47.785603
 20
98.897506
 11
47.763666
 21
98.896963
  0
LINE
  8
1
 62
7
  6
CONTINUOUS
 10
47.763666
 20
98.896963
 11
47.742537
 21
98.896697
  0
LINE
  8
1
 62
7
  6
CONTINUOUS
 10
47.742537
 20
98.896697
 11
47.722892
 21
98.896772
  0
LINE
  8
1
 62
7
  6
CONTINUOUS
 10
47.722892
 20
98.896772
 11
47.705287
 21
98.897200
  0
LINE
  8
1
 62
7
  6
CONTINUOUS
 10
47.705287
 20
98.897200
 11
47.690126
 21
98.897928
  0
LINE
  8
1
 62
7
  6
CONTINUOUS
 10
47.690126
 20
98.897928
 11
47.677654
 21
98.898848
  0
LINE
  8
1
 62
7
  6
CONTINUOUS
 10
47.677654
 20
98.898848
 11
47.667983
 21
98.899810
  0
LINE
  8
1
 62
7
  6
CONTINUOUS
 10
47.667983
 20
98.899810
 11
47.661124
 21
98.900650
  0
LINE
  8
1
 62
7
  6
CONTINUOUS
 10
47.661124
 20
98.900650
 11
47.657040
 21
98.901221
  0
LINE
  8
1
 62
7
  6
CONTINUOUS
 10
47.657040
 20
98.901221
 11
47.655685
 21
98.901424
  0
LINE
  8
1
 62
7
  6
CONTINUOUS
 10
47.655685
 20
98.901424
 11
47.654339
 21
98.901632
  0
LINE
  8
1
 62
7
  6
CONTINUOUS
 10
47.654339
 20
98.901632
 11
47.650395
 21
98.902281
  0
LINE
  8
1
 62
7
  6
CONTINUOUS
 10
47.650395
 20
98.902281
 11
47.644119
 21
98.903440
  0
LINE
  8
1
 62
7
  6
CONTINUOUS
 10
47.644119
 20
98.903440
 11
47.635914
 21
98.905206
  0
LINE
  8
1
 62
7
  6
CONTINUOUS
 10
47.635914
 20
98.905206
 11
47.626274
 21
98.907682
  0
LINE
  8
1
 62
7
  6
CONTINUOUS
 10
47.626274
 20
98.907682
 11
47.615719
 21
98.910944
  0
LINE
  8
1
 62
7
  6
CONTINUOUS
 10
47.615719
 20
98.910944
 11
47.604750
 21
98.915028
  0
LINE
  8
1
 62
7
  6
CONTINUOUS
 10
47.604750
 20
98.915028
 11
47.593797
 21
98.919900
  0
LINE
  8
1
 62
7
  6
CONTINUOUS
 10
47.593797
 20
98.919900
 11
47.583201
 21
98.925462
  0
LINE
  8
1
 62
7
  6
CONTINUOUS
 10
47.583201
 20
98.925462
 11
47.573205
 21
98.931542
  0
LINE
  8
1
 62
7
  6
CONTINUOUS
 10
47.573205
 20
98.931542
 11
47.563969
 21
98.937920
  0
LINE
  8
1
 62
7
  6
CONTINUOUS
 10
47.563969
 20
98.937920
 11
47.555587
 21
98.944338
  0
LINE
  8
1
 62
7
  6
CONTINUOUS
 10
47.555587
 20
98.944338
 11
47.548122
 21
98.950527
  0
LINE
  8
1
 62
7
  6
CONTINUOUS
 10
47.548122
 20
98.950527
 11
47.541626
 21
98.956228
  0
LINE
  8
1
 62
7
  6
CONTINUOUS
 10
47.541626
 20
98.956228
 11
47.536157
 21
98.961209
  0
LINE
  8
1
 62
7
  6
CONTINUOUS
 10
47.536157
 20
98.961209
 11
47.531786
 21
98.965279
  0
LINE
  8
1
 62
7
  6
CONTINUOUS
 10
47.531786
 20
98.965279
 11
47.528589
 21
98.968288
  0
LINE
  8
1
 62
7
  6
CONTINUOUS
 10
47.528589
 20
98.968288
 11
47.526637
 21
98.970134
  0
LINE
  8
1
 62
7
  6
CONTINUOUS
 10
47.526637
 20
98.970134
 11
47.525981
 21
98.970756
  0
LINE
  8
1
 62
7
  6
CONTINUOUS
 10
47.525981
 20
98.970756
 11
47.525324
 21
98.971378
  0
LINE
  8
1
 62
7
  6
CONTINUOUS
 10
47.525324
 20
98.971378
 11
47.523371
 21
98.973231
  0
LINE
  8
1
 62
7
  6
CONTINUOUS
 10
47.523371
 20
98.973231
 11
47.520174
 21
98.976269
  0
LINE
  8
1
 62
7
  6
CONTINUOUS
 10
47.520174
 20
98.976269
 11
47.515818
 21
98.980419
  0
LINE
  8
1
 62
7
  6
CONTINUOUS
 10
47.515818
 20
98.980419
 11
47.510422
 21
98.985575
  0
LINE
  8
1
 62
7
  6
CONTINUOUS
 10
47.510422
 20
98.985575
 11
47.504140
 21
98.991600
  0
LINE
  8
1
 62
7
  6
CONTINUOUS
 10
47.504140
 20
98.991600
 11
47.497150
 21
98.998328
  0
LINE
  8
1
 62
7
  6
CONTINUOUS
 10
47.497150
 20
98.998328
 11
47.489657
 21
99.005567
  0
LINE
  8
1
 62
7
  6
CONTINUOUS
 10
47.489657
 20
99.005567
 11
47.481882
 21
99.013106
  0
LINE
  8
1
 62
7
  6
CONTINUOUS
 10
47.481882
 20
99.013106
 11
47.474053
 21
99.020723
  0
LINE
  8
1
 62
7
  6
CONTINUOUS
 10
47.474053
 20
99.020723
 11
47.466397
 21
99.028195
  0
LINE
  8
1
 62
7
  6
CONTINUOUS
 10
47.466397
 20
99.028195
 11
47.459128
 21
99.035307
  0
LINE
  8
1
 62
7
  6
CONTINUOUS
 10
47.459128
 20
99.035307
 11
47.452443
 21
99.041862
  0
LINE
  8
1
 62
7
  6
CONTINUOUS
 10
47.452443
 20
99.041862
 11
47.446513
 21
99.047686
  0
LINE
  8
1
 62
7
  6
CONTINUOUS
 10
47.446513
 20
99.047686
 11
47.441481
 21
99.052636
  0
LINE
  8
1
 62
7
  6
CONTINUOUS
 10
47.441481
 20
99.052636
 11
47.437458
 21
99.056597
  0
LINE
  8
1
 62
7
  6
CONTINUOUS
 10
47.437458
 20
99.056597
 11
47.434529
 21
99.059483
  0
LINE
  8
1
 62
7
  6
CONTINUOUS
 10
47.434529
 20
99.059483
 11
47.432749
 21
99.061237
  0
LINE
  8
1
 62
7
  6
CONTINUOUS
 10
47.432749
 20
99.061237
 11
47.432152
 21
99.061825
  0
LINE
  8
1
 62
7
  6
CONTINUOUS
 10
47.432152
 20
99.061825
 11
47.431557
 21
99.062412
  0
LINE
  8
1
 62
7
  6
CONTINUOUS
 10
47.431557
 20
99.062412
 11
47.429791
 21
99.064153
  0
LINE
  8
1
 62
7
  6
CONTINUOUS
 10
47.429791
 20
99.064153
 11
47.426918
 21
99.066984
  0
LINE
  8
1
 62
7
  6
CONTINUOUS
 10
47.426918
 20
99.066984
 11
47.423033
 21
99.070800
  0
LINE
  8
1
 62
7
  6
CONTINUOUS
 10
47.423033
 20
99.070800
 11
47.418254
 21
99.075464
  0
LINE
  8
1
 62
7
  6
CONTINUOUS
 10
47.418254
 20
99.075464
 11
47.412714
 21
99.080802
  0
LINE
  8
1
 62
7
  6
CONTINUOUS
 10
47.412714
 20
99.080802
 11
47.406547
 21
99.086623
  0
LINE
  8
1
 62
7
  6
CONTINUOUS
 10
47.406547
 20
99.086623
 11
47.399887
 21
99.092718
  0
LINE
  8
1
 62
7
  6
CONTINUOUS
 10
47.399887
 20
99.092718
 11
47.392871
 21
99.098878
  0
LINE
  8
1
 62
7
  6
CONTINUOUS
 10
47.392871
 20
99.098878
 11
47.385637
 21
99.104903
  0
LINE
  8
1
 62
7
  6
CONTINUOUS
 10
47.385637
 20
99.104903
 11
47.378336
 21
99.110612
  0
LINE
  8
1
 62
7
  6
CONTINUOUS
 10
47.378336
 20
99.110612
 11
47.371141
 21
99.115854
  0
LINE
  8
1
 62
7
  6
CONTINUOUS
 10
47.371141
 20
99.115854
 11
47.364242
 21
99.120512
  0
LINE
  8
1
 62
7
  6
CONTINUOUS
 10
47.364242
 20
99.120512
 11
47.357855
 21
99.124505
  0
LINE
  8
1
 62
7
  6
CONTINUOUS
 10
47.357855
 20
99.124505
 11
47.352206
 21
99.127784
  0
LINE
  8
1
 62
7
  6
CONTINUOUS
 10
47.352206
 20
99.127784
 11
47.347521
 21
99.130329
  0
LINE
  8
1
 62
7
  6
CONTINUOUS
 10
47.347521
 20
99.130329
 11
47.344005
 21
99.132138
  0
LINE
  8
1
 62
7
  6
CONTINUOUS
 10
47.344005
 20
99.132138
 11
47.341823
 21
99.133217
  0
LINE
  8
1
 62
7
  6
CONTINUOUS
 10
47.341823
 20
99.133217
 11
47.341084
 21
99.133576
  0
LINE
  8
1
 62
7
  6
CONTINUOUS
 10
47.341084
 20
99.133576
 11
47.340341
 21
99.133933
  0
LINE
  8
1
 62
7
  6
CONTINUOUS
 10
47.340341
 20
99.133933
 11
47.338117
 21
99.134979
  0
LINE
  8
1
 62
7
  6
CONTINUOUS
 10
47.338117
 20
99.134979
 11
47.334423
 21
99.136651
  0
LINE
  8
1
 62
7
  6
CONTINUOUS
 10
47.334423
 20
99.136651
 11
47.329289
 21
99.138846
  0
LINE
  8
1
 62
7
  6
CONTINUOUS
 10
47.329289
 20
99.138846
 11
47.322772
 21
99.141444
  0
LINE
  8
1
 62
7
  6
CONTINUOUS
 10
47.322772
 20
99.141444
 11
47.314971
 21
99.144310
  0
LINE
  8
1
 62
7
  6
CONTINUOUS
 10
47.314971
 20
99.144310
 11
47.306034
 21
99.147319
  0
LINE
  8
1
 62
7
  6
CONTINUOUS
 10
47.306034
 20
99.147319
 11
47.296162
 21
99.150356
  0
LINE
  8
1
 62
7
  6
CONTINUOUS
 10
47.296162
 20
99.150356
 11
47.285613
 21
99.153327
  0
LINE
  8
1
 62
7
  6
CONTINUOUS
 10
47.285613
 20
99.153327
 11
47.274686
 21
99.156163
  0
LINE
  8
1
 62
7
  6
CONTINUOUS
 10
47.274686
 20
99.156163
 11
47.263715
 21
99.158812
  0
LINE
  8
1
 62
7
  6
CONTINUOUS
 10
47.263715
 20
99.158812
 11
47.253046
 21
99.161238
  0
LINE
  8
1
 62
7
  6
CONTINUOUS
 10
47.253046
 20
99.161238
 11
47.243022
 21
99.163414
  0
LINE
  8
1
 62
7
  6
CONTINUOUS
 10
47.243022
 20
99.163414
 11
47.233962
 21
99.165317
  0
LINE
  8
1
 62
7
  6
CONTINUOUS
 10
47.233962
 20
99.165317
 11
47.226151
 21
99.166923
  0
LINE
  8
1
 62
7
  6
CONTINUOUS
 10
47.226151
 20
99.166923
 11
47.219828
 21
99.168208
  0
LINE
  8
1
 62
7
  6
CONTINUOUS
 10
47.219828
 20
99.168208
 11
47.215178
 21
99.169148
  0
LINE
  8
1
 62
7
  6
CONTINUOUS
 10
47.215178
 20
99.169148
 11
47.212336
 21
99.169722
  0
LINE
  8
1
 62
7
  6
CONTINUOUS
 10
47.212336
 20
99.169722
 11
47.211380
 21
99.169914
  0
LINE
  8
1
 62
7
  6
CONTINUOUS
 10
38.387612
 20
99.169914
 11
47.161706
 21
99.169914
  0
LINE
  8
1
 62
7
  6
CONTINUOUS
 10
49.387612
 20
94.585880
 11
49.387231
 21
94.583891
  0
LINE
  8
1
 62
7
  6
CONTINUOUS
 10
49.387231
 20
94.583891
 11
49.386097
 21
94.577978
  0
LINE
  8
1
 62
7
  6
CONTINUOUS
 10
49.386097
 20
94.577978
 11
49.384236
 21
94.568308
  0
LINE
  8
1
 62
7
  6
CONTINUOUS
 10
49.384236
 20
94.568308
 11
49.381683
 21
94.555162
  0
LINE
  8
1
 62
7
  6
CONTINUOUS
 10
49.381683
 20
94.555162
 11
49.378468
 21
94.538942
  0
LINE
  8
1
 62
7
  6
CONTINUOUS
 10
49.378468
 20
94.538942
 11
49.374607
 21
94.520165
  0
LINE
  8
1
 62
7
  6
CONTINUOUS
 10
49.374607
 20
94.520165
 11
49.370104
 21
94.499452
  0
LINE
  8
1
 62
7
  6
CONTINUOUS
 10
49.370104
 20
94.499452
 11
49.364950
 21
94.477509
  0
LINE
  8
1
 62
7
  6
CONTINUOUS
 10
49.364950
 20
94.477509
 11
49.359143
 21
94.455086
  0
LINE
  8
1
 62
7
  6
CONTINUOUS
 10
49.359143
 20
94.455086
 11
49.352711
 21
94.432936
  0
LINE
  8
1
 62
7
  6
CONTINUOUS
 10
49.352711
 20
94.432936
 11
49.345733
 21
94.411764
  0
LINE
  8
1
 62
7
  6
CONTINUOUS
 10
49.345733
 20
94.411764
 11
49.338362
 21
94.392188
  0
LINE
  8
1
 62
7
  6
CONTINUOUS
 10
49.338362
 20
94.392188
 11
49.330837
 21
94.374702
  0
LINE
  8
1
 62
7
  6
CONTINUOUS
 10
49.330837
 20
94.374702
 11
49.323477
 21
94.359661
  0
LINE
  8
1
 62
7
  6
CONTINUOUS
 10
49.323477
 20
94.359661
 11
49.316664
 21
94.347281
  0
LINE
  8
1
 62
7
  6
CONTINUOUS
 10
49.316664
 20
94.347281
 11
49.310805
 21
94.337665
  0
LINE
  8
1
 62
7
  6
CONTINUOUS
 10
49.310805
 20
94.337665
 11
49.306289
 21
94.330830
  0
LINE
  8
1
 62
7
  6
CONTINUOUS
 10
49.306289
 20
94.330830
 11
49.303437
 21
94.326752
  0
LINE
  8
1
 62
7
  6
CONTINUOUS
 10
49.303437
 20
94.326752
 11
49.302462
 21
94.325397
  0
LINE
  8
1
 62
7
  6
CONTINUOUS
 10
49.302462
 20
94.325397
 11
49.301478
 21
94.324050
  0
LINE
  8
1
 62
7
  6
CONTINUOUS
 10
49.301478
 20
94.324050
 11
49.298507
 21
94.320100
  0
LINE
  8
1
 62
7
  6
CONTINUOUS
 10
49.298507
 20
94.320100
 11
49.293497
 21
94.313798
  0
LINE
  8
1
 62
7
  6
CONTINUOUS
 10
49.293497
 20
94.313798
 11
49.286393
 21
94.305537
  0
LINE
  8
1
 62
7
  6
CONTINUOUS
 10
49.286393
 20
94.305537
 11
49.277177
 21
94.295805
  0
LINE
  8
1
 62
7
  6
CONTINUOUS
 10
49.277177
 20
94.295805
 11
49.265909
 21
94.285136
  0
LINE
  8
1
 62
7
  6
CONTINUOUS
 10
49.265909
 20
94.285136
 11
49.252760
 21
94.274063
  0
LINE
  8
1
 62
7
  6
CONTINUOUS
 10
49.252760
 20
94.274063
 11
49.238029
 21
94.263071
  0
LINE
  8
1
 62
7
  6
CONTINUOUS
 10
49.238029
 20
94.263071
 11
49.222141
 21
94.252567
  0
LINE
  8
1
 62
7
  6
CONTINUOUS
 10
49.222141
 20
94.252567
 11
49.205624
 21
94.242859
  0
LINE
  8
1
 62
7
  6
CONTINUOUS
 10
49.205624
 20
94.242859
 11
49.189063
 21
94.234155
  0
LINE
  8
1
 62
7
  6
CONTINUOUS
 10
49.189063
 20
94.234155
 11
49.173058
 21
94.226570
  0
LINE
  8
1
 62
7
  6
CONTINUOUS
 10
49.173058
 20
94.226570
 11
49.158172
 21
94.220139
  0
LINE
  8
1
 62
7
  6
CONTINUOUS
 10
49.158172
 20
94.220139
 11
49.144893
 21
94.214847
  0
LINE
  8
1
 62
7
  6
CONTINUOUS
 10
49.144893
 20
94.214847
 11
49.133610
 21
94.210641
  0
LINE
  8
1
 62
7
  6
CONTINUOUS
 10
49.133610
 20
94.210641
 11
49.124606
 21
94.207459
  0
LINE
  8
1
 62
7
  6
CONTINUOUS
 10
49.124606
 20
94.207459
 11
49.118070
 21
94.205238
  0
LINE
  8
1
 62
7
  6
CONTINUOUS
 10
49.118070
 20
94.205238
 11
49.114111
 21
94.203926
  0
LINE
  8
1
 62
7
  6
CONTINUOUS
 10
49.114111
 20
94.203926
 11
49.112786
 21
94.203493
  0
LINE
  8
1
 62
7
  6
CONTINUOUS
 10
49.112786
 20
94.203493
 11
49.111465
 21
94.203063
  0
LINE
  8
1
 62
7
  6
CONTINUOUS
 10
49.111465
 20
94.203063
 11
49.107556
 21
94.201809
  0
LINE
  8
1
 62
7
  6
CONTINUOUS
 10
49.107556
 20
94.201809
 11
49.101218
 21
94.199827
  0
LINE
  8
1
 62
7
  6
CONTINUOUS
 10
49.101218
 20
94.199827
 11
49.092687
 21
94.197266
  0
LINE
  8
1
 62
7
  6
CONTINUOUS
 10
49.092687
 20
94.197266
 11
49.082247
 21
94.194306
  0
LINE
  8
1
 62
7
  6
CONTINUOUS
 10
49.082247
 20
94.194306
 11
49.070193
 21
94.191137
  0
LINE
  8
1
 62
7
  6
CONTINUOUS
 10
49.070193
 20
94.191137
 11
49.056805
 21
94.187939
  0
LINE
  8
1
 62
7
  6
CONTINUOUS
 10
49.056805
 20
94.187939
 11
49.042342
 21
94.184862
  0
LINE
  8
1
 62
7
  6
CONTINUOUS
 10
49.042342
 20
94.184862
 11
49.027044
 21
94.182019
  0
LINE
  8
1
 62
7
  6
CONTINUOUS
 10
49.027044
 20
94.182019
 11
49.011154
 21
94.179480
  0
LINE
  8
1
 62
7
  6
CONTINUOUS
 10
49.011154
 20
94.179480
 11
48.994949
 21
94.177278
  0
LINE
  8
1
 62
7
  6
CONTINUOUS
 10
48.994949
 20
94.177278
 11
48.978772
 21
94.175413
  0
LINE
  8
1
 62
7
  6
CONTINUOUS
 10
48.978772
 20
94.175413
 11
48.963048
 21
94.173866
  0
LINE
  8
1
 62
7
  6
CONTINUOUS
 10
48.963048
 20
94.173866
 11
48.948288
 21
94.172611
  0
LINE
  8
1
 62
7
  6
CONTINUOUS
 10
48.948288
 20
94.172611
 11
48.935067
 21
94.171618
  0
LINE
  8
1
 62
7
  6
CONTINUOUS
 10
48.935067
 20
94.171618
 11
48.923981
 21
94.170864
  0
LINE
  8
1
 62
7
  6
CONTINUOUS
 10
48.923981
 20
94.170864
 11
48.915589
 21
94.170334
  0
LINE
  8
1
 62
7
  6
CONTINUOUS
 10
48.915589
 20
94.170334
 11
48.910352
 21
94.170019
  0
LINE
  8
1
 62
7
  6
CONTINUOUS
 10
48.910352
 20
94.170019
 11
48.908571
 21
94.169914
  0
LINE
  8
1
 62
7
  6
CONTINUOUS
 10
48.908571
 20
94.169914
 11
48.906780
 21
94.169810
  0
LINE
  8
1
 62
7
  6
CONTINUOUS
 10
48.906780
 20
94.169810
 11
48.901401
 21
94.169505
  0
LINE
  8
1
 62
7
  6
CONTINUOUS
 10
48.901401
 20
94.169505
 11
48.892423
 21
94.169018
  0
LINE
  8
1
 62
7
  6
CONTINUOUS
 10
48.892423
 20
94.169018
 11
48.879875
 21
94.168386
  0
LINE
  8
1
 62
7
  6
CONTINUOUS
 10
48.879875
 20
94.168386
 11
48.863869
 21
94.167658
  0
LINE
  8
1
 62
7
  6
CONTINUOUS
 10
48.863869
 20
94.167658
 11
48.844658
 21
94.166896
  0
LINE
  8
1
 62
7
  6
CONTINUOUS
 10
48.844658
 20
94.166896
 11
48.822670
 21
94.166173
  0
LINE
  8
1
 62
7
  6
CONTINUOUS
 10
48.822670
 20
94.166173
 11
48.798519
 21
94.165567
  0
LINE
  8
1
 62
7
  6
CONTINUOUS
 10
48.798519
 20
94.165567
 11
48.772984
 21
94.165149
  0
LINE
  8
1
 62
7
  6
CONTINUOUS
 10
48.772984
 20
94.165149
 11
48.746957
 21
94.164975
  0
LINE
  8
1
 62
7
  6
CONTINUOUS
 10
48.746957
 20
94.164975
 11
48.721377
 21
94.165079
  0
LINE
  8
1
 62
7
  6
CONTINUOUS
 10
48.721377
 20
94.165079
 11
48.697140
 21
94.165460
  0
LINE
  8
1
 62
7
  6
CONTINUOUS
 10
48.697140
 20
94.165460
 11
48.675035
 21
94.166084
  0
LINE
  8
1
 62
7
  6
CONTINUOUS
 10
48.675035
 20
94.166084
 11
48.655689
 21
94.166882
  0
LINE
  8
1
 62
7
  6
CONTINUOUS
 10
48.655689
 20
94.166882
 11
48.639544
 21
94.167756
  0
LINE
  8
1
 62
7
  6
CONTINUOUS
 10
48.639544
 20
94.167756
 11
48.626868
 21
94.168597
  0
LINE
  8
1
 62
7
  6
CONTINUOUS
 10
48.626868
 20
94.168597
 11
48.617787
 21
94.169294
  0
LINE
  8
1
 62
7
  6
CONTINUOUS
 10
48.617787
 20
94.169294
 11
48.612341
 21
94.169754
  0
LINE
  8
1
 62
7
  6
CONTINUOUS
 10
48.612341
 20
94.169754
 11
48.610528
 21
94.169914
  0
LINE
  8
1
 62
7
  6
CONTINUOUS
 10
48.610528
 20
94.169914
 11
48.608724
 21
94.170078
  0
LINE
  8
1
 62
7
  6
CONTINUOUS
 10
48.608724
 20
94.170078
 11
48.603416
 21
94.170582
  0
LINE
  8
1
 62
7
  6
CONTINUOUS
 10
48.603416
 20
94.170582
 11
48.594905
 21
94.171467
  0
LINE
  8
1
 62
7
  6
CONTINUOUS
 10
48.594905
 20
94.171467
 11
48.583654
 21
94.172792
  0
LINE
  8
1
 62
7
  6
CONTINUOUS
 10
48.583654
 20
94.172792
 11
48.570238
 21
94.174635
  0
LINE
  8
1
 62
7
  6
CONTINUOUS
 10
48.570238
 20
94.174635
 11
48.555283
 21
94.177079
  0
LINE
  8
1
 62
7
  6
CONTINUOUS
 10
48.555283
 20
94.177079
 11
48.539412
 21
94.180199
  0
LINE
  8
1
 62
7
  6
CONTINUOUS
 10
48.539412
 20
94.180199
 11
48.523196
 21
94.184047
  0
LINE
  8
1
 62
7
  6
CONTINUOUS
 10
48.523196
 20
94.184047
 11
48.507129
 21
94.188636
  0
LINE
  8
1
 62
7
  6
CONTINUOUS
 10
48.507129
 20
94.188636
 11
48.491614
 21
94.193925
  0
LINE
  8
1
 62
7
  6
CONTINUOUS
 10
48.491614
 20
94.193925
 11
48.476966
 21
94.199804
  0
LINE
  8
1
 62
7
  6
CONTINUOUS
 10
48.476966
 20
94.199804
 11
48.463436
 21
94.206091
  0
LINE
  8
1
 62
7
  6
CONTINUOUS
 10
48.463436
 20
94.206091
 11
48.451223
 21
94.212535
  0
LINE
  8
1
 62
7
  6
CONTINUOUS
 10
48.451223
 20
94.212535
 11
48.440506
 21
94.218828
  0
LINE
  8
1
 62
7
  6
CONTINUOUS
 10
48.440506
 20
94.218828
 11
48.431446
 21
94.224629
  0
LINE
  8
1
 62
7
  6
CONTINUOUS
 10
48.431446
 20
94.224629
 11
48.424199
 21
94.229591
  0
LINE
  8
1
 62
7
  6
CONTINUOUS
 10
48.424199
 20
94.229591
 11
48.418904
 21
94.233397
  0
LINE
  8
1
 62
7
  6
CONTINUOUS
 10
48.418904
 20
94.233397
 11
48.415677
 21
94.235792
  0
LINE
  8
1
 62
7
  6
CONTINUOUS
 10
48.415677
 20
94.235792
 11
48.414592
 21
94.236609
  0
LINE
  8
1
 62
7
  6
CONTINUOUS
 10
48.414592
 20
94.236609
 11
48.413508
 21
94.237432
  0
LINE
  8
1
 62
7
  6
CONTINUOUS
 10
48.413508
 20
94.237432
 11
48.410287
 21
94.239914
  0
LINE
  8
1
 62
7
  6
CONTINUOUS
 10
48.410287
 20
94.239914
 11
48.405026
 21
94.244082
  0
LINE
  8
1
 62
7
  6
CONTINUOUS
 10
48.405026
 20
94.244082
 11
48.397882
 21
94.249954
  0
LINE
  8
1
 62
7
  6
CONTINUOUS
 10
48.397882
 20
94.249954
 11
48.389071
 21
94.257507
  0
LINE
  8
1
 62
7
  6
CONTINUOUS
 10
48.389071
 20
94.257507
 11
48.378862
 21
94.266645
  0
LINE
  8
1
 62
7
  6
CONTINUOUS
 10
48.378862
 20
94.266645
 11
48.367567
 21
94.277171
  0
LINE
  8
1
 62
7
  6
CONTINUOUS
 10
48.367567
 20
94.277171
 11
48.355531
 21
94.288782
  0
LINE
  8
1
 62
7
  6
CONTINUOUS
 10
48.355531
 20
94.288782
 11
48.343120
 21
94.301079
  0
LINE
  8
1
 62
7
  6
CONTINUOUS
 10
48.343120
 20
94.301079
 11
48.330701
 21
94.313600
  0
LINE
  8
1
 62
7
  6
CONTINUOUS
 10
48.330701
 20
94.313600
 11
48.318630
 21
94.325859
  0
LINE
  8
1
 62
7
  6
CONTINUOUS
 10
48.318630
 20
94.325859
 11
48.307240
 21
94.337396
  0
LINE
  8
1
 62
7
  6
CONTINUOUS
 10
48.307240
 20
94.337396
 11
48.296825
 21
94.347822
  0
LINE
  8
1
 62
7
  6
CONTINUOUS
 10
48.296825
 20
94.347822
 11
48.287635
 21
94.356845
  0
LINE
  8
1
 62
7
  6
CONTINUOUS
 10
48.287635
 20
94.356845
 11
48.279872
 21
94.364280
  0
LINE
  8
1
 62
7
  6
CONTINUOUS
 10
48.279872
 20
94.364280
 11
48.273690
 21
94.370043
  0
LINE
  8
1
 62
7
  6
CONTINUOUS
 10
48.273690
 20
94.370043
 11
48.269202
 21
94.374123
  0
LINE
  8
1
 62
7
  6
CONTINUOUS
 10
48.269202
 20
94.374123
 11
48.266481
 21
94.376548
  0
LINE
  8
1
 62
7
  6
CONTINUOUS
 10
48.266481
 20
94.376548
 11
48.265570
 21
94.377352
  0
LINE
  8
1
 62
7
  6
CONTINUOUS
 10
48.265570
 20
94.377352
 11
48.264661
 21
94.378149
  0
LINE
  8
1
 62
7
  6
CONTINUOUS
 10
48.264661
 20
94.378149
 11
48.261969
 21
94.380483
  0
LINE
  8
1
 62
7
  6
CONTINUOUS
 10
48.261969
 20
94.380483
 11
48.257596
 21
94.384185
  0
LINE
  8
1
 62
7
  6
CONTINUOUS
 10
48.257596
 20
94.384185
 11
48.251700
 21
94.388995
  0
LINE
  8
1
 62
7
  6
CONTINUOUS
 10
48.251700
 20
94.388995
 11
48.244471
 21
94.394591
  0
LINE
  8
1
 62
7
  6
CONTINUOUS
 10
48.244471
 20
94.394591
 11
48.236114
 21
94.400624
  0
LINE
  8
1
 62
7
  6
CONTINUOUS
 10
48.236114
 20
94.400624
 11
48.226836
 21
94.406750
  0
LINE
  8
1
 62
7
  6
CONTINUOUS
 10
48.226836
 20
94.406750
 11
48.216834
 21
94.412662
  0
LINE
  8
1
 62
7
  6
CONTINUOUS
 10
48.216834
 20
94.412662
 11
48.206301
 21
94.418114
  0
LINE
  8
1
 62
7
  6
CONTINUOUS
 10
48.206301
 20
94.418114
 11
48.195430
 21
94.422934
  0
LINE
  8
1
 62
7
  6
CONTINUOUS
 10
48.195430
 20
94.422934
 11
48.184435
 21
94.427025
  0
LINE
  8
1
 62
7
  6
CONTINUOUS
 10
48.184435
 20
94.427025
 11
48.173560
 21
94.430363
  0
LINE
  8
1
 62
7
  6
CONTINUOUS
 10
48.173560
 20
94.430363
 11
48.163093
 21
94.432980
  0
LINE
  8
1
 62
7
  6
CONTINUOUS
 10
48.163093
 20
94.432980
 11
48.153359
 21
94.434950
  0
LINE
  8
1
 62
7
  6
CONTINUOUS
 10
48.153359
 20
94.434950
 11
48.144714
 21
94.436369
  0
LINE
  8
1
 62
7
  6
CONTINUOUS
 10
48.144714
 20
94.436369
 11
48.137516
 21
94.437340
  0
LINE
  8
1
 62
7
  6
CONTINUOUS
 10
48.137516
 20
94.437340
 11
48.132099
 21
94.437958
  0
LINE
  8
1
 62
7
  6
CONTINUOUS
 10
48.132099
 20
94.437958
 11
48.128730
 21
94.438297
  0
LINE
  8
1
 62
7
  6
CONTINUOUS
 10
48.128730
 20
94.438297
 11
48.127587
 21
94.438405
  0
LINE
  8
1
 62
7
  6
CONTINUOUS
 10
48.127587
 20
94.438405
 11
48.126439
 21
94.438509
  0
LINE
  8
1
 62
7
  6
CONTINUOUS
 10
48.126439
 20
94.438509
 11
48.122994
 21
94.438800
  0
LINE
  8
1
 62
7
  6
CONTINUOUS
 10
48.122994
 20
94.438800
 11
48.117261
 21
94.439219
  0
LINE
  8
1
 62
7
  6
CONTINUOUS
 10
48.117261
 20
94.439219
 11
48.109261
 21
94.439679
  0
LINE
  8
1
 62
7
  6
CONTINUOUS
 10
48.109261
 20
94.439679
 11
48.099052
 21
94.440088
  0
LINE
  8
1
 62
7
  6
CONTINUOUS
 10
48.099052
 20
94.440088
 11
48.086739
 21
94.440365
  0
LINE
  8
1
 62
7
  6
CONTINUOUS
 10
48.086739
 20
94.440365
 11
48.072499
 21
94.440458
  0
LINE
  8
1
 62
7
  6
CONTINUOUS
 10
48.072499
 20
94.440458
 11
48.056590
 21
94.440354
  0
LINE
  8
1
 62
7
  6
CONTINUOUS
 10
48.056590
 20
94.440354
 11
48.039359
 21
94.440077
  0
LINE
  8
1
 62
7
  6
CONTINUOUS
 10
48.039359
 20
94.440077
 11
48.021241
 21
94.439684
  0
LINE
  8
1
 62
7
  6
CONTINUOUS
 10
48.021241
 20
94.439684
 11
48.002748
 21
94.439248
  0
LINE
  8
1
 62
7
  6
CONTINUOUS
 10
48.002748
 20
94.439248
 11
47.984453
 21
94.438843
  0
LINE
  8
1
 62
7
  6
CONTINUOUS
 10
47.984453
 20
94.438843
 11
47.966961
 21
94.438527
  0
LINE
  8
1
 62
7
  6
CONTINUOUS
 10
47.966961
 20
94.438527
 11
47.950883
 21
94.438330
  0
LINE
  8
1
 62
7
  6
CONTINUOUS
 10
47.950883
 20
94.438330
 11
47.936802
 21
94.438252
  0
LINE
  8
1
 62
7
  6
CONTINUOUS
 10
47.936802
 20
94.438252
 11
47.925246
 21
94.438264
  0
LINE
  8
1
 62
7
  6
CONTINUOUS
 10
47.925246
 20
94.438264
 11
47.916654
 21
94.438322
  0
LINE
  8
1
 62
7
  6
CONTINUOUS
 10
47.916654
 20
94.438322
 11
47.911362
 21
94.438381
  0
LINE
  8
1
 62
7
  6
CONTINUOUS
 10
47.911362
 20
94.438381
 11
47.909574
 21
94.438405
  0
LINE
  8
1
 62
7
  6
CONTINUOUS
 10
47.909574
 20
94.438405
 11
47.907783
 21
94.438431
  0
LINE
  8
1
 62
7
  6
CONTINUOUS
 10
47.907783
 20
94.438431
 11
47.902437
 21
94.438520
  0
LINE
  8
1
 62
7
  6
CONTINUOUS
 10
47.902437
 20
94.438520
 11
47.893629
 21
94.438701
  0
LINE
  8
1
 62
7
  6
CONTINUOUS
 10
47.893629
 20
94.438701
 11
47.881531
 21
94.439011
  0
LINE
  8
1
 62
7
  6
CONTINUOUS
 10
47.881531
 20
94.439011
 11
47.866419
 21
94.439475
  0
LINE
  8
1
 62
7
  6
CONTINUOUS
 10
47.866419
 20
94.439475
 11
47.848688
 21
94.440093
  0
LINE
  8
1
 62
7
  6
CONTINUOUS
 10
47.848688
 20
94.440093
 11
47.828865
 21
94.440828
  0
LINE
  8
1
 62
7
  6
CONTINUOUS
 10
47.828865
 20
94.440828
 11
47.807593
 21
94.441606
  0
LINE
  8
1
 62
7
  6
CONTINUOUS
 10
47.807593
 20
94.441606
 11
47.785603
 21
94.442323
  0
LINE
  8
1
 62
7
  6
CONTINUOUS
 10
47.785603
 20
94.442323
 11
47.763666
 21
94.442865
  0
LINE
  8
1
 62
7
  6
CONTINUOUS
 10
47.763666
 20
94.442865
 11
47.742537
 21
94.443132
  0
LINE
  8
1
 62
7
  6
CONTINUOUS
 10
47.742537
 20
94.443132
 11
47.722892
 21
94.443057
  0
LINE
  8
1
 62
7
  6
CONTINUOUS
 10
47.722892
 20
94.443057
 11
47.705287
 21
94.442629
  0
LINE
  8
1
 62
7
  6
CONTINUOUS
 10
47.705287
 20
94.442629
 11
47.690126
 21
94.441901
  0
LINE
  8
1
 62
7
  6
CONTINUOUS
 10
47.690126
 20
94.441901
 11
47.677654
 21
94.440981
  0
LINE
  8
1
 62
7
  6
CONTINUOUS
 10
47.677654
 20
94.440981
 11
47.667983
 21
94.440019
  0
LINE
  8
1
 62
7
  6
CONTINUOUS
 10
47.667983
 20
94.440019
 11
47.661124
 21
94.439179
  0
LINE
  8
1
 62
7
  6
CONTINUOUS
 10
47.661124
 20
94.439179
 11
47.657040
 21
94.438607
  0
LINE
  8
1
 62
7
  6
CONTINUOUS
 10
47.657040
 20
94.438607
 11
47.655685
 21
94.438405
  0
LINE
  8
1
 62
7
  6
CONTINUOUS
 10
47.655685
 20
94.438405
 11
47.654339
 21
94.438197
  0
LINE
  8
1
 62
7
  6
CONTINUOUS
 10
47.654339
 20
94.438197
 11
47.650395
 21
94.437548
  0
LINE
  8
1
 62
7
  6
CONTINUOUS
 10
47.650395
 20
94.437548
 11
47.644119
 21
94.436389
  0
LINE
  8
1
 62
7
  6
CONTINUOUS
 10
47.644119
 20
94.436389
 11
47.635914
 21
94.434622
  0
LINE
  8
1
 62
7
  6
CONTINUOUS
 10
47.635914
 20
94.434622
 11
47.626274
 21
94.432147
  0
LINE
  8
1
 62
7
  6
CONTINUOUS
 10
47.626274
 20
94.432147
 11
47.615719
 21
94.428884
  0
LINE
  8
1
 62
7
  6
CONTINUOUS
 10
47.615719
 20
94.428884
 11
47.604750
 21
94.424801
  0
LINE
  8
1
 62
7
  6
CONTINUOUS
 10
47.604750
 20
94.424801
 11
47.593797
 21
94.419928
  0
LINE
  8
1
 62
7
  6
CONTINUOUS
 10
47.593797
 20
94.419928
 11
47.583201
 21
94.414367
  0
LINE
  8
1
 62
7
  6
CONTINUOUS
 10
47.583201
 20
94.414367
 11
47.573205
 21
94.408286
  0
LINE
  8
1
 62
7
  6
CONTINUOUS
 10
47.573205
 20
94.408286
 11
47.563969
 21
94.401909
  0
LINE
  8
1
 62
7
  6
CONTINUOUS
 10
47.563969
 20
94.401909
 11
47.555587
 21
94.395491
  0
LINE
  8
1
 62
7
  6
CONTINUOUS
 10
47.555587
 20
94.395491
 11
47.548122
 21
94.389302
  0
LINE
  8
1
 62
7
  6
CONTINUOUS
 10
47.548122
 20
94.389302
 11
47.541626
 21
94.383601
  0
LINE
  8
1
 62
7
  6
CONTINUOUS
 10
47.541626
 20
94.383601
 11
47.536157
 21
94.378620
  0
LINE
  8
1
 62
7
  6
CONTINUOUS
 10
47.536157
 20
94.378620
 11
47.531786
 21
94.374550
  0
LINE
  8
1
 62
7
  6
CONTINUOUS
 10
47.531786
 20
94.374550
 11
47.528589
 21
94.371540
  0
LINE
  8
1
 62
7
  6
CONTINUOUS
 10
47.528589
 20
94.371540
 11
47.526637
 21
94.369695
  0
LINE
  8
1
 62
7
  6
CONTINUOUS
 10
47.526637
 20
94.369695
 11
47.525981
 21
94.369073
  0
LINE
  8
1
 62
7
  6
CONTINUOUS
 10
47.525981
 20
94.369073
 11
47.525324
 21
94.368450
  0
LINE
  8
1
 62
7
  6
CONTINUOUS
 10
47.525324
 20
94.368450
 11
47.523371
 21
94.366598
  0
LINE
  8
1
 62
7
  6
CONTINUOUS
 10
47.523371
 20
94.366598
 11
47.520174
 21
94.363560
  0
LINE
  8
1
 62
7
  6
CONTINUOUS
 10
47.520174
 20
94.363560
 11
47.515818
 21
94.359410
  0
LINE
  8
1
 62
7
  6
CONTINUOUS
 10
47.515818
 20
94.359410
 11
47.510422
 21
94.354254
  0
LINE
  8
1
 62
7
  6
CONTINUOUS
 10
47.510422
 20
94.354254
 11
47.504140
 21
94.348229
  0
LINE
  8
1
 62
7
  6
CONTINUOUS
 10
47.504140
 20
94.348229
 11
47.497150
 21
94.341501
  0
LINE
  8
1
 62
7
  6
CONTINUOUS
 10
47.497150
 20
94.341501
 11
47.489657
 21
94.334262
  0
LINE
  8
1
 62
7
  6
CONTINUOUS
 10
47.489657
 20
94.334262
 11
47.481882
 21
94.326723
  0
LINE
  8
1
 62
7
  6
CONTINUOUS
 10
47.481882
 20
94.326723
 11
47.474053
 21
94.319105
  0
LINE
  8
1
 62
7
  6
CONTINUOUS
 10
47.474053
 20
94.319105
 11
47.466397
 21
94.311634
  0
LINE
  8
1
 62
7
  6
CONTINUOUS
 10
47.466397
 20
94.311634
 11
47.459128
 21
94.304522
  0
LINE
  8
1
 62
7
  6
CONTINUOUS
 10
47.459128
 20
94.304522
 11
47.452443
 21
94.297967
  0
LINE
  8
1
 62
7
  6
CONTINUOUS
 10
47.452443
 20
94.297967
 11
47.446513
 21
94.292142
  0
LINE
  8
1
 62
7
  6
CONTINUOUS
 10
47.446513
 20
94.292142
 11
47.441481
 21
94.287193
  0
LINE
  8
1
 62
7
  6
CONTINUOUS
 10
47.441481
 20
94.287193
 11
47.437458
 21
94.283232
  0
LINE
  8
1
 62
7
  6
CONTINUOUS
 10
47.437458
 20
94.283232
 11
47.434529
 21
94.280346
  0
LINE
  8
1
 62
7
  6
CONTINUOUS
 10
47.434529
 20
94.280346
 11
47.432749
 21
94.278592
  0
LINE
  8
1
 62
7
  6
CONTINUOUS
 10
47.432749
 20
94.278592
 11
47.432152
 21
94.278004
  0
LINE
  8
1
 62
7
  6
CONTINUOUS
 10
47.432152
 20
94.278004
 11
47.431557
 21
94.277417
  0
LINE
  8
1
 62
7
  6
CONTINUOUS
 10
47.431557
 20
94.277417
 11
47.429791
 21
94.275676
  0
LINE
  8
1
 62
7
  6
CONTINUOUS
 10
47.429791
 20
94.275676
 11
47.426918
 21
94.272845
  0
LINE
  8
1
 62
7
  6
CONTINUOUS
 10
47.426918
 20
94.272845
 11
47.423033
 21
94.269028
  0
LINE
  8
1
 62
7
  6
CONTINUOUS
 10
47.423033
 20
94.269028
 11
47.418254
 21
94.264365
  0
LINE
  8
1
 62
7
  6
CONTINUOUS
 10
47.418254
 20
94.264365
 11
47.412714
 21
94.259026
  0
LINE
  8
1
 62
7
  6
CONTINUOUS
 10
47.412714
 20
94.259026
 11
47.406547
 21
94.253206
  0
LINE
  8
1
 62
7
  6
CONTINUOUS
 10
47.406547
 20
94.253206
 11
47.399887
 21
94.247111
  0
LINE
  8
1
 62
7
  6
CONTINUOUS
 10
47.399887
 20
94.247111
 11
47.392871
 21
94.240951
  0
LINE
  8
1
 62
7
  6
CONTINUOUS
 10
47.392871
 20
94.240951
 11
47.385637
 21
94.234926
  0
LINE
  8
1
 62
7
  6
CONTINUOUS
 10
47.385637
 20
94.234926
 11
47.378336
 21
94.229217
  0
LINE
  8
1
 62
7
  6
CONTINUOUS
 10
47.378336
 20
94.229217
 11
47.371141
 21
94.223975
  0
LINE
  8
1
 62
7
  6
CONTINUOUS
 10
47.371141
 20
94.223975
 11
47.364242
 21
94.219317
  0
LINE
  8
1
 62
7
  6
CONTINUOUS
 10
47.364242
 20
94.219317
 11
47.357855
 21
94.215324
  0
LINE
  8
1
 62
7
  6
CONTINUOUS
 10
47.357855
 20
94.215324
 11
47.352206
 21
94.212045
  0
LINE
  8
1
 62
7
  6
CONTINUOUS
 10
47.352206
 20
94.212045
 11
47.347521
 21
94.209500
  0
LINE
  8
1
 62
7
  6
CONTINUOUS
 10
47.347521
 20
94.209500
 11
47.344005
 21
94.207691
  0
LINE
  8
1
 62
7
  6
CONTINUOUS
 10
47.344005
 20
94.207691
 11
47.341823
 21
94.206611
  0
LINE
  8
1
 62
7
  6
CONTINUOUS
 10
47.341823
 20
94.206611
 11
47.341084
 21
94.206253
  0
LINE
  8
1
 62
7
  6
CONTINUOUS
 10
47.341084
 20
94.206253
 11
47.340341
 21
94.205896
  0
LINE
  8
1
 62
7
  6
CONTINUOUS
 10
47.340341
 20
94.205896
 11
47.338117
 21
94.204849
  0
LINE
  8
1
 62
7
  6
CONTINUOUS
 10
47.338117
 20
94.204849
 11
47.334423
 21
94.203178
  0
LINE
  8
1
 62
7
  6
CONTINUOUS
 10
47.334423
 20
94.203178
 11
47.329289
 21
94.200982
  0
LINE
  8
1
 62
7
  6
CONTINUOUS
 10
47.329289
 20
94.200982
 11
47.322772
 21
94.198385
  0
LINE
  8
1
 62
7
  6
CONTINUOUS
 10
47.322772
 20
94.198385
 11
47.314971
 21
94.195518
  0
LINE
  8
1
 62
7
  6
CONTINUOUS
 10
47.314971
 20
94.195518
 11
47.306034
 21
94.192510
  0
LINE
  8
1
 62
7
  6
CONTINUOUS
 10
47.306034
 20
94.192510
 11
47.296162
 21
94.189473
  0
LINE
  8
1
 62
7
  6
CONTINUOUS
 10
47.296162
 20
94.189473
 11
47.285613
 21
94.186502
  0
LINE
  8
1
 62
7
  6
CONTINUOUS
 10
47.285613
 20
94.186502
 11
47.274686
 21
94.183666
  0
LINE
  8
1
 62
7
  6
CONTINUOUS
 10
47.274686
 20
94.183666
 11
47.263715
 21
94.181017
  0
LINE
  8
1
 62
7
  6
CONTINUOUS
 10
47.263715
 20
94.181017
 11
47.253046
 21
94.178591
  0
LINE
  8
1
 62
7
  6
CONTINUOUS
 10
47.253046
 20
94.178591
 11
47.243022
 21
94.176415
  0
LINE
  8
1
 62
7
  6
CONTINUOUS
 10
47.243022
 20
94.176415
 11
47.233962
 21
94.174512
  0
LINE
  8
1
 62
7
  6
CONTINUOUS
 10
47.233962
 20
94.174512
 11
47.226151
 21
94.172906
  0
LINE
  8
1
 62
7
  6
CONTINUOUS
 10
47.226151
 20
94.172906
 11
47.219828
 21
94.171621
  0
LINE
  8
1
 62
7
  6
CONTINUOUS
 10
47.219828
 20
94.171621
 11
47.215178
 21
94.170681
  0
LINE
  8
1
 62
7
  6
CONTINUOUS
 10
47.215178
 20
94.170681
 11
47.212336
 21
94.170107
  0
LINE
  8
1
 62
7
  6
CONTINUOUS
 10
47.212336
 20
94.170107
 11
47.211380
 21
94.169914
  0
LINE
  8
1
 62
7
  6
CONTINUOUS
 10
38.387612
 20
94.169914
 11
47.161706
 21
94.169914
  0
LINE
  8
1
 62
7
  6
CONTINUOUS
 10
49.387612
 20
98.819664
 11
49.387612
 21
94.585880
  0
LINE
  8
1
 62
7
  6
CONTINUOUS
 10
49.387612
 20
97.919914
 11
68.387612
 21
97.919914
  0
LINE
  8
1
 62
7
  6
CONTINUOUS
 10
68.387612
 20
97.919914
 11
68.387612
 21
97.419914
  0
LINE
  8
1
 62
7
  6
CONTINUOUS
 10
68.387612
 20
97.419914
 11
49.387612
 21
97.419914
  0
LINE
  8
1
 62
7
  6
DASHDOT
 10
48.350144
 20
97.669914
 11
70.452519
 21
97.669914
  0
LINE
  8
1
 62
7
  6
CONTINUOUS
 10
49.387612
 20
95.419914
 11
64.387612
 21
95.419914
  0
LINE
  8
1
 62
7
  6
CONTINUOUS
 10
64.387612
 20
95.419914
 11
64.387612
 21
95.919914
  0
LINE
  8
1
 62
7
  6
CONTINUOUS
 10
64.387612
 20
95.919914
 11
49.387612
 21
95.919914
  0
LINE
  8
1
 62
7
  6
DASHDOT
 10
48.350144
 20
95.669914
 11
65.531000
 21
95.669914
  0
LINE
  8
1
 62
7
  6
DASHDOT
 10
36.429190
 20
96.669914
 11
58.841381
 21
96.669914
  0
DIMENSION
  8
2
 62
134
  6
CONTINUOUS
  2
*D1
 10
49.387612
 20
90.119668
 11
56.887612
 21
90.119668
 70
     0
  1
15以上
 13
49.387612
 23
94.085880
 14
64.387612
 24
94.919914
 50
0.000000
  0
DIMENSION
  8
2
 62
134
  6
CONTINUOUS
  2
*D2
 10
64.387612
 20
90.119668
 11
72.551571
 21
90.119668
 70
     0
  1
4以上
 13
64.387612
 23
94.919914
 14
68.387612
 24
96.919914
 50
0.000000
  0
DIMENSION
  8
2
 62
134
  6
CONTINUOUS
  2
*D3
 10
38.387612
 20
90.119668
 11
43.424411
 21
90.119668
 70
     0
  1
11
 13
38.387612
 23
93.669914
 14
49.387612
 24
94.085880
 50
0.000000
  0
TEXT
  8
2
 62
134
  6
CONTINUOUS
 10
43.674411
 20
91.319668
 40
1.000000
 41
0.500000
  1
+1.5
  7
KANJI
 50
0.000000
 51
0.000000
  0
DIMENSION
  8
2
 62
134
  6
CONTINUOUS
  2
*D4
 10
34.391366
 20
94.169914
 11
34.391366
 21
96.723000
 70
     0
  1
φ5
 13
37.887612
 23
94.169914
 14
37.887612
 24
99.169914
 50
90.000000
  0
TEXT
  8
2
 62
134
  6
CONTINUOUS
 10
33.191366
 20
97.473000
 40
1.000000
 41
0.500000
  1
+0.5
  7
KANJI
 50
90.000000
 51
0.000000
  0
TEXT
  8
2
 62
134
  6
CONTINUOUS
 10
29.935596
 20
77.651063
 40
2.000000
 41
1.000000
  1
静電容量：1μF
  7
KANJI
 50
0.000000
 51
0.000000
  0
TEXT
  8
2
 62
134
  6
CONTINUOUS
 10
29.935596
 20
75.210188
 40
2.000000
 41
1.000000
  1
定格電圧：50V
  7
KANJI
 50
0.000000
 51
0.000000
  0
TEXT
  8
2
 62
134
  6
CONTINUOUS
 10
29.660406
 20
68.876880
 40
2.000000
 41
1.000000
  1
質量：0.5g
  7
KANJI
 50
0.000000
 51
0.000000
  0
TEXT
  8
2
 62
134
  6
CONTINUOUS
 10
29.932478
 20
72.753892
 40
2.000000
 41
1.000000
  1
極性：両極性
  7
KANJI
 50
0.000000
 51
0.000000
  0
DIMENSION
  8
2
 62
134
  6
CONTINUOUS
  2
*D5
 10
79.394695
 20
95.669914
 11
79.394695
 21
100.218370
 70
     0
  1
2
 13
66.031000
 23
95.669914
 14
70.952519
 24
97.669914
 50
90.000000
  0
DIMENSION
  8
2
 62
134
  6
CONTINUOUS
  2
*D6
 10
53.670423
 20
97.419914
 11
53.670423
 21
103.103420
 70
     0
  1
φ0.5
 13
53.670423
 23
97.419914
 14
53.670423
 24
97.919914
 50
90.000000
  0
ENDSEC
  0
EOF
