  0
SECTION
  2
HEADER
  9
$ACADVER
  1
AC1009
  9
$INSBASE
 10
0.000000
 20
0.000000
  9
$EXTMIN
 10
0.000000
 20
0.000000
  9
$EXTMAX
 10
105.000000
 20
148.500000
  9
$LIMMIN
 10
0.000000
 20
0.000000
  9
$LIMMAX
 10
105.000000
 20
148.500000
  9
$VIEWCTR
 10
52.500000
 20
74.250000
  9
$VIEWSIZE
 40
148.500000
  9
$PEXTMIN
 10
0.000000
 20
0.000000
 30
0.000000
  9
$PEXTMAX
 10
210.000000
 20
297.000000
 30
0.000000
  9
$SNAPMODE
 70
     0
  9
$SNAPUNIT
 10
1.000000
 20
1.000000
  9
$SNAPBASE
 10
0.000000
 20
0.000000
  9
$SNAPANG
 50
0.000000
  9
$SNAPISOPAIR
 70
     0
  9
$SNAPSTYLE
 70
     0
  9
$GRIDMODE
 70
     0
  9
$GRIDUNIT
 10
0.000000
 20
0.000000
  9
$ORTHOMODE
 70
     0
  9
$REGENMODE
 70
     1
  9
$FILLMODE
 70
     1
  9
$QTEXTMODE
 70
     0
  9
$DRAGMODE
 70
     2
  9
$LTSCALE
 40
0.125000
  9
$OSMODE
 70
     0
  9
$ATTMODE
 70
     1
  9
$TEXTSIZE
 40
2.000000
  9
$TRACEWID
 40
0.050000
  9
$TEXTSTYLE
  7
STANDARD
  9
$CLAYER
  8
0
  9
$CELTYPE
  6
BYLAYER
  9
$CECOLOR
 62
   256
  9
$DIMSCALE
 40
1.000000
  9
$DIMASZ
 40
1.000000
  9
$DIMEXO
 40
0.000000
  9
$DIMDLI
 40
0.500000
  9
$DIMRND
 40
0.000000
  9
$DIMDLE
 40
0.000000
  9
$DIMEXE
 40
0.000000
  9
$DIMTP
 40
0.000000
  9
$DIMTM
 40
0.000000
  9
$DIMTXT
 40
4.000000
  9
$DIMCEN
 40
0.000000
  9
$DIMTSZ
 40
0.000000
  9
$DIMTOL
 70
     0
  9
$DIMLIM
 70
     0
  9
$DIMTIH
 70
     1
  9
$DIMTOH
 70
     1
  9
$DIMSE1
 70
     0
  9
$DIMSE2
 70
     0
  9
$DIMTAD
 70
     0
  9
$DIMZIN
 70
     0
  9
$DIMBLK
  1

  9
$DIMASO
 70
     0
  9
$DIMSHO
 70
     0
  9
$DIMPOST
  1

  9
$DIMAPOST
  1

  9
$DIMALT
 70
     0
  9
$DIMALTD
 70
     0
  9
$DIMALTF
 40
25.400000
  9
$DIMLFAC
 40
1.000000
  9
$DIMTOFL
 70
     0
  9
$DIMTVP
 40
0.000000
  9
$DIMTIX
 70
     0
  9
$DIMSOXD
 70
     0
  9
$DIMSAH
 70
     0
  9
$DIMBLKL
  1

  9
$DIMBLKR
  1

  9
$LUNITS
 70
     2
  9
$LUPREC
 70
     2
  9
$AXISMODE
 70
     0
  9
$AXISUNIT
 10
1.000000
 20
1.000000
  9
$SKETCHINC
 40
0.000000
  9
$FILLETRAD
 40
0.000000
  9
$AUNITS
 70
     1
  9
$AUPREC
 70
     2
  9
$MENU
  1
ACAD
  9
$ELEVATION
 40
0.000000
  9
$THICKNESS
 40
0.000000
  9
$VIEWDIR
 10
0.000000
 20
0.000000
 30
1.000000
  9
$LIMCHECK
 70
     1
  9
$BLIPMODE
 70
     1
  9
$CHAMFERA
 40
0.000000
  9
$CHAMFERB
 40
0.000000
  9
$FASTZOOM
 70
     1
  9
$SKPOLY
 70
     0
  9
$TDCREATE
 40
0.000000
  9
$TDUPDATE
 40
0.000000
  9
$TDINDWG
 40
0.000000
  9
$TDUSRTIMER
 40
0.000000
  9
$USRTIMER
 70
     1
  9
$ANGBASE
 50
0.000000
  9
$ANGDIR
 70
     0
  9
$PDMODE
 70
     0
  9
$PDSIZE
 40
0.000000
  9
$PLINEWID
 40
0.000000
  9
$COORDS
 70
     2
  9
$USERI1
 70
     0
  9
$USERI2
 70
     0
  9
$USERI3
 70
     0
  9
$USERI4
 70
     0
  9
$USERI5
 70
     0
  9
$USERR1
 40
0.000000
  9
$USERR2
 40
0.000000
  9
$USERR3
 40
0.000000
  9
$USERR4
 40
0.000000
  9
$USERR5
 40
0.000000
  0
ENDSEC
  0
SECTION
  2
TABLES
  0
TABLE
  2
LTYPE
 70
     5
  0
LTYPE
  2
CONTINUOUS
 70
    64
  3
Solid line
 72
    65
 73
     0
 40
0.0
  0
LTYPE
  2
HIDDEN
 70
    64
  3
------------------------
 72
    65
 73
     2
 40
12.6
 49
8.4
 49
-4.2
  0
LTYPE
  2
DOT
 70
    64
  3
････････････････････････
 72
    65
 73
     2
 40
8.0
 49
6.0
 49
-2.0
  0
LTYPE
  2
DASHDOT
 70
    64
  3
--･--･--･--･--･--･--･--
 72
    65
 73
     4
 40
50.5
 49
30.0
 49
-9.0
 49
2.5
 49
-9.0
  0
LTYPE
  2
DIVIDE
 70
    64
  3
--･･--･･--･･--･･--･･--
 72
    65
 73
     6
 40
58.0
 49
30.0
 49
-9.0
 49
2.5
 49
-5.0
 49
2.5
 49
-9.0
  0
LTYPE
  2
ACAD_ISO06W100
 70
    64
  3
____ ... ____ ... ____
 72
    65
 73
     8
 40
37.5
 49
24.0
 49
-3.0
 49
0.5
 49
-3.0
 49
0.5
 49
-3.0
 49
0.5
 49
-3.0
  0
LTYPE
  2
ACAD_ISO14W100
 70
    64
  3
__ . . . __ . . . __ . . . 
 72
    65
 73
     8
 40
25.5
 49
12.0
 49
-3.0
 49
0.5
 49
-3.0
 49
0.5
 49
-3.0
 49
0.5
 49
-3.0
  0
ENDTAB
  0
TABLE
  2
LAYER
 70
3
  0
LAYER
  2
1
 70
64
 62
7
  6
CONTINUOUS
  0
LAYER
  2
2
 70
64
 62
134
  6
CONTINUOUS
  0
LAYER
  2
5
 70
64
 62
94
  6
CONTINUOUS
  0
ENDTAB
  0
TABLE
  2
STYLE
 70
     2
  0
STYLE
  2
STANDARD
 70
    64
 40
0.0
 41
1.0
 50
0.0
 71
     0
 42
0.2
  3
TXT
  4

  0
STYLE
  2
KANJI
 70
    64
 40
0.0
 41
1.0
 50
0.0
 71
     0
 42
0.2
  3
TXT
  4
BIGFONT
  0
ENDTAB
  0
TABLE
  2
VIEW
 70
     0
  0
ENDTAB
  0
ENDSEC
  0
SECTION
  2
BLOCKS
  0
BLOCK
  8
2
 62
134
  6
CONTINUOUS
  2
*D1
 70
    65
 10
0.0
 20
0.0
  0
LINE
  8
2
 62
134
  6
CONTINUOUS
 10
22.724225
 20
110.673719
 11
54.724225
 21
110.673719
  0
LINE
  8
2
 62
134
  6
CONTINUOUS
 10
22.724225
 20
111.173719
 11
22.724225
 21
106.919914
  0
LINE
  8
2
 62
134
  6
CONTINUOUS
 10
54.724225
 20
111.173719
 11
54.724225
 21
106.919914
  0
LINE
  8
2
 62
134
  6
CONTINUOUS
 10
22.724225
 20
110.673719
 11
23.690151
 21
110.932538
  0
LINE
  8
2
 62
134
  6
CONTINUOUS
 10
22.724225
 20
110.673719
 11
23.690151
 21
110.414900
  0
LINE
  8
2
 62
134
  6
CONTINUOUS
 10
23.690151
 20
110.932538
 11
23.690151
 21
110.414900
  0
LINE
  8
2
 62
134
  6
CONTINUOUS
 10
22.965707
 20
110.673719
 11
23.448670
 21
110.803128
  0
LINE
  8
2
 62
134
  6
CONTINUOUS
 10
22.965707
 20
110.673719
 11
23.448670
 21
110.544309
  0
LINE
  8
2
 62
134
  6
CONTINUOUS
 10
23.448670
 20
110.803128
 11
23.448670
 21
110.544309
  0
LINE
  8
2
 62
134
  6
CONTINUOUS
 10
54.724225
 20
110.673719
 11
53.758299
 21
110.414900
  0
LINE
  8
2
 62
134
  6
CONTINUOUS
 10
54.724225
 20
110.673719
 11
53.758299
 21
110.932538
  0
LINE
  8
2
 62
134
  6
CONTINUOUS
 10
53.758299
 20
110.414900
 11
53.758299
 21
110.932538
  0
LINE
  8
2
 62
134
  6
CONTINUOUS
 10
54.482744
 20
110.673719
 11
53.999781
 21
110.544309
  0
LINE
  8
2
 62
134
  6
CONTINUOUS
 10
54.482744
 20
110.673719
 11
53.999781
 21
110.803128
  0
LINE
  8
2
 62
134
  6
CONTINUOUS
 10
53.999781
 20
110.544309
 11
53.999781
 21
110.803128
  0
TEXT
  8
2
 62
134
  6
CONTINUOUS
 10
36.094041
 20
110.673719
 40
2.000000
 41
0.500000
  1
32
  7
KANJI
 50
0.000000
 51
0.000000
  0
ENDBLK
  0
BLOCK
  8
2
 62
134
  6
CONTINUOUS
  2
*D2
 70
    65
 10
0.0
 20
0.0
  0
LINE
  8
2
 62
134
  6
CONTINUOUS
 10
18.724225
 20
115.008645
 11
54.724225
 21
115.008645
  0
LINE
  8
2
 62
134
  6
CONTINUOUS
 10
18.724225
 20
115.508645
 11
18.724225
 21
90.562831
  0
LINE
  8
2
 62
134
  6
CONTINUOUS
 10
54.724225
 20
115.508645
 11
54.724225
 21
106.919914
  0
LINE
  8
2
 62
134
  6
CONTINUOUS
 10
18.724225
 20
115.008645
 11
19.690151
 21
115.267464
  0
LINE
  8
2
 62
134
  6
CONTINUOUS
 10
18.724225
 20
115.008645
 11
19.690151
 21
114.749826
  0
LINE
  8
2
 62
134
  6
CONTINUOUS
 10
19.690151
 20
115.267464
 11
19.690151
 21
114.749826
  0
LINE
  8
2
 62
134
  6
CONTINUOUS
 10
18.965707
 20
115.008645
 11
19.448670
 21
115.138055
  0
LINE
  8
2
 62
134
  6
CONTINUOUS
 10
18.965707
 20
115.008645
 11
19.448670
 21
114.879236
  0
LINE
  8
2
 62
134
  6
CONTINUOUS
 10
19.448670
 20
115.138055
 11
19.448670
 21
114.879236
  0
LINE
  8
2
 62
134
  6
CONTINUOUS
 10
54.724225
 20
115.008645
 11
53.758299
 21
114.749826
  0
LINE
  8
2
 62
134
  6
CONTINUOUS
 10
54.724225
 20
115.008645
 11
53.758299
 21
115.267464
  0
LINE
  8
2
 62
134
  6
CONTINUOUS
 10
53.758299
 20
114.749826
 11
53.758299
 21
115.267464
  0
LINE
  8
2
 62
134
  6
CONTINUOUS
 10
54.482744
 20
115.008645
 11
53.999781
 21
114.879236
  0
LINE
  8
2
 62
134
  6
CONTINUOUS
 10
54.482744
 20
115.008645
 11
53.999781
 21
115.138055
  0
LINE
  8
2
 62
134
  6
CONTINUOUS
 10
53.999781
 20
114.879236
 11
53.999781
 21
115.138055
  0
TEXT
  8
2
 62
134
  6
CONTINUOUS
 10
35.530500
 20
115.008645
 40
2.000000
 41
0.500000
  1
36
  7
KANJI
 50
0.000000
 51
0.000000
  0
ENDBLK
  0
BLOCK
  8
2
 62
134
  6
CONTINUOUS
  2
*D3
 70
    65
 10
0.0
 20
0.0
  0
LINE
  8
2
 62
134
  6
CONTINUOUS
 10
69.618265
 20
115.008645
 11
89.118265
 21
115.008645
  0
LINE
  8
2
 62
134
  6
CONTINUOUS
 10
69.618265
 20
115.508645
 11
69.618265
 21
104.064439
  0
LINE
  8
2
 62
134
  6
CONTINUOUS
 10
89.118265
 20
115.508645
 11
89.118265
 21
103.717645
  0
LINE
  8
2
 62
134
  6
CONTINUOUS
 10
69.618265
 20
115.008645
 11
70.584191
 21
115.267464
  0
LINE
  8
2
 62
134
  6
CONTINUOUS
 10
69.618265
 20
115.008645
 11
70.584191
 21
114.749826
  0
LINE
  8
2
 62
134
  6
CONTINUOUS
 10
70.584191
 20
115.267464
 11
70.584191
 21
114.749826
  0
LINE
  8
2
 62
134
  6
CONTINUOUS
 10
69.859746
 20
115.008645
 11
70.342709
 21
115.138055
  0
LINE
  8
2
 62
134
  6
CONTINUOUS
 10
69.859746
 20
115.008645
 11
70.342709
 21
114.879236
  0
LINE
  8
2
 62
134
  6
CONTINUOUS
 10
70.342709
 20
115.138055
 11
70.342709
 21
114.879236
  0
LINE
  8
2
 62
134
  6
CONTINUOUS
 10
89.118265
 20
115.008645
 11
88.152339
 21
114.749826
  0
LINE
  8
2
 62
134
  6
CONTINUOUS
 10
89.118265
 20
115.008645
 11
88.152339
 21
115.267464
  0
LINE
  8
2
 62
134
  6
CONTINUOUS
 10
88.152339
 20
114.749826
 11
88.152339
 21
115.267464
  0
LINE
  8
2
 62
134
  6
CONTINUOUS
 10
88.876783
 20
115.008645
 11
88.393820
 21
114.879236
  0
LINE
  8
2
 62
134
  6
CONTINUOUS
 10
88.876783
 20
115.008645
 11
88.393820
 21
115.138055
  0
LINE
  8
2
 62
134
  6
CONTINUOUS
 10
88.393820
 20
114.879236
 11
88.393820
 21
115.138055
  0
TEXT
  8
2
 62
134
  6
CONTINUOUS
 10
75.788890
 20
115.008645
 40
2.000000
 41
0.500000
  1
19.5
  7
KANJI
 50
0.000000
 51
0.000000
  0
ENDBLK
  0
BLOCK
  8
2
 62
134
  6
CONTINUOUS
  2
*D4
 70
    65
 10
0.0
 20
0.0
  0
LINE
  8
2
 62
134
  6
CONTINUOUS
 10
74.868265
 20
110.673719
 11
83.868265
 21
110.673719
  0
LINE
  8
2
 62
134
  6
CONTINUOUS
 10
74.868265
 20
111.173719
 11
74.868265
 21
98.838147
  0
LINE
  8
2
 62
134
  6
CONTINUOUS
 10
83.868265
 20
111.173719
 11
83.868265
 21
98.545384
  0
LINE
  8
2
 62
134
  6
CONTINUOUS
 10
74.868265
 20
110.673719
 11
75.834191
 21
110.932538
  0
LINE
  8
2
 62
134
  6
CONTINUOUS
 10
74.868265
 20
110.673719
 11
75.834191
 21
110.414900
  0
LINE
  8
2
 62
134
  6
CONTINUOUS
 10
75.834191
 20
110.932538
 11
75.834191
 21
110.414900
  0
LINE
  8
2
 62
134
  6
CONTINUOUS
 10
75.109746
 20
110.673719
 11
75.592709
 21
110.803128
  0
LINE
  8
2
 62
134
  6
CONTINUOUS
 10
75.109746
 20
110.673719
 11
75.592709
 21
110.544309
  0
LINE
  8
2
 62
134
  6
CONTINUOUS
 10
75.592709
 20
110.803128
 11
75.592709
 21
110.544309
  0
LINE
  8
2
 62
134
  6
CONTINUOUS
 10
83.868265
 20
110.673719
 11
82.902339
 21
110.414900
  0
LINE
  8
2
 62
134
  6
CONTINUOUS
 10
83.868265
 20
110.673719
 11
82.902339
 21
110.932538
  0
LINE
  8
2
 62
134
  6
CONTINUOUS
 10
82.902339
 20
110.414900
 11
82.902339
 21
110.932538
  0
LINE
  8
2
 62
134
  6
CONTINUOUS
 10
83.626783
 20
110.673719
 11
83.143820
 21
110.544309
  0
LINE
  8
2
 62
134
  6
CONTINUOUS
 10
83.626783
 20
110.673719
 11
83.143820
 21
110.803128
  0
LINE
  8
2
 62
134
  6
CONTINUOUS
 10
83.143820
 20
110.544309
 11
83.143820
 21
110.803128
  0
TEXT
  8
2
 62
134
  6
CONTINUOUS
 10
77.049137
 20
110.673719
 40
2.000000
 41
0.500000
  1
9
  7
KANJI
 50
0.000000
 51
0.000000
  0
ENDBLK
  0
ENDSEC
  0
SECTION
  2
ENTITIES
  0
TEXT
  8
5
 62
94
  6
CONTINUOUS
 10
62.215971
 20
12.429830
 40
0.875000
 41
4.000000
  1
製図
  7
KANJI
 50
-90.000000
 51
0.000000
  0
TEXT
  8
5
 62
94
  6
CONTINUOUS
 10
72.132362
 20
12.347876
 40
0.875000
 41
4.000000
  1
図番
  7
KANJI
 50
-90.000000
 51
0.000000
  0
TEXT
  8
5
 62
94
  6
CONTINUOUS
 10
72.132362
 20
18.986121
 40
0.875000
 41
4.000000
  1
図　名
  7
KANJI
 50
-90.000000
 51
0.000000
  0
TEXT
  8
5
 62
94
  6
CONTINUOUS
 10
39.678720
 20
16.281651
 40
0.875000
 41
4.000000
  1
日付
  7
KANJI
 50
-90.000000
 51
0.000000
  0
TEXT
  8
5
 62
94
  6
CONTINUOUS
 10
57.216799
 20
16.363605
 40
0.875000
 41
4.000000
  1
図法
  7
KANJI
 50
-90.000000
 51
0.000000
  0
TEXT
  8
5
 62
94
  6
CONTINUOUS
 10
57.134846
 20
20.379333
 40
0.875000
 41
4.000000
  1
尺度
  7
KANJI
 50
-90.000000
 51
0.000000
  0
TEXT
  8
5
 62
94
  6
CONTINUOUS
 10
39.678720
 20
20.297379
 40
0.875000
 41
4.000000
  1
公差
  7
KANJI
 50
-90.000000
 51
0.000000
  0
TEXT
  8
5
 62
94
  6
CONTINUOUS
 10
39.678720
 20
12.347876
 40
0.875000
 41
4.000000
  1
承認
  7
KANJI
 50
-90.000000
 51
0.000000
  0
TEXT
  8
5
 62
94
  6
CONTINUOUS
 10
52.217627
 20
12.347876
 40
0.875000
 41
4.000000
  1
設計
  7
KANJI
 50
-90.000000
 51
0.000000
  0
TEXT
  8
5
 62
94
  6
CONTINUOUS
 10
48.939481
 20
5.381816
 40
2.250000
 41
1.888889
  1
ジャパンセンサー株式会社
  7
KANJI
 50
0.000000
 51
0.000000
  0
LINE
  8
5
 62
94
  6
CONTINUOUS
 10
39.234597
 20
20.604085
 11
99.234597
 21
20.604085
  0
LINE
  8
5
 62
94
  6
CONTINUOUS
 10
39.234597
 20
4.604085
 11
39.234597
 21
20.604085
  0
LINE
  8
5
 62
94
  6
CONTINUOUS
 10
99.234597
 20
8.604085
 11
39.234597
 21
8.604085
  0
LINE
  8
5
 62
94
  6
CONTINUOUS
 10
71.734597
 20
20.604085
 11
71.734597
 21
8.604085
  0
LINE
  8
5
 62
94
  6
CONTINUOUS
 10
99.234597
 20
12.604085
 11
39.234597
 21
12.604085
  0
LINE
  8
5
 62
94
  6
CONTINUOUS
 10
74.234597
 20
8.604085
 11
74.234597
 21
20.604085
  0
LINE
  8
5
 62
94
  6
CONTINUOUS
 10
59.234597
 20
20.604085
 11
59.234597
 21
12.604085
  0
LINE
  8
5
 62
94
  6
CONTINUOUS
 10
41.734597
 20
8.604085
 11
41.734597
 21
20.604085
  0
LINE
  8
5
 62
94
  6
CONTINUOUS
 10
39.234597
 20
16.604085
 11
71.734597
 21
16.604085
  0
LINE
  8
5
 62
94
  6
CONTINUOUS
 10
56.734597
 20
20.604085
 11
56.734597
 21
12.604085
  0
LINE
  8
5
 62
94
  6
CONTINUOUS
 10
51.734597
 20
8.604085
 11
51.734597
 21
12.604085
  0
LINE
  8
5
 62
94
  6
CONTINUOUS
 10
61.734597
 20
8.604085
 11
61.734597
 21
12.604085
  0
LINE
  8
5
 62
94
  6
CONTINUOUS
 10
54.234597
 20
12.604085
 11
54.234597
 21
8.604085
  0
LINE
  8
5
 62
94
  6
CONTINUOUS
 10
64.234597
 20
12.604085
 11
64.234597
 21
8.604085
  0
TEXT
  8
5
 62
94
  6
CONTINUOUS
 10
61.232528
 20
13.249366
 40
2.000000
 41
1.000000
  1
三角法
  7
KANJI
 50
0.000000
 51
0.000000
  0
LINE
  8
5
 62
94
  6
CONTINUOUS
 10
75.556448
 20
16.589321
 11
97.626822
 21
16.589321
  0
TEXT
  8
5
 62
94
  6
CONTINUOUS
 10
55.824656
 20
9.573573
 40
2.000000
 41
1.000000
  1
須藤
  7
KANJI
 50
0.000000
 51
0.000000
  0
TEXT
  8
5
 62
94
  6
CONTINUOUS
 10
62.548081
 20
17.466289
 40
2.000000
 41
1.000000
  1
２／１
  7
KANJI
 50
0.000000
 51
0.000000
  0
TEXT
  8
5
 62
94
  6
CONTINUOUS
 10
65.824656
 20
9.573573
 40
2.000000
 41
1.000000
  1
須藤
  7
KANJI
 50
0.000000
 51
0.000000
  0
LINE
  8
5
 62
94
  6
CONTINUOUS
 10
6.734597
 20
142.104085
 11
6.734597
 21
4.604085
  0
LINE
  8
5
 62
94
  6
CONTINUOUS
 10
6.734597
 20
4.604085
 11
99.234597
 21
4.604085
  0
LINE
  8
5
 62
94
  6
CONTINUOUS
 10
99.234597
 20
4.604085
 11
99.234597
 21
142.104085
  0
LINE
  8
5
 62
94
  6
CONTINUOUS
 10
99.234597
 20
142.104085
 11
6.734597
 21
142.104085
  0
TEXT
  8
5
 62
94
  6
CONTINUOUS
 10
76.811453
 20
17.600784
 40
2.000000
 41
1.000000
  1
ＦＣ－２０３２
  7
KANJI
 50
0.000000
 51
0.000000
  0
TEXT
  8
5
 62
94
  6
CONTINUOUS
 10
75.695594
 20
13.530056
 40
2.000000
 41
1.000000
  1
フェライトコア　外形図
  7
KANJI
 50
0.000000
 51
0.000000
  0
TEXT
  8
5
 62
94
  6
CONTINUOUS
 10
44.277904
 20
13.519931
 40
2.000000
 41
0.500000
  1
2014/01/24
  7
KANJI
 50
0.000000
 51
0.000000
  0
LINE
  8
1
 62
7
  6
CONTINUOUS
 10
22.724225
 20
106.419914
 11
54.724225
 21
106.419914
  0
LINE
  8
1
 62
7
  6
CONTINUOUS
 10
22.724225
 20
106.419914
 11
22.724225
 21
86.919914
  0
LINE
  8
1
 62
7
  6
CONTINUOUS
 10
22.724225
 20
90.062831
 11
18.724225
 21
90.062831
  0
LINE
  8
1
 62
7
  6
CONTINUOUS
 10
18.724225
 20
90.062831
 11
18.724225
 21
86.919914
  0
LINE
  8
1
 62
7
  6
CONTINUOUS
 10
18.724225
 20
86.919914
 11
54.724225
 21
86.919914
  0
LINE
  8
1
 62
7
  6
CONTINUOUS
 10
54.724225
 20
106.419914
 11
54.724225
 21
86.919914
  0
LINE
  8
1
 62
7
  6
DASHDOT
 10
16.820663
 20
96.669914
 11
59.621490
 21
96.669914
  0
LINE
  8
1
 62
7
  6
DOT
 10
22.724225
 20
92.169914
 11
54.724225
 21
92.169914
  0
LINE
  8
1
 62
7
  6
DOT
 10
22.724225
 20
101.169914
 11
54.724225
 21
101.169914
  0
LINE
  8
1
 62
7
  6
DASHDOT
 10
68.193664
 20
96.669914
 11
91.597073
 21
96.669914
  0
CIRCLE
  8
1
 62
7
  6
CONTINUOUS
 10
79.368265
 20
96.669914
 40
9.750000
  0
CIRCLE
  8
1
 62
7
  6
CONTINUOUS
 10
79.368265
 20
96.669914
 40
4.500000
  0
LINE
  8
1
 62
7
  6
CONTINUOUS
 10
79.368265
 20
106.419914
 11
79.368265
 21
101.169914
  0
LINE
  8
1
 62
7
  6
CONTINUOUS
 10
79.368265
 20
92.169914
 11
79.368265
 21
86.919914
  0
LINE
  8
2
 62
134
  6
CONTINUOUS
 10
69.618265
 20
96.669914
 11
69.618265
 21
103.564439
  0
LINE
  8
2
 62
134
  6
CONTINUOUS
 10
89.118265
 20
96.669914
 11
89.118265
 21
103.217645
  0
LINE
  8
1
 62
7
  6
DASHDOT
 10
79.368265
 20
82.670093
 11
79.368265
 21
108.592954
  0
LINE
  8
2
 62
134
  6
CONTINUOUS
 10
74.868265
 20
96.669914
 11
74.868265
 21
98.338147
  0
LINE
  8
2
 62
134
  6
CONTINUOUS
 10
83.868265
 20
96.669914
 11
83.868265
 21
98.045384
  0
DIMENSION
  8
2
 62
134
  6
CONTINUOUS
  2
*D1
 10
22.724225
 20
110.673719
 11
38.844041
 21
110.673719
 70
     0
  1
32
 13
22.724225
 23
106.919914
 14
54.724225
 24
106.919914
 50
0.000000
  0
TEXT
  8
2
 62
134
  6
CONTINUOUS
 10
38.594041
 20
110.673719
 40
2.000000
 41
1.000000
  1
±1
  7
KANJI
 50
0.000000
 51
0.000000
  0
DIMENSION
  8
2
 62
134
  6
CONTINUOUS
  2
*D2
 10
18.724225
 20
115.008645
 11
38.280500
 21
115.008645
 70
     0
  1
36
 13
18.724225
 23
90.562831
 14
54.724225
 24
106.919914
 50
0.000000
  0
TEXT
  8
2
 62
134
  6
CONTINUOUS
 10
38.030500
 20
115.008645
 40
2.000000
 41
1.000000
  1
±1
  7
KANJI
 50
0.000000
 51
0.000000
  0
DIMENSION
  8
2
 62
134
  6
CONTINUOUS
  2
*D3
 10
69.618265
 20
115.008645
 11
79.538890
 21
115.008645
 70
     0
  1
19.5
 13
69.618265
 23
104.064439
 14
89.118265
 24
103.717645
 50
0.000000
  0
TEXT
  8
2
 62
134
  6
CONTINUOUS
 10
80.288890
 20
115.008645
 40
2.000000
 41
1.000000
  1
±1
  7
KANJI
 50
0.000000
 51
0.000000
  0
DIMENSION
  8
2
 62
134
  6
CONTINUOUS
  2
*D4
 10
74.868265
 20
110.673719
 11
79.299137
 21
110.673719
 70
     0
  1
9
 13
74.868265
 23
98.838147
 14
83.868265
 24
98.545384
 50
0.000000
  0
TEXT
  8
2
 62
134
  6
CONTINUOUS
 10
78.549137
 20
110.673719
 40
2.000000
 41
1.000000
  1
±1
  7
KANJI
 50
0.000000
 51
0.000000
  0
TEXT
  8
5
 62
94
  6
CONTINUOUS
 10
74.610994
 20
9.646300
 40
2.000000
 41
1.000000
  1
００５－０６５－Ａ１８１
  7
KANJI
 50
0.000000
 51
0.000000
  0
TEXT
  8
2
 62
134
  6
CONTINUOUS
 10
44.044477
 20
73.495699
 40
2.000000
 41
1.000000
  1
質量：23g
  7
KANJI
 50
0.000000
 51
0.000000
  0
TEXT
  8
2
 62
134
  6
CONTINUOUS
 10
44.285817
 20
76.915917
 40
2.000000
 41
1.000000
  1
インピーダンス：50Ω/50MHZ
  7
KANJI
 50
0.000000
 51
0.000000
  0
ENDSEC
  0
EOF
