  0
SECTION
  2
HEADER
  9
$ACADVER
  1
AC1009
  9
$INSBASE
 10
0.000000
 20
0.000000
  9
$EXTMIN
 10
0.000000
 20
0.000000
  9
$EXTMAX
 10
297.000000
 20
210.000000
  9
$LIMMIN
 10
0.000000
 20
0.000000
  9
$LIMMAX
 10
297.000000
 20
210.000000
  9
$VIEWCTR
 10
148.500000
 20
105.000000
  9
$VIEWSIZE
 40
210.000000
  9
$PEXTMIN
 10
0.000000
 20
0.000000
 30
0.000000
  9
$PEXTMAX
 10
297.000000
 20
210.000000
 30
0.000000
  9
$SNAPMODE
 70
     0
  9
$SNAPUNIT
 10
1.000000
 20
1.000000
  9
$SNAPBASE
 10
0.000000
 20
0.000000
  9
$SNAPANG
 50
0.000000
  9
$SNAPISOPAIR
 70
     0
  9
$SNAPSTYLE
 70
     0
  9
$GRIDMODE
 70
     0
  9
$GRIDUNIT
 10
0.000000
 20
0.000000
  9
$ORTHOMODE
 70
     0
  9
$REGENMODE
 70
     1
  9
$FILLMODE
 70
     1
  9
$QTEXTMODE
 70
     0
  9
$DRAGMODE
 70
     2
  9
$LTSCALE
 40
0.250000
  9
$OSMODE
 70
     0
  9
$ATTMODE
 70
     1
  9
$TEXTSIZE
 40
5.000000
  9
$TRACEWID
 40
0.050000
  9
$TEXTSTYLE
  7
STANDARD
  9
$CLAYER
  8
0
  9
$CELTYPE
  6
BYLAYER
  9
$CECOLOR
 62
   256
  9
$DIMSCALE
 40
1.000000
  9
$DIMASZ
 40
1.000000
  9
$DIMEXO
 40
0.000000
  9
$DIMDLI
 40
0.500000
  9
$DIMRND
 40
0.000000
  9
$DIMDLE
 40
0.000000
  9
$DIMEXE
 40
0.000000
  9
$DIMTP
 40
0.000000
  9
$DIMTM
 40
0.000000
  9
$DIMTXT
 40
3.500000
  9
$DIMCEN
 40
0.000000
  9
$DIMTSZ
 40
0.000000
  9
$DIMTOL
 70
     0
  9
$DIMLIM
 70
     0
  9
$DIMTIH
 70
     1
  9
$DIMTOH
 70
     1
  9
$DIMSE1
 70
     0
  9
$DIMSE2
 70
     0
  9
$DIMTAD
 70
     0
  9
$DIMZIN
 70
     0
  9
$DIMBLK
  1

  9
$DIMASO
 70
     0
  9
$DIMSHO
 70
     0
  9
$DIMPOST
  1

  9
$DIMAPOST
  1

  9
$DIMALT
 70
     0
  9
$DIMALTD
 70
     0
  9
$DIMALTF
 40
25.400000
  9
$DIMLFAC
 40
1.000000
  9
$DIMTOFL
 70
     0
  9
$DIMTVP
 40
0.000000
  9
$DIMTIX
 70
     0
  9
$DIMSOXD
 70
     0
  9
$DIMSAH
 70
     0
  9
$DIMBLKL
  1

  9
$DIMBLKR
  1

  9
$LUNITS
 70
     2
  9
$LUPREC
 70
     2
  9
$AXISMODE
 70
     0
  9
$AXISUNIT
 10
1.000000
 20
1.000000
  9
$SKETCHINC
 40
0.000000
  9
$FILLETRAD
 40
0.000000
  9
$AUNITS
 70
     1
  9
$AUPREC
 70
     2
  9
$MENU
  1
ACAD
  9
$ELEVATION
 40
0.000000
  9
$THICKNESS
 40
0.000000
  9
$VIEWDIR
 10
0.000000
 20
0.000000
 30
1.000000
  9
$LIMCHECK
 70
     1
  9
$BLIPMODE
 70
     1
  9
$CHAMFERA
 40
0.000000
  9
$CHAMFERB
 40
0.000000
  9
$FASTZOOM
 70
     1
  9
$SKPOLY
 70
     0
  9
$TDCREATE
 40
0.000000
  9
$TDUPDATE
 40
0.000000
  9
$TDINDWG
 40
0.000000
  9
$TDUSRTIMER
 40
0.000000
  9
$USRTIMER
 70
     1
  9
$ANGBASE
 50
0.000000
  9
$ANGDIR
 70
     0
  9
$PDMODE
 70
     0
  9
$PDSIZE
 40
0.000000
  9
$PLINEWID
 40
0.000000
  9
$COORDS
 70
     2
  9
$USERI1
 70
     0
  9
$USERI2
 70
     0
  9
$USERI3
 70
     0
  9
$USERI4
 70
     0
  9
$USERI5
 70
     0
  9
$USERR1
 40
0.000000
  9
$USERR2
 40
0.000000
  9
$USERR3
 40
0.000000
  9
$USERR4
 40
0.000000
  9
$USERR5
 40
0.000000
  0
ENDSEC
  0
SECTION
  2
TABLES
  0
TABLE
  2
LTYPE
 70
     5
  0
LTYPE
  2
CONTINUOUS
 70
    64
  3
Solid line
 72
    65
 73
     0
 40
0.0
  0
LTYPE
  2
HIDDEN
 70
    64
  3
------------------------
 72
    65
 73
     2
 40
12.6
 49
8.4
 49
-4.2
  0
LTYPE
  2
DOT
 70
    64
  3
････････････････････････
 72
    65
 73
     2
 40
8.0
 49
6.0
 49
-2.0
  0
LTYPE
  2
DASHDOT
 70
    64
  3
--･--･--･--･--･--･--･--
 72
    65
 73
     4
 40
50.5
 49
30.0
 49
-9.0
 49
2.5
 49
-9.0
  0
LTYPE
  2
DIVIDE
 70
    64
  3
--･･--･･--･･--･･--･･--
 72
    65
 73
     6
 40
58.0
 49
30.0
 49
-9.0
 49
2.5
 49
-5.0
 49
2.5
 49
-9.0
  0
LTYPE
  2
ACAD_ISO06W100
 70
    64
  3
____ ... ____ ... ____
 72
    65
 73
     8
 40
37.5
 49
24.0
 49
-3.0
 49
0.5
 49
-3.0
 49
0.5
 49
-3.0
 49
0.5
 49
-3.0
  0
LTYPE
  2
ACAD_ISO14W100
 70
    64
  3
__ . . . __ . . . __ . . . 
 72
    65
 73
     8
 40
25.5
 49
12.0
 49
-3.0
 49
0.5
 49
-3.0
 49
0.5
 49
-3.0
 49
0.5
 49
-3.0
  0
ENDTAB
  0
TABLE
  2
LAYER
 70
3
  0
LAYER
  2
1
 70
64
 62
7
  6
CONTINUOUS
  0
LAYER
  2
2
 70
64
 62
134
  6
CONTINUOUS
  0
LAYER
  2
5
 70
64
 62
94
  6
CONTINUOUS
  0
ENDTAB
  0
TABLE
  2
STYLE
 70
     2
  0
STYLE
  2
STANDARD
 70
    64
 40
0.0
 41
1.0
 50
0.0
 71
     0
 42
0.2
  3
TXT
  4

  0
STYLE
  2
KANJI
 70
    64
 40
0.0
 41
1.0
 50
0.0
 71
     0
 42
0.2
  3
TXT
  4
BIGFONT
  0
ENDTAB
  0
TABLE
  2
VIEW
 70
     0
  0
ENDTAB
  0
ENDSEC
  0
SECTION
  2
BLOCKS
  0
BLOCK
  8
2
 62
134
  6
CONTINUOUS
  2
*D1
 70
    65
 10
0.0
 20
0.0
  0
LINE
  8
2
 62
134
  6
CONTINUOUS
 10
266.207386
 20
109.662093
 11
260.207386
 21
109.662093
  0
LINE
  8
2
 62
134
  6
CONTINUOUS
 10
266.207386
 20
108.662093
 11
266.207386
 21
116.210953
  0
LINE
  8
2
 62
134
  6
CONTINUOUS
 10
260.207386
 20
108.662093
 11
260.207386
 21
116.210953
  0
LINE
  8
2
 62
134
  6
CONTINUOUS
 10
266.207386
 20
109.662093
 11
264.275534
 21
109.144455
  0
LINE
  8
2
 62
134
  6
CONTINUOUS
 10
266.207386
 20
109.662093
 11
264.275534
 21
110.179731
  0
LINE
  8
2
 62
134
  6
CONTINUOUS
 10
264.275534
 20
109.144455
 11
264.275534
 21
110.179731
  0
LINE
  8
2
 62
134
  6
CONTINUOUS
 10
265.724423
 20
109.662093
 11
264.758497
 21
109.403274
  0
LINE
  8
2
 62
134
  6
CONTINUOUS
 10
265.724423
 20
109.662093
 11
264.758497
 21
109.920912
  0
LINE
  8
2
 62
134
  6
CONTINUOUS
 10
264.758497
 20
109.403274
 11
264.758497
 21
109.920912
  0
LINE
  8
2
 62
134
  6
CONTINUOUS
 10
260.207386
 20
109.662093
 11
262.139237
 21
110.179731
  0
LINE
  8
2
 62
134
  6
CONTINUOUS
 10
260.207386
 20
109.662093
 11
262.139237
 21
109.144455
  0
LINE
  8
2
 62
134
  6
CONTINUOUS
 10
262.139237
 20
110.179731
 11
262.139237
 21
109.144455
  0
LINE
  8
2
 62
134
  6
CONTINUOUS
 10
260.690349
 20
109.662093
 11
261.656275
 21
109.920912
  0
LINE
  8
2
 62
134
  6
CONTINUOUS
 10
260.690349
 20
109.662093
 11
261.656275
 21
109.403274
  0
LINE
  8
2
 62
134
  6
CONTINUOUS
 10
261.656275
 20
109.920912
 11
261.656275
 21
109.403274
  0
TEXT
  8
2
 62
134
  6
CONTINUOUS
 10
262.207386
 20
109.662093
 40
4.000000
 41
0.500000
  1
6
  7
KANJI
 50
0.000000
 51
0.000000
  0
ENDBLK
  0
BLOCK
  8
2
 62
134
  6
CONTINUOUS
  2
*D2
 70
    65
 10
0.0
 20
0.0
  0
LINE
  8
2
 62
134
  6
CONTINUOUS
 10
255.405917
 20
117.210953
 11
255.405917
 21
141.684045
  0
LINE
  8
2
 62
134
  6
CONTINUOUS
 10
256.405917
 20
117.210953
 11
233.566366
 21
117.210953
  0
LINE
  8
2
 62
134
  6
CONTINUOUS
 10
256.405917
 20
141.684045
 11
251.200502
 21
141.684045
  0
LINE
  8
2
 62
134
  6
CONTINUOUS
 10
255.405917
 20
117.210953
 11
254.888279
 21
119.142805
  0
LINE
  8
2
 62
134
  6
CONTINUOUS
 10
255.405917
 20
117.210953
 11
255.923555
 21
119.142805
  0
LINE
  8
2
 62
134
  6
CONTINUOUS
 10
254.888279
 20
119.142805
 11
255.923555
 21
119.142805
  0
LINE
  8
2
 62
134
  6
CONTINUOUS
 10
255.405917
 20
117.693916
 11
255.147098
 21
118.659842
  0
LINE
  8
2
 62
134
  6
CONTINUOUS
 10
255.405917
 20
117.693916
 11
255.664736
 21
118.659842
  0
LINE
  8
2
 62
134
  6
CONTINUOUS
 10
255.147098
 20
118.659842
 11
255.664736
 21
118.659842
  0
LINE
  8
2
 62
134
  6
CONTINUOUS
 10
255.405917
 20
141.684045
 11
255.923555
 21
139.752193
  0
LINE
  8
2
 62
134
  6
CONTINUOUS
 10
255.405917
 20
141.684045
 11
254.888279
 21
139.752193
  0
LINE
  8
2
 62
134
  6
CONTINUOUS
 10
255.923555
 20
139.752193
 11
254.888279
 21
139.752193
  0
LINE
  8
2
 62
134
  6
CONTINUOUS
 10
255.405917
 20
141.201082
 11
255.664736
 21
140.235156
  0
LINE
  8
2
 62
134
  6
CONTINUOUS
 10
255.405917
 20
141.201082
 11
255.147098
 21
140.235156
  0
LINE
  8
2
 62
134
  6
CONTINUOUS
 10
255.664736
 20
140.235156
 11
255.147098
 21
140.235156
  0
TEXT
  8
2
 62
134
  6
CONTINUOUS
 10
255.405917
 20
124.179682
 40
4.000000
 41
0.500000
  1
24.5
  7
KANJI
 50
90.000000
 51
0.000000
  0
ENDBLK
  0
BLOCK
  8
2
 62
134
  6
CONTINUOUS
  2
*D3
 70
    65
 10
0.0
 20
0.0
  0
LINE
  8
2
 62
134
  6
CONTINUOUS
 10
228.649534
 20
148.620718
 11
246.649534
 21
148.620718
  0
LINE
  8
2
 62
134
  6
CONTINUOUS
 10
228.649534
 20
149.620718
 11
228.649534
 21
139.810953
  0
LINE
  8
2
 62
134
  6
CONTINUOUS
 10
246.649534
 20
149.620718
 11
246.649534
 21
139.597915
  0
LINE
  8
2
 62
134
  6
CONTINUOUS
 10
228.649534
 20
148.620718
 11
230.581386
 21
149.138356
  0
LINE
  8
2
 62
134
  6
CONTINUOUS
 10
228.649534
 20
148.620718
 11
230.581386
 21
148.103079
  0
LINE
  8
2
 62
134
  6
CONTINUOUS
 10
230.581386
 20
149.138356
 11
230.581386
 21
148.103079
  0
LINE
  8
2
 62
134
  6
CONTINUOUS
 10
229.132497
 20
148.620718
 11
230.098423
 21
148.879537
  0
LINE
  8
2
 62
134
  6
CONTINUOUS
 10
229.132497
 20
148.620718
 11
230.098423
 21
148.361898
  0
LINE
  8
2
 62
134
  6
CONTINUOUS
 10
230.098423
 20
148.879537
 11
230.098423
 21
148.361898
  0
LINE
  8
2
 62
134
  6
CONTINUOUS
 10
246.649534
 20
148.620718
 11
244.717683
 21
148.103079
  0
LINE
  8
2
 62
134
  6
CONTINUOUS
 10
246.649534
 20
148.620718
 11
244.717683
 21
149.138356
  0
LINE
  8
2
 62
134
  6
CONTINUOUS
 10
244.717683
 20
148.103079
 11
244.717683
 21
149.138356
  0
LINE
  8
2
 62
134
  6
CONTINUOUS
 10
246.166571
 20
148.620718
 11
245.200646
 21
148.361898
  0
LINE
  8
2
 62
134
  6
CONTINUOUS
 10
246.166571
 20
148.620718
 11
245.200646
 21
148.879537
  0
LINE
  8
2
 62
134
  6
CONTINUOUS
 10
245.200646
 20
148.361898
 11
245.200646
 21
148.879537
  0
TEXT
  8
2
 62
134
  6
CONTINUOUS
 10
234.899787
 20
148.620718
 40
4.000000
 41
0.500000
  1
18
  7
KANJI
 50
0.000000
 51
0.000000
  0
ENDBLK
  0
BLOCK
  8
2
 62
134
  6
CONTINUOUS
  2
*D4
 70
    65
 10
0.0
 20
0.0
  0
LINE
  8
2
 62
134
  6
CONTINUOUS
 10
146.324896
 20
115.660953
 11
146.324896
 21
140.960220
  0
LINE
  8
2
 62
134
  6
CONTINUOUS
 10
146.324896
 20
123.660953
 11
146.842534
 21
121.729101
  0
LINE
  8
2
 62
134
  6
CONTINUOUS
 10
146.324896
 20
123.660953
 11
145.807258
 21
121.729101
  0
LINE
  8
2
 62
134
  6
CONTINUOUS
 10
146.842534
 20
121.729101
 11
145.807258
 21
121.729101
  0
LINE
  8
2
 62
134
  6
CONTINUOUS
 10
146.324896
 20
123.177990
 11
146.583715
 21
122.212064
  0
LINE
  8
2
 62
134
  6
CONTINUOUS
 10
146.324896
 20
123.177990
 11
146.066077
 21
122.212064
  0
LINE
  8
2
 62
134
  6
CONTINUOUS
 10
146.583715
 20
122.212064
 11
146.066077
 21
122.212064
  0
LINE
  8
2
 62
134
  6
CONTINUOUS
 10
146.324896
 20
130.660953
 11
145.807258
 21
132.592805
  0
LINE
  8
2
 62
134
  6
CONTINUOUS
 10
146.324896
 20
130.660953
 11
146.842534
 21
132.592805
  0
LINE
  8
2
 62
134
  6
CONTINUOUS
 10
145.807258
 20
132.592805
 11
146.842534
 21
132.592805
  0
LINE
  8
2
 62
134
  6
CONTINUOUS
 10
146.324896
 20
131.143916
 11
146.066077
 21
132.109842
  0
LINE
  8
2
 62
134
  6
CONTINUOUS
 10
146.324896
 20
131.143916
 11
146.583715
 21
132.109842
  0
LINE
  8
2
 62
134
  6
CONTINUOUS
 10
146.066077
 20
132.109842
 11
146.583715
 21
132.109842
  0
TEXT
  8
2
 62
134
  6
CONTINUOUS
 10
146.324896
 20
134.960220
 40
4.000000
 41
0.750000
  1
φ7
  7
KANJI
 50
90.000000
 51
0.000000
  0
ENDBLK
  0
BLOCK
  8
2
 62
134
  6
CONTINUOUS
  2
*D5
 70
    65
 10
0.0
 20
0.0
  0
LINE
  8
2
 62
134
  6
CONTINUOUS
 10
30.557714
 20
148.620718
 11
52.957714
 21
148.620718
  0
LINE
  8
2
 62
134
  6
CONTINUOUS
 10
38.557714
 20
149.620718
 11
38.557714
 21
141.232166
  0
LINE
  8
2
 62
134
  6
CONTINUOUS
 10
44.957714
 20
149.620718
 11
44.957714
 21
141.232166
  0
LINE
  8
2
 62
134
  6
CONTINUOUS
 10
38.557714
 20
148.620718
 11
36.625862
 21
148.103079
  0
LINE
  8
2
 62
134
  6
CONTINUOUS
 10
38.557714
 20
148.620718
 11
36.625862
 21
149.138356
  0
LINE
  8
2
 62
134
  6
CONTINUOUS
 10
36.625862
 20
148.103079
 11
36.625862
 21
149.138356
  0
LINE
  8
2
 62
134
  6
CONTINUOUS
 10
38.074751
 20
148.620718
 11
37.108825
 21
148.361898
  0
LINE
  8
2
 62
134
  6
CONTINUOUS
 10
38.074751
 20
148.620718
 11
37.108825
 21
148.879537
  0
LINE
  8
2
 62
134
  6
CONTINUOUS
 10
37.108825
 20
148.361898
 11
37.108825
 21
148.879537
  0
LINE
  8
2
 62
134
  6
CONTINUOUS
 10
44.957714
 20
148.620718
 11
46.889565
 21
149.138356
  0
LINE
  8
2
 62
134
  6
CONTINUOUS
 10
44.957714
 20
148.620718
 11
46.889565
 21
148.103079
  0
LINE
  8
2
 62
134
  6
CONTINUOUS
 10
46.889565
 20
149.138356
 11
46.889565
 21
148.103079
  0
LINE
  8
2
 62
134
  6
CONTINUOUS
 10
45.440677
 20
148.620718
 11
46.406602
 21
148.879537
  0
LINE
  8
2
 62
134
  6
CONTINUOUS
 10
45.440677
 20
148.620718
 11
46.406602
 21
148.361898
  0
LINE
  8
2
 62
134
  6
CONTINUOUS
 10
46.406602
 20
148.879537
 11
46.406602
 21
148.361898
  0
TEXT
  8
2
 62
134
  6
CONTINUOUS
 10
38.757714
 20
148.620718
 40
4.000000
 41
0.500000
  1
6.5
  7
KANJI
 50
0.000000
 51
0.000000
  0
ENDBLK
  0
BLOCK
  8
2
 62
134
  6
CONTINUOUS
  2
*D6
 70
    65
 10
0.0
 20
0.0
  0
LINE
  8
2
 62
134
  6
CONTINUOUS
 10
61.294862
 20
148.620718
 11
84.494862
 21
148.620718
  0
LINE
  8
2
 62
134
  6
CONTINUOUS
 10
61.294862
 20
149.620718
 11
61.294862
 21
141.232166
  0
LINE
  8
2
 62
134
  6
CONTINUOUS
 10
84.494862
 20
149.620718
 11
84.494862
 21
137.232166
  0
LINE
  8
2
 62
134
  6
CONTINUOUS
 10
61.294862
 20
148.620718
 11
63.226714
 21
149.138356
  0
LINE
  8
2
 62
134
  6
CONTINUOUS
 10
61.294862
 20
148.620718
 11
63.226714
 21
148.103079
  0
LINE
  8
2
 62
134
  6
CONTINUOUS
 10
63.226714
 20
149.138356
 11
63.226714
 21
148.103079
  0
LINE
  8
2
 62
134
  6
CONTINUOUS
 10
61.777825
 20
148.620718
 11
62.743751
 21
148.879537
  0
LINE
  8
2
 62
134
  6
CONTINUOUS
 10
61.777825
 20
148.620718
 11
62.743751
 21
148.361898
  0
LINE
  8
2
 62
134
  6
CONTINUOUS
 10
62.743751
 20
148.879537
 11
62.743751
 21
148.361898
  0
LINE
  8
2
 62
134
  6
CONTINUOUS
 10
84.494862
 20
148.620718
 11
82.563011
 21
148.103079
  0
LINE
  8
2
 62
134
  6
CONTINUOUS
 10
84.494862
 20
148.620718
 11
82.563011
 21
149.138356
  0
LINE
  8
2
 62
134
  6
CONTINUOUS
 10
82.563011
 20
148.103079
 11
82.563011
 21
149.138356
  0
LINE
  8
2
 62
134
  6
CONTINUOUS
 10
84.011899
 20
148.620718
 11
83.045974
 21
148.361898
  0
LINE
  8
2
 62
134
  6
CONTINUOUS
 10
84.011899
 20
148.620718
 11
83.045974
 21
148.879537
  0
LINE
  8
2
 62
134
  6
CONTINUOUS
 10
83.045974
 20
148.361898
 11
83.045974
 21
148.879537
  0
TEXT
  8
2
 62
134
  6
CONTINUOUS
 10
67.782424
 20
148.620718
 40
4.000000
 41
0.500000
  1
23.5
  7
KANJI
 50
0.000000
 51
0.000000
  0
ENDBLK
  0
BLOCK
  8
2
 62
134
  6
CONTINUOUS
  2
*D7
 70
    65
 10
0.0
 20
0.0
  0
LINE
  8
2
 62
134
  6
CONTINUOUS
 10
55.789191
 20
116.532166
 11
55.789191
 21
140.232166
  0
LINE
  8
2
 62
134
  6
CONTINUOUS
 10
54.789191
 20
116.532166
 11
60.294862
 21
116.532166
  0
LINE
  8
2
 62
134
  6
CONTINUOUS
 10
54.789191
 20
140.232166
 11
60.294862
 21
140.232166
  0
LINE
  8
2
 62
134
  6
CONTINUOUS
 10
55.789191
 20
116.532166
 11
55.271553
 21
118.464017
  0
LINE
  8
2
 62
134
  6
CONTINUOUS
 10
55.789191
 20
116.532166
 11
56.306829
 21
118.464017
  0
LINE
  8
2
 62
134
  6
CONTINUOUS
 10
55.271553
 20
118.464017
 11
56.306829
 21
118.464017
  0
LINE
  8
2
 62
134
  6
CONTINUOUS
 10
55.789191
 20
117.015129
 11
55.530372
 21
117.981054
  0
LINE
  8
2
 62
134
  6
CONTINUOUS
 10
55.789191
 20
117.015129
 11
56.048010
 21
117.981054
  0
LINE
  8
2
 62
134
  6
CONTINUOUS
 10
55.530372
 20
117.981054
 11
56.048010
 21
117.981054
  0
LINE
  8
2
 62
134
  6
CONTINUOUS
 10
55.789191
 20
140.232166
 11
56.306829
 21
138.300314
  0
LINE
  8
2
 62
134
  6
CONTINUOUS
 10
55.789191
 20
140.232166
 11
55.271553
 21
138.300314
  0
LINE
  8
2
 62
134
  6
CONTINUOUS
 10
56.306829
 20
138.300314
 11
55.271553
 21
138.300314
  0
LINE
  8
2
 62
134
  6
CONTINUOUS
 10
55.789191
 20
139.749203
 11
56.048010
 21
138.783277
  0
LINE
  8
2
 62
134
  6
CONTINUOUS
 10
55.789191
 20
139.749203
 11
55.530372
 21
138.783277
  0
LINE
  8
2
 62
134
  6
CONTINUOUS
 10
56.048010
 20
138.783277
 11
55.530372
 21
138.783277
  0
TEXT
  8
2
 62
134
  6
CONTINUOUS
 10
55.789191
 20
126.191963
 40
4.000000
 41
0.500000
  1
24
  7
KANJI
 50
90.000000
 51
0.000000
  0
ENDBLK
  0
BLOCK
  8
2
 62
134
  6
CONTINUOUS
  2
*D8
 70
    65
 10
0.0
 20
0.0
  0
LINE
  8
2
 62
134
  6
CONTINUOUS
 10
84.494862
 20
148.620718
 11
228.649534
 21
148.620718
  0
LINE
  8
2
 62
134
  6
CONTINUOUS
 10
84.494862
 20
149.620718
 11
84.494862
 21
137.232166
  0
LINE
  8
2
 62
134
  6
CONTINUOUS
 10
228.649534
 20
149.620718
 11
228.649534
 21
139.810953
  0
LINE
  8
2
 62
134
  6
CONTINUOUS
 10
84.494862
 20
148.620718
 11
86.426714
 21
149.138356
  0
LINE
  8
2
 62
134
  6
CONTINUOUS
 10
84.494862
 20
148.620718
 11
86.426714
 21
148.103079
  0
LINE
  8
2
 62
134
  6
CONTINUOUS
 10
86.426714
 20
149.138356
 11
86.426714
 21
148.103079
  0
LINE
  8
2
 62
134
  6
CONTINUOUS
 10
84.977825
 20
148.620718
 11
85.943751
 21
148.879537
  0
LINE
  8
2
 62
134
  6
CONTINUOUS
 10
84.977825
 20
148.620718
 11
85.943751
 21
148.361898
  0
LINE
  8
2
 62
134
  6
CONTINUOUS
 10
85.943751
 20
148.879537
 11
85.943751
 21
148.361898
  0
LINE
  8
2
 62
134
  6
CONTINUOUS
 10
228.649534
 20
148.620718
 11
226.717683
 21
148.103079
  0
LINE
  8
2
 62
134
  6
CONTINUOUS
 10
228.649534
 20
148.620718
 11
226.717683
 21
149.138356
  0
LINE
  8
2
 62
134
  6
CONTINUOUS
 10
226.717683
 20
148.103079
 11
226.717683
 21
149.138356
  0
LINE
  8
2
 62
134
  6
CONTINUOUS
 10
228.166571
 20
148.620718
 11
227.200646
 21
148.361898
  0
LINE
  8
2
 62
134
  6
CONTINUOUS
 10
228.166571
 20
148.620718
 11
227.200646
 21
148.879537
  0
LINE
  8
2
 62
134
  6
CONTINUOUS
 10
227.200646
 20
148.361898
 11
227.200646
 21
148.879537
  0
TEXT
  8
2
 62
134
  6
CONTINUOUS
 10
148.315688
 20
148.620718
 40
4.000000
 41
0.777778
  1
ケーブル長 (m)
  7
KANJI
 50
0.000000
 51
0.000000
  0
ENDBLK
  0
ENDSEC
  0
SECTION
  2
ENTITIES
  0
LINE
  8
5
 62
94
  6
CONTINUOUS
 10
285.000000
 20
195.000000
 11
10.000000
 21
195.000000
  0
LINE
  8
5
 62
94
  6
CONTINUOUS
 10
10.000000
 20
195.000000
 11
10.000000
 21
10.000000
  0
LINE
  8
5
 62
94
  6
CONTINUOUS
 10
10.000000
 20
10.000000
 11
285.000000
 21
10.000000
  0
LINE
  8
5
 62
94
  6
CONTINUOUS
 10
285.000000
 20
10.000000
 11
285.000000
 21
195.000000
  0
TEXT
  8
5
 62
94
  6
CONTINUOUS
 10
210.962748
 20
25.651490
 40
1.750000
 41
4.000000
  1
製図
  7
KANJI
 50
-90.000000
 51
0.000000
  0
TEXT
  8
5
 62
94
  6
CONTINUOUS
 10
230.795530
 20
25.487583
 40
1.750000
 41
4.000000
  1
図番
  7
KANJI
 50
-90.000000
 51
0.000000
  0
TEXT
  8
5
 62
94
  6
CONTINUOUS
 10
230.795530
 20
38.764073
 40
1.750000
 41
4.000000
  1
図　名
  7
KANJI
 50
-90.000000
 51
0.000000
  0
TEXT
  8
5
 62
94
  6
CONTINUOUS
 10
165.888245
 20
33.355132
 40
1.750000
 41
4.000000
  1
日付
  7
KANJI
 50
-90.000000
 51
0.000000
  0
TEXT
  8
5
 62
94
  6
CONTINUOUS
 10
200.964404
 20
33.519040
 40
1.750000
 41
4.000000
  1
図法
  7
KANJI
 50
-90.000000
 51
0.000000
  0
TEXT
  8
5
 62
94
  6
CONTINUOUS
 10
200.800497
 20
41.550497
 40
1.750000
 41
4.000000
  1
尺度
  7
KANJI
 50
-90.000000
 51
0.000000
  0
TEXT
  8
5
 62
94
  6
CONTINUOUS
 10
165.888245
 20
41.386589
 40
1.750000
 41
4.000000
  1
公差
  7
KANJI
 50
-90.000000
 51
0.000000
  0
TEXT
  8
5
 62
94
  6
CONTINUOUS
 10
165.888245
 20
25.487583
 40
1.750000
 41
4.000000
  1
承認
  7
KANJI
 50
-90.000000
 51
0.000000
  0
TEXT
  8
5
 62
94
  6
CONTINUOUS
 10
190.966060
 20
25.487583
 40
1.750000
 41
4.000000
  1
設計
  7
KANJI
 50
-90.000000
 51
0.000000
  0
TEXT
  8
5
 62
94
  6
CONTINUOUS
 10
184.409768
 20
11.555464
 40
4.500000
 41
1.888889
  1
ジャパンセンサー株式会社
  7
KANJI
 50
0.000000
 51
0.000000
  0
LINE
  8
5
 62
94
  6
CONTINUOUS
 10
165.000000
 20
42.000000
 11
285.000000
 21
42.000000
  0
LINE
  8
5
 62
94
  6
CONTINUOUS
 10
165.000000
 20
10.000000
 11
165.000000
 21
42.000000
  0
LINE
  8
5
 62
94
  6
CONTINUOUS
 10
285.000000
 20
18.000000
 11
165.000000
 21
18.000000
  0
LINE
  8
5
 62
94
  6
CONTINUOUS
 10
230.000000
 20
42.000000
 11
230.000000
 21
18.000000
  0
LINE
  8
5
 62
94
  6
CONTINUOUS
 10
285.000000
 20
26.000000
 11
165.000000
 21
26.000000
  0
LINE
  8
5
 62
94
  6
CONTINUOUS
 10
235.000000
 20
18.000000
 11
235.000000
 21
42.000000
  0
LINE
  8
5
 62
94
  6
CONTINUOUS
 10
205.000000
 20
42.000000
 11
205.000000
 21
26.000000
  0
LINE
  8
5
 62
94
  6
CONTINUOUS
 10
170.000000
 20
18.000000
 11
170.000000
 21
42.000000
  0
LINE
  8
5
 62
94
  6
CONTINUOUS
 10
165.000000
 20
34.000000
 11
230.000000
 21
34.000000
  0
LINE
  8
5
 62
94
  6
CONTINUOUS
 10
200.000000
 20
42.000000
 11
200.000000
 21
26.000000
  0
LINE
  8
5
 62
94
  6
CONTINUOUS
 10
190.000000
 20
18.000000
 11
190.000000
 21
26.000000
  0
LINE
  8
5
 62
94
  6
CONTINUOUS
 10
210.000000
 20
18.000000
 11
210.000000
 21
26.000000
  0
LINE
  8
5
 62
94
  6
CONTINUOUS
 10
195.000000
 20
26.000000
 11
195.000000
 21
18.000000
  0
LINE
  8
5
 62
94
  6
CONTINUOUS
 10
215.000000
 20
26.000000
 11
215.000000
 21
18.000000
  0
TEXT
  8
5
 62
94
  6
CONTINUOUS
 10
196.211093
 20
19.750828
 40
4.000000
 41
1.000000
  1
須藤
  7
KANJI
 50
0.810149
 51
0.000000
  0
TEXT
  8
5
 62
94
  6
CONTINUOUS
 10
239.338824
 20
27.212899
 40
4.000000
 41
1.000000
  1
外形図
  7
KANJI
 50
0.000000
 51
0.000000
  0
TEXT
  8
5
 62
94
  6
CONTINUOUS
 10
236.077166
 20
19.879949
 40
4.000000
 41
1.000000
  1
００５－０６５－Ａ１７４
  7
KANJI
 50
0.000000
 51
0.000000
  0
TEXT
  8
5
 62
94
  6
CONTINUOUS
 10
172.772351
 20
27.782285
 40
4.000000
 41
0.500000
  1
2014/1/16
  7
KANJI
 50
-0.091868
 51
0.000000
  0
TEXT
  8
5
 62
94
  6
CONTINUOUS
 10
216.211093
 20
19.750828
 40
4.000000
 41
1.000000
  1
須藤
  7
KANJI
 50
0.810149
 51
0.000000
  0
TEXT
  8
5
 62
94
  6
CONTINUOUS
 10
239.338824
 20
31.817343
 40
4.000000
 41
1.000000
  1
ＴＭＢＸ－Ｅ
  7
KANJI
 50
0.000000
 51
0.000000
  0
LINE
  8
1
 62
7
  6
CONTINUOUS
 10
95.961033
 20
130.660953
 11
95.961033
 21
123.660953
  0
LINE
  8
1
 62
7
  6
CONTINUOUS
 10
95.961033
 20
131.160953
 11
95.961033
 21
123.160953
  0
LINE
  8
1
 62
7
  6
CONTINUOUS
 10
95.961033
 20
123.160953
 11
135.961033
 21
123.160953
  0
LINE
  8
1
 62
7
  6
CONTINUOUS
 10
135.961033
 20
123.160953
 11
135.961033
 21
131.160953
  0
LINE
  8
1
 62
7
  6
CONTINUOUS
 10
135.961033
 20
131.160953
 11
95.961033
 21
131.160953
  0
LINE
  8
1
 62
7
  6
CONTINUOUS
 10
232.566366
 20
117.210953
 11
229.149534
 21
117.210953
  0
ARC
  8
1
 62
7
  6
CONTINUOUS
 10
229.149534
 20
117.710953
 40
0.500000
 50
180.000000
 51
-90.000000
  0
LINE
  8
1
 62
7
  6
DASHDOT
 10
227.343797
 20
134.160953
 11
247.498525
 21
134.160953
  0
LINE
  8
1
 62
7
  6
DASHDOT
 10
227.399539
 20
120.160953
 11
247.541034
 21
120.160953
  0
LINE
  8
1
 62
7
  6
DASHDOT
 10
227.343797
 20
132.160953
 11
247.498525
 21
132.160953
  0
LINE
  8
1
 62
7
  6
DASHDOT
 10
227.343797
 20
130.160953
 11
247.498525
 21
130.160953
  0
LINE
  8
1
 62
7
  6
DASHDOT
 10
227.343797
 20
128.160953
 11
247.498525
 21
128.160953
  0
LINE
  8
1
 62
7
  6
DASHDOT
 10
227.343797
 20
126.160953
 11
247.498525
 21
126.160953
  0
LINE
  8
1
 62
7
  6
DASHDOT
 10
227.343797
 20
124.160953
 11
247.498525
 21
124.160953
  0
LINE
  8
1
 62
7
  6
DASHDOT
 10
227.343797
 20
122.160953
 11
247.498525
 21
122.160953
  0
LINE
  8
1
 62
7
  6
CONTINUOUS
 10
231.149534
 20
119.010953
 11
232.649534
 21
119.010953
  0
LINE
  8
1
 62
7
  6
CONTINUOUS
 10
231.149534
 20
135.010953
 11
231.149534
 21
119.010953
  0
LINE
  8
1
 62
7
  6
CONTINUOUS
 10
232.649534
 20
135.010953
 11
231.149534
 21
135.010953
  0
LINE
  8
1
 62
7
  6
CONTINUOUS
 10
232.649534
 20
135.010953
 11
232.649534
 21
119.010953
  0
LINE
  8
1
 62
7
  6
CONTINUOUS
 10
232.566366
 20
117.210953
 11
232.566366
 21
117.410953
  0
LINE
  8
1
 62
7
  6
CONTINUOUS
 10
232.566366
 20
117.410953
 11
246.149534
 21
117.410953
  0
ARC
  8
1
 62
7
  6
CONTINUOUS
 10
246.149534
 20
117.910953
 40
0.500000
 50
-90.000000
 51
0.000000
  0
LINE
  8
1
 62
7
  6
CONTINUOUS
 10
235.849534
 20
137.710953
 11
246.649534
 21
137.710953
  0
ARC
  8
1
 62
7
  6
CONTINUOUS
 10
235.349534
 20
139.410953
 40
0.500000
 50
0.000000
 51
90.000000
  0
LINE
  8
1
 62
7
  6
CONTINUOUS
 10
235.849534
 20
139.410953
 11
235.849534
 21
137.710953
  0
ARC
  8
1
 62
7
  6
CONTINUOUS
 10
246.149534
 20
138.597915
 40
0.500000
 50
0.000000
 51
90.000000
  0
LINE
  8
1
 62
7
  6
CONTINUOUS
 10
246.649534
 20
138.597915
 11
246.649534
 21
117.910953
  0
LINE
  8
1
 62
7
  6
CONTINUOUS
 10
246.149534
 20
139.097915
 11
235.849534
 21
139.210953
  0
LINE
  8
1
 62
7
  6
CONTINUOUS
 10
232.262963
 20
138.810953
 11
233.362963
 21
139.910953
  0
LINE
  8
1
 62
7
  6
CONTINUOUS
 10
228.649534
 20
138.810953
 11
228.649534
 21
117.710953
  0
LINE
  8
1
 62
7
  6
CONTINUOUS
 10
228.649534
 20
138.810953
 11
228.650718
 21
138.817169
  0
LINE
  8
1
 62
7
  6
CONTINUOUS
 10
228.650718
 20
138.817169
 11
228.654239
 21
138.835649
  0
LINE
  8
1
 62
7
  6
CONTINUOUS
 10
228.654239
 20
138.835649
 11
228.660005
 21
138.865885
  0
LINE
  8
1
 62
7
  6
CONTINUOUS
 10
228.660005
 20
138.865885
 11
228.667877
 21
138.907046
  0
LINE
  8
1
 62
7
  6
CONTINUOUS
 10
228.667877
 20
138.907046
 11
228.677682
 21
138.957995
  0
LINE
  8
1
 62
7
  6
CONTINUOUS
 10
228.677682
 20
138.957995
 11
228.689225
 21
139.017313
  0
LINE
  8
1
 62
7
  6
CONTINUOUS
 10
228.689225
 20
139.017313
 11
228.702302
 21
139.083341
  0
LINE
  8
1
 62
7
  6
CONTINUOUS
 10
228.702302
 20
139.083341
 11
228.716692
 21
139.154227
  0
LINE
  8
1
 62
7
  6
CONTINUOUS
 10
228.716692
 20
139.154227
 11
228.732152
 21
139.227980
  0
LINE
  8
1
 62
7
  6
CONTINUOUS
 10
228.732152
 20
139.227980
 11
228.748399
 21
139.302537
  0
LINE
  8
1
 62
7
  6
CONTINUOUS
 10
228.748399
 20
139.302537
 11
228.765092
 21
139.375825
  0
LINE
  8
1
 62
7
  6
CONTINUOUS
 10
228.765092
 20
139.375825
 11
228.781812
 21
139.445831
  0
LINE
  8
1
 62
7
  6
CONTINUOUS
 10
228.781812
 20
139.445831
 11
228.798066
 21
139.510661
  0
LINE
  8
1
 62
7
  6
CONTINUOUS
 10
228.798066
 20
139.510661
 11
228.813289
 21
139.568590
  0
LINE
  8
1
 62
7
  6
CONTINUOUS
 10
228.813289
 20
139.568590
 11
228.826876
 21
139.618112
  0
LINE
  8
1
 62
7
  6
CONTINUOUS
 10
228.826876
 20
139.618112
 11
228.838224
 21
139.657962
  0
LINE
  8
1
 62
7
  6
CONTINUOUS
 10
228.838224
 20
139.657962
 11
228.846782
 21
139.687144
  0
LINE
  8
1
 62
7
  6
CONTINUOUS
 10
228.846782
 20
139.687144
 11
228.852109
 21
139.704941
  0
LINE
  8
1
 62
7
  6
CONTINUOUS
 10
228.852109
 20
139.704941
 11
228.853918
 21
139.710922
  0
LINE
  8
1
 62
7
  6
CONTINUOUS
 10
228.853918
 20
139.710922
 11
228.855735
 21
139.716899
  0
LINE
  8
1
 62
7
  6
CONTINUOUS
 10
228.855735
 20
139.716899
 11
228.861189
 21
139.734649
  0
LINE
  8
1
 62
7
  6
CONTINUOUS
 10
228.861189
 20
139.734649
 11
228.870280
 21
139.763635
  0
LINE
  8
1
 62
7
  6
CONTINUOUS
 10
228.870280
 20
139.763635
 11
228.883000
 21
139.802985
  0
LINE
  8
1
 62
7
  6
CONTINUOUS
 10
228.883000
 20
139.802985
 11
228.899315
 21
139.851536
  0
LINE
  8
1
 62
7
  6
CONTINUOUS
 10
228.899315
 20
139.851536
 11
228.919139
 21
139.907873
  0
LINE
  8
1
 62
7
  6
CONTINUOUS
 10
228.919139
 20
139.907873
 11
228.942309
 21
139.970386
  0
LINE
  8
1
 62
7
  6
CONTINUOUS
 10
228.942309
 20
139.970386
 11
228.968551
 21
140.037321
  0
LINE
  8
1
 62
7
  6
CONTINUOUS
 10
228.968551
 20
140.037321
 11
228.997447
 21
140.106833
  0
LINE
  8
1
 62
7
  6
CONTINUOUS
 10
228.997447
 20
140.106833
 11
229.028410
 21
140.177040
  0
LINE
  8
1
 62
7
  6
CONTINUOUS
 10
229.028410
 20
140.177040
 11
229.060669
 21
140.246060
  0
LINE
  8
1
 62
7
  6
CONTINUOUS
 10
229.060669
 20
140.246060
 11
229.093272
 21
140.312063
  0
LINE
  8
1
 62
7
  6
CONTINUOUS
 10
229.093272
 20
140.312063
 11
229.125113
 21
140.373306
  0
LINE
  8
1
 62
7
  6
CONTINUOUS
 10
229.125113
 20
140.373306
 11
229.154976
 21
140.428172
  0
LINE
  8
1
 62
7
  6
CONTINUOUS
 10
229.154976
 20
140.428172
 11
229.181612
 21
140.475211
  0
LINE
  8
1
 62
7
  6
CONTINUOUS
 10
229.181612
 20
140.475211
 11
229.203816
 21
140.513172
  0
LINE
  8
1
 62
7
  6
CONTINUOUS
 10
229.203816
 20
140.513172
 11
229.220527
 21
140.541041
  0
LINE
  8
1
 62
7
  6
CONTINUOUS
 10
229.220527
 20
140.541041
 11
229.230909
 21
140.558069
  0
LINE
  8
1
 62
7
  6
CONTINUOUS
 10
229.230909
 20
140.558069
 11
229.234431
 21
140.563797
  0
LINE
  8
1
 62
7
  6
CONTINUOUS
 10
229.234431
 20
140.563797
 11
229.237968
 21
140.569524
  0
LINE
  8
1
 62
7
  6
CONTINUOUS
 10
229.237968
 20
140.569524
 11
229.248568
 21
140.586548
  0
LINE
  8
1
 62
7
  6
CONTINUOUS
 10
229.248568
 20
140.586548
 11
229.266178
 21
140.614383
  0
LINE
  8
1
 62
7
  6
CONTINUOUS
 10
229.266178
 20
140.614383
 11
229.290653
 21
140.652211
  0
LINE
  8
1
 62
7
  6
CONTINUOUS
 10
229.290653
 20
140.652211
 11
229.321677
 21
140.698863
  0
LINE
  8
1
 62
7
  6
CONTINUOUS
 10
229.321677
 20
140.698863
 11
229.358695
 21
140.752828
  0
LINE
  8
1
 62
7
  6
CONTINUOUS
 10
229.358695
 20
140.752828
 11
229.400861
 21
140.812287
  0
LINE
  8
1
 62
7
  6
CONTINUOUS
 10
229.400861
 20
140.812287
 11
229.447025
 21
140.875180
  0
LINE
  8
1
 62
7
  6
CONTINUOUS
 10
229.447025
 20
140.875180
 11
229.495770
 21
140.939320
  0
LINE
  8
1
 62
7
  6
CONTINUOUS
 10
229.495770
 20
140.939320
 11
229.545489
 21
141.002518
  0
LINE
  8
1
 62
7
  6
CONTINUOUS
 10
229.545489
 20
141.002518
 11
229.594500
 21
141.062735
  0
LINE
  8
1
 62
7
  6
CONTINUOUS
 10
229.594500
 20
141.062735
 11
229.641166
 21
141.118208
  0
LINE
  8
1
 62
7
  6
CONTINUOUS
 10
229.641166
 20
141.118208
 11
229.684017
 21
141.167553
  0
LINE
  8
1
 62
7
  6
CONTINUOUS
 10
229.684017
 20
141.167553
 11
229.721828
 21
141.209806
  0
LINE
  8
1
 62
7
  6
CONTINUOUS
 10
229.721828
 20
141.209806
 11
229.753666
 21
141.244418
  0
LINE
  8
1
 62
7
  6
CONTINUOUS
 10
229.753666
 20
141.244418
 11
229.778890
 21
141.271183
  0
LINE
  8
1
 62
7
  6
CONTINUOUS
 10
229.778890
 20
141.271183
 11
229.797102
 21
141.290130
  0
LINE
  8
1
 62
7
  6
CONTINUOUS
 10
229.797102
 20
141.290130
 11
229.808091
 21
141.301403
  0
LINE
  8
1
 62
7
  6
CONTINUOUS
 10
229.808091
 20
141.301403
 11
229.811762
 21
141.305142
  0
LINE
  8
1
 62
7
  6
CONTINUOUS
 10
229.811762
 20
141.305142
 11
229.815421
 21
141.308854
  0
LINE
  8
1
 62
7
  6
CONTINUOUS
 10
229.815421
 20
141.308854
 11
229.826220
 21
141.319729
  0
LINE
  8
1
 62
7
  6
CONTINUOUS
 10
229.826220
 20
141.319729
 11
229.843644
 21
141.337018
  0
LINE
  8
1
 62
7
  6
CONTINUOUS
 10
229.843644
 20
141.337018
 11
229.866879
 21
141.359567
  0
LINE
  8
1
 62
7
  6
CONTINUOUS
 10
229.866879
 20
141.359567
 11
229.894872
 21
141.385951
  0
LINE
  8
1
 62
7
  6
CONTINUOUS
 10
229.894872
 20
141.385951
 11
229.926411
 21
141.414621
  0
LINE
  8
1
 62
7
  6
CONTINUOUS
 10
229.926411
 20
141.414621
 11
229.960203
 21
141.444063
  0
LINE
  8
1
 62
7
  6
CONTINUOUS
 10
229.960203
 20
141.444063
 11
229.994965
 21
141.472923
  0
LINE
  8
1
 62
7
  6
CONTINUOUS
 10
229.994965
 20
141.472923
 11
230.029491
 21
141.500103
  0
LINE
  8
1
 62
7
  6
CONTINUOUS
 10
230.029491
 20
141.500103
 11
230.062714
 21
141.524815
  0
LINE
  8
1
 62
7
  6
CONTINUOUS
 10
230.062714
 20
141.524815
 11
230.093749
 21
141.546576
  0
LINE
  8
1
 62
7
  6
CONTINUOUS
 10
230.093749
 20
141.546576
 11
230.121906
 21
141.565185
  0
LINE
  8
1
 62
7
  6
CONTINUOUS
 10
230.121906
 20
141.565185
 11
230.146697
 21
141.580656
  0
LINE
  8
1
 62
7
  6
CONTINUOUS
 10
230.146697
 20
141.580656
 11
230.167811
 21
141.593148
  0
LINE
  8
1
 62
7
  6
CONTINUOUS
 10
230.167811
 20
141.593148
 11
230.185088
 21
141.602900
  0
LINE
  8
1
 62
7
  6
CONTINUOUS
 10
230.185088
 20
141.602900
 11
230.198476
 21
141.610166
  0
LINE
  8
1
 62
7
  6
CONTINUOUS
 10
230.198476
 20
141.610166
 11
230.207989
 21
141.615176
  0
LINE
  8
1
 62
7
  6
CONTINUOUS
 10
230.207989
 20
141.615176
 11
230.213670
 21
141.618108
  0
LINE
  8
1
 62
7
  6
CONTINUOUS
 10
230.213670
 20
141.618108
 11
230.215559
 21
141.619073
  0
LINE
  8
1
 62
7
  6
CONTINUOUS
 10
230.215559
 20
141.619073
 11
230.217436
 21
141.620028
  0
LINE
  8
1
 62
7
  6
CONTINUOUS
 10
230.217436
 20
141.620028
 11
230.222950
 21
141.622803
  0
LINE
  8
1
 62
7
  6
CONTINUOUS
 10
230.222950
 20
141.622803
 11
230.231761
 21
141.627147
  0
LINE
  8
1
 62
7
  6
CONTINUOUS
 10
230.231761
 20
141.627147
 11
230.243344
 21
141.632680
  0
LINE
  8
1
 62
7
  6
CONTINUOUS
 10
230.243344
 20
141.632680
 11
230.257045
 21
141.638947
  0
LINE
  8
1
 62
7
  6
CONTINUOUS
 10
230.257045
 20
141.638947
 11
230.272143
 21
141.645474
  0
LINE
  8
1
 62
7
  6
CONTINUOUS
 10
230.272143
 20
141.645474
 11
230.287920
 21
141.651828
  0
LINE
  8
1
 62
7
  6
CONTINUOUS
 10
230.287920
 20
141.651828
 11
230.303715
 21
141.657661
  0
LINE
  8
1
 62
7
  6
CONTINUOUS
 10
230.303715
 20
141.657661
 11
230.318969
 21
141.662737
  0
LINE
  8
1
 62
7
  6
CONTINUOUS
 10
230.318969
 20
141.662737
 11
230.333242
 21
141.666940
  0
LINE
  8
1
 62
7
  6
CONTINUOUS
 10
230.333242
 20
141.666940
 11
230.346228
 21
141.670259
  0
LINE
  8
1
 62
7
  6
CONTINUOUS
 10
230.346228
 20
141.670259
 11
230.357733
 21
141.672769
  0
LINE
  8
1
 62
7
  6
CONTINUOUS
 10
230.357733
 20
141.672769
 11
230.367664
 21
141.674593
  0
LINE
  8
1
 62
7
  6
CONTINUOUS
 10
230.367664
 20
141.674593
 11
230.375992
 21
141.675875
  0
LINE
  8
1
 62
7
  6
CONTINUOUS
 10
230.375992
 20
141.675875
 11
230.382733
 21
141.676750
  0
LINE
  8
1
 62
7
  6
CONTINUOUS
 10
230.382733
 20
141.676750
 11
230.387920
 21
141.677328
  0
LINE
  8
1
 62
7
  6
CONTINUOUS
 10
230.387920
 20
141.677328
 11
230.391593
 21
141.677691
  0
LINE
  8
1
 62
7
  6
CONTINUOUS
 10
230.391593
 20
141.677691
 11
230.393783
 21
141.677891
  0
LINE
  8
1
 62
7
  6
CONTINUOUS
 10
230.393783
 20
141.677891
 11
230.394511
 21
141.677955
  0
LINE
  8
1
 62
7
  6
CONTINUOUS
 10
230.394511
 20
141.677955
 11
230.395234
 21
141.678017
  0
LINE
  8
1
 62
7
  6
CONTINUOUS
 10
230.395234
 20
141.678017
 11
230.397358
 21
141.678192
  0
LINE
  8
1
 62
7
  6
CONTINUOUS
 10
230.397358
 20
141.678192
 11
230.400753
 21
141.678450
  0
LINE
  8
1
 62
7
  6
CONTINUOUS
 10
230.400753
 20
141.678450
 11
230.405224
 21
141.678748
  0
LINE
  8
1
 62
7
  6
CONTINUOUS
 10
230.405224
 20
141.678748
 11
230.410536
 21
141.679042
  0
LINE
  8
1
 62
7
  6
CONTINUOUS
 10
230.410536
 20
141.679042
 11
230.416447
 21
141.679293
  0
LINE
  8
1
 62
7
  6
CONTINUOUS
 10
230.416447
 20
141.679293
 11
230.422732
 21
141.679482
  0
LINE
  8
1
 62
7
  6
CONTINUOUS
 10
230.422732
 20
141.679482
 11
230.429199
 21
141.679611
  0
LINE
  8
1
 62
7
  6
CONTINUOUS
 10
230.429199
 20
141.679611
 11
230.435699
 21
141.679698
  0
LINE
  8
1
 62
7
  6
CONTINUOUS
 10
230.435699
 20
141.679698
 11
230.442120
 21
141.679778
  0
LINE
  8
1
 62
7
  6
CONTINUOUS
 10
230.442120
 20
141.679778
 11
230.448370
 21
141.679889
  0
LINE
  8
1
 62
7
  6
CONTINUOUS
 10
230.448370
 20
141.679889
 11
230.454363
 21
141.680062
  0
LINE
  8
1
 62
7
  6
CONTINUOUS
 10
230.454363
 20
141.680062
 11
230.460001
 21
141.680312
  0
LINE
  8
1
 62
7
  6
CONTINUOUS
 10
230.460001
 20
141.680312
 11
230.465164
 21
141.680634
  0
LINE
  8
1
 62
7
  6
CONTINUOUS
 10
230.465164
 20
141.680634
 11
230.469706
 21
141.681000
  0
LINE
  8
1
 62
7
  6
CONTINUOUS
 10
230.469706
 20
141.681000
 11
230.473470
 21
141.681364
  0
LINE
  8
1
 62
7
  6
CONTINUOUS
 10
230.473470
 20
141.681364
 11
230.476297
 21
141.681676
  0
LINE
  8
1
 62
7
  6
CONTINUOUS
 10
230.476297
 20
141.681676
 11
230.478054
 21
141.681886
  0
LINE
  8
1
 62
7
  6
CONTINUOUS
 10
230.478054
 20
141.681886
 11
230.478650
 21
141.681960
  0
LINE
  8
1
 62
7
  6
CONTINUOUS
 10
230.478650
 20
141.681960
 11
230.479249
 21
141.682036
  0
LINE
  8
1
 62
7
  6
CONTINUOUS
 10
230.479249
 20
141.682036
 11
230.481046
 21
141.682271
  0
LINE
  8
1
 62
7
  6
CONTINUOUS
 10
230.481046
 20
141.682271
 11
230.484043
 21
141.682683
  0
LINE
  8
1
 62
7
  6
CONTINUOUS
 10
230.484043
 20
141.682683
 11
230.488249
 21
141.683280
  0
LINE
  8
1
 62
7
  6
CONTINUOUS
 10
230.488249
 20
141.683280
 11
230.493678
 21
141.684045
  0
LINE
  8
1
 62
7
  6
CONTINUOUS
 10
230.493678
 20
141.684045
 11
230.500354
 21
141.684911
  0
LINE
  8
1
 62
7
  6
CONTINUOUS
 10
230.500354
 20
141.684911
 11
230.508296
 21
141.685755
  0
LINE
  8
1
 62
7
  6
CONTINUOUS
 10
230.508296
 20
141.685755
 11
230.517507
 21
141.686407
  0
LINE
  8
1
 62
7
  6
CONTINUOUS
 10
230.517507
 20
141.686407
 11
230.527944
 21
141.686666
  0
LINE
  8
1
 62
7
  6
CONTINUOUS
 10
230.527944
 20
141.686666
 11
230.539492
 21
141.686341
  0
LINE
  8
1
 62
7
  6
CONTINUOUS
 10
230.539492
 20
141.686341
 11
230.551936
 21
141.685293
  0
LINE
  8
1
 62
7
  6
CONTINUOUS
 10
230.551936
 20
141.685293
 11
230.564943
 21
141.683471
  0
LINE
  8
1
 62
7
  6
CONTINUOUS
 10
230.564943
 20
141.683471
 11
230.578061
 21
141.680944
  0
LINE
  8
1
 62
7
  6
CONTINUOUS
 10
230.578061
 20
141.680944
 11
230.590729
 21
141.677906
  0
LINE
  8
1
 62
7
  6
CONTINUOUS
 10
230.590729
 20
141.677906
 11
230.602318
 21
141.674657
  0
LINE
  8
1
 62
7
  6
CONTINUOUS
 10
230.602318
 20
141.674657
 11
230.612184
 21
141.671567
  0
LINE
  8
1
 62
7
  6
CONTINUOUS
 10
230.612184
 20
141.671567
 11
230.619729
 21
141.669016
  0
LINE
  8
1
 62
7
  6
CONTINUOUS
 10
230.619729
 20
141.669016
 11
230.624468
 21
141.667334
  0
LINE
  8
1
 62
7
  6
CONTINUOUS
 10
230.624468
 20
141.667334
 11
230.626084
 21
141.666747
  0
LINE
  8
1
 62
7
  6
CONTINUOUS
 10
230.626084
 20
141.666747
 11
230.627712
 21
141.666150
  0
LINE
  8
1
 62
7
  6
CONTINUOUS
 10
230.627712
 20
141.666150
 11
230.632617
 21
141.664307
  0
LINE
  8
1
 62
7
  6
CONTINUOUS
 10
230.632617
 20
141.664307
 11
230.640862
 21
141.661070
  0
LINE
  8
1
 62
7
  6
CONTINUOUS
 10
230.640862
 20
141.661070
 11
230.652533
 21
141.656193
  0
LINE
  8
1
 62
7
  6
CONTINUOUS
 10
230.652533
 20
141.656193
 11
230.667712
 21
141.649343
  0
LINE
  8
1
 62
7
  6
CONTINUOUS
 10
230.667712
 20
141.649343
 11
230.686445
 21
141.640122
  0
LINE
  8
1
 62
7
  6
CONTINUOUS
 10
230.686445
 20
141.640122
 11
230.708696
 21
141.628117
  0
LINE
  8
1
 62
7
  6
CONTINUOUS
 10
230.708696
 20
141.628117
 11
230.734301
 21
141.612968
  0
LINE
  8
1
 62
7
  6
CONTINUOUS
 10
230.734301
 20
141.612968
 11
230.762925
 21
141.594453
  0
LINE
  8
1
 62
7
  6
CONTINUOUS
 10
230.762925
 20
141.594453
 11
230.794024
 21
141.572586
  0
LINE
  8
1
 62
7
  6
CONTINUOUS
 10
230.794024
 20
141.572586
 11
230.826828
 21
141.547698
  0
LINE
  8
1
 62
7
  6
CONTINUOUS
 10
230.826828
 20
141.547698
 11
230.860341
 21
141.520492
  0
LINE
  8
1
 62
7
  6
CONTINUOUS
 10
230.860341
 20
141.520492
 11
230.893370
 21
141.492055
  0
LINE
  8
1
 62
7
  6
CONTINUOUS
 10
230.893370
 20
141.492055
 11
230.924583
 21
141.463806
  0
LINE
  8
1
 62
7
  6
CONTINUOUS
 10
230.924583
 20
141.463806
 11
230.952593
 21
141.437393
  0
LINE
  8
1
 62
7
  6
CONTINUOUS
 10
230.952593
 20
141.437393
 11
230.976054
 21
141.414541
  0
LINE
  8
1
 62
7
  6
CONTINUOUS
 10
230.976054
 20
141.414541
 11
230.993770
 21
141.396863
  0
LINE
  8
1
 62
7
  6
CONTINUOUS
 10
230.993770
 20
141.396863
 11
231.004803
 21
141.385678
  0
LINE
  8
1
 62
7
  6
CONTINUOUS
 10
231.004803
 20
141.385678
 11
231.008550
 21
141.381849
  0
LINE
  8
1
 62
7
  6
CONTINUOUS
 10
231.008550
 20
141.381849
 11
231.012314
 21
141.377987
  0
LINE
  8
1
 62
7
  6
CONTINUOUS
 10
231.012314
 20
141.377987
 11
231.023608
 21
141.366310
  0
LINE
  8
1
 62
7
  6
CONTINUOUS
 10
231.023608
 20
141.366310
 11
231.042407
 21
141.346571
  0
LINE
  8
1
 62
7
  6
CONTINUOUS
 10
231.042407
 20
141.346571
 11
231.068598
 21
141.318452
  0
LINE
  8
1
 62
7
  6
CONTINUOUS
 10
231.068598
 20
141.318452
 11
231.101884
 21
141.281684
  0
LINE
  8
1
 62
7
  6
CONTINUOUS
 10
231.101884
 20
141.281684
 11
231.141697
 21
141.236181
  0
LINE
  8
1
 62
7
  6
CONTINUOUS
 10
231.141697
 20
141.236181
 11
231.187129
 21
141.182185
  0
LINE
  8
1
 62
7
  6
CONTINUOUS
 10
231.187129
 20
141.182185
 11
231.236922
 21
141.120368
  0
LINE
  8
1
 62
7
  6
CONTINUOUS
 10
231.236922
 20
141.120368
 11
231.289504
 21
141.051904
  0
LINE
  8
1
 62
7
  6
CONTINUOUS
 10
231.289504
 20
141.051904
 11
231.343085
 21
140.978478
  0
LINE
  8
1
 62
7
  6
CONTINUOUS
 10
231.343085
 20
140.978478
 11
231.395795
 21
140.902243
  0
LINE
  8
1
 62
7
  6
CONTINUOUS
 10
231.395795
 20
140.902243
 11
231.445832
 21
140.825729
  0
LINE
  8
1
 62
7
  6
CONTINUOUS
 10
231.445832
 20
140.825729
 11
231.491596
 21
140.751699
  0
LINE
  8
1
 62
7
  6
CONTINUOUS
 10
231.491596
 20
140.751699
 11
231.531793
 21
140.682999
  0
LINE
  8
1
 62
7
  6
CONTINUOUS
 10
231.531793
 20
140.682999
 11
231.565474
 21
140.622381
  0
LINE
  8
1
 62
7
  6
CONTINUOUS
 10
231.565474
 20
140.622381
 11
231.592028
 21
140.572348
  0
LINE
  8
1
 62
7
  6
CONTINUOUS
 10
231.592028
 20
140.572348
 11
231.611119
 21
140.535004
  0
LINE
  8
1
 62
7
  6
CONTINUOUS
 10
231.611119
 20
140.535004
 11
231.622601
 21
140.511936
  0
LINE
  8
1
 62
7
  6
CONTINUOUS
 10
231.622601
 20
140.511936
 11
231.626431
 21
140.504136
  0
LINE
  8
1
 62
7
  6
CONTINUOUS
 10
231.626431
 20
140.504136
 11
231.630244
 21
140.496314
  0
LINE
  8
1
 62
7
  6
CONTINUOUS
 10
231.630244
 20
140.496314
 11
231.641479
 21
140.472943
  0
LINE
  8
1
 62
7
  6
CONTINUOUS
 10
231.641479
 20
140.472943
 11
231.659550
 21
140.434319
  0
LINE
  8
1
 62
7
  6
CONTINUOUS
 10
231.659550
 20
140.434319
 11
231.683553
 21
140.380996
  0
LINE
  8
1
 62
7
  6
CONTINUOUS
 10
231.683553
 20
140.380996
 11
231.712358
 21
140.313849
  0
LINE
  8
1
 62
7
  6
CONTINUOUS
 10
231.712358
 20
140.313849
 11
231.744718
 21
140.234151
  0
LINE
  8
1
 62
7
  6
CONTINUOUS
 10
231.744718
 20
140.234151
 11
231.779376
 21
140.143620
  0
LINE
  8
1
 62
7
  6
CONTINUOUS
 10
231.779376
 20
140.143620
 11
231.815150
 21
140.044436
  0
LINE
  8
1
 62
7
  6
CONTINUOUS
 10
231.815150
 20
140.044436
 11
231.850984
 21
139.939210
  0
LINE
  8
1
 62
7
  6
CONTINUOUS
 10
231.850984
 20
139.939210
 11
231.885978
 21
139.830905
  0
LINE
  8
1
 62
7
  6
CONTINUOUS
 10
231.885978
 20
139.830905
 11
231.919378
 21
139.722718
  0
LINE
  8
1
 62
7
  6
CONTINUOUS
 10
231.919378
 20
139.722718
 11
231.950545
 21
139.617933
  0
LINE
  8
1
 62
7
  6
CONTINUOUS
 10
231.950545
 20
139.617933
 11
231.978925
 21
139.519768
  0
LINE
  8
1
 62
7
  6
CONTINUOUS
 10
231.978925
 20
139.519768
 11
232.004016
 21
139.431230
  0
LINE
  8
1
 62
7
  6
CONTINUOUS
 10
232.004016
 20
139.431230
 11
232.025347
 21
139.354995
  0
LINE
  8
1
 62
7
  6
CONTINUOUS
 10
232.025347
 20
139.354995
 11
232.042483
 21
139.293320
  0
LINE
  8
1
 62
7
  6
CONTINUOUS
 10
232.042483
 20
139.293320
 11
232.055037
 21
139.247987
  0
LINE
  8
1
 62
7
  6
CONTINUOUS
 10
232.055037
 20
139.247987
 11
232.062703
 21
139.220275
  0
LINE
  8
1
 62
7
  6
CONTINUOUS
 10
232.062703
 20
139.220275
 11
232.065282
 21
139.210953
  0
LINE
  8
1
 62
7
  6
CONTINUOUS
 10
232.262963
 20
138.810953
 11
228.649534
 21
138.810953
  0
LINE
  8
1
 62
7
  6
CONTINUOUS
 10
233.362963
 20
139.910953
 11
235.349534
 21
139.910953
  0
LINE
  8
1
 62
7
  6
CONTINUOUS
 10
232.662963
 20
139.210953
 11
232.065282
 21
139.210953
  0
LINE
  8
1
 62
7
  6
CONTINUOUS
 10
237.649534
 20
117.410953
 11
237.649534
 21
118.410953
  0
LINE
  8
1
 62
7
  6
CONTINUOUS
 10
237.649534
 20
118.410953
 11
241.149534
 21
118.410953
  0
LINE
  8
1
 62
7
  6
CONTINUOUS
 10
237.649534
 20
135.910953
 11
237.649534
 21
137.710953
  0
LINE
  8
1
 62
7
  6
CONTINUOUS
 10
237.649534
 20
135.910953
 11
241.149534
 21
135.910953
  0
LINE
  8
1
 62
7
  6
CONTINUOUS
 10
241.149534
 20
118.410953
 11
241.149534
 21
135.910953
  0
TEXT
  8
2
 62
134
  6
CONTINUOUS
 10
247.941635
 20
132.528202
 40
4.000000
 41
0.500000
  1
1
  7
KANJI
 50
0.000000
 51
0.000000
  0
TEXT
  8
2
 62
134
  6
CONTINUOUS
 10
247.992643
 20
118.126064
 40
4.000000
 41
0.500000
  1
8
  7
KANJI
 50
0.000000
 51
0.000000
  0
LINE
  8
1
 62
7
  6
CONTINUOUS
 10
217.183364
 20
130.660953
 11
217.183364
 21
123.660953
  0
LINE
  8
1
 62
7
  6
CONTINUOUS
 10
177.183364
 20
131.160953
 11
177.183364
 21
123.160953
  0
LINE
  8
1
 62
7
  6
CONTINUOUS
 10
177.183364
 20
123.160953
 11
217.183364
 21
123.160953
  0
LINE
  8
1
 62
7
  6
CONTINUOUS
 10
217.183364
 20
123.160953
 11
217.183364
 21
131.160953
  0
LINE
  8
1
 62
7
  6
CONTINUOUS
 10
217.183364
 20
131.160953
 11
177.183364
 21
131.160953
  0
LINE
  8
1
 62
7
  6
CONTINUOUS
 10
160.696263
 20
132.034879
 11
157.201838
 21
121.943503
  0
LINE
  8
1
 62
7
  6
CONTINUOUS
 10
157.796554
 20
123.660953
 11
217.183364
 21
123.660953
  0
LINE
  8
1
 62
7
  6
CONTINUOUS
 10
217.183364
 20
130.660953
 11
160.220502
 21
130.660953
  0
LINE
  8
1
 62
7
  6
CONTINUOUS
 10
159.006629
 20
132.034879
 11
155.512204
 21
121.943503
  0
LINE
  8
1
 62
7
  6
CONTINUOUS
 10
158.530868
 20
130.660953
 11
95.961033
 21
130.660953
  0
LINE
  8
1
 62
7
  6
CONTINUOUS
 10
95.961033
 20
123.660953
 11
156.106920
 21
123.660953
  0
LINE
  8
1
 62
7
  6
DASHDOT
 10
263.207386
 20
146.391799
 11
263.207386
 21
113.364538
  0
LINE
  8
1
 62
7
  6
CONTINUOUS
 10
260.207386
 20
117.210953
 11
266.207386
 21
117.210953
  0
LINE
  8
1
 62
7
  6
DASHDOT
 10
257.559439
 20
127.160953
 11
268.554021
 21
127.160953
  0
LINE
  8
1
 62
7
  6
CONTINUOUS
 10
264.907386
 20
135.760953
 11
264.907386
 21
118.560953
  0
LINE
  8
1
 62
7
  6
CONTINUOUS
 10
264.907386
 20
118.560953
 11
261.507386
 21
118.560953
  0
LINE
  8
1
 62
7
  6
CONTINUOUS
 10
261.507386
 20
118.560953
 11
261.507386
 21
135.760953
  0
LINE
  8
1
 62
7
  6
CONTINUOUS
 10
261.507386
 20
135.760953
 11
264.907386
 21
135.760953
  0
DIMENSION
  8
2
 62
134
  6
CONTINUOUS
  2
*D1
 10
266.207386
 20
109.662093
 11
263.207386
 21
109.662093
 70
     0
  1
6
 13
266.207386
 23
116.210953
 14
260.207386
 24
116.210953
 50
180.000000
  0
LINE
  8
1
 62
7
  6
CONTINUOUS
 10
260.207386
 20
137.710953
 11
261.507386
 21
137.710953
  0
LINE
  8
1
 62
7
  6
CONTINUOUS
 10
266.207386
 20
137.710953
 11
264.907386
 21
137.710953
  0
LINE
  8
1
 62
7
  6
CONTINUOUS
 10
261.507386
 20
139.910953
 11
260.207386
 21
139.910953
  0
LINE
  8
1
 62
7
  6
CONTINUOUS
 10
264.907386
 20
139.910953
 11
266.207386
 21
139.910953
  0
LINE
  8
1
 62
7
  6
CONTINUOUS
 10
260.207386
 20
139.910953
 11
260.207386
 21
117.210953
  0
LINE
  8
1
 62
7
  6
CONTINUOUS
 10
266.207386
 20
117.210953
 11
266.207386
 21
139.910953
  0
LINE
  8
1
 62
7
  6
CONTINUOUS
 10
263.007386
 20
134.530953
 11
263.007386
 21
133.790953
  0
LINE
  8
1
 62
7
  6
CONTINUOUS
 10
263.007386
 20
133.790953
 11
263.407386
 21
133.790953
  0
LINE
  8
1
 62
7
  6
CONTINUOUS
 10
263.407386
 20
133.790953
 11
263.407386
 21
134.530953
  0
LINE
  8
1
 62
7
  6
CONTINUOUS
 10
263.407386
 20
134.530953
 11
263.007386
 21
134.530953
  0
LINE
  8
1
 62
7
  6
DASHDOT
 10
262.110126
 20
134.160953
 11
264.299756
 21
134.160953
  0
LINE
  8
1
 62
7
  6
CONTINUOUS
 10
263.007386
 20
132.530953
 11
263.007386
 21
131.790953
  0
LINE
  8
1
 62
7
  6
CONTINUOUS
 10
263.007386
 20
131.790953
 11
263.407386
 21
131.790953
  0
LINE
  8
1
 62
7
  6
CONTINUOUS
 10
263.407386
 20
131.790953
 11
263.407386
 21
132.530953
  0
LINE
  8
1
 62
7
  6
CONTINUOUS
 10
263.407386
 20
132.530953
 11
263.007386
 21
132.530953
  0
LINE
  8
1
 62
7
  6
DASHDOT
 10
262.110126
 20
132.160953
 11
264.299756
 21
132.160953
  0
LINE
  8
1
 62
7
  6
CONTINUOUS
 10
263.007386
 20
130.530953
 11
263.007386
 21
129.790953
  0
LINE
  8
1
 62
7
  6
CONTINUOUS
 10
263.007386
 20
129.790953
 11
263.407386
 21
129.790953
  0
LINE
  8
1
 62
7
  6
CONTINUOUS
 10
263.407386
 20
129.790953
 11
263.407386
 21
130.530953
  0
LINE
  8
1
 62
7
  6
CONTINUOUS
 10
263.407386
 20
130.530953
 11
263.007386
 21
130.530953
  0
LINE
  8
1
 62
7
  6
DASHDOT
 10
262.110126
 20
130.160953
 11
264.299756
 21
130.160953
  0
LINE
  8
1
 62
7
  6
CONTINUOUS
 10
263.007386
 20
128.530953
 11
263.007386
 21
127.790953
  0
LINE
  8
1
 62
7
  6
CONTINUOUS
 10
263.007386
 20
127.790953
 11
263.407386
 21
127.790953
  0
LINE
  8
1
 62
7
  6
CONTINUOUS
 10
263.407386
 20
127.790953
 11
263.407386
 21
128.530953
  0
LINE
  8
1
 62
7
  6
CONTINUOUS
 10
263.407386
 20
128.530953
 11
263.007386
 21
128.530953
  0
LINE
  8
1
 62
7
  6
DASHDOT
 10
262.110126
 20
128.160953
 11
264.299756
 21
128.160953
  0
LINE
  8
1
 62
7
  6
CONTINUOUS
 10
263.007386
 20
126.530953
 11
263.007386
 21
125.790953
  0
LINE
  8
1
 62
7
  6
CONTINUOUS
 10
263.007386
 20
125.790953
 11
263.407386
 21
125.790953
  0
LINE
  8
1
 62
7
  6
CONTINUOUS
 10
263.407386
 20
125.790953
 11
263.407386
 21
126.530953
  0
LINE
  8
1
 62
7
  6
CONTINUOUS
 10
263.407386
 20
126.530953
 11
263.007386
 21
126.530953
  0
LINE
  8
1
 62
7
  6
DASHDOT
 10
262.110126
 20
126.160953
 11
264.299756
 21
126.160953
  0
LINE
  8
1
 62
7
  6
CONTINUOUS
 10
263.007386
 20
124.530953
 11
263.007386
 21
123.790953
  0
LINE
  8
1
 62
7
  6
CONTINUOUS
 10
263.007386
 20
123.790953
 11
263.407386
 21
123.790953
  0
LINE
  8
1
 62
7
  6
CONTINUOUS
 10
263.407386
 20
123.790953
 11
263.407386
 21
124.530953
  0
LINE
  8
1
 62
7
  6
CONTINUOUS
 10
263.407386
 20
124.530953
 11
263.007386
 21
124.530953
  0
LINE
  8
1
 62
7
  6
DASHDOT
 10
262.110126
 20
124.160953
 11
264.299756
 21
124.160953
  0
LINE
  8
1
 62
7
  6
CONTINUOUS
 10
263.007386
 20
122.530953
 11
263.007386
 21
121.790953
  0
LINE
  8
1
 62
7
  6
CONTINUOUS
 10
263.007386
 20
121.790953
 11
263.407386
 21
121.790953
  0
LINE
  8
1
 62
7
  6
CONTINUOUS
 10
263.407386
 20
121.790953
 11
263.407386
 21
122.530953
  0
LINE
  8
1
 62
7
  6
CONTINUOUS
 10
263.407386
 20
122.530953
 11
263.007386
 21
122.530953
  0
LINE
  8
1
 62
7
  6
DASHDOT
 10
262.110126
 20
122.160953
 11
264.299756
 21
122.160953
  0
LINE
  8
1
 62
7
  6
CONTINUOUS
 10
263.007386
 20
120.530953
 11
263.007386
 21
119.790953
  0
LINE
  8
1
 62
7
  6
CONTINUOUS
 10
263.007386
 20
119.790953
 11
263.407386
 21
119.790953
  0
LINE
  8
1
 62
7
  6
CONTINUOUS
 10
263.407386
 20
119.790953
 11
263.407386
 21
120.530953
  0
LINE
  8
1
 62
7
  6
CONTINUOUS
 10
263.407386
 20
120.530953
 11
263.007386
 21
120.530953
  0
LINE
  8
1
 62
7
  6
DASHDOT
 10
262.110126
 20
120.160953
 11
264.299756
 21
120.160953
  0
LINE
  8
1
 62
7
  6
CONTINUOUS
 10
261.507386
 20
137.710953
 11
261.507386
 21
141.684045
  0
LINE
  8
1
 62
7
  6
CONTINUOUS
 10
264.907386
 20
137.710953
 11
264.907386
 21
141.684045
  0
LINE
  8
1
 62
7
  6
CONTINUOUS
 10
264.907386
 20
141.684045
 11
261.507386
 21
141.684045
  0
DIMENSION
  8
2
 62
134
  6
CONTINUOUS
  2
*D2
 10
255.405917
 20
117.210953
 11
255.405917
 21
128.179682
 70
     0
  1
24.5
 13
233.566366
 23
117.210953
 14
251.200502
 24
141.684045
 50
90.000000
  0
DIMENSION
  8
2
 62
134
  6
CONTINUOUS
  2
*D3
 10
228.649534
 20
148.620718
 11
236.899787
 21
148.620718
 70
     0
  1
18
 13
228.649534
 23
139.810953
 14
246.649534
 24
139.597915
 50
0.000000
  0
LINE
  8
1
 62
7
  6
CONTINUOUS
 10
218.651016
 20
127.160953
 11
217.183364
 21
127.160953
  0
LINE
  8
1
 62
7
  6
CONTINUOUS
 10
228.649534
 20
119.560953
 11
225.413326
 21
119.560953
  0
LINE
  8
1
 62
7
  6
CONTINUOUS
 10
228.649534
 20
120.760953
 11
225.437818
 21
120.760953
  0
LINE
  8
1
 62
7
  6
CONTINUOUS
 10
218.651016
 20
124.360953
 11
217.183364
 21
124.360953
  0
LINE
  8
1
 62
7
  6
CONTINUOUS
 10
218.651016
 20
125.560953
 11
217.183364
 21
125.560953
  0
LINE
  8
1
 62
7
  6
CONTINUOUS
 10
218.651016
 20
124.360953
 11
225.413326
 21
119.560953
  0
LINE
  8
1
 62
7
  6
CONTINUOUS
 10
218.651016
 20
125.560953
 11
225.437818
 21
120.760953
  0
LINE
  8
1
 62
7
  6
CONTINUOUS
 10
228.649534
 20
134.760953
 11
225.413326
 21
134.760953
  0
LINE
  8
1
 62
7
  6
CONTINUOUS
 10
228.649534
 20
133.560953
 11
225.437818
 21
133.560953
  0
LINE
  8
1
 62
7
  6
CONTINUOUS
 10
218.651016
 20
129.960953
 11
217.183364
 21
129.960953
  0
LINE
  8
1
 62
7
  6
CONTINUOUS
 10
218.651016
 20
128.760953
 11
217.183364
 21
128.760953
  0
LINE
  8
1
 62
7
  6
CONTINUOUS
 10
218.651016
 20
129.960953
 11
225.413326
 21
134.760953
  0
LINE
  8
1
 62
7
  6
CONTINUOUS
 10
218.651016
 20
128.760953
 11
225.437818
 21
133.560953
  0
LINE
  8
1
 62
7
  6
CONTINUOUS
 10
228.649534
 20
125.560953
 11
225.413326
 21
125.560953
  0
LINE
  8
1
 62
7
  6
CONTINUOUS
 10
228.649534
 20
126.760953
 11
225.437818
 21
126.760953
  0
LINE
  8
1
 62
7
  6
CONTINUOUS
 10
218.651016
 20
125.960953
 11
217.183364
 21
125.960953
  0
LINE
  8
1
 62
7
  6
CONTINUOUS
 10
218.651016
 20
125.960953
 11
225.413326
 21
125.560953
  0
LINE
  8
1
 62
7
  6
CONTINUOUS
 10
218.651016
 20
127.160953
 11
225.437818
 21
126.760953
  0
LINE
  8
1
 62
7
  6
CONTINUOUS
 10
228.649534
 20
123.560953
 11
225.413326
 21
123.560953
  0
LINE
  8
1
 62
7
  6
CONTINUOUS
 10
228.649534
 20
124.760953
 11
225.437818
 21
124.760953
  0
LINE
  8
1
 62
7
  6
CONTINUOUS
 10
228.649534
 20
121.560953
 11
225.413326
 21
121.560953
  0
LINE
  8
1
 62
7
  6
CONTINUOUS
 10
228.649534
 20
122.760953
 11
225.437818
 21
122.760953
  0
LINE
  8
1
 62
7
  6
CONTINUOUS
 10
221.699397
 20
123.428267
 11
225.413326
 21
121.560953
  0
LINE
  8
1
 62
7
  6
CONTINUOUS
 10
219.103688
 20
125.934177
 11
225.437818
 21
122.760953
  0
LINE
  8
1
 62
7
  6
CONTINUOUS
 10
222.012894
 20
124.516369
 11
225.413326
 21
123.560953
  0
LINE
  8
1
 62
7
  6
CONTINUOUS
 10
221.964032
 20
125.733457
 11
225.437818
 21
124.760953
  0
LINE
  8
1
 62
7
  6
CONTINUOUS
 10
228.649534
 20
128.760953
 11
225.413326
 21
128.760953
  0
LINE
  8
1
 62
7
  6
CONTINUOUS
 10
228.649534
 20
127.560953
 11
225.437818
 21
127.560953
  0
LINE
  8
1
 62
7
  6
CONTINUOUS
 10
218.651016
 20
128.360953
 11
217.183364
 21
128.360953
  0
LINE
  8
1
 62
7
  6
CONTINUOUS
 10
218.651016
 20
128.360953
 11
225.413326
 21
128.760953
  0
LINE
  8
1
 62
7
  6
CONTINUOUS
 10
218.651016
 20
127.160953
 11
225.437818
 21
127.560953
  0
LINE
  8
1
 62
7
  6
CONTINUOUS
 10
228.649534
 20
130.760953
 11
225.413326
 21
130.760953
  0
LINE
  8
1
 62
7
  6
CONTINUOUS
 10
228.649534
 20
129.560953
 11
225.437818
 21
129.560953
  0
LINE
  8
1
 62
7
  6
CONTINUOUS
 10
228.649534
 20
132.760953
 11
225.413326
 21
132.760953
  0
LINE
  8
1
 62
7
  6
CONTINUOUS
 10
228.649534
 20
131.560953
 11
225.437818
 21
131.560953
  0
LINE
  8
1
 62
7
  6
CONTINUOUS
 10
221.699397
 20
130.893639
 11
225.413326
 21
132.760953
  0
LINE
  8
1
 62
7
  6
CONTINUOUS
 10
219.103688
 20
128.387729
 11
225.437818
 21
131.560953
  0
LINE
  8
1
 62
7
  6
CONTINUOUS
 10
222.012894
 20
129.805537
 11
225.413326
 21
130.760953
  0
LINE
  8
1
 62
7
  6
CONTINUOUS
 10
221.964032
 20
128.588449
 11
225.437818
 21
129.560953
  0
LINE
  8
1
 62
7
  6
DASHDOT
 10
213.116517
 20
127.160953
 11
250.495950
 21
127.160953
  0
DIMENSION
  8
2
 62
134
  6
CONTINUOUS
  2
*D4
 10
146.324896
 20
123.660953
 11
146.324896
 21
137.960220
 70
     0
  1
φ7
 13
146.324896
 23
123.660953
 14
146.324896
 24
130.660953
 50
90.000000
  0
LINE
  8
2
 62
134
  6
CONTINUOUS
 10
30.454647
 20
98.830995
 11
65.454647
 21
98.830995
  0
LINE
  8
2
 62
134
  6
CONTINUOUS
 10
35.454647
 20
98.830995
 11
35.454647
 21
66.699243
  0
LINE
  8
2
 62
134
  6
CONTINUOUS
 10
30.454647
 20
70.199243
 11
65.454647
 21
70.199243
  0
LINE
  8
2
 62
134
  6
CONTINUOUS
 10
65.454647
 20
73.699243
 11
30.454647
 21
73.699243
  0
LINE
  8
2
 62
134
  6
CONTINUOUS
 10
30.454647
 20
77.199243
 11
65.454647
 21
77.199243
  0
LINE
  8
2
 62
134
  6
CONTINUOUS
 10
65.454647
 20
80.699243
 11
30.454647
 21
80.699243
  0
LINE
  8
2
 62
134
  6
CONTINUOUS
 10
30.454647
 20
84.199243
 11
65.454647
 21
84.199243
  0
LINE
  8
2
 62
134
  6
CONTINUOUS
 10
65.454647
 20
87.699243
 11
30.454647
 21
87.699243
  0
LINE
  8
2
 62
134
  6
CONTINUOUS
 10
30.454647
 20
94.699243
 11
65.454647
 21
94.699243
  0
LINE
  8
2
 62
134
  6
CONTINUOUS
 10
30.454647
 20
91.199243
 11
65.454647
 21
91.199243
  0
LINE
  8
2
 62
134
  6
CONTINUOUS
 10
65.454647
 20
66.699243
 11
30.454647
 21
66.699243
  0
LINE
  8
2
 62
134
  6
CONTINUOUS
 10
65.454647
 20
98.830995
 11
65.454647
 21
66.699243
  0
LINE
  8
2
 62
134
  6
CONTINUOUS
 10
30.454647
 20
98.830995
 11
30.454647
 21
66.699243
  0
TEXT
  8
2
 62
134
  6
CONTINUOUS
 10
32.155956
 20
66.690293
 40
3.000000
 41
0.500000
  1
8
  7
KANJI
 50
0.000000
 51
0.000000
  0
TEXT
  8
2
 62
134
  6
CONTINUOUS
 10
32.155956
 20
70.190293
 40
3.000000
 41
0.500000
  1
7
  7
KANJI
 50
0.000000
 51
0.000000
  0
TEXT
  8
2
 62
134
  6
CONTINUOUS
 10
37.155956
 20
77.190293
 40
3.000000
 41
0.772727
  1
ｱﾗｰﾑ出力/外部照準
  7
KANJI
 50
0.000000
 51
0.000000
  0
TEXT
  8
2
 62
134
  6
CONTINUOUS
 10
32.155956
 20
77.190293
 40
3.000000
 41
0.500000
  1
5
  7
KANJI
 50
0.000000
 51
0.000000
  0
TEXT
  8
2
 62
134
  6
CONTINUOUS
 10
32.155956
 20
73.690293
 40
3.000000
 41
0.500000
  1
6
  7
KANJI
 50
0.000000
 51
0.000000
  0
TEXT
  8
2
 62
134
  6
CONTINUOUS
 10
43.605731
 20
95.158787
 40
3.000000
 41
1.000000
  1
信号名
  7
KANJI
 50
0.000000
 51
0.000000
  0
TEXT
  8
2
 62
134
  6
CONTINUOUS
 10
31.609107
 20
95.322044
 40
3.000000
 41
0.500000
  1
No
  7
KANJI
 50
0.000000
 51
0.000000
  0
TEXT
  8
2
 62
134
  6
CONTINUOUS
 10
32.155956
 20
80.690293
 40
3.000000
 41
0.500000
  1
4
  7
KANJI
 50
0.000000
 51
0.000000
  0
TEXT
  8
2
 62
134
  6
CONTINUOUS
 10
32.155956
 20
84.190293
 40
3.000000
 41
0.500000
  1
3
  7
KANJI
 50
0.000000
 51
0.000000
  0
TEXT
  8
2
 62
134
  6
CONTINUOUS
 10
32.155956
 20
87.690293
 40
3.000000
 41
0.500000
  1
2
  7
KANJI
 50
0.000000
 51
0.000000
  0
TEXT
  8
2
 62
134
  6
CONTINUOUS
 10
32.155956
 20
91.190293
 40
3.000000
 41
0.500000
  1
1
  7
KANJI
 50
0.000000
 51
0.000000
  0
TEXT
  8
2
 62
134
  6
CONTINUOUS
 10
37.155956
 20
91.190293
 40
3.000000
 41
0.538462
  1
DCIN 4.7V～27V
  7
KANJI
 50
0.000000
 51
0.000000
  0
TEXT
  8
2
 62
134
  6
CONTINUOUS
 10
37.155956
 20
84.190293
 40
3.000000
 41
0.500000
  1
DC-GND
  7
KANJI
 50
0.000000
 51
0.000000
  0
TEXT
  8
2
 62
134
  6
CONTINUOUS
 10
37.155956
 20
70.190293
 40
3.000000
 41
0.500000
  1
ｱﾅﾛｸﾞ-GND 1
  7
KANJI
 50
0.000000
 51
0.000000
  0
TEXT
  8
2
 62
134
  6
CONTINUOUS
 10
37.155956
 20
73.690293
 40
3.000000
 41
0.642857
  1
ｱﾅﾛｸﾞ出力
  7
KANJI
 50
0.000000
 51
0.000000
  0
TEXT
  8
2
 62
134
  6
CONTINUOUS
 10
37.155956
 20
66.690293
 40
3.000000
 41
0.500000
  1
ｱﾅﾛｸﾞ-GND 2
  7
KANJI
 50
0.000000
 51
0.000000
  0
TEXT
  8
2
 62
134
  6
CONTINUOUS
 10
37.155956
 20
87.690293
 40
3.000000
 41
0.600000
  1
RS232C(温度計) TXD
  7
KANJI
 50
0.000000
 51
0.000000
  0
TEXT
  8
2
 62
134
  6
CONTINUOUS
 10
37.155956
 20
80.690293
 40
3.000000
 41
0.600000
  1
RS232C(温度計) RXD
  7
KANJI
 50
0.000000
 51
0.000000
  0
TEXT
  8
2
 62
134
  6
CONTINUOUS
 10
30.223737
 20
105.607508
 40
4.000000
 41
0.500000
  1
e-CON
  7
KANJI
 50
0.000000
 51
0.000000
  0
TEXT
  8
2
 62
134
  6
CONTINUOUS
 10
30.223737
 20
101.198749
 40
4.000000
 41
0.500000
  1
(ｿｹｯﾄ)
  7
KANJI
 50
0.000000
 51
0.000000
  0
LINE
  8
2
 62
134
  6
CONTINUOUS
 10
220.023061
 20
98.830995
 11
255.023061
 21
98.830995
  0
LINE
  8
2
 62
134
  6
CONTINUOUS
 10
225.023061
 20
98.830995
 11
225.023061
 21
66.699243
  0
LINE
  8
2
 62
134
  6
CONTINUOUS
 10
220.023061
 20
70.199243
 11
255.023061
 21
70.199243
  0
LINE
  8
2
 62
134
  6
CONTINUOUS
 10
255.023061
 20
73.699243
 11
220.023061
 21
73.699243
  0
LINE
  8
2
 62
134
  6
CONTINUOUS
 10
220.023061
 20
77.199243
 11
255.023061
 21
77.199243
  0
LINE
  8
2
 62
134
  6
CONTINUOUS
 10
255.023061
 20
80.699243
 11
220.023061
 21
80.699243
  0
LINE
  8
2
 62
134
  6
CONTINUOUS
 10
220.023061
 20
84.199243
 11
255.023061
 21
84.199243
  0
LINE
  8
2
 62
134
  6
CONTINUOUS
 10
255.023061
 20
87.699243
 11
220.023061
 21
87.699243
  0
LINE
  8
2
 62
134
  6
CONTINUOUS
 10
220.023061
 20
94.699243
 11
255.023061
 21
94.699243
  0
LINE
  8
2
 62
134
  6
CONTINUOUS
 10
220.023061
 20
91.199243
 11
255.023061
 21
91.199243
  0
LINE
  8
2
 62
134
  6
CONTINUOUS
 10
255.023061
 20
66.699243
 11
220.023061
 21
66.699243
  0
LINE
  8
2
 62
134
  6
CONTINUOUS
 10
255.023061
 20
98.830995
 11
255.023061
 21
66.699243
  0
LINE
  8
2
 62
134
  6
CONTINUOUS
 10
220.023061
 20
98.830995
 11
220.023061
 21
66.699243
  0
TEXT
  8
2
 62
134
  6
CONTINUOUS
 10
221.724371
 20
66.690293
 40
3.000000
 41
0.500000
  1
8
  7
KANJI
 50
0.000000
 51
0.000000
  0
TEXT
  8
2
 62
134
  6
CONTINUOUS
 10
221.724371
 20
70.190293
 40
3.000000
 41
0.500000
  1
7
  7
KANJI
 50
0.000000
 51
0.000000
  0
TEXT
  8
2
 62
134
  6
CONTINUOUS
 10
221.724371
 20
77.190293
 40
3.000000
 41
0.500000
  1
5
  7
KANJI
 50
0.000000
 51
0.000000
  0
TEXT
  8
2
 62
134
  6
CONTINUOUS
 10
221.724371
 20
73.690293
 40
3.000000
 41
0.500000
  1
6
  7
KANJI
 50
0.000000
 51
0.000000
  0
TEXT
  8
2
 62
134
  6
CONTINUOUS
 10
233.174146
 20
95.158787
 40
3.000000
 41
1.000000
  1
信号名
  7
KANJI
 50
0.000000
 51
0.000000
  0
TEXT
  8
2
 62
134
  6
CONTINUOUS
 10
221.177521
 20
95.322044
 40
3.000000
 41
0.500000
  1
No
  7
KANJI
 50
0.000000
 51
0.000000
  0
TEXT
  8
2
 62
134
  6
CONTINUOUS
 10
221.724371
 20
80.690293
 40
3.000000
 41
0.500000
  1
4
  7
KANJI
 50
0.000000
 51
0.000000
  0
TEXT
  8
2
 62
134
  6
CONTINUOUS
 10
221.724371
 20
84.190293
 40
3.000000
 41
0.500000
  1
3
  7
KANJI
 50
0.000000
 51
0.000000
  0
TEXT
  8
2
 62
134
  6
CONTINUOUS
 10
221.724371
 20
87.690293
 40
3.000000
 41
0.500000
  1
2
  7
KANJI
 50
0.000000
 51
0.000000
  0
TEXT
  8
2
 62
134
  6
CONTINUOUS
 10
221.724371
 20
91.190293
 40
3.000000
 41
0.500000
  1
1
  7
KANJI
 50
0.000000
 51
0.000000
  0
TEXT
  8
2
 62
134
  6
CONTINUOUS
 10
226.724371
 20
84.190293
 40
3.000000
 41
0.500000
  1
DC-GND
  7
KANJI
 50
0.000000
 51
0.000000
  0
TEXT
  8
2
 62
134
  6
CONTINUOUS
 10
226.724371
 20
77.190293
 40
3.000000
 41
0.772727
  1
ｱﾗｰﾑ出力/外部照準
  7
KANJI
 50
0.000000
 51
0.000000
  0
TEXT
  8
2
 62
134
  6
CONTINUOUS
 10
226.724371
 20
91.190293
 40
3.000000
 41
0.538462
  1
DCIN 4.7V～27V
  7
KANJI
 50
0.000000
 51
0.000000
  0
TEXT
  8
2
 62
134
  6
CONTINUOUS
 10
226.724371
 20
70.190293
 40
3.000000
 41
0.500000
  1
ｱﾅﾛｸﾞ-GND 1
  7
KANJI
 50
0.000000
 51
0.000000
  0
TEXT
  8
2
 62
134
  6
CONTINUOUS
 10
226.724371
 20
73.690293
 40
3.000000
 41
0.642857
  1
ｱﾅﾛｸﾞ出力
  7
KANJI
 50
0.000000
 51
0.000000
  0
TEXT
  8
2
 62
134
  6
CONTINUOUS
 10
226.724371
 20
66.690293
 40
3.000000
 41
0.500000
  1
ｱﾅﾛｸﾞ-GND 2
  7
KANJI
 50
0.000000
 51
0.000000
  0
TEXT
  8
2
 62
134
  6
CONTINUOUS
 10
218.966506
 20
103.903962
 40
4.000000
 41
0.500000
  1
e-CON
  7
KANJI
 50
0.000000
 51
0.000000
  0
TEXT
  8
2
 62
134
  6
CONTINUOUS
 10
218.966506
 20
99.495203
 40
4.000000
 41
0.500000
  1
(ﾌﾟﾗｸﾞ)
  7
KANJI
 50
0.000000
 51
0.000000
  0
TEXT
  8
2
 62
134
  6
CONTINUOUS
 10
226.724371
 20
87.690293
 40
3.000000
 41
0.500000
  1
RS232C(TMCX) RxD
  7
KANJI
 50
0.000000
 51
0.000000
  0
TEXT
  8
2
 62
134
  6
CONTINUOUS
 10
226.724371
 20
80.690293
 40
3.000000
 41
0.500000
  1
RS232C(TMCX) TxD
  7
KANJI
 50
0.000000
 51
0.000000
  0
DIMENSION
  8
2
 62
134
  6
CONTINUOUS
  2
*D5
 10
38.557714
 20
148.620718
 11
41.757714
 21
148.620718
 70
     0
  1
6.5
 13
38.557714
 23
141.232166
 14
44.957714
 24
141.232166
 50
0.000000
  0
DIMENSION
  8
2
 62
134
  6
CONTINUOUS
  2
*D6
 10
61.294862
 20
148.620718
 11
71.782424
 21
148.620718
 70
     0
  1
23.5
 13
61.294862
 23
141.232166
 14
84.494862
 24
137.232166
 50
0.000000
  0
DIMENSION
  8
2
 62
134
  6
CONTINUOUS
  2
*D7
 10
55.789191
 20
116.532166
 11
55.789191
 21
128.191963
 70
     0
  1
24
 13
60.294862
 23
116.532166
 14
60.294862
 24
140.232166
 50
90.000000
  0
LINE
  8
1
 62
7
  6
CONTINUOUS
 10
38.557714
 20
116.532166
 11
44.957714
 21
116.532166
  0
LINE
  8
1
 62
7
  6
CONTINUOUS
 10
44.257714
 20
117.232166
 11
39.257714
 21
117.232166
  0
LINE
  8
1
 62
7
  6
CONTINUOUS
 10
38.557714
 20
140.232166
 11
38.557714
 21
116.532166
  0
LINE
  8
1
 62
7
  6
CONTINUOUS
 10
44.957714
 20
140.232166
 11
38.557714
 21
140.232166
  0
LINE
  8
1
 62
7
  6
CONTINUOUS
 10
44.957714
 20
116.532166
 11
44.957714
 21
140.232166
  0
LINE
  8
1
 62
7
  6
CONTINUOUS
 10
39.257714
 20
139.532166
 11
39.257714
 21
117.232166
  0
LINE
  8
1
 62
7
  6
CONTINUOUS
 10
39.257714
 20
139.532166
 11
44.257714
 21
139.532166
  0
LINE
  8
1
 62
7
  6
CONTINUOUS
 10
44.257714
 20
139.532166
 11
44.257714
 21
117.232166
  0
LINE
  8
1
 62
7
  6
DASHDOT
 10
41.757714
 20
146.391799
 11
41.757714
 21
113.364538
  0
LINE
  8
1
 62
7
  6
CONTINUOUS
 10
43.457714
 20
135.760953
 11
43.457714
 21
118.560953
  0
LINE
  8
1
 62
7
  6
CONTINUOUS
 10
43.457714
 20
118.560953
 11
40.057714
 21
118.560953
  0
LINE
  8
1
 62
7
  6
CONTINUOUS
 10
40.057714
 20
118.560953
 11
40.057714
 21
135.760953
  0
LINE
  8
1
 62
7
  6
CONTINUOUS
 10
40.057714
 20
135.760953
 11
43.457714
 21
135.760953
  0
LINE
  8
1
 62
7
  6
CONTINUOUS
 10
41.557714
 20
134.530953
 11
41.557714
 21
133.790953
  0
LINE
  8
1
 62
7
  6
CONTINUOUS
 10
41.557714
 20
133.790953
 11
41.957714
 21
133.790953
  0
LINE
  8
1
 62
7
  6
CONTINUOUS
 10
41.957714
 20
133.790953
 11
41.957714
 21
134.530953
  0
LINE
  8
1
 62
7
  6
CONTINUOUS
 10
41.957714
 20
134.530953
 11
41.557714
 21
134.530953
  0
LINE
  8
1
 62
7
  6
DASHDOT
 10
40.660454
 20
134.160953
 11
42.850084
 21
134.160953
  0
LINE
  8
1
 62
7
  6
CONTINUOUS
 10
41.557714
 20
132.530953
 11
41.557714
 21
131.790953
  0
LINE
  8
1
 62
7
  6
CONTINUOUS
 10
41.557714
 20
131.790953
 11
41.957714
 21
131.790953
  0
LINE
  8
1
 62
7
  6
CONTINUOUS
 10
41.957714
 20
131.790953
 11
41.957714
 21
132.530953
  0
LINE
  8
1
 62
7
  6
CONTINUOUS
 10
41.957714
 20
132.530953
 11
41.557714
 21
132.530953
  0
LINE
  8
1
 62
7
  6
DASHDOT
 10
40.660454
 20
132.160953
 11
42.850084
 21
132.160953
  0
LINE
  8
1
 62
7
  6
CONTINUOUS
 10
41.557714
 20
130.530953
 11
41.557714
 21
129.790953
  0
LINE
  8
1
 62
7
  6
CONTINUOUS
 10
41.557714
 20
129.790953
 11
41.957714
 21
129.790953
  0
LINE
  8
1
 62
7
  6
CONTINUOUS
 10
41.957714
 20
129.790953
 11
41.957714
 21
130.530953
  0
LINE
  8
1
 62
7
  6
CONTINUOUS
 10
41.957714
 20
130.530953
 11
41.557714
 21
130.530953
  0
LINE
  8
1
 62
7
  6
DASHDOT
 10
40.660454
 20
130.160953
 11
42.850084
 21
130.160953
  0
LINE
  8
1
 62
7
  6
CONTINUOUS
 10
41.557714
 20
128.530953
 11
41.557714
 21
127.790953
  0
LINE
  8
1
 62
7
  6
CONTINUOUS
 10
41.557714
 20
127.790953
 11
41.957714
 21
127.790953
  0
LINE
  8
1
 62
7
  6
CONTINUOUS
 10
41.957714
 20
127.790953
 11
41.957714
 21
128.530953
  0
LINE
  8
1
 62
7
  6
CONTINUOUS
 10
41.957714
 20
128.530953
 11
41.557714
 21
128.530953
  0
LINE
  8
1
 62
7
  6
DASHDOT
 10
40.660454
 20
128.160953
 11
42.850084
 21
128.160953
  0
LINE
  8
1
 62
7
  6
CONTINUOUS
 10
41.557714
 20
126.530953
 11
41.557714
 21
125.790953
  0
LINE
  8
1
 62
7
  6
CONTINUOUS
 10
41.557714
 20
125.790953
 11
41.957714
 21
125.790953
  0
LINE
  8
1
 62
7
  6
CONTINUOUS
 10
41.957714
 20
125.790953
 11
41.957714
 21
126.530953
  0
LINE
  8
1
 62
7
  6
CONTINUOUS
 10
41.957714
 20
126.530953
 11
41.557714
 21
126.530953
  0
LINE
  8
1
 62
7
  6
DASHDOT
 10
40.660454
 20
126.160953
 11
42.850084
 21
126.160953
  0
LINE
  8
1
 62
7
  6
CONTINUOUS
 10
41.557714
 20
124.530953
 11
41.557714
 21
123.790953
  0
LINE
  8
1
 62
7
  6
CONTINUOUS
 10
41.557714
 20
123.790953
 11
41.957714
 21
123.790953
  0
LINE
  8
1
 62
7
  6
CONTINUOUS
 10
41.957714
 20
123.790953
 11
41.957714
 21
124.530953
  0
LINE
  8
1
 62
7
  6
CONTINUOUS
 10
41.957714
 20
124.530953
 11
41.557714
 21
124.530953
  0
LINE
  8
1
 62
7
  6
DASHDOT
 10
40.660454
 20
124.160953
 11
42.850084
 21
124.160953
  0
LINE
  8
1
 62
7
  6
CONTINUOUS
 10
41.557714
 20
122.530953
 11
41.557714
 21
121.790953
  0
LINE
  8
1
 62
7
  6
CONTINUOUS
 10
41.557714
 20
121.790953
 11
41.957714
 21
121.790953
  0
LINE
  8
1
 62
7
  6
CONTINUOUS
 10
41.957714
 20
121.790953
 11
41.957714
 21
122.530953
  0
LINE
  8
1
 62
7
  6
CONTINUOUS
 10
41.957714
 20
122.530953
 11
41.557714
 21
122.530953
  0
LINE
  8
1
 62
7
  6
DASHDOT
 10
40.660454
 20
122.160953
 11
42.850084
 21
122.160953
  0
LINE
  8
1
 62
7
  6
CONTINUOUS
 10
41.557714
 20
120.530953
 11
41.557714
 21
119.790953
  0
LINE
  8
1
 62
7
  6
CONTINUOUS
 10
41.557714
 20
119.790953
 11
41.957714
 21
119.790953
  0
LINE
  8
1
 62
7
  6
CONTINUOUS
 10
41.957714
 20
119.790953
 11
41.957714
 21
120.530953
  0
LINE
  8
1
 62
7
  6
CONTINUOUS
 10
41.957714
 20
120.530953
 11
41.557714
 21
120.530953
  0
LINE
  8
1
 62
7
  6
DASHDOT
 10
40.660454
 20
120.160953
 11
42.850084
 21
120.160953
  0
LINE
  8
1
 62
7
  6
DASHDOT
 10
36.109767
 20
127.160953
 11
47.304349
 21
127.160953
  0
LINE
  8
1
 62
7
  6
CONTINUOUS
 10
84.494862
 20
135.232166
 11
84.494862
 21
119.010953
  0
LINE
  8
1
 62
7
  6
CONTINUOUS
 10
84.494862
 20
136.232166
 11
84.494862
 21
118.010953
  0
LINE
  8
1
 62
7
  6
CONTINUOUS
 10
94.493380
 20
127.160953
 11
95.961033
 21
127.160953
  0
LINE
  8
1
 62
7
  6
CONTINUOUS
 10
84.494862
 20
134.760953
 11
87.731071
 21
134.760953
  0
LINE
  8
1
 62
7
  6
CONTINUOUS
 10
84.494862
 20
133.560953
 11
87.706579
 21
133.560953
  0
LINE
  8
1
 62
7
  6
CONTINUOUS
 10
94.493380
 20
129.960953
 11
95.961033
 21
129.960953
  0
LINE
  8
1
 62
7
  6
CONTINUOUS
 10
94.493380
 20
128.760953
 11
95.961033
 21
128.760953
  0
LINE
  8
1
 62
7
  6
CONTINUOUS
 10
94.493380
 20
129.960953
 11
87.731071
 21
134.760953
  0
LINE
  8
1
 62
7
  6
CONTINUOUS
 10
94.493380
 20
128.760953
 11
87.706579
 21
133.560953
  0
LINE
  8
1
 62
7
  6
CONTINUOUS
 10
84.494862
 20
119.560953
 11
87.731071
 21
119.560953
  0
LINE
  8
1
 62
7
  6
CONTINUOUS
 10
84.494862
 20
120.760953
 11
87.706579
 21
120.760953
  0
LINE
  8
1
 62
7
  6
CONTINUOUS
 10
94.493380
 20
124.360953
 11
95.961033
 21
124.360953
  0
LINE
  8
1
 62
7
  6
CONTINUOUS
 10
94.493380
 20
125.560953
 11
95.961033
 21
125.560953
  0
LINE
  8
1
 62
7
  6
CONTINUOUS
 10
94.493380
 20
124.360953
 11
87.731071
 21
119.560953
  0
LINE
  8
1
 62
7
  6
CONTINUOUS
 10
94.493380
 20
125.560953
 11
87.706579
 21
120.760953
  0
LINE
  8
1
 62
7
  6
CONTINUOUS
 10
84.494862
 20
128.760953
 11
87.731071
 21
128.760953
  0
LINE
  8
1
 62
7
  6
CONTINUOUS
 10
84.494862
 20
127.560953
 11
87.706579
 21
127.560953
  0
LINE
  8
1
 62
7
  6
CONTINUOUS
 10
94.493380
 20
128.360953
 11
95.961033
 21
128.360953
  0
LINE
  8
1
 62
7
  6
CONTINUOUS
 10
94.493380
 20
128.360953
 11
87.731071
 21
128.760953
  0
LINE
  8
1
 62
7
  6
CONTINUOUS
 10
94.493380
 20
127.160953
 11
87.706579
 21
127.560953
  0
LINE
  8
1
 62
7
  6
CONTINUOUS
 10
84.494862
 20
130.760953
 11
87.731071
 21
130.760953
  0
LINE
  8
1
 62
7
  6
CONTINUOUS
 10
84.494862
 20
129.560953
 11
87.706579
 21
129.560953
  0
LINE
  8
1
 62
7
  6
CONTINUOUS
 10
84.494862
 20
132.760953
 11
87.731071
 21
132.760953
  0
LINE
  8
1
 62
7
  6
CONTINUOUS
 10
84.494862
 20
131.560953
 11
87.706579
 21
131.560953
  0
LINE
  8
1
 62
7
  6
CONTINUOUS
 10
91.445000
 20
130.893639
 11
87.731071
 21
132.760953
  0
LINE
  8
1
 62
7
  6
CONTINUOUS
 10
94.040708
 20
128.387729
 11
87.706579
 21
131.560953
  0
LINE
  8
1
 62
7
  6
CONTINUOUS
 10
91.131503
 20
129.805537
 11
87.731071
 21
130.760953
  0
LINE
  8
1
 62
7
  6
CONTINUOUS
 10
91.180365
 20
128.588449
 11
87.706579
 21
129.560953
  0
LINE
  8
1
 62
7
  6
CONTINUOUS
 10
84.494862
 20
125.560953
 11
87.731071
 21
125.560953
  0
LINE
  8
1
 62
7
  6
CONTINUOUS
 10
84.494862
 20
126.760953
 11
87.706579
 21
126.760953
  0
LINE
  8
1
 62
7
  6
CONTINUOUS
 10
94.493380
 20
125.960953
 11
95.961033
 21
125.960953
  0
LINE
  8
1
 62
7
  6
CONTINUOUS
 10
94.493380
 20
125.960953
 11
87.731071
 21
125.560953
  0
LINE
  8
1
 62
7
  6
CONTINUOUS
 10
94.493380
 20
127.160953
 11
87.706579
 21
126.760953
  0
LINE
  8
1
 62
7
  6
CONTINUOUS
 10
84.494862
 20
123.560953
 11
87.731071
 21
123.560953
  0
LINE
  8
1
 62
7
  6
CONTINUOUS
 10
84.494862
 20
124.760953
 11
87.706579
 21
124.760953
  0
LINE
  8
1
 62
7
  6
CONTINUOUS
 10
84.494862
 20
121.560953
 11
87.731071
 21
121.560953
  0
LINE
  8
1
 62
7
  6
CONTINUOUS
 10
84.494862
 20
122.760953
 11
87.706579
 21
122.760953
  0
LINE
  8
1
 62
7
  6
CONTINUOUS
 10
91.445000
 20
123.428267
 11
87.731071
 21
121.560953
  0
LINE
  8
1
 62
7
  6
CONTINUOUS
 10
94.040708
 20
125.934177
 11
87.706579
 21
122.760953
  0
LINE
  8
1
 62
7
  6
CONTINUOUS
 10
91.131503
 20
124.516369
 11
87.731071
 21
123.560953
  0
LINE
  8
1
 62
7
  6
CONTINUOUS
 10
91.180365
 20
125.733457
 11
87.706579
 21
124.760953
  0
LINE
  8
1
 62
7
  6
CONTINUOUS
 10
61.294862
 20
117.410953
 11
61.294862
 21
116.532166
  0
LINE
  8
1
 62
7
  6
DASHDOT
 10
100.027880
 20
127.160953
 11
62.002012
 21
127.160953
  0
LINE
  8
1
 62
7
  6
CONTINUOUS
 10
61.294862
 20
140.232166
 11
61.294862
 21
137.832166
  0
LINE
  8
1
 62
7
  6
CONTINUOUS
 10
62.794862
 20
119.010953
 11
62.794862
 21
117.410953
  0
LINE
  8
1
 62
7
  6
CONTINUOUS
 10
62.794862
 20
117.410953
 11
61.294862
 21
117.410953
  0
LINE
  8
1
 62
7
  6
CONTINUOUS
 10
61.294862
 20
137.832166
 11
62.794862
 21
137.832166
  0
LINE
  8
1
 62
7
  6
CONTINUOUS
 10
62.794862
 20
137.832166
 11
62.794862
 21
135.232166
  0
LINE
  8
1
 62
7
  6
DASHDOT
 10
64.989125
 20
134.160953
 11
85.343853
 21
134.160953
  0
LINE
  8
1
 62
7
  6
DASHDOT
 10
65.044867
 20
120.160953
 11
85.386362
 21
120.160953
  0
LINE
  8
1
 62
7
  6
DASHDOT
 10
64.989125
 20
132.160953
 11
85.343853
 21
132.160953
  0
LINE
  8
1
 62
7
  6
DASHDOT
 10
64.989125
 20
130.160953
 11
85.343853
 21
130.160953
  0
LINE
  8
1
 62
7
  6
DASHDOT
 10
64.989125
 20
128.160953
 11
85.343853
 21
128.160953
  0
LINE
  8
1
 62
7
  6
DASHDOT
 10
64.989125
 20
126.160953
 11
85.343853
 21
126.160953
  0
LINE
  8
1
 62
7
  6
DASHDOT
 10
64.989125
 20
124.160953
 11
85.343853
 21
124.160953
  0
LINE
  8
1
 62
7
  6
DASHDOT
 10
64.989125
 20
122.160953
 11
85.343853
 21
122.160953
  0
LINE
  8
1
 62
7
  6
CONTINUOUS
 10
66.294862
 20
135.232166
 11
66.294862
 21
119.010953
  0
LINE
  8
1
 62
7
  6
CONTINUOUS
 10
62.794862
 20
135.232166
 11
66.294862
 21
135.232166
  0
LINE
  8
1
 62
7
  6
CONTINUOUS
 10
66.294862
 20
119.010953
 11
62.794862
 21
119.010953
  0
LINE
  8
1
 62
7
  6
CONTINUOUS
 10
84.494862
 20
136.232166
 11
74.294862
 21
137.710953
  0
LINE
  8
1
 62
7
  6
CONTINUOUS
 10
84.494862
 20
118.010953
 11
74.294862
 21
116.532166
  0
LINE
  8
1
 62
7
  6
CONTINUOUS
 10
74.294862
 20
140.232166
 11
74.294862
 21
137.710953
  0
LINE
  8
1
 62
7
  6
CONTINUOUS
 10
61.294862
 20
116.532166
 11
74.294862
 21
116.532166
  0
LINE
  8
1
 62
7
  6
CONTINUOUS
 10
74.294862
 20
140.232166
 11
61.294862
 21
140.232166
  0
LINE
  8
1
 62
7
  6
CONTINUOUS
 10
74.294862
 20
119.010953
 11
84.494862
 21
119.010953
  0
LINE
  8
1
 62
7
  6
CONTINUOUS
 10
74.294862
 20
135.232166
 11
74.294862
 21
119.010953
  0
LINE
  8
1
 62
7
  6
CONTINUOUS
 10
84.494862
 20
135.232166
 11
74.294862
 21
135.232166
  0
TEXT
  8
2
 62
134
  6
CONTINUOUS
 10
114.822581
 20
112.532166
 40
4.000000
 41
0.687500
  1
質量： 370g
  7
KANJI
 50
0.000000
 51
0.000000
  0
TEXT
  8
5
 62
94
  6
CONTINUOUS
 10
239.171535
 20
36.594343
 40
4.000000
 41
0.772727
  1
e-CON延長ケーブル
  7
KANJI
 50
0.000000
 51
0.000000
  0
TEXT
  8
2
 62
134
  6
CONTINUOUS
 10
101.996121
 20
95.322044
 40
3.000000
 41
1.000000
  1
型　　　式
  7
KANJI
 50
0.000000
 51
0.000000
  0
TEXT
  8
2
 62
134
  6
CONTINUOUS
 10
101.996121
 20
91.190293
 40
3.000000
 41
0.576923
  1
TMBX-E05 (標準)
  7
KANJI
 50
0.000000
 51
0.000000
  0
TEXT
  8
2
 62
134
  6
CONTINUOUS
 10
101.996121
 20
87.690293
 40
3.000000
 41
0.500000
  1
TMBX-E10
  7
KANJI
 50
0.000000
 51
0.000000
  0
TEXT
  8
2
 62
134
  6
CONTINUOUS
 10
101.996121
 20
84.190293
 40
3.000000
 41
0.500000
  1
TMBX-E15
  7
KANJI
 50
0.000000
 51
0.000000
  0
TEXT
  8
2
 62
134
  6
CONTINUOUS
 10
101.996121
 20
80.690293
 40
3.000000
 41
0.500000
  1
TMBX-E20
  7
KANJI
 50
0.000000
 51
0.000000
  0
TEXT
  8
2
 62
134
  6
CONTINUOUS
 10
129.236687
 20
95.322044
 40
3.000000
 41
0.777778
  1
ケーブル長 (m)
  7
KANJI
 50
0.000000
 51
0.000000
  0
TEXT
  8
2
 62
134
  6
CONTINUOUS
 10
135.542453
 20
80.298218
 40
4.000000
 41
0.500000
  1
20
  7
KANJI
 50
0.000000
 51
0.000000
  0
TEXT
  8
2
 62
134
  6
CONTINUOUS
 10
135.542453
 20
83.798218
 40
4.000000
 41
0.500000
  1
15
  7
KANJI
 50
0.000000
 51
0.000000
  0
TEXT
  8
2
 62
134
  6
CONTINUOUS
 10
135.542453
 20
87.298218
 40
4.000000
 41
0.500000
  1
10
  7
KANJI
 50
0.000000
 51
0.000000
  0
TEXT
  8
2
 62
134
  6
CONTINUOUS
 10
137.596960
 20
90.966981
 40
4.000000
 41
0.500000
  1
5
  7
KANJI
 50
0.000000
 51
0.000000
  0
LINE
  8
2
 62
134
  6
CONTINUOUS
 10
100.294811
 20
98.830995
 11
100.294811
 21
80.699243
  0
LINE
  8
2
 62
134
  6
CONTINUOUS
 10
100.294811
 20
80.699243
 11
152.418763
 21
80.699243
  0
LINE
  8
2
 62
134
  6
CONTINUOUS
 10
152.418763
 20
80.699243
 11
152.418763
 21
98.830995
  0
LINE
  8
2
 62
134
  6
CONTINUOUS
 10
152.418763
 20
98.830995
 11
100.294811
 21
98.830995
  0
LINE
  8
2
 62
134
  6
CONTINUOUS
 10
100.294811
 20
94.699243
 11
152.418763
 21
94.699243
  0
LINE
  8
2
 62
134
  6
CONTINUOUS
 10
100.294811
 20
91.199243
 11
152.418763
 21
91.199243
  0
LINE
  8
2
 62
134
  6
CONTINUOUS
 10
100.294811
 20
87.699243
 11
152.418763
 21
87.699243
  0
LINE
  8
2
 62
134
  6
CONTINUOUS
 10
100.294811
 20
84.199243
 11
152.418763
 21
84.199243
  0
LINE
  8
2
 62
134
  6
CONTINUOUS
 10
127.535377
 20
98.830995
 11
127.535377
 21
80.699243
  0
DIMENSION
  8
2
 62
134
  6
CONTINUOUS
  2
*D8
 10
84.494862
 20
148.620718
 11
162.315688
 21
148.620718
 70
     0
  1
ケーブル長 (m)
 13
84.494862
 23
137.232166
 14
228.649534
 24
139.810953
 50
0.000000
  0
TEXT
  8
2
 62
134
  6
CONTINUOUS
 10
176.412474
 20
150.400943
 40
4.000000
 41
0.500000
  1
*
  7
KANJI
 50
0.000000
 51
0.000000
  0
TEXT
  8
2
 62
134
  6
CONTINUOUS
 10
100.294811
 20
98.830995
 40
4.000000
 41
0.500000
  1
*
  7
KANJI
 50
0.000000
 51
0.000000
  0
ENDSEC
  0
EOF
