  0
SECTION
  2
HEADER
  9
$ACADVER
  1
AC1009
  9
$INSBASE
 10
0.000000
 20
0.000000
  9
$EXTMIN
 10
0.000000
 20
0.000000
  9
$EXTMAX
 10
148.500000
 20
105.000000
  9
$LIMMIN
 10
0.000000
 20
0.000000
  9
$LIMMAX
 10
148.500000
 20
105.000000
  9
$VIEWCTR
 10
74.250000
 20
52.500000
  9
$VIEWSIZE
 40
105.000000
  9
$PEXTMIN
 10
0.000000
 20
0.000000
 30
0.000000
  9
$PEXTMAX
 10
297.000000
 20
210.000000
 30
0.000000
  9
$SNAPMODE
 70
     0
  9
$SNAPUNIT
 10
1.000000
 20
1.000000
  9
$SNAPBASE
 10
0.000000
 20
0.000000
  9
$SNAPANG
 50
0.000000
  9
$SNAPISOPAIR
 70
     0
  9
$SNAPSTYLE
 70
     0
  9
$GRIDMODE
 70
     0
  9
$GRIDUNIT
 10
0.000000
 20
0.000000
  9
$ORTHOMODE
 70
     0
  9
$REGENMODE
 70
     1
  9
$FILLMODE
 70
     1
  9
$QTEXTMODE
 70
     0
  9
$DRAGMODE
 70
     2
  9
$LTSCALE
 40
0.125000
  9
$OSMODE
 70
     0
  9
$ATTMODE
 70
     1
  9
$TEXTSIZE
 40
2.000000
  9
$TRACEWID
 40
0.050000
  9
$TEXTSTYLE
  7
STANDARD
  9
$CLAYER
  8
0
  9
$CELTYPE
  6
BYLAYER
  9
$CECOLOR
 62
   256
  9
$DIMSCALE
 40
1.000000
  9
$DIMASZ
 40
1.000000
  9
$DIMEXO
 40
0.000000
  9
$DIMDLI
 40
0.500000
  9
$DIMRND
 40
0.000000
  9
$DIMDLE
 40
0.000000
  9
$DIMEXE
 40
0.000000
  9
$DIMTP
 40
0.000000
  9
$DIMTM
 40
0.000000
  9
$DIMTXT
 40
4.000000
  9
$DIMCEN
 40
0.000000
  9
$DIMTSZ
 40
0.000000
  9
$DIMTOL
 70
     0
  9
$DIMLIM
 70
     0
  9
$DIMTIH
 70
     1
  9
$DIMTOH
 70
     1
  9
$DIMSE1
 70
     0
  9
$DIMSE2
 70
     0
  9
$DIMTAD
 70
     0
  9
$DIMZIN
 70
     0
  9
$DIMBLK
  1

  9
$DIMASO
 70
     0
  9
$DIMSHO
 70
     0
  9
$DIMPOST
  1

  9
$DIMAPOST
  1

  9
$DIMALT
 70
     0
  9
$DIMALTD
 70
     0
  9
$DIMALTF
 40
25.400000
  9
$DIMLFAC
 40
1.000000
  9
$DIMTOFL
 70
     0
  9
$DIMTVP
 40
0.000000
  9
$DIMTIX
 70
     0
  9
$DIMSOXD
 70
     0
  9
$DIMSAH
 70
     0
  9
$DIMBLKL
  1

  9
$DIMBLKR
  1

  9
$LUNITS
 70
     2
  9
$LUPREC
 70
     2
  9
$AXISMODE
 70
     0
  9
$AXISUNIT
 10
1.000000
 20
1.000000
  9
$SKETCHINC
 40
0.000000
  9
$FILLETRAD
 40
0.000000
  9
$AUNITS
 70
     1
  9
$AUPREC
 70
     2
  9
$MENU
  1
ACAD
  9
$ELEVATION
 40
0.000000
  9
$THICKNESS
 40
0.000000
  9
$VIEWDIR
 10
0.000000
 20
0.000000
 30
1.000000
  9
$LIMCHECK
 70
     1
  9
$BLIPMODE
 70
     1
  9
$CHAMFERA
 40
0.000000
  9
$CHAMFERB
 40
0.000000
  9
$FASTZOOM
 70
     1
  9
$SKPOLY
 70
     0
  9
$TDCREATE
 40
0.000000
  9
$TDUPDATE
 40
0.000000
  9
$TDINDWG
 40
0.000000
  9
$TDUSRTIMER
 40
0.000000
  9
$USRTIMER
 70
     1
  9
$ANGBASE
 50
0.000000
  9
$ANGDIR
 70
     0
  9
$PDMODE
 70
     0
  9
$PDSIZE
 40
0.000000
  9
$PLINEWID
 40
0.000000
  9
$COORDS
 70
     2
  9
$USERI1
 70
     0
  9
$USERI2
 70
     0
  9
$USERI3
 70
     0
  9
$USERI4
 70
     0
  9
$USERI5
 70
     0
  9
$USERR1
 40
0.000000
  9
$USERR2
 40
0.000000
  9
$USERR3
 40
0.000000
  9
$USERR4
 40
0.000000
  9
$USERR5
 40
0.000000
  0
ENDSEC
  0
SECTION
  2
TABLES
  0
TABLE
  2
LTYPE
 70
     5
  0
LTYPE
  2
CONTINUOUS
 70
    64
  3
Solid line
 72
    65
 73
     0
 40
0.0
  0
LTYPE
  2
HIDDEN
 70
    64
  3
------------------------
 72
    65
 73
     2
 40
12.6
 49
8.4
 49
-4.2
  0
LTYPE
  2
DOT
 70
    64
  3
････････････････････････
 72
    65
 73
     2
 40
8.0
 49
6.0
 49
-2.0
  0
LTYPE
  2
DASHDOT
 70
    64
  3
--･--･--･--･--･--･--･--
 72
    65
 73
     4
 40
50.5
 49
30.0
 49
-9.0
 49
2.5
 49
-9.0
  0
LTYPE
  2
DIVIDE
 70
    64
  3
--･･--･･--･･--･･--･･--
 72
    65
 73
     6
 40
58.0
 49
30.0
 49
-9.0
 49
2.5
 49
-5.0
 49
2.5
 49
-9.0
  0
LTYPE
  2
ACAD_ISO06W100
 70
    64
  3
____ ... ____ ... ____
 72
    65
 73
     8
 40
37.5
 49
24.0
 49
-3.0
 49
0.5
 49
-3.0
 49
0.5
 49
-3.0
 49
0.5
 49
-3.0
  0
LTYPE
  2
ACAD_ISO14W100
 70
    64
  3
__ . . . __ . . . __ . . . 
 72
    65
 73
     8
 40
25.5
 49
12.0
 49
-3.0
 49
0.5
 49
-3.0
 49
0.5
 49
-3.0
 49
0.5
 49
-3.0
  0
ENDTAB
  0
TABLE
  2
LAYER
 70
5
  0
LAYER
  2
1
 70
64
 62
7
  6
CONTINUOUS
  0
LAYER
  2
2
 70
64
 62
134
  6
CONTINUOUS
  0
LAYER
  2
5
 70
64
 62
94
  6
CONTINUOUS
  0
LAYER
  2
6
 70
64
 62
7
  6
CONTINUOUS
  0
LAYER
  2
11
 70
64
 62
251
  6
CONTINUOUS
  0
ENDTAB
  0
TABLE
  2
STYLE
 70
     2
  0
STYLE
  2
STANDARD
 70
    64
 40
0.0
 41
1.0
 50
0.0
 71
     0
 42
0.2
  3
TXT
  4

  0
STYLE
  2
KANJI
 70
    64
 40
0.0
 41
1.0
 50
0.0
 71
     0
 42
0.2
  3
TXT
  4
BIGFONT
  0
ENDTAB
  0
TABLE
  2
VIEW
 70
     0
  0
ENDTAB
  0
ENDSEC
  0
SECTION
  2
BLOCKS
  0
BLOCK
  8
2
 62
134
  6
CONTINUOUS
  2
*D1
 70
    65
 10
0.0
 20
0.0
  0
LINE
  8
2
 62
134
  6
CONTINUOUS
 10
13.255362
 20
26.465201
 11
13.255362
 21
92.465201
  0
LINE
  8
2
 62
134
  6
CONTINUOUS
 10
12.755362
 20
26.465201
 11
18.215753
 21
26.465201
  0
LINE
  8
2
 62
134
  6
CONTINUOUS
 10
12.755362
 20
92.465201
 11
18.255532
 21
92.465201
  0
LINE
  8
2
 62
134
  6
CONTINUOUS
 10
13.255362
 20
26.465201
 11
12.996543
 21
27.431127
  0
LINE
  8
2
 62
134
  6
CONTINUOUS
 10
13.255362
 20
26.465201
 11
13.514181
 21
27.431127
  0
LINE
  8
2
 62
134
  6
CONTINUOUS
 10
12.996543
 20
27.431127
 11
13.514181
 21
27.431127
  0
LINE
  8
2
 62
134
  6
CONTINUOUS
 10
13.255362
 20
26.706682
 11
13.125953
 21
27.189645
  0
LINE
  8
2
 62
134
  6
CONTINUOUS
 10
13.255362
 20
26.706682
 11
13.384772
 21
27.189645
  0
LINE
  8
2
 62
134
  6
CONTINUOUS
 10
13.125953
 20
27.189645
 11
13.384772
 21
27.189645
  0
LINE
  8
2
 62
134
  6
CONTINUOUS
 10
13.255362
 20
92.465201
 11
13.514181
 21
91.499275
  0
LINE
  8
2
 62
134
  6
CONTINUOUS
 10
13.255362
 20
92.465201
 11
12.996543
 21
91.499275
  0
LINE
  8
2
 62
134
  6
CONTINUOUS
 10
13.514181
 20
91.499275
 11
12.996543
 21
91.499275
  0
LINE
  8
2
 62
134
  6
CONTINUOUS
 10
13.255362
 20
92.223719
 11
13.384772
 21
91.740756
  0
LINE
  8
2
 62
134
  6
CONTINUOUS
 10
13.255362
 20
92.223719
 11
13.125953
 21
91.740756
  0
LINE
  8
2
 62
134
  6
CONTINUOUS
 10
13.384772
 20
91.740756
 11
13.125953
 21
91.740756
  0
TEXT
  8
2
 62
134
  6
CONTINUOUS
 10
13.255362
 20
57.465201
 40
2.000000
 41
1.000000
  1
φ66
  7
KANJI
 50
90.000000
 51
0.000000
  0
ENDBLK
  0
BLOCK
  8
2
 62
134
  6
CONTINUOUS
  2
*D2
 70
    65
 10
0.0
 20
0.0
  0
LINE
  8
2
 62
134
  6
CONTINUOUS
 10
125.063981
 20
22.880013
 11
18.063981
 21
22.880013
  0
LINE
  8
2
 62
134
  6
CONTINUOUS
 10
125.063981
 20
22.380013
 11
125.063981
 21
26.666961
  0
LINE
  8
2
 62
134
  6
CONTINUOUS
 10
18.063981
 20
22.380013
 11
18.063981
 21
26.665201
  0
LINE
  8
2
 62
134
  6
CONTINUOUS
 10
125.063981
 20
22.880013
 11
124.098055
 21
22.621194
  0
LINE
  8
2
 62
134
  6
CONTINUOUS
 10
125.063981
 20
22.880013
 11
124.098055
 21
23.138832
  0
LINE
  8
2
 62
134
  6
CONTINUOUS
 10
124.098055
 20
22.621194
 11
124.098055
 21
23.138832
  0
LINE
  8
2
 62
134
  6
CONTINUOUS
 10
124.822500
 20
22.880013
 11
124.339537
 21
22.750604
  0
LINE
  8
2
 62
134
  6
CONTINUOUS
 10
124.822500
 20
22.880013
 11
124.339537
 21
23.009423
  0
LINE
  8
2
 62
134
  6
CONTINUOUS
 10
124.339537
 20
22.750604
 11
124.339537
 21
23.009423
  0
LINE
  8
2
 62
134
  6
CONTINUOUS
 10
18.063981
 20
22.880013
 11
19.029907
 21
23.138832
  0
LINE
  8
2
 62
134
  6
CONTINUOUS
 10
18.063981
 20
22.880013
 11
19.029907
 21
22.621194
  0
LINE
  8
2
 62
134
  6
CONTINUOUS
 10
19.029907
 20
23.138832
 11
19.029907
 21
22.621194
  0
LINE
  8
2
 62
134
  6
CONTINUOUS
 10
18.305462
 20
22.880013
 11
18.788425
 21
23.009423
  0
LINE
  8
2
 62
134
  6
CONTINUOUS
 10
18.305462
 20
22.880013
 11
18.788425
 21
22.750604
  0
LINE
  8
2
 62
134
  6
CONTINUOUS
 10
18.788425
 20
23.009423
 11
18.788425
 21
22.750604
  0
TEXT
  8
2
 62
134
  6
CONTINUOUS
 10
72.653024
 20
22.880013
 40
2.000000
 41
0.500000
  1
107
  7
KANJI
 50
0.000000
 51
0.000000
  0
ENDBLK
  0
BLOCK
  8
2
 62
134
  6
CONTINUOUS
  2
*D3
 70
    65
 10
0.0
 20
0.0
  0
LINE
  8
2
 62
134
  6
CONTINUOUS
 10
134.014538
 20
45.465201
 11
134.014538
 21
73.465201
  0
LINE
  8
2
 62
134
  6
CONTINUOUS
 10
134.514538
 20
45.465201
 11
130.693906
 21
45.465201
  0
LINE
  8
2
 62
134
  6
CONTINUOUS
 10
134.514538
 20
73.465201
 11
130.763981
 21
73.465201
  0
LINE
  8
2
 62
134
  6
CONTINUOUS
 10
134.014538
 20
45.465201
 11
133.755719
 21
46.431127
  0
LINE
  8
2
 62
134
  6
CONTINUOUS
 10
134.014538
 20
45.465201
 11
134.273357
 21
46.431127
  0
LINE
  8
2
 62
134
  6
CONTINUOUS
 10
133.755719
 20
46.431127
 11
134.273357
 21
46.431127
  0
LINE
  8
2
 62
134
  6
CONTINUOUS
 10
134.014538
 20
45.706682
 11
133.885129
 21
46.189645
  0
LINE
  8
2
 62
134
  6
CONTINUOUS
 10
134.014538
 20
45.706682
 11
134.143948
 21
46.189645
  0
LINE
  8
2
 62
134
  6
CONTINUOUS
 10
133.885129
 20
46.189645
 11
134.143948
 21
46.189645
  0
LINE
  8
2
 62
134
  6
CONTINUOUS
 10
134.014538
 20
73.465201
 11
134.273357
 21
72.499275
  0
LINE
  8
2
 62
134
  6
CONTINUOUS
 10
134.014538
 20
73.465201
 11
133.755719
 21
72.499275
  0
LINE
  8
2
 62
134
  6
CONTINUOUS
 10
134.273357
 20
72.499275
 11
133.755719
 21
72.499275
  0
LINE
  8
2
 62
134
  6
CONTINUOUS
 10
134.014538
 20
73.223719
 11
134.143948
 21
72.740756
  0
LINE
  8
2
 62
134
  6
CONTINUOUS
 10
134.014538
 20
73.223719
 11
133.885129
 21
72.740756
  0
LINE
  8
2
 62
134
  6
CONTINUOUS
 10
134.143948
 20
72.740756
 11
133.885129
 21
72.740756
  0
TEXT
  8
2
 62
134
  6
CONTINUOUS
 10
134.014538
 20
55.427781
 40
2.000000
 41
0.500000
  1
M28P0.75
  7
KANJI
 50
90.000000
 51
0.000000
  0
ENDBLK
  0
BLOCK
  8
2
 62
134
  6
CONTINUOUS
  2
*D4
 70
    65
 10
0.0
 20
0.0
  0
LINE
  8
2
 62
134
  6
CONTINUOUS
 10
125.063981
 20
22.880013
 11
130.563981
 21
22.880013
  0
LINE
  8
2
 62
134
  6
CONTINUOUS
 10
125.063981
 20
22.380013
 11
125.063981
 21
26.666961
  0
LINE
  8
2
 62
134
  6
CONTINUOUS
 10
130.563981
 20
22.380013
 11
130.563981
 21
45.335276
  0
LINE
  8
2
 62
134
  6
CONTINUOUS
 10
125.063981
 20
22.880013
 11
126.029907
 21
23.138832
  0
LINE
  8
2
 62
134
  6
CONTINUOUS
 10
125.063981
 20
22.880013
 11
126.029907
 21
22.621194
  0
LINE
  8
2
 62
134
  6
CONTINUOUS
 10
126.029907
 20
23.138832
 11
126.029907
 21
22.621194
  0
LINE
  8
2
 62
134
  6
CONTINUOUS
 10
125.305462
 20
22.880013
 11
125.788425
 21
23.009423
  0
LINE
  8
2
 62
134
  6
CONTINUOUS
 10
125.305462
 20
22.880013
 11
125.788425
 21
22.750604
  0
LINE
  8
2
 62
134
  6
CONTINUOUS
 10
125.788425
 20
23.009423
 11
125.788425
 21
22.750604
  0
LINE
  8
2
 62
134
  6
CONTINUOUS
 10
130.563981
 20
22.880013
 11
129.598055
 21
22.621194
  0
LINE
  8
2
 62
134
  6
CONTINUOUS
 10
130.563981
 20
22.880013
 11
129.598055
 21
23.138832
  0
LINE
  8
2
 62
134
  6
CONTINUOUS
 10
129.598055
 20
22.621194
 11
129.598055
 21
23.138832
  0
LINE
  8
2
 62
134
  6
CONTINUOUS
 10
130.322500
 20
22.880013
 11
129.839537
 21
22.750604
  0
LINE
  8
2
 62
134
  6
CONTINUOUS
 10
130.322500
 20
22.880013
 11
129.839537
 21
23.009423
  0
LINE
  8
2
 62
134
  6
CONTINUOUS
 10
129.839537
 20
22.750604
 11
129.839537
 21
23.009423
  0
TEXT
  8
2
 62
134
  6
CONTINUOUS
 10
126.028611
 20
22.880013
 40
2.000000
 41
0.500000
  1
5.5
  7
KANJI
 50
0.000000
 51
0.000000
  0
ENDBLK
  0
ENDSEC
  0
SECTION
  2
ENTITIES
  0
LINE
  8
5
 62
94
  6
CONTINUOUS
 10
6.734597
 20
4.604085
 11
144.234597
 21
4.604085
  0
LINE
  8
5
 62
94
  6
CONTINUOUS
 10
144.234597
 20
4.604085
 11
144.234597
 21
97.104085
  0
LINE
  8
5
 62
94
  6
CONTINUOUS
 10
144.234597
 20
97.104085
 11
6.734597
 21
97.104085
  0
LINE
  8
5
 62
94
  6
CONTINUOUS
 10
6.734597
 20
97.104085
 11
6.734597
 21
4.604085
  0
TEXT
  8
5
 62
94
  6
CONTINUOUS
 10
107.215971
 20
12.429830
 40
0.875000
 41
4.000000
  1
製図
  7
KANJI
 50
-90.000000
 51
0.000000
  0
TEXT
  8
5
 62
94
  6
CONTINUOUS
 10
117.132362
 20
12.347876
 40
0.875000
 41
4.000000
  1
図番
  7
KANJI
 50
-90.000000
 51
0.000000
  0
TEXT
  8
5
 62
94
  6
CONTINUOUS
 10
117.132362
 20
18.986121
 40
0.875000
 41
4.000000
  1
図　名
  7
KANJI
 50
-90.000000
 51
0.000000
  0
TEXT
  8
5
 62
94
  6
CONTINUOUS
 10
84.678720
 20
16.281651
 40
0.875000
 41
4.000000
  1
日付
  7
KANJI
 50
-90.000000
 51
0.000000
  0
TEXT
  8
5
 62
94
  6
CONTINUOUS
 10
102.216799
 20
16.363605
 40
0.875000
 41
4.000000
  1
図法
  7
KANJI
 50
-90.000000
 51
0.000000
  0
TEXT
  8
5
 62
94
  6
CONTINUOUS
 10
102.134846
 20
20.379333
 40
0.875000
 41
4.000000
  1
尺度
  7
KANJI
 50
-90.000000
 51
0.000000
  0
TEXT
  8
5
 62
94
  6
CONTINUOUS
 10
84.678720
 20
20.297379
 40
0.875000
 41
4.000000
  1
公差
  7
KANJI
 50
-90.000000
 51
0.000000
  0
TEXT
  8
5
 62
94
  6
CONTINUOUS
 10
84.678720
 20
12.347876
 40
0.875000
 41
4.000000
  1
承認
  7
KANJI
 50
-90.000000
 51
0.000000
  0
TEXT
  8
5
 62
94
  6
CONTINUOUS
 10
97.217627
 20
12.347876
 40
0.875000
 41
4.000000
  1
設計
  7
KANJI
 50
-90.000000
 51
0.000000
  0
TEXT
  8
5
 62
94
  6
CONTINUOUS
 10
93.939481
 20
5.381816
 40
2.250000
 41
1.888889
  1
ジャパンセンサー株式会社
  7
KANJI
 50
0.000000
 51
0.000000
  0
LINE
  8
5
 62
94
  6
CONTINUOUS
 10
84.234597
 20
20.604085
 11
144.234597
 21
20.604085
  0
LINE
  8
5
 62
94
  6
CONTINUOUS
 10
84.234597
 20
4.604085
 11
84.234597
 21
20.604085
  0
LINE
  8
5
 62
94
  6
CONTINUOUS
 10
144.234597
 20
8.604085
 11
84.234597
 21
8.604085
  0
LINE
  8
5
 62
94
  6
CONTINUOUS
 10
116.734597
 20
20.604085
 11
116.734597
 21
8.604085
  0
LINE
  8
5
 62
94
  6
CONTINUOUS
 10
144.234597
 20
12.604085
 11
84.234597
 21
12.604085
  0
LINE
  8
5
 62
94
  6
CONTINUOUS
 10
119.234597
 20
8.604085
 11
119.234597
 21
20.604085
  0
LINE
  8
5
 62
94
  6
CONTINUOUS
 10
104.234597
 20
20.604085
 11
104.234597
 21
12.604085
  0
LINE
  8
5
 62
94
  6
CONTINUOUS
 10
86.734597
 20
8.604085
 11
86.734597
 21
20.604085
  0
LINE
  8
5
 62
94
  6
CONTINUOUS
 10
84.234597
 20
16.604085
 11
116.734597
 21
16.604085
  0
LINE
  8
5
 62
94
  6
CONTINUOUS
 10
101.734597
 20
20.604085
 11
101.734597
 21
12.604085
  0
LINE
  8
5
 62
94
  6
CONTINUOUS
 10
96.734597
 20
8.604085
 11
96.734597
 21
12.604085
  0
LINE
  8
5
 62
94
  6
CONTINUOUS
 10
106.734597
 20
8.604085
 11
106.734597
 21
12.604085
  0
LINE
  8
5
 62
94
  6
CONTINUOUS
 10
99.234597
 20
12.604085
 11
99.234597
 21
8.604085
  0
LINE
  8
5
 62
94
  6
CONTINUOUS
 10
109.234597
 20
12.604085
 11
109.234597
 21
8.604085
  0
TEXT
  8
5
 62
94
  6
CONTINUOUS
 10
106.232528
 20
13.249366
 40
2.000000
 41
1.000000
  1
三角法
  7
KANJI
 50
0.000000
 51
0.000000
  0
LINE
  8
5
 62
94
  6
CONTINUOUS
 10
120.556448
 20
16.589321
 11
142.626822
 21
16.589321
  0
TEXT
  8
5
 62
94
  6
CONTINUOUS
 10
100.824656
 20
9.573573
 40
2.000000
 41
1.000000
  1
須藤
  7
KANJI
 50
0.000000
 51
0.000000
  0
TEXT
  8
5
 62
94
  6
CONTINUOUS
 10
107.548081
 20
17.466289
 40
2.000000
 41
1.000000
  1
２／１
  7
KANJI
 50
0.000000
 51
0.000000
  0
TEXT
  8
5
 62
94
  6
CONTINUOUS
 10
110.824656
 20
9.573573
 40
2.000000
 41
1.000000
  1
須藤
  7
KANJI
 50
0.000000
 51
0.000000
  0
TEXT
  8
5
 62
94
  6
CONTINUOUS
 10
89.277904
 20
13.519931
 40
2.000000
 41
0.500000
  1
2013/04/20
  7
KANJI
 50
0.000000
 51
0.000000
  0
TEXT
  8
5
 62
94
  6
CONTINUOUS
 10
121.811453
 20
17.600784
 40
2.000000
 41
1.000000
  1
ＴＭＮＸ－２５
  7
KANJI
 50
0.000000
 51
0.000000
  0
TEXT
  8
5
 62
94
  6
CONTINUOUS
 10
120.695594
 20
13.530056
 40
2.000000
 41
1.000000
  1
φ25ｴｱﾚｽﾌｰﾄﾞ 外形図
  7
KANJI
 50
0.000000
 51
0.000000
  0
DIMENSION
  8
2
 62
134
  6
CONTINUOUS
  2
*D1
 10
13.255362
 20
26.465201
 11
13.255362
 21
59.465201
 70
     0
  1
φ66
 13
18.215753
 23
26.465201
 14
18.255532
 24
92.465201
 50
90.000000
  0
LINE
  8
6
 62
7
  6
CONTINUOUS
 10
125.063981
 20
59.465201
 11
125.063981
 21
45.928660
  0
LINE
  8
6
 62
7
  6
CONTINUOUS
 10
22.063981
 20
71.921598
 11
23.063981
 21
71.921598
  0
LINE
  8
6
 62
7
  6
CONTINUOUS
 10
124.363981
 20
92.466081
 11
125.063981
 21
91.766081
  0
LINE
  8
6
 62
7
  6
CONTINUOUS
 10
18.755532
 20
92.465201
 11
124.364861
 21
92.465201
  0
LINE
  8
6
 62
7
  6
CONTINUOUS
 10
18.755532
 20
92.465201
 11
18.063981
 21
91.722478
  0
LINE
  8
6
 62
7
  6
CONTINUOUS
 10
18.715753
 20
26.465201
 11
18.063981
 21
27.165201
  0
LINE
  8
6
 62
7
  6
CONTINUOUS
 10
124.363981
 20
26.465201
 11
18.715753
 21
26.465201
  0
LINE
  8
6
 62
7
  6
CONTINUOUS
 10
18.715753
 20
26.465201
 11
18.715753
 21
59.440749
  0
LINE
  8
6
 62
7
  6
CONTINUOUS
 10
124.363981
 20
26.466961
 11
125.063981
 21
27.166961
  0
LINE
  8
6
 62
7
  6
CONTINUOUS
 10
124.363981
 20
26.466961
 11
124.363981
 21
59.465201
  0
LINE
  8
6
 62
7
  6
CONTINUOUS
 10
125.063981
 20
45.928660
 11
125.063981
 21
27.166961
  0
LINE
  8
6
 62
7
  6
CONTINUOUS
 10
18.063981
 20
27.165201
 11
18.063981
 21
91.722478
  0
LINE
  8
6
 62
7
  6
CONTINUOUS
 10
22.063981
 20
88.665201
 11
22.063981
 21
59.423586
  0
LINE
  8
6
 62
7
  6
CONTINUOUS
 10
23.063981
 20
88.665201
 11
23.063981
 21
59.459019
  0
LINE
  8
6
 62
7
  6
CONTINUOUS
 10
118.063981
 20
88.665201
 11
18.063981
 21
88.665201
  0
LINE
  8
6
 62
7
  6
CONTINUOUS
 10
118.063981
 20
88.665201
 11
118.063981
 21
59.467188
  0
LINE
  8
1
 62
7
  6
CONTINUOUS
 10
94.063981
 20
88.565201
 11
95.063981
 21
88.565201
  0
LINE
  8
6
 62
7
  6
CONTINUOUS
 10
94.063981
 20
71.965201
 11
95.063981
 21
71.965201
  0
LINE
  8
6
 62
7
  6
CONTINUOUS
 10
95.063981
 20
88.565201
 11
95.063981
 21
59.467188
  0
LINE
  8
6
 62
7
  6
CONTINUOUS
 10
94.063981
 20
88.565201
 11
94.063981
 21
59.467188
  0
LINE
  8
6
 62
7
  6
CONTINUOUS
 10
118.063981
 20
87.465201
 11
95.063981
 21
87.465201
  0
LINE
  8
6
 62
7
  6
CONTINUOUS
 10
70.063981
 20
71.921598
 11
71.063981
 21
71.921598
  0
LINE
  8
6
 62
7
  6
CONTINUOUS
 10
71.063981
 20
88.615158
 11
71.063981
 21
59.423586
  0
LINE
  8
6
 62
7
  6
CONTINUOUS
 10
70.063981
 20
88.622478
 11
70.063981
 21
59.423586
  0
LINE
  8
6
 62
7
  6
CONTINUOUS
 10
94.063981
 20
87.465201
 11
71.063981
 21
87.465201
  0
LINE
  8
6
 62
7
  6
CONTINUOUS
 10
46.063981
 20
71.965201
 11
47.063981
 21
71.965201
  0
LINE
  8
6
 62
7
  6
CONTINUOUS
 10
47.063981
 20
88.658760
 11
47.063981
 21
59.467188
  0
LINE
  8
6
 62
7
  6
CONTINUOUS
 10
46.063981
 20
88.666081
 11
46.063981
 21
59.466081
  0
LINE
  8
6
 62
7
  6
CONTINUOUS
 10
46.063981
 20
87.508803
 11
23.063981
 21
87.465201
  0
LINE
  8
6
 62
7
  6
CONTINUOUS
 10
70.063981
 20
87.465201
 11
47.063981
 21
87.508803
  0
LINE
  8
1
 62
7
  6
CONTINUOUS
 10
18.063981
 20
89.467188
 11
28.063981
 21
89.467188
  0
LINE
  8
1
 62
7
  6
CONTINUOUS
 10
28.063981
 20
89.467188
 11
31.330769
 21
88.665201
  0
LINE
  8
1
 62
7
  6
CONTINUOUS
 10
18.063981
 20
86.467188
 11
22.063981
 21
86.467188
  0
LINE
  8
1
 62
7
  6
CONTINUOUS
 10
19.063981
 20
86.467188
 11
19.063981
 21
89.467188
  0
LINE
  8
1
 62
7
  6
CONTINUOUS
 10
22.063981
 20
86.467188
 11
22.063981
 21
89.467188
  0
LINE
  8
1
 62
7
  6
CONTINUOUS
 10
22.063981
 20
89.467188
 11
18.063981
 21
89.467188
  0
DIMENSION
  8
2
 62
134
  6
CONTINUOUS
  2
*D2
 10
125.063981
 20
22.880013
 11
74.153024
 21
22.880013
 70
     0
  1
107
 13
125.063981
 23
26.666961
 14
18.063981
 24
26.665201
 50
180.000000
  0
LINE
  8
2
 62
134
  6
CONTINUOUS
 10
22.337043
 20
83.377634
 11
28.459336
 21
93.852674
  0
LINE
  8
2
 62
134
  6
CONTINUOUS
 10
28.459336
 20
93.852674
 11
34.730374
 21
93.852674
  0
TEXT
  8
2
 62
134
  6
CONTINUOUS
 10
28.730374
 20
94.081051
 40
2.000000
 41
1.000000
  1
しぼり
  7
KANJI
 50
0.000000
 51
30.000000
  0
LINE
  8
2
 62
134
  6
CONTINUOUS
 10
22.337043
 20
83.377634
 11
22.469019
 21
83.859902
  0
LINE
  8
2
 62
134
  6
CONTINUOUS
 10
22.337043
 20
83.377634
 11
22.692472
 21
83.729302
  0
LINE
  8
2
 62
134
  6
CONTINUOUS
 10
22.469019
 20
83.859902
 11
22.692472
 21
83.729302
  0
LINE
  8
2
 62
134
  6
CONTINUOUS
 10
22.397968
 20
83.481876
 11
22.463957
 21
83.723010
  0
LINE
  8
2
 62
134
  6
CONTINUOUS
 10
22.397968
 20
83.481876
 11
22.575683
 21
83.657710
  0
LINE
  8
2
 62
134
  6
CONTINUOUS
 10
22.463957
 20
83.723010
 11
22.575683
 21
83.657710
  0
LINE
  8
1
 62
7
  6
CONTINUOUS
 10
28.063981
 20
89.467188
 11
28.063981
 21
59.465201
  0
LINE
  8
1
 62
7
  6
CONTINUOUS
 10
30.805115
 20
88.665201
 11
30.805115
 21
59.465201
  0
TEXT
  8
5
 62
94
  6
CONTINUOUS
 10
119.942894
 20
9.573573
 40
2.000000
 41
1.000000
  1
００５－０６５－Ａ１５４
  7
KANJI
 50
0.000000
 51
0.000000
  0
DIMENSION
  8
2
 62
134
  6
CONTINUOUS
  2
*D3
 10
134.014538
 20
45.465201
 11
134.014538
 21
59.427781
 70
     0
  1
M28P0.75
 13
130.693906
 23
45.465201
 14
130.763981
 24
73.465201
 50
90.000000
  0
LINE
  8
6
 62
7
  6
CONTINUOUS
 10
125.563981
 20
45.835276
 11
130.563981
 21
45.835276
  0
LINE
  8
6
 62
7
  6
CONTINUOUS
 10
125.563981
 20
73.023276
 11
130.563981
 21
73.023276
  0
LINE
  8
6
 62
7
  6
CONTINUOUS
 10
130.263981
 20
73.465201
 11
130.563981
 21
73.165201
  0
LINE
  8
6
 62
7
  6
CONTINUOUS
 10
130.563981
 20
73.165201
 11
130.563981
 21
45.835276
  0
LINE
  8
6
 62
7
  6
CONTINUOUS
 10
130.563981
 20
45.835276
 11
130.193906
 21
45.465201
  0
LINE
  8
6
 62
7
  6
CONTINUOUS
 10
125.563981
 20
45.928660
 11
125.563981
 21
45.835276
  0
LINE
  8
6
 62
7
  6
DASHDOT
 10
15.731813
 20
59.465201
 11
132.466610
 21
59.465201
  0
LINE
  8
6
 62
7
  6
CONTINUOUS
 10
118.063981
 20
71.465201
 11
130.563981
 21
71.465201
  0
DIMENSION
  8
2
 62
134
  6
CONTINUOUS
  2
*D4
 10
125.063981
 20
22.880013
 11
127.528611
 21
22.880013
 70
     0
  1
5.5
 13
125.063981
 23
26.666961
 14
130.563981
 24
45.335276
 50
-0.000000
  0
LINE
  8
6
 62
7
  6
CONTINUOUS
 10
125.563981
 20
73.465201
 11
130.263981
 21
73.465201
  0
LINE
  8
6
 62
7
  6
CONTINUOUS
 10
125.063981
 20
73.023276
 11
125.563981
 21
73.023276
  0
LINE
  8
6
 62
7
  6
CONTINUOUS
 10
125.563981
 20
73.023276
 11
125.563981
 21
73.465201
  0
LINE
  8
6
 62
7
  6
CONTINUOUS
 10
125.563981
 20
59.465201
 11
125.563981
 21
45.465201
  0
LINE
  8
6
 62
7
  6
CONTINUOUS
 10
125.563981
 20
45.465201
 11
130.193906
 21
45.465201
  0
LINE
  8
6
 62
7
  6
CONTINUOUS
 10
125.563981
 20
45.835276
 11
125.063981
 21
45.835276
  0
LINE
  8
1
 62
7
  6
CONTINUOUS
 10
124.363981
 20
74.665201
 11
125.063981
 21
74.665201
  0
LINE
  8
1
 62
7
  6
CONTINUOUS
 10
125.063981
 20
73.465201
 11
124.363981
 21
73.465201
  0
LINE
  8
1
 62
7
  6
CONTINUOUS
 10
124.363981
 20
74.665201
 11
124.363981
 21
73.465201
  0
LINE
  8
6
 62
7
  6
CONTINUOUS
 10
125.063981
 20
74.665201
 11
125.063981
 21
91.766081
  0
LINE
  8
6
 62
7
  6
CONTINUOUS
 10
125.063981
 20
73.023276
 11
125.063981
 21
73.465201
  0
CIRCLE
  8
11
 62
251
  6
CONTINUOUS
 10
124.750671
 20
73.965201
 40
0.500000
  0
LINE
  8
2
 62
134
  6
CONTINUOUS
 10
125.179100
 20
74.222978
 11
128.487119
 21
77.711253
  0
LINE
  8
2
 62
134
  6
CONTINUOUS
 10
128.487119
 20
77.711253
 11
133.648922
 21
77.711253
  0
TEXT
  8
2
 62
134
  6
CONTINUOUS
 10
128.648922
 20
77.691681
 40
2.000000
 41
0.500000
  1
Oﾘﾝｸﾞ
  7
KANJI
 50
0.000000
 51
0.000000
  0
LINE
  8
2
 62
134
  6
CONTINUOUS
 10
125.179100
 20
74.222978
 11
125.655963
 21
75.101955
  0
LINE
  8
2
 62
134
  6
CONTINUOUS
 10
125.179100
 20
74.222978
 11
126.031564
 21
74.745763
  0
LINE
  8
2
 62
134
  6
CONTINUOUS
 10
125.655963
 20
75.101955
 11
126.031564
 21
74.745763
  0
LINE
  8
2
 62
134
  6
CONTINUOUS
 10
125.345266
 20
74.398198
 11
125.583697
 21
74.837687
  0
LINE
  8
2
 62
134
  6
CONTINUOUS
 10
125.345266
 20
74.398198
 11
125.771498
 21
74.659591
  0
LINE
  8
2
 62
134
  6
CONTINUOUS
 10
125.583697
 20
74.837687
 11
125.771498
 21
74.659591
  0
ENDSEC
  0
EOF
