  0
SECTION
  2
HEADER
  9
$ACADVER
  1
AC1009
  9
$INSBASE
 10
0.000000
 20
0.000000
  9
$EXTMIN
 10
0.000000
 20
0.000000
  9
$EXTMAX
 10
105.000000
 20
148.500000
  9
$LIMMIN
 10
0.000000
 20
0.000000
  9
$LIMMAX
 10
105.000000
 20
148.500000
  9
$VIEWCTR
 10
52.500000
 20
74.250000
  9
$VIEWSIZE
 40
148.500000
  9
$PEXTMIN
 10
0.000000
 20
0.000000
 30
0.000000
  9
$PEXTMAX
 10
210.000000
 20
297.000000
 30
0.000000
  9
$SNAPMODE
 70
     0
  9
$SNAPUNIT
 10
1.000000
 20
1.000000
  9
$SNAPBASE
 10
0.000000
 20
0.000000
  9
$SNAPANG
 50
0.000000
  9
$SNAPISOPAIR
 70
     0
  9
$SNAPSTYLE
 70
     0
  9
$GRIDMODE
 70
     0
  9
$GRIDUNIT
 10
0.000000
 20
0.000000
  9
$ORTHOMODE
 70
     0
  9
$REGENMODE
 70
     1
  9
$FILLMODE
 70
     1
  9
$QTEXTMODE
 70
     0
  9
$DRAGMODE
 70
     2
  9
$LTSCALE
 40
0.125000
  9
$OSMODE
 70
     0
  9
$ATTMODE
 70
     1
  9
$TEXTSIZE
 40
2.000000
  9
$TRACEWID
 40
0.050000
  9
$TEXTSTYLE
  7
STANDARD
  9
$CLAYER
  8
0
  9
$CELTYPE
  6
BYLAYER
  9
$CECOLOR
 62
   256
  9
$DIMSCALE
 40
1.000000
  9
$DIMASZ
 40
1.000000
  9
$DIMEXO
 40
0.000000
  9
$DIMDLI
 40
0.500000
  9
$DIMRND
 40
0.000000
  9
$DIMDLE
 40
0.000000
  9
$DIMEXE
 40
0.000000
  9
$DIMTP
 40
0.000000
  9
$DIMTM
 40
0.000000
  9
$DIMTXT
 40
4.000000
  9
$DIMCEN
 40
0.000000
  9
$DIMTSZ
 40
0.000000
  9
$DIMTOL
 70
     0
  9
$DIMLIM
 70
     0
  9
$DIMTIH
 70
     1
  9
$DIMTOH
 70
     1
  9
$DIMSE1
 70
     0
  9
$DIMSE2
 70
     0
  9
$DIMTAD
 70
     0
  9
$DIMZIN
 70
     0
  9
$DIMBLK
  1

  9
$DIMASO
 70
     0
  9
$DIMSHO
 70
     0
  9
$DIMPOST
  1

  9
$DIMAPOST
  1

  9
$DIMALT
 70
     0
  9
$DIMALTD
 70
     0
  9
$DIMALTF
 40
25.400000
  9
$DIMLFAC
 40
1.000000
  9
$DIMTOFL
 70
     0
  9
$DIMTVP
 40
0.000000
  9
$DIMTIX
 70
     0
  9
$DIMSOXD
 70
     0
  9
$DIMSAH
 70
     0
  9
$DIMBLKL
  1

  9
$DIMBLKR
  1

  9
$LUNITS
 70
     2
  9
$LUPREC
 70
     2
  9
$AXISMODE
 70
     0
  9
$AXISUNIT
 10
1.000000
 20
1.000000
  9
$SKETCHINC
 40
0.000000
  9
$FILLETRAD
 40
0.000000
  9
$AUNITS
 70
     1
  9
$AUPREC
 70
     2
  9
$MENU
  1
ACAD
  9
$ELEVATION
 40
0.000000
  9
$THICKNESS
 40
0.000000
  9
$VIEWDIR
 10
0.000000
 20
0.000000
 30
1.000000
  9
$LIMCHECK
 70
     1
  9
$BLIPMODE
 70
     1
  9
$CHAMFERA
 40
0.000000
  9
$CHAMFERB
 40
0.000000
  9
$FASTZOOM
 70
     1
  9
$SKPOLY
 70
     0
  9
$TDCREATE
 40
0.000000
  9
$TDUPDATE
 40
0.000000
  9
$TDINDWG
 40
0.000000
  9
$TDUSRTIMER
 40
0.000000
  9
$USRTIMER
 70
     1
  9
$ANGBASE
 50
0.000000
  9
$ANGDIR
 70
     0
  9
$PDMODE
 70
     0
  9
$PDSIZE
 40
0.000000
  9
$PLINEWID
 40
0.000000
  9
$COORDS
 70
     2
  9
$USERI1
 70
     0
  9
$USERI2
 70
     0
  9
$USERI3
 70
     0
  9
$USERI4
 70
     0
  9
$USERI5
 70
     0
  9
$USERR1
 40
0.000000
  9
$USERR2
 40
0.000000
  9
$USERR3
 40
0.000000
  9
$USERR4
 40
0.000000
  9
$USERR5
 40
0.000000
  0
ENDSEC
  0
SECTION
  2
TABLES
  0
TABLE
  2
LTYPE
 70
     5
  0
LTYPE
  2
CONTINUOUS
 70
    64
  3
Solid line
 72
    65
 73
     0
 40
0.0
  0
LTYPE
  2
HIDDEN
 70
    64
  3
------------------------
 72
    65
 73
     2
 40
12.6
 49
8.4
 49
-4.2
  0
LTYPE
  2
DOT
 70
    64
  3
････････････････････････
 72
    65
 73
     2
 40
8.0
 49
6.0
 49
-2.0
  0
LTYPE
  2
DASHDOT
 70
    64
  3
--･--･--･--･--･--･--･--
 72
    65
 73
     4
 40
50.5
 49
30.0
 49
-9.0
 49
2.5
 49
-9.0
  0
LTYPE
  2
DIVIDE
 70
    64
  3
--･･--･･--･･--･･--･･--
 72
    65
 73
     6
 40
58.0
 49
30.0
 49
-9.0
 49
2.5
 49
-5.0
 49
2.5
 49
-9.0
  0
LTYPE
  2
ACAD_ISO06W100
 70
    64
  3
____ ... ____ ... ____
 72
    65
 73
     8
 40
37.5
 49
24.0
 49
-3.0
 49
0.5
 49
-3.0
 49
0.5
 49
-3.0
 49
0.5
 49
-3.0
  0
LTYPE
  2
ACAD_ISO14W100
 70
    64
  3
__ . . . __ . . . __ . . . 
 72
    65
 73
     8
 40
25.5
 49
12.0
 49
-3.0
 49
0.5
 49
-3.0
 49
0.5
 49
-3.0
 49
0.5
 49
-3.0
  0
ENDTAB
  0
TABLE
  2
LAYER
 70
5
  0
LAYER
  2
1
 70
64
 62
7
  6
CONTINUOUS
  0
LAYER
  2
2
 70
64
 62
134
  6
CONTINUOUS
  0
LAYER
  2
5
 70
64
 62
94
  6
CONTINUOUS
  0
LAYER
  2
6
 70
64
 62
7
  6
CONTINUOUS
  0
LAYER
  2
11
 70
64
 62
251
  6
CONTINUOUS
  0
ENDTAB
  0
TABLE
  2
STYLE
 70
     2
  0
STYLE
  2
STANDARD
 70
    64
 40
0.0
 41
1.0
 50
0.0
 71
     0
 42
0.2
  3
TXT
  4

  0
STYLE
  2
KANJI
 70
    64
 40
0.0
 41
1.0
 50
0.0
 71
     0
 42
0.2
  3
TXT
  4
BIGFONT
  0
ENDTAB
  0
TABLE
  2
VIEW
 70
     0
  0
ENDTAB
  0
ENDSEC
  0
SECTION
  2
BLOCKS
  0
BLOCK
  8
2
 62
134
  6
CONTINUOUS
  2
*D1
 70
    65
 10
0.0
 20
0.0
  0
LINE
  8
2
 62
134
  6
CONTINUOUS
 10
94.514538
 20
88.707335
 11
94.514538
 21
104.707335
  0
LINE
  8
2
 62
134
  6
CONTINUOUS
 10
95.014538
 20
88.707335
 11
91.193906
 21
88.707335
  0
LINE
  8
2
 62
134
  6
CONTINUOUS
 10
95.014538
 20
104.707335
 11
91.263981
 21
104.707335
  0
LINE
  8
2
 62
134
  6
CONTINUOUS
 10
94.514538
 20
88.707335
 11
94.255719
 21
89.673260
  0
LINE
  8
2
 62
134
  6
CONTINUOUS
 10
94.514538
 20
88.707335
 11
94.773357
 21
89.673260
  0
LINE
  8
2
 62
134
  6
CONTINUOUS
 10
94.255719
 20
89.673260
 11
94.773357
 21
89.673260
  0
LINE
  8
2
 62
134
  6
CONTINUOUS
 10
94.514538
 20
88.948816
 11
94.385129
 21
89.431779
  0
LINE
  8
2
 62
134
  6
CONTINUOUS
 10
94.514538
 20
88.948816
 11
94.643948
 21
89.431779
  0
LINE
  8
2
 62
134
  6
CONTINUOUS
 10
94.385129
 20
89.431779
 11
94.643948
 21
89.431779
  0
LINE
  8
2
 62
134
  6
CONTINUOUS
 10
94.514538
 20
104.707335
 11
94.773357
 21
103.741409
  0
LINE
  8
2
 62
134
  6
CONTINUOUS
 10
94.514538
 20
104.707335
 11
94.255719
 21
103.741409
  0
LINE
  8
2
 62
134
  6
CONTINUOUS
 10
94.773357
 20
103.741409
 11
94.255719
 21
103.741409
  0
LINE
  8
2
 62
134
  6
CONTINUOUS
 10
94.514538
 20
104.465853
 11
94.643948
 21
103.982890
  0
LINE
  8
2
 62
134
  6
CONTINUOUS
 10
94.514538
 20
104.465853
 11
94.385129
 21
103.982890
  0
LINE
  8
2
 62
134
  6
CONTINUOUS
 10
94.643948
 20
103.982890
 11
94.385129
 21
103.982890
  0
TEXT
  8
2
 62
134
  6
CONTINUOUS
 10
94.514538
 20
92.669914
 40
2.000000
 41
0.500000
  1
M16P0.75
  7
KANJI
 50
90.000000
 51
0.000000
  0
ENDBLK
  0
BLOCK
  8
2
 62
134
  6
CONTINUOUS
  2
*D2
 70
    65
 10
0.0
 20
0.0
  0
LINE
  8
2
 62
134
  6
CONTINUOUS
 10
88.063981
 20
70.808798
 11
91.063981
 21
70.808798
  0
LINE
  8
2
 62
134
  6
CONTINUOUS
 10
88.063981
 20
70.308798
 11
88.063981
 21
76.871674
  0
LINE
  8
2
 62
134
  6
CONTINUOUS
 10
91.063981
 20
70.308798
 11
91.063981
 21
88.577409
  0
LINE
  8
2
 62
134
  6
CONTINUOUS
 10
88.063981
 20
70.808798
 11
89.029907
 21
71.067617
  0
LINE
  8
2
 62
134
  6
CONTINUOUS
 10
88.063981
 20
70.808798
 11
89.029907
 21
70.549979
  0
LINE
  8
2
 62
134
  6
CONTINUOUS
 10
89.029907
 20
71.067617
 11
89.029907
 21
70.549979
  0
LINE
  8
2
 62
134
  6
CONTINUOUS
 10
88.305462
 20
70.808798
 11
88.788425
 21
70.938208
  0
LINE
  8
2
 62
134
  6
CONTINUOUS
 10
88.305462
 20
70.808798
 11
88.788425
 21
70.679389
  0
LINE
  8
2
 62
134
  6
CONTINUOUS
 10
88.788425
 20
70.938208
 11
88.788425
 21
70.679389
  0
LINE
  8
2
 62
134
  6
CONTINUOUS
 10
91.063981
 20
70.808798
 11
90.098055
 21
70.549979
  0
LINE
  8
2
 62
134
  6
CONTINUOUS
 10
91.063981
 20
70.808798
 11
90.098055
 21
71.067617
  0
LINE
  8
2
 62
134
  6
CONTINUOUS
 10
90.098055
 20
70.549979
 11
90.098055
 21
71.067617
  0
LINE
  8
2
 62
134
  6
CONTINUOUS
 10
90.822500
 20
70.808798
 11
90.339537
 21
70.679389
  0
LINE
  8
2
 62
134
  6
CONTINUOUS
 10
90.822500
 20
70.808798
 11
90.339537
 21
70.938208
  0
LINE
  8
2
 62
134
  6
CONTINUOUS
 10
90.339537
 20
70.679389
 11
90.339537
 21
70.938208
  0
TEXT
  8
2
 62
134
  6
CONTINUOUS
 10
88.778611
 20
70.808798
 40
2.000000
 41
0.500000
  1
3
  7
KANJI
 50
0.000000
 51
0.000000
  0
ENDBLK
  0
BLOCK
  8
2
 62
134
  6
CONTINUOUS
  2
*D3
 70
    65
 10
0.0
 20
0.0
  0
LINE
  8
2
 62
134
  6
CONTINUOUS
 10
12.755362
 20
76.669914
 11
12.755362
 21
116.669914
  0
LINE
  8
2
 62
134
  6
CONTINUOUS
 10
12.255362
 20
76.669914
 11
17.715753
 21
76.669914
  0
LINE
  8
2
 62
134
  6
CONTINUOUS
 10
12.255362
 20
116.669914
 11
17.755532
 21
116.669914
  0
LINE
  8
2
 62
134
  6
CONTINUOUS
 10
12.755362
 20
76.669914
 11
12.496543
 21
77.635840
  0
LINE
  8
2
 62
134
  6
CONTINUOUS
 10
12.755362
 20
76.669914
 11
13.014181
 21
77.635840
  0
LINE
  8
2
 62
134
  6
CONTINUOUS
 10
12.496543
 20
77.635840
 11
13.014181
 21
77.635840
  0
LINE
  8
2
 62
134
  6
CONTINUOUS
 10
12.755362
 20
76.911396
 11
12.625953
 21
77.394359
  0
LINE
  8
2
 62
134
  6
CONTINUOUS
 10
12.755362
 20
76.911396
 11
12.884772
 21
77.394359
  0
LINE
  8
2
 62
134
  6
CONTINUOUS
 10
12.625953
 20
77.394359
 11
12.884772
 21
77.394359
  0
LINE
  8
2
 62
134
  6
CONTINUOUS
 10
12.755362
 20
116.669914
 11
13.014181
 21
115.703989
  0
LINE
  8
2
 62
134
  6
CONTINUOUS
 10
12.755362
 20
116.669914
 11
12.496543
 21
115.703989
  0
LINE
  8
2
 62
134
  6
CONTINUOUS
 10
13.014181
 20
115.703989
 11
12.496543
 21
115.703989
  0
LINE
  8
2
 62
134
  6
CONTINUOUS
 10
12.755362
 20
116.428433
 11
12.884772
 21
115.945470
  0
LINE
  8
2
 62
134
  6
CONTINUOUS
 10
12.755362
 20
116.428433
 11
12.625953
 21
115.945470
  0
LINE
  8
2
 62
134
  6
CONTINUOUS
 10
12.884772
 20
115.945470
 11
12.625953
 21
115.945470
  0
TEXT
  8
2
 62
134
  6
CONTINUOUS
 10
12.755362
 20
94.669914
 40
2.000000
 41
1.000000
  1
φ40
  7
KANJI
 50
90.000000
 51
0.000000
  0
ENDBLK
  0
BLOCK
  8
2
 62
134
  6
CONTINUOUS
  2
*D4
 70
    65
 10
0.0
 20
0.0
  0
LINE
  8
2
 62
134
  6
CONTINUOUS
 10
88.063981
 20
70.808798
 11
17.563981
 21
70.808798
  0
LINE
  8
2
 62
134
  6
CONTINUOUS
 10
88.063981
 20
70.308798
 11
88.063981
 21
76.871674
  0
LINE
  8
2
 62
134
  6
CONTINUOUS
 10
17.563981
 20
70.308798
 11
17.563981
 21
76.869914
  0
LINE
  8
2
 62
134
  6
CONTINUOUS
 10
88.063981
 20
70.808798
 11
87.098055
 21
70.549979
  0
LINE
  8
2
 62
134
  6
CONTINUOUS
 10
88.063981
 20
70.808798
 11
87.098055
 21
71.067617
  0
LINE
  8
2
 62
134
  6
CONTINUOUS
 10
87.098055
 20
70.549979
 11
87.098055
 21
71.067617
  0
LINE
  8
2
 62
134
  6
CONTINUOUS
 10
87.822500
 20
70.808798
 11
87.339537
 21
70.679389
  0
LINE
  8
2
 62
134
  6
CONTINUOUS
 10
87.822500
 20
70.808798
 11
87.339537
 21
70.938208
  0
LINE
  8
2
 62
134
  6
CONTINUOUS
 10
87.339537
 20
70.679389
 11
87.339537
 21
70.938208
  0
LINE
  8
2
 62
134
  6
CONTINUOUS
 10
17.563981
 20
70.808798
 11
18.529907
 21
71.067617
  0
LINE
  8
2
 62
134
  6
CONTINUOUS
 10
17.563981
 20
70.808798
 11
18.529907
 21
70.549979
  0
LINE
  8
2
 62
134
  6
CONTINUOUS
 10
18.529907
 20
71.067617
 11
18.529907
 21
70.549979
  0
LINE
  8
2
 62
134
  6
CONTINUOUS
 10
17.805462
 20
70.808798
 11
18.288425
 21
70.938208
  0
LINE
  8
2
 62
134
  6
CONTINUOUS
 10
17.805462
 20
70.808798
 11
18.288425
 21
70.679389
  0
LINE
  8
2
 62
134
  6
CONTINUOUS
 10
18.288425
 20
70.938208
 11
18.288425
 21
70.679389
  0
TEXT
  8
2
 62
134
  6
CONTINUOUS
 10
53.403024
 20
70.808798
 40
2.000000
 41
0.500000
  1
70.5
  7
KANJI
 50
0.000000
 51
0.000000
  0
ENDBLK
  0
ENDSEC
  0
SECTION
  2
ENTITIES
  0
TEXT
  8
5
 62
94
  6
CONTINUOUS
 10
62.215971
 20
12.429830
 40
0.875000
 41
4.000000
  1
製図
  7
KANJI
 50
-90.000000
 51
0.000000
  0
TEXT
  8
5
 62
94
  6
CONTINUOUS
 10
72.132362
 20
12.347876
 40
0.875000
 41
4.000000
  1
図番
  7
KANJI
 50
-90.000000
 51
0.000000
  0
TEXT
  8
5
 62
94
  6
CONTINUOUS
 10
72.132362
 20
18.986121
 40
0.875000
 41
4.000000
  1
図　名
  7
KANJI
 50
-90.000000
 51
0.000000
  0
TEXT
  8
5
 62
94
  6
CONTINUOUS
 10
39.678720
 20
16.281651
 40
0.875000
 41
4.000000
  1
日付
  7
KANJI
 50
-90.000000
 51
0.000000
  0
TEXT
  8
5
 62
94
  6
CONTINUOUS
 10
57.216799
 20
16.363605
 40
0.875000
 41
4.000000
  1
図法
  7
KANJI
 50
-90.000000
 51
0.000000
  0
TEXT
  8
5
 62
94
  6
CONTINUOUS
 10
57.134846
 20
20.379333
 40
0.875000
 41
4.000000
  1
尺度
  7
KANJI
 50
-90.000000
 51
0.000000
  0
TEXT
  8
5
 62
94
  6
CONTINUOUS
 10
39.678720
 20
20.297379
 40
0.875000
 41
4.000000
  1
公差
  7
KANJI
 50
-90.000000
 51
0.000000
  0
TEXT
  8
5
 62
94
  6
CONTINUOUS
 10
39.678720
 20
12.347876
 40
0.875000
 41
4.000000
  1
承認
  7
KANJI
 50
-90.000000
 51
0.000000
  0
TEXT
  8
5
 62
94
  6
CONTINUOUS
 10
52.217627
 20
12.347876
 40
0.875000
 41
4.000000
  1
設計
  7
KANJI
 50
-90.000000
 51
0.000000
  0
TEXT
  8
5
 62
94
  6
CONTINUOUS
 10
48.939481
 20
5.381816
 40
2.250000
 41
1.888889
  1
ジャパンセンサー株式会社
  7
KANJI
 50
0.000000
 51
0.000000
  0
LINE
  8
5
 62
94
  6
CONTINUOUS
 10
39.234597
 20
20.604085
 11
99.234597
 21
20.604085
  0
LINE
  8
5
 62
94
  6
CONTINUOUS
 10
39.234597
 20
4.604085
 11
39.234597
 21
20.604085
  0
LINE
  8
5
 62
94
  6
CONTINUOUS
 10
99.234597
 20
8.604085
 11
39.234597
 21
8.604085
  0
LINE
  8
5
 62
94
  6
CONTINUOUS
 10
71.734597
 20
20.604085
 11
71.734597
 21
8.604085
  0
LINE
  8
5
 62
94
  6
CONTINUOUS
 10
99.234597
 20
12.604085
 11
39.234597
 21
12.604085
  0
LINE
  8
5
 62
94
  6
CONTINUOUS
 10
74.234597
 20
8.604085
 11
74.234597
 21
20.604085
  0
LINE
  8
5
 62
94
  6
CONTINUOUS
 10
59.234597
 20
20.604085
 11
59.234597
 21
12.604085
  0
LINE
  8
5
 62
94
  6
CONTINUOUS
 10
41.734597
 20
8.604085
 11
41.734597
 21
20.604085
  0
LINE
  8
5
 62
94
  6
CONTINUOUS
 10
39.234597
 20
16.604085
 11
71.734597
 21
16.604085
  0
LINE
  8
5
 62
94
  6
CONTINUOUS
 10
56.734597
 20
20.604085
 11
56.734597
 21
12.604085
  0
LINE
  8
5
 62
94
  6
CONTINUOUS
 10
51.734597
 20
8.604085
 11
51.734597
 21
12.604085
  0
LINE
  8
5
 62
94
  6
CONTINUOUS
 10
61.734597
 20
8.604085
 11
61.734597
 21
12.604085
  0
LINE
  8
5
 62
94
  6
CONTINUOUS
 10
54.234597
 20
12.604085
 11
54.234597
 21
8.604085
  0
LINE
  8
5
 62
94
  6
CONTINUOUS
 10
64.234597
 20
12.604085
 11
64.234597
 21
8.604085
  0
TEXT
  8
5
 62
94
  6
CONTINUOUS
 10
61.232528
 20
13.249366
 40
2.000000
 41
1.000000
  1
三角法
  7
KANJI
 50
0.000000
 51
0.000000
  0
LINE
  8
5
 62
94
  6
CONTINUOUS
 10
75.556448
 20
16.589321
 11
97.626822
 21
16.589321
  0
TEXT
  8
5
 62
94
  6
CONTINUOUS
 10
55.824656
 20
9.573573
 40
2.000000
 41
1.000000
  1
須藤
  7
KANJI
 50
0.000000
 51
0.000000
  0
TEXT
  8
5
 62
94
  6
CONTINUOUS
 10
62.548081
 20
17.466289
 40
2.000000
 41
1.000000
  1
２／１
  7
KANJI
 50
0.000000
 51
0.000000
  0
TEXT
  8
5
 62
94
  6
CONTINUOUS
 10
65.824656
 20
9.573573
 40
2.000000
 41
1.000000
  1
須藤
  7
KANJI
 50
0.000000
 51
0.000000
  0
LINE
  8
5
 62
94
  6
CONTINUOUS
 10
6.734597
 20
142.104085
 11
6.734597
 21
4.604085
  0
LINE
  8
5
 62
94
  6
CONTINUOUS
 10
6.734597
 20
4.604085
 11
99.234597
 21
4.604085
  0
LINE
  8
5
 62
94
  6
CONTINUOUS
 10
99.234597
 20
4.604085
 11
99.234597
 21
142.104085
  0
LINE
  8
5
 62
94
  6
CONTINUOUS
 10
99.234597
 20
142.104085
 11
6.734597
 21
142.104085
  0
TEXT
  8
5
 62
94
  6
CONTINUOUS
 10
44.277904
 20
13.519931
 40
2.000000
 41
0.500000
  1
2013/04/20
  7
KANJI
 50
0.000000
 51
0.000000
  0
TEXT
  8
5
 62
94
  6
CONTINUOUS
 10
76.811453
 20
17.600784
 40
2.000000
 41
1.000000
  1
ＴＭＮＸ－１５
  7
KANJI
 50
0.000000
 51
0.000000
  0
TEXT
  8
5
 62
94
  6
CONTINUOUS
 10
75.695594
 20
13.530056
 40
2.000000
 41
1.000000
  1
φ15ｴｱﾚｽﾌｰﾄﾞ 外形図
  7
KANJI
 50
0.000000
 51
0.000000
  0
LINE
  8
2
 62
134
  6
CONTINUOUS
 10
22.337043
 20
108.582348
 11
29.062180
 21
119.088834
  0
LINE
  8
2
 62
134
  6
CONTINUOUS
 10
29.062180
 20
119.088834
 11
35.333219
 21
119.088834
  0
TEXT
  8
2
 62
134
  6
CONTINUOUS
 10
29.333219
 20
119.317211
 40
2.000000
 41
1.000000
  1
しぼり
  7
KANJI
 50
0.000000
 51
30.000000
  0
LINE
  8
2
 62
134
  6
CONTINUOUS
 10
22.337043
 20
108.582348
 11
22.488419
 21
109.058882
  0
LINE
  8
2
 62
134
  6
CONTINUOUS
 10
22.337043
 20
108.582348
 11
22.706406
 21
108.919350
  0
LINE
  8
2
 62
134
  6
CONTINUOUS
 10
22.488419
 20
109.058882
 11
22.706406
 21
108.919350
  0
LINE
  8
2
 62
134
  6
CONTINUOUS
 10
22.402135
 20
108.684040
 11
22.477823
 21
108.922307
  0
LINE
  8
2
 62
134
  6
CONTINUOUS
 10
22.402135
 20
108.684040
 11
22.586817
 21
108.852541
  0
LINE
  8
2
 62
134
  6
CONTINUOUS
 10
22.477823
 20
108.922307
 11
22.586817
 21
108.852541
  0
LINE
  8
6
 62
7
  6
CONTINUOUS
 10
67.063981
 20
103.170794
 11
68.063981
 21
103.170794
  0
LINE
  8
6
 62
7
  6
CONTINUOUS
 10
52.063981
 20
103.127192
 11
53.063981
 21
103.127192
  0
LINE
  8
6
 62
7
  6
CONTINUOUS
 10
37.063981
 20
103.127192
 11
38.063981
 21
103.127192
  0
LINE
  8
6
 62
7
  6
CONTINUOUS
 10
22.063981
 20
103.127192
 11
23.063981
 21
103.127192
  0
LINE
  8
6
 62
7
  6
CONTINUOUS
 10
82.063981
 20
113.869914
 11
82.063981
 21
96.671902
  0
LINE
  8
6
 62
7
  6
CONTINUOUS
 10
67.063981
 20
112.669914
 11
53.063981
 21
112.669914
  0
LINE
  8
6
 62
7
  6
CONTINUOUS
 10
52.063981
 20
112.669914
 11
38.063981
 21
112.669914
  0
LINE
  8
6
 62
7
  6
CONTINUOUS
 10
37.063981
 20
112.669914
 11
23.063981
 21
112.669914
  0
LINE
  8
6
 62
7
  6
CONTINUOUS
 10
82.063981
 20
112.669914
 11
68.063981
 21
112.669914
  0
LINE
  8
1
 62
7
  6
CONTINUOUS
 10
28.063981
 20
114.669914
 11
28.063981
 21
96.669914
  0
LINE
  8
1
 62
7
  6
CONTINUOUS
 10
29.063981
 20
113.869914
 11
29.063981
 21
96.669914
  0
LINE
  8
1
 62
7
  6
CONTINUOUS
 10
28.063981
 20
114.669914
 11
29.063981
 21
113.869914
  0
LINE
  8
6
 62
7
  6
CONTINUOUS
 10
68.063981
 20
113.769914
 11
68.063981
 21
96.671902
  0
LINE
  8
6
 62
7
  6
CONTINUOUS
 10
67.063981
 20
113.769914
 11
67.063981
 21
96.671902
  0
LINE
  8
6
 62
7
  6
CONTINUOUS
 10
53.063981
 20
113.769914
 11
53.063981
 21
96.628299
  0
LINE
  8
6
 62
7
  6
CONTINUOUS
 10
52.063981
 20
113.769914
 11
52.063981
 21
96.628299
  0
LINE
  8
6
 62
7
  6
CONTINUOUS
 10
38.063981
 20
113.769914
 11
38.063981
 21
96.628299
  0
LINE
  8
6
 62
7
  6
CONTINUOUS
 10
37.063981
 20
113.769914
 11
37.063981
 21
96.627192
  0
LINE
  8
6
 62
7
  6
CONTINUOUS
 10
23.063981
 20
113.769914
 11
23.063981
 21
96.663732
  0
LINE
  8
6
 62
7
  6
CONTINUOUS
 10
22.063981
 20
113.769914
 11
22.063981
 21
96.628299
  0
LINE
  8
1
 62
7
  6
CONTINUOUS
 10
22.063981
 20
113.769914
 11
82.063981
 21
113.769914
  0
LINE
  8
1
 62
7
  6
CONTINUOUS
 10
22.063981
 20
114.669914
 11
22.063981
 21
96.669914
  0
LINE
  8
1
 62
7
  6
CONTINUOUS
 10
19.063981
 20
112.669914
 11
19.063981
 21
114.669914
  0
TEXT
  8
5
 62
94
  6
CONTINUOUS
 10
74.573176
 20
9.497937
 40
2.000000
 41
1.000000
  1
００５－０６５－Ａ１５３
  7
KANJI
 50
0.000000
 51
0.000000
  0
LINE
  8
6
 62
7
  6
CONTINUOUS
 10
88.063981
 20
96.669914
 11
88.063981
 21
89.170794
  0
LINE
  8
6
 62
7
  6
CONTINUOUS
 10
87.363981
 20
116.670794
 11
88.063981
 21
115.970794
  0
LINE
  8
6
 62
7
  6
CONTINUOUS
 10
87.363981
 20
76.671674
 11
88.063981
 21
77.371674
  0
LINE
  8
6
 62
7
  6
CONTINUOUS
 10
87.363981
 20
76.671674
 11
87.363981
 21
96.669914
  0
LINE
  8
6
 62
7
  6
CONTINUOUS
 10
88.063981
 20
89.170794
 11
88.063981
 21
77.371674
  0
LINE
  8
6
 62
7
  6
CONTINUOUS
 10
88.563981
 20
89.170794
 11
88.563981
 21
89.077409
  0
LINE
  8
6
 62
7
  6
CONTINUOUS
 10
88.063981
 20
104.265409
 11
88.563981
 21
104.265409
  0
LINE
  8
6
 62
7
  6
CONTINUOUS
 10
88.563981
 20
104.265409
 11
88.563981
 21
104.707335
  0
LINE
  8
6
 62
7
  6
CONTINUOUS
 10
88.563981
 20
89.077409
 11
88.063981
 21
89.077409
  0
LINE
  8
6
 62
7
  6
CONTINUOUS
 10
88.563981
 20
96.669914
 11
88.563981
 21
88.707335
  0
LINE
  8
6
 62
7
  6
CONTINUOUS
 10
87.363981
 20
105.907335
 11
88.063981
 21
105.907335
  0
LINE
  8
6
 62
7
  6
CONTINUOUS
 10
87.363981
 20
105.907335
 11
87.363981
 21
104.707335
  0
LINE
  8
6
 62
7
  6
CONTINUOUS
 10
88.063981
 20
104.707335
 11
87.363981
 21
104.707335
  0
LINE
  8
6
 62
7
  6
CONTINUOUS
 10
88.063981
 20
105.907335
 11
88.063981
 21
115.970794
  0
LINE
  8
6
 62
7
  6
CONTINUOUS
 10
88.063981
 20
104.265409
 11
88.063981
 21
104.707335
  0
CIRCLE
  8
11
 62
251
  6
CONTINUOUS
 10
87.768724
 20
105.169914
 40
0.500000
  0
DIMENSION
  8
2
 62
134
  6
CONTINUOUS
  2
*D1
 10
94.514538
 20
88.707335
 11
94.514538
 21
96.669914
 70
     0
  1
M16P0.75
 13
91.193906
 23
88.707335
 14
91.263981
 24
104.707335
 50
90.000000
  0
LINE
  8
6
 62
7
  6
CONTINUOUS
 10
82.063981
 20
103.170794
 11
91.063981
 21
103.170794
  0
DIMENSION
  8
2
 62
134
  6
CONTINUOUS
  2
*D2
 10
88.063981
 20
70.808798
 11
89.278611
 21
70.808798
 70
     0
  1
3
 13
88.063981
 23
76.871674
 14
91.063981
 24
88.577409
 50
0.000000
  0
LINE
  8
6
 62
7
  6
CONTINUOUS
 10
88.563981
 20
89.077409
 11
91.063981
 21
89.077409
  0
LINE
  8
6
 62
7
  6
CONTINUOUS
 10
88.563981
 20
104.265409
 11
91.063981
 21
104.265409
  0
LINE
  8
6
 62
7
  6
CONTINUOUS
 10
88.563981
 20
104.707335
 11
91.063981
 21
104.707335
  0
LINE
  8
6
 62
7
  6
CONTINUOUS
 10
88.563981
 20
88.707335
 11
91.063981
 21
88.707335
  0
LINE
  8
6
 62
7
  6
CONTINUOUS
 10
91.063981
 20
104.707335
 11
91.063981
 21
88.707335
  0
DIMENSION
  8
2
 62
134
  6
CONTINUOUS
  2
*D3
 10
12.755362
 20
76.669914
 11
12.755362
 21
96.669914
 70
     0
  1
φ40
 13
17.715753
 23
76.669914
 14
17.755532
 24
116.669914
 50
90.000000
  0
LINE
  8
6
 62
7
  6
CONTINUOUS
 10
18.255532
 20
116.669914
 11
17.563981
 21
115.927192
  0
LINE
  8
6
 62
7
  6
CONTINUOUS
 10
18.215753
 20
76.669914
 11
17.563981
 21
77.369914
  0
LINE
  8
6
 62
7
  6
CONTINUOUS
 10
18.215753
 20
76.669914
 11
18.215753
 21
96.645462
  0
LINE
  8
6
 62
7
  6
CONTINUOUS
 10
17.563981
 20
77.369914
 11
17.563981
 21
115.927192
  0
LINE
  8
6
 62
7
  6
CONTINUOUS
 10
82.063981
 20
113.869914
 11
17.563981
 21
113.869914
  0
LINE
  8
1
 62
7
  6
CONTINUOUS
 10
17.563981
 20
114.669914
 11
28.063981
 21
114.669914
  0
LINE
  8
1
 62
7
  6
CONTINUOUS
 10
17.563981
 20
114.669914
 11
22.063981
 21
114.669914
  0
LINE
  8
1
 62
7
  6
CONTINUOUS
 10
17.563981
 20
112.669914
 11
22.063981
 21
112.669914
  0
DIMENSION
  8
2
 62
134
  6
CONTINUOUS
  2
*D4
 10
88.063981
 20
70.808798
 11
55.403024
 21
70.808798
 70
     0
  1
70.5
 13
88.063981
 23
76.871674
 14
17.563981
 24
76.869914
 50
180.000000
  0
LINE
  8
6
 62
7
  6
CONTINUOUS
 10
18.255532
 20
116.669914
 11
87.364861
 21
116.669914
  0
LINE
  8
6
 62
7
  6
CONTINUOUS
 10
87.363981
 20
76.669914
 11
18.215753
 21
76.669914
  0
LINE
  8
6
 62
7
  6
DASHDOT
 10
15.231813
 20
96.669914
 11
92.966610
 21
96.669914
  0
LINE
  8
2
 62
134
  6
CONTINUOUS
 10
88.149396
 20
105.494089
 11
91.457415
 21
108.982365
  0
LINE
  8
2
 62
134
  6
CONTINUOUS
 10
91.457415
 20
108.982365
 11
96.619217
 21
108.982365
  0
TEXT
  8
2
 62
134
  6
CONTINUOUS
 10
91.619217
 20
108.962793
 40
2.000000
 41
0.500000
  1
Oﾘﾝｸﾞ
  7
KANJI
 50
0.000000
 51
0.000000
  0
LINE
  8
2
 62
134
  6
CONTINUOUS
 10
88.149396
 20
105.494089
 11
88.626259
 21
106.373067
  0
LINE
  8
2
 62
134
  6
CONTINUOUS
 10
88.149396
 20
105.494089
 11
89.001860
 21
106.016875
  0
LINE
  8
2
 62
134
  6
CONTINUOUS
 10
88.626259
 20
106.373067
 11
89.001860
 21
106.016875
  0
LINE
  8
2
 62
134
  6
CONTINUOUS
 10
88.315562
 20
105.669310
 11
88.553993
 21
106.108798
  0
LINE
  8
2
 62
134
  6
CONTINUOUS
 10
88.315562
 20
105.669310
 11
88.741794
 21
105.930702
  0
LINE
  8
2
 62
134
  6
CONTINUOUS
 10
88.553993
 20
106.108798
 11
88.741794
 21
105.930702
  0
TEXT
  8
2
 62
134
  6
CONTINUOUS
 10
45.987097
 20
62.429839
 40
2.000000
 41
1.000000
  1
質量：70g
  7
KANJI
 50
0.000000
 51
0.000000
  0
ENDSEC
  0
EOF
