  0
SECTION
  2
HEADER
  9
$ACADVER
  1
AC1009
  9
$INSBASE
 10
0.000000
 20
0.000000
  9
$EXTMIN
 10
0.000000
 20
0.000000
  9
$EXTMAX
 10
105.000000
 20
148.500000
  9
$LIMMIN
 10
0.000000
 20
0.000000
  9
$LIMMAX
 10
105.000000
 20
148.500000
  9
$VIEWCTR
 10
52.500000
 20
74.250000
  9
$VIEWSIZE
 40
148.500000
  9
$PEXTMIN
 10
0.000000
 20
0.000000
 30
0.000000
  9
$PEXTMAX
 10
210.000000
 20
297.000000
 30
0.000000
  9
$SNAPMODE
 70
     0
  9
$SNAPUNIT
 10
1.000000
 20
1.000000
  9
$SNAPBASE
 10
0.000000
 20
0.000000
  9
$SNAPANG
 50
0.000000
  9
$SNAPISOPAIR
 70
     0
  9
$SNAPSTYLE
 70
     0
  9
$GRIDMODE
 70
     0
  9
$GRIDUNIT
 10
0.000000
 20
0.000000
  9
$ORTHOMODE
 70
     0
  9
$REGENMODE
 70
     1
  9
$FILLMODE
 70
     1
  9
$QTEXTMODE
 70
     0
  9
$DRAGMODE
 70
     2
  9
$LTSCALE
 40
0.125000
  9
$OSMODE
 70
     0
  9
$ATTMODE
 70
     1
  9
$TEXTSIZE
 40
2.000000
  9
$TRACEWID
 40
0.050000
  9
$TEXTSTYLE
  7
STANDARD
  9
$CLAYER
  8
0
  9
$CELTYPE
  6
BYLAYER
  9
$CECOLOR
 62
   256
  9
$DIMSCALE
 40
1.000000
  9
$DIMASZ
 40
1.000000
  9
$DIMEXO
 40
0.000000
  9
$DIMDLI
 40
0.500000
  9
$DIMRND
 40
0.000000
  9
$DIMDLE
 40
0.000000
  9
$DIMEXE
 40
0.000000
  9
$DIMTP
 40
0.000000
  9
$DIMTM
 40
0.000000
  9
$DIMTXT
 40
4.000000
  9
$DIMCEN
 40
0.000000
  9
$DIMTSZ
 40
0.000000
  9
$DIMTOL
 70
     0
  9
$DIMLIM
 70
     0
  9
$DIMTIH
 70
     1
  9
$DIMTOH
 70
     1
  9
$DIMSE1
 70
     0
  9
$DIMSE2
 70
     0
  9
$DIMTAD
 70
     0
  9
$DIMZIN
 70
     0
  9
$DIMBLK
  1

  9
$DIMASO
 70
     0
  9
$DIMSHO
 70
     0
  9
$DIMPOST
  1

  9
$DIMAPOST
  1

  9
$DIMALT
 70
     0
  9
$DIMALTD
 70
     0
  9
$DIMALTF
 40
25.400000
  9
$DIMLFAC
 40
1.000000
  9
$DIMTOFL
 70
     0
  9
$DIMTVP
 40
0.000000
  9
$DIMTIX
 70
     0
  9
$DIMSOXD
 70
     0
  9
$DIMSAH
 70
     0
  9
$DIMBLKL
  1

  9
$DIMBLKR
  1

  9
$LUNITS
 70
     2
  9
$LUPREC
 70
     2
  9
$AXISMODE
 70
     0
  9
$AXISUNIT
 10
1.000000
 20
1.000000
  9
$SKETCHINC
 40
0.000000
  9
$FILLETRAD
 40
0.000000
  9
$AUNITS
 70
     1
  9
$AUPREC
 70
     2
  9
$MENU
  1
ACAD
  9
$ELEVATION
 40
0.000000
  9
$THICKNESS
 40
0.000000
  9
$VIEWDIR
 10
0.000000
 20
0.000000
 30
1.000000
  9
$LIMCHECK
 70
     1
  9
$BLIPMODE
 70
     1
  9
$CHAMFERA
 40
0.000000
  9
$CHAMFERB
 40
0.000000
  9
$FASTZOOM
 70
     1
  9
$SKPOLY
 70
     0
  9
$TDCREATE
 40
0.000000
  9
$TDUPDATE
 40
0.000000
  9
$TDINDWG
 40
0.000000
  9
$TDUSRTIMER
 40
0.000000
  9
$USRTIMER
 70
     1
  9
$ANGBASE
 50
0.000000
  9
$ANGDIR
 70
     0
  9
$PDMODE
 70
     0
  9
$PDSIZE
 40
0.000000
  9
$PLINEWID
 40
0.000000
  9
$COORDS
 70
     2
  9
$USERI1
 70
     0
  9
$USERI2
 70
     0
  9
$USERI3
 70
     0
  9
$USERI4
 70
     0
  9
$USERI5
 70
     0
  9
$USERR1
 40
0.000000
  9
$USERR2
 40
0.000000
  9
$USERR3
 40
0.000000
  9
$USERR4
 40
0.000000
  9
$USERR5
 40
0.000000
  0
ENDSEC
  0
SECTION
  2
TABLES
  0
TABLE
  2
LTYPE
 70
     5
  0
LTYPE
  2
CONTINUOUS
 70
    64
  3
Solid line
 72
    65
 73
     0
 40
0.0
  0
LTYPE
  2
HIDDEN
 70
    64
  3
------------------------
 72
    65
 73
     2
 40
12.6
 49
8.4
 49
-4.2
  0
LTYPE
  2
DOT
 70
    64
  3
････････････････････････
 72
    65
 73
     2
 40
8.0
 49
6.0
 49
-2.0
  0
LTYPE
  2
DASHDOT
 70
    64
  3
--･--･--･--･--･--･--･--
 72
    65
 73
     4
 40
50.5
 49
30.0
 49
-9.0
 49
2.5
 49
-9.0
  0
LTYPE
  2
DIVIDE
 70
    64
  3
--･･--･･--･･--･･--･･--
 72
    65
 73
     6
 40
58.0
 49
30.0
 49
-9.0
 49
2.5
 49
-5.0
 49
2.5
 49
-9.0
  0
LTYPE
  2
ACAD_ISO06W100
 70
    64
  3
____ ... ____ ... ____
 72
    65
 73
     8
 40
37.5
 49
24.0
 49
-3.0
 49
0.5
 49
-3.0
 49
0.5
 49
-3.0
 49
0.5
 49
-3.0
  0
LTYPE
  2
ACAD_ISO14W100
 70
    64
  3
__ . . . __ . . . __ . . . 
 72
    65
 73
     8
 40
25.5
 49
12.0
 49
-3.0
 49
0.5
 49
-3.0
 49
0.5
 49
-3.0
 49
0.5
 49
-3.0
  0
ENDTAB
  0
TABLE
  2
LAYER
 70
5
  0
LAYER
  2
1
 70
64
 62
7
  6
CONTINUOUS
  0
LAYER
  2
2
 70
64
 62
134
  6
CONTINUOUS
  0
LAYER
  2
5
 70
64
 62
94
  6
CONTINUOUS
  0
LAYER
  2
6
 70
64
 62
7
  6
CONTINUOUS
  0
LAYER
  2
11
 70
64
 62
251
  6
CONTINUOUS
  0
ENDTAB
  0
TABLE
  2
STYLE
 70
     2
  0
STYLE
  2
STANDARD
 70
    64
 40
0.0
 41
1.0
 50
0.0
 71
     0
 42
0.2
  3
TXT
  4

  0
STYLE
  2
KANJI
 70
    64
 40
0.0
 41
1.0
 50
0.0
 71
     0
 42
0.2
  3
TXT
  4
BIGFONT
  0
ENDTAB
  0
TABLE
  2
VIEW
 70
     0
  0
ENDTAB
  0
ENDSEC
  0
SECTION
  2
BLOCKS
  0
BLOCK
  8
2
 62
134
  6
CONTINUOUS
  2
*D1
 70
    65
 10
0.0
 20
0.0
  0
LINE
  8
2
 62
134
  6
CONTINUOUS
 10
74.156397
 20
77.413839
 11
24.156397
 21
77.413839
  0
LINE
  8
2
 62
134
  6
CONTINUOUS
 10
74.156397
 20
76.913839
 11
74.156397
 21
82.869914
  0
LINE
  8
2
 62
134
  6
CONTINUOUS
 10
24.156397
 20
76.913839
 11
24.156397
 21
82.869914
  0
LINE
  8
2
 62
134
  6
CONTINUOUS
 10
74.156397
 20
77.413839
 11
73.190471
 21
77.155020
  0
LINE
  8
2
 62
134
  6
CONTINUOUS
 10
74.156397
 20
77.413839
 11
73.190471
 21
77.672658
  0
LINE
  8
2
 62
134
  6
CONTINUOUS
 10
73.190471
 20
77.155020
 11
73.190471
 21
77.672658
  0
LINE
  8
2
 62
134
  6
CONTINUOUS
 10
73.914916
 20
77.413839
 11
73.431953
 21
77.284430
  0
LINE
  8
2
 62
134
  6
CONTINUOUS
 10
73.914916
 20
77.413839
 11
73.431953
 21
77.543249
  0
LINE
  8
2
 62
134
  6
CONTINUOUS
 10
73.431953
 20
77.284430
 11
73.431953
 21
77.543249
  0
LINE
  8
2
 62
134
  6
CONTINUOUS
 10
24.156397
 20
77.413839
 11
25.122323
 21
77.672658
  0
LINE
  8
2
 62
134
  6
CONTINUOUS
 10
24.156397
 20
77.413839
 11
25.122323
 21
77.155020
  0
LINE
  8
2
 62
134
  6
CONTINUOUS
 10
25.122323
 20
77.672658
 11
25.122323
 21
77.155020
  0
LINE
  8
2
 62
134
  6
CONTINUOUS
 10
24.397879
 20
77.413839
 11
24.880842
 21
77.543249
  0
LINE
  8
2
 62
134
  6
CONTINUOUS
 10
24.397879
 20
77.413839
 11
24.880842
 21
77.284430
  0
LINE
  8
2
 62
134
  6
CONTINUOUS
 10
24.880842
 20
77.543249
 11
24.880842
 21
77.284430
  0
TEXT
  8
2
 62
134
  6
CONTINUOUS
 10
49.142312
 20
77.413839
 40
2.000000
 41
0.500000
  1
50
  7
KANJI
 50
0.000000
 51
0.000000
  0
ENDBLK
  0
BLOCK
  8
2
 62
134
  6
CONTINUOUS
  2
*D2
 70
    65
 10
0.0
 20
0.0
  0
LINE
  8
2
 62
134
  6
CONTINUOUS
 10
19.349620
 20
82.669914
 11
19.349620
 21
110.669914
  0
LINE
  8
2
 62
134
  6
CONTINUOUS
 10
18.849620
 20
82.669914
 11
24.356397
 21
82.669914
  0
LINE
  8
2
 62
134
  6
CONTINUOUS
 10
18.849620
 20
110.669914
 11
24.356397
 21
110.669914
  0
LINE
  8
2
 62
134
  6
CONTINUOUS
 10
19.349620
 20
82.669914
 11
19.090801
 21
83.635840
  0
LINE
  8
2
 62
134
  6
CONTINUOUS
 10
19.349620
 20
82.669914
 11
19.608439
 21
83.635840
  0
LINE
  8
2
 62
134
  6
CONTINUOUS
 10
19.090801
 20
83.635840
 11
19.608439
 21
83.635840
  0
LINE
  8
2
 62
134
  6
CONTINUOUS
 10
19.349620
 20
82.911396
 11
19.220211
 21
83.394359
  0
LINE
  8
2
 62
134
  6
CONTINUOUS
 10
19.349620
 20
82.911396
 11
19.479030
 21
83.394359
  0
LINE
  8
2
 62
134
  6
CONTINUOUS
 10
19.220211
 20
83.394359
 11
19.479030
 21
83.394359
  0
LINE
  8
2
 62
134
  6
CONTINUOUS
 10
19.349620
 20
110.669914
 11
19.608439
 21
109.703989
  0
LINE
  8
2
 62
134
  6
CONTINUOUS
 10
19.349620
 20
110.669914
 11
19.090801
 21
109.703989
  0
LINE
  8
2
 62
134
  6
CONTINUOUS
 10
19.608439
 20
109.703989
 11
19.090801
 21
109.703989
  0
LINE
  8
2
 62
134
  6
CONTINUOUS
 10
19.349620
 20
110.428433
 11
19.479030
 21
109.945470
  0
LINE
  8
2
 62
134
  6
CONTINUOUS
 10
19.349620
 20
110.428433
 11
19.220211
 21
109.945470
  0
LINE
  8
2
 62
134
  6
CONTINUOUS
 10
19.479030
 20
109.945470
 11
19.220211
 21
109.945470
  0
TEXT
  8
2
 62
134
  6
CONTINUOUS
 10
19.349620
 20
94.669914
 40
2.000000
 41
1.000000
  1
φ28
  7
KANJI
 50
90.000000
 51
0.000000
  0
ENDBLK
  0
BLOCK
  8
2
 62
134
  6
CONTINUOUS
  2
*D3
 70
    65
 10
0.0
 20
0.0
  0
LINE
  8
2
 62
134
  6
CONTINUOUS
 10
83.526318
 20
88.669914
 11
83.526318
 21
104.669914
  0
LINE
  8
2
 62
134
  6
CONTINUOUS
 10
84.026318
 20
88.669914
 11
79.156397
 21
88.669914
  0
LINE
  8
2
 62
134
  6
CONTINUOUS
 10
84.026318
 20
104.669914
 11
79.156397
 21
104.669914
  0
LINE
  8
2
 62
134
  6
CONTINUOUS
 10
83.526318
 20
88.669914
 11
83.267499
 21
89.635840
  0
LINE
  8
2
 62
134
  6
CONTINUOUS
 10
83.526318
 20
88.669914
 11
83.785137
 21
89.635840
  0
LINE
  8
2
 62
134
  6
CONTINUOUS
 10
83.267499
 20
89.635840
 11
83.785137
 21
89.635840
  0
LINE
  8
2
 62
134
  6
CONTINUOUS
 10
83.526318
 20
88.911396
 11
83.396909
 21
89.394359
  0
LINE
  8
2
 62
134
  6
CONTINUOUS
 10
83.526318
 20
88.911396
 11
83.655728
 21
89.394359
  0
LINE
  8
2
 62
134
  6
CONTINUOUS
 10
83.396909
 20
89.394359
 11
83.655728
 21
89.394359
  0
LINE
  8
2
 62
134
  6
CONTINUOUS
 10
83.526318
 20
104.669914
 11
83.785137
 21
103.703989
  0
LINE
  8
2
 62
134
  6
CONTINUOUS
 10
83.526318
 20
104.669914
 11
83.267499
 21
103.703989
  0
LINE
  8
2
 62
134
  6
CONTINUOUS
 10
83.785137
 20
103.703989
 11
83.267499
 21
103.703989
  0
LINE
  8
2
 62
134
  6
CONTINUOUS
 10
83.526318
 20
104.428433
 11
83.655728
 21
103.945470
  0
LINE
  8
2
 62
134
  6
CONTINUOUS
 10
83.526318
 20
104.428433
 11
83.396909
 21
103.945470
  0
LINE
  8
2
 62
134
  6
CONTINUOUS
 10
83.655728
 20
103.945470
 11
83.396909
 21
103.945470
  0
TEXT
  8
2
 62
134
  6
CONTINUOUS
 10
83.526318
 20
94.169914
 40
2.000000
 41
0.500000
  1
M16P2
  7
KANJI
 50
90.000000
 51
0.000000
  0
ENDBLK
  0
BLOCK
  8
2
 62
134
  6
CONTINUOUS
  2
*D4
 70
    65
 10
0.0
 20
0.0
  0
LINE
  8
2
 62
134
  6
CONTINUOUS
 10
74.156397
 20
77.413839
 11
78.656397
 21
77.413839
  0
LINE
  8
2
 62
134
  6
CONTINUOUS
 10
74.156397
 20
76.913839
 11
74.156397
 21
82.869914
  0
LINE
  8
2
 62
134
  6
CONTINUOUS
 10
78.656397
 20
76.913839
 11
78.656397
 21
88.169914
  0
LINE
  8
2
 62
134
  6
CONTINUOUS
 10
74.156397
 20
77.413839
 11
75.122323
 21
77.672658
  0
LINE
  8
2
 62
134
  6
CONTINUOUS
 10
74.156397
 20
77.413839
 11
75.122323
 21
77.155020
  0
LINE
  8
2
 62
134
  6
CONTINUOUS
 10
75.122323
 20
77.672658
 11
75.122323
 21
77.155020
  0
LINE
  8
2
 62
134
  6
CONTINUOUS
 10
74.397879
 20
77.413839
 11
74.880842
 21
77.543249
  0
LINE
  8
2
 62
134
  6
CONTINUOUS
 10
74.397879
 20
77.413839
 11
74.880842
 21
77.284430
  0
LINE
  8
2
 62
134
  6
CONTINUOUS
 10
74.880842
 20
77.543249
 11
74.880842
 21
77.284430
  0
LINE
  8
2
 62
134
  6
CONTINUOUS
 10
78.656397
 20
77.413839
 11
77.690471
 21
77.155020
  0
LINE
  8
2
 62
134
  6
CONTINUOUS
 10
78.656397
 20
77.413839
 11
77.690471
 21
77.672658
  0
LINE
  8
2
 62
134
  6
CONTINUOUS
 10
77.690471
 20
77.155020
 11
77.690471
 21
77.672658
  0
LINE
  8
2
 62
134
  6
CONTINUOUS
 10
78.414916
 20
77.413839
 11
77.931953
 21
77.284430
  0
LINE
  8
2
 62
134
  6
CONTINUOUS
 10
78.414916
 20
77.413839
 11
77.931953
 21
77.543249
  0
LINE
  8
2
 62
134
  6
CONTINUOUS
 10
77.931953
 20
77.284430
 11
77.931953
 21
77.543249
  0
TEXT
  8
2
 62
134
  6
CONTINUOUS
 10
74.884518
 20
77.413839
 40
2.000000
 41
0.500000
  1
4.5
  7
KANJI
 50
0.000000
 51
0.000000
  0
ENDBLK
  0
ENDSEC
  0
SECTION
  2
ENTITIES
  0
TEXT
  8
5
 62
94
  6
CONTINUOUS
 10
62.215971
 20
12.429830
 40
0.875000
 41
4.000000
  1
製図
  7
KANJI
 50
-90.000000
 51
0.000000
  0
TEXT
  8
5
 62
94
  6
CONTINUOUS
 10
72.132362
 20
12.347876
 40
0.875000
 41
4.000000
  1
図番
  7
KANJI
 50
-90.000000
 51
0.000000
  0
TEXT
  8
5
 62
94
  6
CONTINUOUS
 10
72.132362
 20
18.986121
 40
0.875000
 41
4.000000
  1
図　名
  7
KANJI
 50
-90.000000
 51
0.000000
  0
TEXT
  8
5
 62
94
  6
CONTINUOUS
 10
39.678720
 20
16.281651
 40
0.875000
 41
4.000000
  1
日付
  7
KANJI
 50
-90.000000
 51
0.000000
  0
TEXT
  8
5
 62
94
  6
CONTINUOUS
 10
57.216799
 20
16.363605
 40
0.875000
 41
4.000000
  1
図法
  7
KANJI
 50
-90.000000
 51
0.000000
  0
TEXT
  8
5
 62
94
  6
CONTINUOUS
 10
57.134846
 20
20.379333
 40
0.875000
 41
4.000000
  1
尺度
  7
KANJI
 50
-90.000000
 51
0.000000
  0
TEXT
  8
5
 62
94
  6
CONTINUOUS
 10
39.678720
 20
20.297379
 40
0.875000
 41
4.000000
  1
公差
  7
KANJI
 50
-90.000000
 51
0.000000
  0
TEXT
  8
5
 62
94
  6
CONTINUOUS
 10
39.678720
 20
12.347876
 40
0.875000
 41
4.000000
  1
承認
  7
KANJI
 50
-90.000000
 51
0.000000
  0
TEXT
  8
5
 62
94
  6
CONTINUOUS
 10
52.217627
 20
12.347876
 40
0.875000
 41
4.000000
  1
設計
  7
KANJI
 50
-90.000000
 51
0.000000
  0
TEXT
  8
5
 62
94
  6
CONTINUOUS
 10
48.939481
 20
5.381816
 40
2.250000
 41
1.888889
  1
ジャパンセンサー株式会社
  7
KANJI
 50
0.000000
 51
0.000000
  0
LINE
  8
5
 62
94
  6
CONTINUOUS
 10
39.234597
 20
20.604085
 11
99.234597
 21
20.604085
  0
LINE
  8
5
 62
94
  6
CONTINUOUS
 10
39.234597
 20
4.604085
 11
39.234597
 21
20.604085
  0
LINE
  8
5
 62
94
  6
CONTINUOUS
 10
99.234597
 20
8.604085
 11
39.234597
 21
8.604085
  0
LINE
  8
5
 62
94
  6
CONTINUOUS
 10
71.734597
 20
20.604085
 11
71.734597
 21
8.604085
  0
LINE
  8
5
 62
94
  6
CONTINUOUS
 10
99.234597
 20
12.604085
 11
39.234597
 21
12.604085
  0
LINE
  8
5
 62
94
  6
CONTINUOUS
 10
74.234597
 20
8.604085
 11
74.234597
 21
20.604085
  0
LINE
  8
5
 62
94
  6
CONTINUOUS
 10
59.234597
 20
20.604085
 11
59.234597
 21
12.604085
  0
LINE
  8
5
 62
94
  6
CONTINUOUS
 10
41.734597
 20
8.604085
 11
41.734597
 21
20.604085
  0
LINE
  8
5
 62
94
  6
CONTINUOUS
 10
39.234597
 20
16.604085
 11
71.734597
 21
16.604085
  0
LINE
  8
5
 62
94
  6
CONTINUOUS
 10
56.734597
 20
20.604085
 11
56.734597
 21
12.604085
  0
LINE
  8
5
 62
94
  6
CONTINUOUS
 10
51.734597
 20
8.604085
 11
51.734597
 21
12.604085
  0
LINE
  8
5
 62
94
  6
CONTINUOUS
 10
61.734597
 20
8.604085
 11
61.734597
 21
12.604085
  0
LINE
  8
5
 62
94
  6
CONTINUOUS
 10
54.234597
 20
12.604085
 11
54.234597
 21
8.604085
  0
LINE
  8
5
 62
94
  6
CONTINUOUS
 10
64.234597
 20
12.604085
 11
64.234597
 21
8.604085
  0
TEXT
  8
5
 62
94
  6
CONTINUOUS
 10
61.232528
 20
13.249366
 40
2.000000
 41
1.000000
  1
三角法
  7
KANJI
 50
0.000000
 51
0.000000
  0
LINE
  8
5
 62
94
  6
CONTINUOUS
 10
75.556448
 20
16.589321
 11
97.626822
 21
16.589321
  0
TEXT
  8
5
 62
94
  6
CONTINUOUS
 10
55.824656
 20
9.573573
 40
2.000000
 41
1.000000
  1
須藤
  7
KANJI
 50
0.000000
 51
0.000000
  0
TEXT
  8
5
 62
94
  6
CONTINUOUS
 10
62.548081
 20
17.466289
 40
2.000000
 41
1.000000
  1
２／１
  7
KANJI
 50
0.000000
 51
0.000000
  0
TEXT
  8
5
 62
94
  6
CONTINUOUS
 10
65.824656
 20
9.573573
 40
2.000000
 41
1.000000
  1
須藤
  7
KANJI
 50
0.000000
 51
0.000000
  0
LINE
  8
5
 62
94
  6
CONTINUOUS
 10
6.734597
 20
142.104085
 11
6.734597
 21
4.604085
  0
LINE
  8
5
 62
94
  6
CONTINUOUS
 10
6.734597
 20
4.604085
 11
99.234597
 21
4.604085
  0
LINE
  8
5
 62
94
  6
CONTINUOUS
 10
99.234597
 20
4.604085
 11
99.234597
 21
142.104085
  0
LINE
  8
5
 62
94
  6
CONTINUOUS
 10
99.234597
 20
142.104085
 11
6.734597
 21
142.104085
  0
TEXT
  8
5
 62
94
  6
CONTINUOUS
 10
75.695594
 20
13.530056
 40
2.000000
 41
1.000000
  1
φ10ｴｱﾚｽﾌｰﾄﾞ 外形図
  7
KANJI
 50
0.000000
 51
0.000000
  0
TEXT
  8
5
 62
94
  6
CONTINUOUS
 10
44.277904
 20
13.519931
 40
2.000000
 41
0.500000
  1
2013/04/20
  7
KANJI
 50
0.000000
 51
0.000000
  0
LINE
  8
6
 62
7
  6
CONTINUOUS
 10
24.156397
 20
109.969914
 11
24.856397
 21
110.669914
  0
LINE
  8
6
 62
7
  6
CONTINUOUS
 10
24.156397
 20
109.969914
 11
24.156397
 21
83.369914
  0
LINE
  8
6
 62
7
  6
CONTINUOUS
 10
24.156397
 20
83.369914
 11
24.856397
 21
82.669914
  0
LINE
  8
6
 62
7
  6
CONTINUOUS
 10
24.856397
 20
82.669914
 11
24.856397
 21
96.652798
  0
LINE
  8
6
 62
7
  6
CONTINUOUS
 10
73.456397
 20
110.669914
 11
74.156397
 21
109.969914
  0
LINE
  8
6
 62
7
  6
CONTINUOUS
 10
73.456397
 20
110.669914
 11
24.856397
 21
110.669914
  0
LINE
  8
6
 62
7
  6
CONTINUOUS
 10
74.156397
 20
104.669914
 11
74.156397
 21
103.587414
  0
LINE
  8
6
 62
7
  6
CONTINUOUS
 10
73.456397
 20
82.669914
 11
74.156397
 21
83.369914
  0
LINE
  8
6
 62
7
  6
CONTINUOUS
 10
73.456397
 20
82.669914
 11
24.856397
 21
82.669914
  0
LINE
  8
6
 62
7
  6
CONTINUOUS
 10
74.156397
 20
83.369914
 11
74.156397
 21
96.669914
  0
LINE
  8
6
 62
7
  6
CONTINUOUS
 10
27.156397
 20
101.190009
 11
28.156397
 21
101.190009
  0
LINE
  8
6
 62
7
  6
CONTINUOUS
 10
38.156397
 20
107.669914
 11
28.156397
 21
107.669914
  0
LINE
  8
6
 62
7
  6
CONTINUOUS
 10
38.156397
 20
101.190009
 11
39.156397
 21
101.190009
  0
LINE
  8
6
 62
7
  6
CONTINUOUS
 10
49.156397
 20
107.669914
 11
39.156397
 21
107.669914
  0
LINE
  8
6
 62
7
  6
CONTINUOUS
 10
49.156397
 20
101.190009
 11
50.156397
 21
101.190009
  0
LINE
  8
6
 62
7
  6
CONTINUOUS
 10
60.156397
 20
107.669914
 11
50.156397
 21
107.669914
  0
LINE
  8
6
 62
7
  6
CONTINUOUS
 10
60.156397
 20
101.190009
 11
61.156397
 21
101.190009
  0
LINE
  8
6
 62
7
  6
CONTINUOUS
 10
71.156397
 20
107.669914
 11
61.156397
 21
107.669914
  0
DIMENSION
  8
2
 62
134
  6
CONTINUOUS
  2
*D1
 10
74.156397
 20
77.413839
 11
50.142312
 21
77.413839
 70
     0
  1
50
 13
74.156397
 23
82.869914
 14
24.156397
 24
82.869914
 50
180.000000
  0
DIMENSION
  8
2
 62
134
  6
CONTINUOUS
  2
*D2
 10
19.349620
 20
82.669914
 11
19.349620
 21
96.669914
 70
     0
  1
φ28
 13
24.356397
 23
82.669914
 14
24.356397
 24
110.669914
 50
90.000000
  0
LINE
  8
2
 62
134
  6
CONTINUOUS
 10
27.590743
 20
103.595491
 11
34.315880
 21
114.101978
  0
LINE
  8
2
 62
134
  6
CONTINUOUS
 10
34.315880
 20
114.101978
 11
40.586919
 21
114.101978
  0
TEXT
  8
2
 62
134
  6
CONTINUOUS
 10
34.586919
 20
114.330355
 40
2.000000
 41
1.000000
  1
しぼり
  7
KANJI
 50
0.000000
 51
30.000000
  0
LINE
  8
2
 62
134
  6
CONTINUOUS
 10
27.590743
 20
103.595491
 11
27.742119
 21
104.072026
  0
LINE
  8
2
 62
134
  6
CONTINUOUS
 10
27.590743
 20
103.595491
 11
27.960106
 21
103.932494
  0
LINE
  8
2
 62
134
  6
CONTINUOUS
 10
27.742119
 20
104.072026
 11
27.960106
 21
103.932494
  0
LINE
  8
2
 62
134
  6
CONTINUOUS
 10
27.655835
 20
103.697184
 11
27.731524
 21
103.935451
  0
LINE
  8
2
 62
134
  6
CONTINUOUS
 10
27.655835
 20
103.697184
 11
27.840517
 21
103.865685
  0
LINE
  8
2
 62
134
  6
CONTINUOUS
 10
27.731524
 20
103.935451
 11
27.840517
 21
103.865685
  0
LINE
  8
6
 62
7
  6
CONTINUOUS
 10
29.156397
 20
109.669914
 11
24.156397
 21
109.669914
  0
LINE
  8
6
 62
7
  6
CONTINUOUS
 10
29.156397
 20
109.669914
 11
29.156397
 21
96.669914
  0
LINE
  8
6
 62
7
  6
CONTINUOUS
 10
30.156397
 20
108.869914
 11
30.156397
 21
96.669914
  0
LINE
  8
6
 62
7
  6
CONTINUOUS
 10
71.156397
 20
108.869914
 11
24.156397
 21
108.869914
  0
LINE
  8
6
 62
7
  6
CONTINUOUS
 10
71.156397
 20
108.869914
 11
71.156397
 21
96.669914
  0
LINE
  8
6
 62
7
  6
CONTINUOUS
 10
30.156397
 20
108.869914
 11
29.156397
 21
109.669914
  0
LINE
  8
6
 62
7
  6
CONTINUOUS
 10
71.156397
 20
108.769914
 11
27.156397
 21
108.769914
  0
LINE
  8
6
 62
7
  6
CONTINUOUS
 10
61.156397
 20
108.769914
 11
61.156397
 21
96.665587
  0
LINE
  8
6
 62
7
  6
CONTINUOUS
 10
60.156397
 20
108.769914
 11
60.156397
 21
96.640784
  0
LINE
  8
6
 62
7
  6
CONTINUOUS
 10
50.156397
 20
108.769914
 11
50.156397
 21
96.665587
  0
LINE
  8
6
 62
7
  6
CONTINUOUS
 10
49.156397
 20
108.769914
 11
49.156397
 21
96.640784
  0
LINE
  8
6
 62
7
  6
CONTINUOUS
 10
39.156397
 20
108.769914
 11
39.156397
 21
96.665587
  0
LINE
  8
6
 62
7
  6
CONTINUOUS
 10
38.156397
 20
108.769914
 11
38.156397
 21
96.640784
  0
LINE
  8
6
 62
7
  6
CONTINUOUS
 10
28.156397
 20
108.769914
 11
28.156397
 21
96.665587
  0
LINE
  8
6
 62
7
  6
CONTINUOUS
 10
27.156397
 20
108.769914
 11
27.156397
 21
96.640784
  0
LINE
  8
1
 62
7
  6
CONTINUOUS
 10
24.656397
 20
96.669914
 11
24.656397
 21
109.669914
  0
LINE
  8
1
 62
7
  6
CONTINUOUS
 10
24.656397
 20
109.669914
 11
27.156397
 21
109.669914
  0
LINE
  8
1
 62
7
  6
CONTINUOUS
 10
27.156397
 20
109.669914
 11
27.156397
 21
96.669914
  0
LINE
  8
1
 62
7
  6
CONTINUOUS
 10
24.656397
 20
107.669914
 11
27.156397
 21
107.669914
  0
LINE
  8
1
 62
7
  6
CONTINUOUS
 10
25.656397
 20
107.669914
 11
25.656397
 21
109.669914
  0
TEXT
  8
5
 62
94
  6
CONTINUOUS
 10
76.811453
 20
17.600784
 40
2.000000
 41
1.000000
  1
ＴＭＮＸ－Ａ１
  7
KANJI
 50
0.000000
 51
0.000000
  0
TEXT
  8
5
 62
94
  6
CONTINUOUS
 10
74.743981
 20
9.654820
 40
2.000000
 41
1.000000
  1
００５－０６５－Ａ１５１
  7
KANJI
 50
0.000000
 51
0.000000
  0
LINE
  8
6
 62
7
  6
DASHDOT
 10
20.721704
 20
96.669914
 11
80.418917
 21
96.669914
  0
LINE
  8
6
 62
7
  6
CONTINUOUS
 10
74.656397
 20
103.587414
 11
74.156397
 21
103.587414
  0
LINE
  8
6
 62
7
  6
CONTINUOUS
 10
74.656397
 20
104.669914
 11
74.656397
 21
103.587414
  0
LINE
  8
6
 62
7
  6
CONTINUOUS
 10
78.656397
 20
103.587414
 11
74.656397
 21
103.587414
  0
LINE
  8
6
 62
7
  6
CONTINUOUS
 10
74.656397
 20
104.669914
 11
78.656397
 21
104.669914
  0
LINE
  8
6
 62
7
  6
CONTINUOUS
 10
78.656397
 20
104.669914
 11
78.656397
 21
88.669914
  0
LINE
  8
6
 62
7
  6
CONTINUOUS
 10
74.656397
 20
89.752414
 11
74.156397
 21
89.752414
  0
LINE
  8
6
 62
7
  6
CONTINUOUS
 10
78.656397
 20
89.752414
 11
74.656397
 21
89.752414
  0
LINE
  8
6
 62
7
  6
CONTINUOUS
 10
74.656397
 20
88.669914
 11
78.656397
 21
88.669914
  0
LINE
  8
6
 62
7
  6
CONTINUOUS
 10
74.656397
 20
88.669914
 11
74.656397
 21
96.669914
  0
DIMENSION
  8
2
 62
134
  6
CONTINUOUS
  2
*D3
 10
83.526318
 20
88.669914
 11
83.526318
 21
96.669914
 70
     0
  1
M16P2
 13
79.156397
 23
88.669914
 14
79.156397
 24
104.669914
 50
90.000000
  0
DIMENSION
  8
2
 62
134
  6
CONTINUOUS
  2
*D4
 10
74.156397
 20
77.413839
 11
76.384518
 21
77.413839
 70
     0
  1
4.5
 13
74.156397
 23
82.869914
 14
78.656397
 24
88.169914
 50
0.000000
  0
LINE
  8
6
 62
7
  6
CONTINUOUS
 10
71.156397
 20
102.819914
 11
78.656397
 21
102.819914
  0
LINE
  8
1
 62
7
  6
CONTINUOUS
 10
73.456397
 20
105.869914
 11
74.156397
 21
105.869914
  0
LINE
  8
1
 62
7
  6
CONTINUOUS
 10
74.156397
 20
104.669914
 11
73.456397
 21
104.669914
  0
LINE
  8
1
 62
7
  6
CONTINUOUS
 10
73.456397
 20
105.869914
 11
73.456397
 21
104.669914
  0
LINE
  8
6
 62
7
  6
CONTINUOUS
 10
74.156397
 20
109.969914
 11
74.156397
 21
105.869914
  0
LINE
  8
2
 62
134
  6
CONTINUOUS
 10
74.156397
 20
105.525301
 11
77.464417
 21
109.013577
  0
LINE
  8
2
 62
134
  6
CONTINUOUS
 10
77.464417
 20
109.013577
 11
82.626219
 21
109.013577
  0
TEXT
  8
2
 62
134
  6
CONTINUOUS
 10
77.626219
 20
108.994005
 40
2.000000
 41
0.500000
  1
Oﾘﾝｸﾞ
  7
KANJI
 50
0.000000
 51
0.000000
  0
LINE
  8
2
 62
134
  6
CONTINUOUS
 10
74.156397
 20
105.525301
 11
74.633260
 21
106.404279
  0
LINE
  8
2
 62
134
  6
CONTINUOUS
 10
74.156397
 20
105.525301
 11
75.008862
 21
106.048087
  0
LINE
  8
2
 62
134
  6
CONTINUOUS
 10
74.633260
 20
106.404279
 11
75.008862
 21
106.048087
  0
LINE
  8
2
 62
134
  6
CONTINUOUS
 10
74.322563
 20
105.700522
 11
74.560995
 21
106.140011
  0
LINE
  8
2
 62
134
  6
CONTINUOUS
 10
74.322563
 20
105.700522
 11
74.748795
 21
105.961914
  0
LINE
  8
2
 62
134
  6
CONTINUOUS
 10
74.560995
 20
106.140011
 11
74.748795
 21
105.961914
  0
CIRCLE
  8
11
 62
251
  6
CONTINUOUS
 10
73.804687
 20
105.169914
 40
0.500000
  0
TEXT
  8
2
 62
134
  6
CONTINUOUS
 10
44.070968
 20
69.136290
 40
2.000000
 41
1.000000
  1
質量：50g
  7
KANJI
 50
0.000000
 51
0.000000
  0
ENDSEC
  0
EOF
