  0
SECTION
  2
HEADER
  9
$ACADVER
  1
AC1009
  9
$INSBASE
 10
0.000000
 20
0.000000
  9
$EXTMIN
 10
0.000000
 20
0.000000
  9
$EXTMAX
 10
148.500000
 20
105.000000
  9
$LIMMIN
 10
0.000000
 20
0.000000
  9
$LIMMAX
 10
148.500000
 20
105.000000
  9
$VIEWCTR
 10
74.250000
 20
52.500000
  9
$VIEWSIZE
 40
105.000000
  9
$PEXTMIN
 10
0.000000
 20
0.000000
 30
0.000000
  9
$PEXTMAX
 10
297.000000
 20
210.000000
 30
0.000000
  9
$SNAPMODE
 70
     0
  9
$SNAPUNIT
 10
1.000000
 20
1.000000
  9
$SNAPBASE
 10
0.000000
 20
0.000000
  9
$SNAPANG
 50
0.000000
  9
$SNAPISOPAIR
 70
     0
  9
$SNAPSTYLE
 70
     0
  9
$GRIDMODE
 70
     0
  9
$GRIDUNIT
 10
0.000000
 20
0.000000
  9
$ORTHOMODE
 70
     0
  9
$REGENMODE
 70
     1
  9
$FILLMODE
 70
     1
  9
$QTEXTMODE
 70
     0
  9
$DRAGMODE
 70
     2
  9
$LTSCALE
 40
0.125000
  9
$OSMODE
 70
     0
  9
$ATTMODE
 70
     1
  9
$TEXTSIZE
 40
2.000000
  9
$TRACEWID
 40
0.050000
  9
$TEXTSTYLE
  7
STANDARD
  9
$CLAYER
  8
0
  9
$CELTYPE
  6
BYLAYER
  9
$CECOLOR
 62
   256
  9
$DIMSCALE
 40
1.000000
  9
$DIMASZ
 40
1.000000
  9
$DIMEXO
 40
0.000000
  9
$DIMDLI
 40
0.500000
  9
$DIMRND
 40
0.000000
  9
$DIMDLE
 40
0.000000
  9
$DIMEXE
 40
0.000000
  9
$DIMTP
 40
0.000000
  9
$DIMTM
 40
0.000000
  9
$DIMTXT
 40
4.000000
  9
$DIMCEN
 40
0.000000
  9
$DIMTSZ
 40
0.000000
  9
$DIMTOL
 70
     0
  9
$DIMLIM
 70
     0
  9
$DIMTIH
 70
     1
  9
$DIMTOH
 70
     1
  9
$DIMSE1
 70
     0
  9
$DIMSE2
 70
     0
  9
$DIMTAD
 70
     0
  9
$DIMZIN
 70
     0
  9
$DIMBLK
  1

  9
$DIMASO
 70
     0
  9
$DIMSHO
 70
     0
  9
$DIMPOST
  1

  9
$DIMAPOST
  1

  9
$DIMALT
 70
     0
  9
$DIMALTD
 70
     0
  9
$DIMALTF
 40
25.400000
  9
$DIMLFAC
 40
1.000000
  9
$DIMTOFL
 70
     0
  9
$DIMTVP
 40
0.000000
  9
$DIMTIX
 70
     0
  9
$DIMSOXD
 70
     0
  9
$DIMSAH
 70
     0
  9
$DIMBLKL
  1

  9
$DIMBLKR
  1

  9
$LUNITS
 70
     2
  9
$LUPREC
 70
     2
  9
$AXISMODE
 70
     0
  9
$AXISUNIT
 10
1.000000
 20
1.000000
  9
$SKETCHINC
 40
0.000000
  9
$FILLETRAD
 40
0.000000
  9
$AUNITS
 70
     1
  9
$AUPREC
 70
     2
  9
$MENU
  1
ACAD
  9
$ELEVATION
 40
0.000000
  9
$THICKNESS
 40
0.000000
  9
$VIEWDIR
 10
0.000000
 20
0.000000
 30
1.000000
  9
$LIMCHECK
 70
     1
  9
$BLIPMODE
 70
     1
  9
$CHAMFERA
 40
0.000000
  9
$CHAMFERB
 40
0.000000
  9
$FASTZOOM
 70
     1
  9
$SKPOLY
 70
     0
  9
$TDCREATE
 40
0.000000
  9
$TDUPDATE
 40
0.000000
  9
$TDINDWG
 40
0.000000
  9
$TDUSRTIMER
 40
0.000000
  9
$USRTIMER
 70
     1
  9
$ANGBASE
 50
0.000000
  9
$ANGDIR
 70
     0
  9
$PDMODE
 70
     0
  9
$PDSIZE
 40
0.000000
  9
$PLINEWID
 40
0.000000
  9
$COORDS
 70
     2
  9
$USERI1
 70
     0
  9
$USERI2
 70
     0
  9
$USERI3
 70
     0
  9
$USERI4
 70
     0
  9
$USERI5
 70
     0
  9
$USERR1
 40
0.000000
  9
$USERR2
 40
0.000000
  9
$USERR3
 40
0.000000
  9
$USERR4
 40
0.000000
  9
$USERR5
 40
0.000000
  0
ENDSEC
  0
SECTION
  2
TABLES
  0
TABLE
  2
LTYPE
 70
     5
  0
LTYPE
  2
CONTINUOUS
 70
    64
  3
Solid line
 72
    65
 73
     0
 40
0.0
  0
LTYPE
  2
HIDDEN
 70
    64
  3
------------------------
 72
    65
 73
     2
 40
12.6
 49
8.4
 49
-4.2
  0
LTYPE
  2
DOT
 70
    64
  3
････････････････････････
 72
    65
 73
     2
 40
8.0
 49
6.0
 49
-2.0
  0
LTYPE
  2
DASHDOT
 70
    64
  3
--･--･--･--･--･--･--･--
 72
    65
 73
     4
 40
50.5
 49
30.0
 49
-9.0
 49
2.5
 49
-9.0
  0
LTYPE
  2
DIVIDE
 70
    64
  3
--･･--･･--･･--･･--･･--
 72
    65
 73
     6
 40
58.0
 49
30.0
 49
-9.0
 49
2.5
 49
-5.0
 49
2.5
 49
-9.0
  0
LTYPE
  2
ACAD_ISO06W100
 70
    64
  3
____ ... ____ ... ____
 72
    65
 73
     8
 40
37.5
 49
24.0
 49
-3.0
 49
0.5
 49
-3.0
 49
0.5
 49
-3.0
 49
0.5
 49
-3.0
  0
LTYPE
  2
ACAD_ISO14W100
 70
    64
  3
__ . . . __ . . . __ . . . 
 72
    65
 73
     8
 40
25.5
 49
12.0
 49
-3.0
 49
0.5
 49
-3.0
 49
0.5
 49
-3.0
 49
0.5
 49
-3.0
  0
ENDTAB
  0
TABLE
  2
LAYER
 70
3
  0
LAYER
  2
1
 70
64
 62
7
  6
CONTINUOUS
  0
LAYER
  2
2
 70
64
 62
134
  6
CONTINUOUS
  0
LAYER
  2
5
 70
64
 62
94
  6
CONTINUOUS
  0
ENDTAB
  0
TABLE
  2
STYLE
 70
     2
  0
STYLE
  2
STANDARD
 70
    64
 40
0.0
 41
1.0
 50
0.0
 71
     0
 42
0.2
  3
TXT
  4

  0
STYLE
  2
KANJI
 70
    64
 40
0.0
 41
1.0
 50
0.0
 71
     0
 42
0.2
  3
TXT
  4
BIGFONT
  0
ENDTAB
  0
TABLE
  2
VIEW
 70
     0
  0
ENDTAB
  0
ENDSEC
  0
SECTION
  2
BLOCKS
  0
BLOCK
  8
2
 62
134
  6
CONTINUOUS
  2
*D1
 70
    65
 10
0.0
 20
0.0
  0
LINE
  8
2
 62
134
  6
CONTINUOUS
 10
15.759058
 20
31.294406
 11
51.759058
 21
31.294406
  0
LINE
  8
2
 62
134
  6
CONTINUOUS
 10
15.759058
 20
30.794406
 11
15.759058
 21
39.428614
  0
LINE
  8
2
 62
134
  6
CONTINUOUS
 10
51.759058
 20
30.794406
 11
51.759058
 21
39.428614
  0
LINE
  8
2
 62
134
  6
CONTINUOUS
 10
15.759058
 20
31.294406
 11
16.724984
 21
31.553225
  0
LINE
  8
2
 62
134
  6
CONTINUOUS
 10
15.759058
 20
31.294406
 11
16.724984
 21
31.035587
  0
LINE
  8
2
 62
134
  6
CONTINUOUS
 10
16.724984
 20
31.553225
 11
16.724984
 21
31.035587
  0
LINE
  8
2
 62
134
  6
CONTINUOUS
 10
16.000540
 20
31.294406
 11
16.483502
 21
31.423816
  0
LINE
  8
2
 62
134
  6
CONTINUOUS
 10
16.000540
 20
31.294406
 11
16.483502
 21
31.164997
  0
LINE
  8
2
 62
134
  6
CONTINUOUS
 10
16.483502
 20
31.423816
 11
16.483502
 21
31.164997
  0
LINE
  8
2
 62
134
  6
CONTINUOUS
 10
51.759058
 20
31.294406
 11
50.793132
 21
31.035587
  0
LINE
  8
2
 62
134
  6
CONTINUOUS
 10
51.759058
 20
31.294406
 11
50.793132
 21
31.553225
  0
LINE
  8
2
 62
134
  6
CONTINUOUS
 10
50.793132
 20
31.035587
 11
50.793132
 21
31.553225
  0
LINE
  8
2
 62
134
  6
CONTINUOUS
 10
51.517577
 20
31.294406
 11
51.034614
 21
31.164997
  0
LINE
  8
2
 62
134
  6
CONTINUOUS
 10
51.517577
 20
31.294406
 11
51.034614
 21
31.423816
  0
LINE
  8
2
 62
134
  6
CONTINUOUS
 10
51.034614
 20
31.164997
 11
51.034614
 21
31.423816
  0
TEXT
  8
2
 62
134
  6
CONTINUOUS
 10
32.759058
 20
31.294406
 40
2.000000
 41
0.500000
  1
36
  7
KANJI
 50
0.000000
 51
0.000000
  0
ENDBLK
  0
BLOCK
  8
2
 62
134
  6
CONTINUOUS
  2
*D2
 70
    65
 10
0.0
 20
0.0
  0
LINE
  8
2
 62
134
  6
CONTINUOUS
 10
125.366240
 20
38.928614
 11
125.366240
 21
60.928614
  0
LINE
  8
2
 62
134
  6
CONTINUOUS
 10
125.866240
 20
38.928614
 11
115.991670
 21
38.928614
  0
LINE
  8
2
 62
134
  6
CONTINUOUS
 10
125.866240
 20
60.928614
 11
124.071904
 21
60.928614
  0
LINE
  8
2
 62
134
  6
CONTINUOUS
 10
125.366240
 20
38.928614
 11
125.107421
 21
39.894540
  0
LINE
  8
2
 62
134
  6
CONTINUOUS
 10
125.366240
 20
38.928614
 11
125.625059
 21
39.894540
  0
LINE
  8
2
 62
134
  6
CONTINUOUS
 10
125.107421
 20
39.894540
 11
125.625059
 21
39.894540
  0
LINE
  8
2
 62
134
  6
CONTINUOUS
 10
125.366240
 20
39.170095
 11
125.236831
 21
39.653058
  0
LINE
  8
2
 62
134
  6
CONTINUOUS
 10
125.366240
 20
39.170095
 11
125.495650
 21
39.653058
  0
LINE
  8
2
 62
134
  6
CONTINUOUS
 10
125.236831
 20
39.653058
 11
125.495650
 21
39.653058
  0
LINE
  8
2
 62
134
  6
CONTINUOUS
 10
125.366240
 20
60.928614
 11
125.625059
 21
59.962688
  0
LINE
  8
2
 62
134
  6
CONTINUOUS
 10
125.366240
 20
60.928614
 11
125.107421
 21
59.962688
  0
LINE
  8
2
 62
134
  6
CONTINUOUS
 10
125.625059
 20
59.962688
 11
125.107421
 21
59.962688
  0
LINE
  8
2
 62
134
  6
CONTINUOUS
 10
125.366240
 20
60.687132
 11
125.495650
 21
60.204169
  0
LINE
  8
2
 62
134
  6
CONTINUOUS
 10
125.366240
 20
60.687132
 11
125.236831
 21
60.204169
  0
LINE
  8
2
 62
134
  6
CONTINUOUS
 10
125.495650
 20
60.204169
 11
125.236831
 21
60.204169
  0
TEXT
  8
2
 62
134
  6
CONTINUOUS
 10
125.366240
 20
51.883748
 40
2.000000
 41
0.500000
  1
22
  7
KANJI
 50
90.000000
 51
0.000000
  0
ENDBLK
  0
BLOCK
  8
2
 62
134
  6
CONTINUOUS
  2
*D3
 70
    65
 10
0.0
 20
0.0
  0
LINE
  8
2
 62
134
  6
CONTINUOUS
 10
129.034831
 20
47.928614
 11
129.034831
 21
73.928614
  0
LINE
  8
2
 62
134
  6
CONTINUOUS
 10
129.534831
 20
47.928614
 11
121.791670
 21
47.928614
  0
LINE
  8
2
 62
134
  6
CONTINUOUS
 10
129.534831
 20
73.928614
 11
121.791670
 21
73.928614
  0
LINE
  8
2
 62
134
  6
CONTINUOUS
 10
129.034831
 20
47.928614
 11
128.776012
 21
48.894540
  0
LINE
  8
2
 62
134
  6
CONTINUOUS
 10
129.034831
 20
47.928614
 11
129.293650
 21
48.894540
  0
LINE
  8
2
 62
134
  6
CONTINUOUS
 10
128.776012
 20
48.894540
 11
129.293650
 21
48.894540
  0
LINE
  8
2
 62
134
  6
CONTINUOUS
 10
129.034831
 20
48.170095
 11
128.905422
 21
48.653058
  0
LINE
  8
2
 62
134
  6
CONTINUOUS
 10
129.034831
 20
48.170095
 11
129.164241
 21
48.653058
  0
LINE
  8
2
 62
134
  6
CONTINUOUS
 10
128.905422
 20
48.653058
 11
129.164241
 21
48.653058
  0
LINE
  8
2
 62
134
  6
CONTINUOUS
 10
129.034831
 20
73.928614
 11
129.293650
 21
72.962688
  0
LINE
  8
2
 62
134
  6
CONTINUOUS
 10
129.034831
 20
73.928614
 11
128.776012
 21
72.962688
  0
LINE
  8
2
 62
134
  6
CONTINUOUS
 10
129.293650
 20
72.962688
 11
128.776012
 21
72.962688
  0
LINE
  8
2
 62
134
  6
CONTINUOUS
 10
129.034831
 20
73.687132
 11
129.164241
 21
73.204169
  0
LINE
  8
2
 62
134
  6
CONTINUOUS
 10
129.034831
 20
73.687132
 11
128.905422
 21
73.204169
  0
LINE
  8
2
 62
134
  6
CONTINUOUS
 10
129.164241
 20
73.204169
 11
128.905422
 21
73.204169
  0
TEXT
  8
2
 62
134
  6
CONTINUOUS
 10
129.034831
 20
56.900823
 40
2.000000
 41
0.500000
  1
M26P0.75
  7
KANJI
 50
90.000000
 51
0.000000
  0
ENDBLK
  0
BLOCK
  8
2
 62
134
  6
CONTINUOUS
  2
*D4
 70
    65
 10
0.0
 20
0.0
  0
LINE
  8
2
 62
134
  6
CONTINUOUS
 10
116.491670
 20
34.512465
 11
121.491670
 21
34.512465
  0
LINE
  8
2
 62
134
  6
CONTINUOUS
 10
116.491670
 20
34.012465
 11
116.491670
 21
39.428614
  0
LINE
  8
2
 62
134
  6
CONTINUOUS
 10
121.491670
 20
34.012465
 11
121.491670
 21
47.628614
  0
LINE
  8
2
 62
134
  6
CONTINUOUS
 10
116.491670
 20
34.512465
 11
117.457596
 21
34.771284
  0
LINE
  8
2
 62
134
  6
CONTINUOUS
 10
116.491670
 20
34.512465
 11
117.457596
 21
34.253646
  0
LINE
  8
2
 62
134
  6
CONTINUOUS
 10
117.457596
 20
34.771284
 11
117.457596
 21
34.253646
  0
LINE
  8
2
 62
134
  6
CONTINUOUS
 10
116.733151
 20
34.512465
 11
117.216114
 21
34.641874
  0
LINE
  8
2
 62
134
  6
CONTINUOUS
 10
116.733151
 20
34.512465
 11
117.216114
 21
34.383055
  0
LINE
  8
2
 62
134
  6
CONTINUOUS
 10
117.216114
 20
34.641874
 11
117.216114
 21
34.383055
  0
LINE
  8
2
 62
134
  6
CONTINUOUS
 10
121.491670
 20
34.512465
 11
120.525744
 21
34.253646
  0
LINE
  8
2
 62
134
  6
CONTINUOUS
 10
121.491670
 20
34.512465
 11
120.525744
 21
34.771284
  0
LINE
  8
2
 62
134
  6
CONTINUOUS
 10
120.525744
 20
34.253646
 11
120.525744
 21
34.771284
  0
LINE
  8
2
 62
134
  6
CONTINUOUS
 10
121.250188
 20
34.512465
 11
120.767225
 21
34.383055
  0
LINE
  8
2
 62
134
  6
CONTINUOUS
 10
121.250188
 20
34.512465
 11
120.767225
 21
34.641874
  0
LINE
  8
2
 62
134
  6
CONTINUOUS
 10
120.767225
 20
34.383055
 11
120.767225
 21
34.641874
  0
TEXT
  8
2
 62
134
  6
CONTINUOUS
 10
118.208952
 20
34.512465
 40
2.000000
 41
0.500000
  1
5
  7
KANJI
 50
0.000000
 51
0.000000
  0
ENDBLK
  0
BLOCK
  8
2
 62
134
  6
CONTINUOUS
  2
*D5
 70
    65
 10
0.0
 20
0.0
  0
LINE
  8
2
 62
134
  6
CONTINUOUS
 10
116.491670
 20
34.512465
 11
86.491670
 21
34.512465
  0
LINE
  8
2
 62
134
  6
CONTINUOUS
 10
116.491670
 20
34.012465
 11
116.491670
 21
39.428614
  0
LINE
  8
2
 62
134
  6
CONTINUOUS
 10
116.491670
 20
34.512465
 11
115.525744
 21
34.253646
  0
LINE
  8
2
 62
134
  6
CONTINUOUS
 10
116.491670
 20
34.512465
 11
115.525744
 21
34.771284
  0
LINE
  8
2
 62
134
  6
CONTINUOUS
 10
115.525744
 20
34.253646
 11
115.525744
 21
34.771284
  0
LINE
  8
2
 62
134
  6
CONTINUOUS
 10
116.250188
 20
34.512465
 11
115.767225
 21
34.383055
  0
LINE
  8
2
 62
134
  6
CONTINUOUS
 10
116.250188
 20
34.512465
 11
115.767225
 21
34.641874
  0
LINE
  8
2
 62
134
  6
CONTINUOUS
 10
115.767225
 20
34.383055
 11
115.767225
 21
34.641874
  0
LINE
  8
2
 62
134
  6
CONTINUOUS
 10
86.491670
 20
34.512465
 11
87.457596
 21
34.771284
  0
LINE
  8
2
 62
134
  6
CONTINUOUS
 10
86.491670
 20
34.512465
 11
87.457596
 21
34.253646
  0
LINE
  8
2
 62
134
  6
CONTINUOUS
 10
87.457596
 20
34.771284
 11
87.457596
 21
34.253646
  0
LINE
  8
2
 62
134
  6
CONTINUOUS
 10
86.733151
 20
34.512465
 11
87.216114
 21
34.641874
  0
LINE
  8
2
 62
134
  6
CONTINUOUS
 10
86.733151
 20
34.512465
 11
87.216114
 21
34.383055
  0
LINE
  8
2
 62
134
  6
CONTINUOUS
 10
87.216114
 20
34.641874
 11
87.216114
 21
34.383055
  0
TEXT
  8
2
 62
134
  6
CONTINUOUS
 10
98.714433
 20
34.512465
 40
2.000000
 41
0.500000
  1
30
  7
KANJI
 50
0.000000
 51
0.000000
  0
ENDBLK
  0
BLOCK
  8
2
 62
134
  6
CONTINUOUS
  2
*D6
 70
    65
 10
0.0
 20
0.0
  0
LINE
  8
2
 62
134
  6
CONTINUOUS
 10
116.491670
 20
30.624325
 11
66.491670
 21
30.624325
  0
LINE
  8
2
 62
134
  6
CONTINUOUS
 10
116.491670
 20
30.124325
 11
116.491670
 21
39.428614
  0
LINE
  8
2
 62
134
  6
CONTINUOUS
 10
66.491670
 20
30.124325
 11
66.491670
 21
38.428614
  0
LINE
  8
2
 62
134
  6
CONTINUOUS
 10
116.491670
 20
30.624325
 11
115.525744
 21
30.365506
  0
LINE
  8
2
 62
134
  6
CONTINUOUS
 10
116.491670
 20
30.624325
 11
115.525744
 21
30.883144
  0
LINE
  8
2
 62
134
  6
CONTINUOUS
 10
115.525744
 20
30.365506
 11
115.525744
 21
30.883144
  0
LINE
  8
2
 62
134
  6
CONTINUOUS
 10
116.250188
 20
30.624325
 11
115.767225
 21
30.494916
  0
LINE
  8
2
 62
134
  6
CONTINUOUS
 10
116.250188
 20
30.624325
 11
115.767225
 21
30.753735
  0
LINE
  8
2
 62
134
  6
CONTINUOUS
 10
115.767225
 20
30.494916
 11
115.767225
 21
30.753735
  0
LINE
  8
2
 62
134
  6
CONTINUOUS
 10
66.491670
 20
30.624325
 11
67.457596
 21
30.883144
  0
LINE
  8
2
 62
134
  6
CONTINUOUS
 10
66.491670
 20
30.624325
 11
67.457596
 21
30.365506
  0
LINE
  8
2
 62
134
  6
CONTINUOUS
 10
67.457596
 20
30.883144
 11
67.457596
 21
30.365506
  0
LINE
  8
2
 62
134
  6
CONTINUOUS
 10
66.733151
 20
30.624325
 11
67.216114
 21
30.753735
  0
LINE
  8
2
 62
134
  6
CONTINUOUS
 10
66.733151
 20
30.624325
 11
67.216114
 21
30.494916
  0
LINE
  8
2
 62
134
  6
CONTINUOUS
 10
67.216114
 20
30.753735
 11
67.216114
 21
30.494916
  0
TEXT
  8
2
 62
134
  6
CONTINUOUS
 10
89.089693
 20
30.624325
 40
2.000000
 41
0.500000
  1
50
  7
KANJI
 50
0.000000
 51
0.000000
  0
ENDBLK
  0
BLOCK
  8
2
 62
134
  6
CONTINUOUS
  2
*D7
 70
    65
 10
0.0
 20
0.0
  0
LINE
  8
2
 62
134
  6
CONTINUOUS
 10
132.640848
 20
38.928614
 11
132.640848
 21
83.928614
  0
LINE
  8
2
 62
134
  6
CONTINUOUS
 10
133.140848
 20
38.928614
 11
115.991670
 21
38.928614
  0
LINE
  8
2
 62
134
  6
CONTINUOUS
 10
133.140848
 20
83.928614
 11
115.991670
 21
83.928614
  0
LINE
  8
2
 62
134
  6
CONTINUOUS
 10
132.640848
 20
38.928614
 11
132.382029
 21
39.894540
  0
LINE
  8
2
 62
134
  6
CONTINUOUS
 10
132.640848
 20
38.928614
 11
132.899667
 21
39.894540
  0
LINE
  8
2
 62
134
  6
CONTINUOUS
 10
132.382029
 20
39.894540
 11
132.899667
 21
39.894540
  0
LINE
  8
2
 62
134
  6
CONTINUOUS
 10
132.640848
 20
39.170095
 11
132.511438
 21
39.653058
  0
LINE
  8
2
 62
134
  6
CONTINUOUS
 10
132.640848
 20
39.170095
 11
132.770257
 21
39.653058
  0
LINE
  8
2
 62
134
  6
CONTINUOUS
 10
132.511438
 20
39.653058
 11
132.770257
 21
39.653058
  0
LINE
  8
2
 62
134
  6
CONTINUOUS
 10
132.640848
 20
83.928614
 11
132.899667
 21
82.962688
  0
LINE
  8
2
 62
134
  6
CONTINUOUS
 10
132.640848
 20
83.928614
 11
132.382029
 21
82.962688
  0
LINE
  8
2
 62
134
  6
CONTINUOUS
 10
132.899667
 20
82.962688
 11
132.382029
 21
82.962688
  0
LINE
  8
2
 62
134
  6
CONTINUOUS
 10
132.640848
 20
83.687132
 11
132.770257
 21
83.204169
  0
LINE
  8
2
 62
134
  6
CONTINUOUS
 10
132.640848
 20
83.687132
 11
132.511438
 21
83.204169
  0
LINE
  8
2
 62
134
  6
CONTINUOUS
 10
132.770257
 20
83.204169
 11
132.511438
 21
83.204169
  0
TEXT
  8
2
 62
134
  6
CONTINUOUS
 10
132.640848
 20
61.036223
 40
2.000000
 41
0.500000
  1
45
  7
KANJI
 50
90.000000
 51
0.000000
  0
ENDBLK
  0
BLOCK
  8
2
 62
134
  6
CONTINUOUS
  2
*D8
 70
    65
 10
0.0
 20
0.0
  0
LINE
  8
2
 62
134
  6
CONTINUOUS
 10
15.759058
 20
89.407583
 11
51.759058
 21
89.407583
  0
LINE
  8
2
 62
134
  6
CONTINUOUS
 10
15.759058
 20
89.907583
 11
15.759058
 21
83.428614
  0
LINE
  8
2
 62
134
  6
CONTINUOUS
 10
51.759058
 20
89.907583
 11
51.759058
 21
83.428614
  0
LINE
  8
2
 62
134
  6
CONTINUOUS
 10
15.759058
 20
89.407583
 11
16.724984
 21
89.666402
  0
LINE
  8
2
 62
134
  6
CONTINUOUS
 10
15.759058
 20
89.407583
 11
16.724984
 21
89.148764
  0
LINE
  8
2
 62
134
  6
CONTINUOUS
 10
16.724984
 20
89.666402
 11
16.724984
 21
89.148764
  0
LINE
  8
2
 62
134
  6
CONTINUOUS
 10
16.000540
 20
89.407583
 11
16.483502
 21
89.536992
  0
LINE
  8
2
 62
134
  6
CONTINUOUS
 10
16.000540
 20
89.407583
 11
16.483502
 21
89.278173
  0
LINE
  8
2
 62
134
  6
CONTINUOUS
 10
16.483502
 20
89.536992
 11
16.483502
 21
89.278173
  0
LINE
  8
2
 62
134
  6
CONTINUOUS
 10
51.759058
 20
89.407583
 11
50.793132
 21
89.148764
  0
LINE
  8
2
 62
134
  6
CONTINUOUS
 10
51.759058
 20
89.407583
 11
50.793132
 21
89.666402
  0
LINE
  8
2
 62
134
  6
CONTINUOUS
 10
50.793132
 20
89.148764
 11
50.793132
 21
89.666402
  0
LINE
  8
2
 62
134
  6
CONTINUOUS
 10
51.517577
 20
89.407583
 11
51.034614
 21
89.278173
  0
LINE
  8
2
 62
134
  6
CONTINUOUS
 10
51.517577
 20
89.407583
 11
51.034614
 21
89.536992
  0
LINE
  8
2
 62
134
  6
CONTINUOUS
 10
51.034614
 20
89.278173
 11
51.034614
 21
89.536992
  0
TEXT
  8
2
 62
134
  6
CONTINUOUS
 10
32.341232
 20
89.407583
 40
2.000000
 41
0.500000
  1
36
  7
KANJI
 50
0.000000
 51
0.000000
  0
ENDBLK
  0
ENDSEC
  0
SECTION
  2
ENTITIES
  0
LINE
  8
5
 62
94
  6
CONTINUOUS
 10
6.734597
 20
6.234734
 11
144.234597
 21
6.234734
  0
LINE
  8
5
 62
94
  6
CONTINUOUS
 10
144.234597
 20
6.234734
 11
144.234597
 21
98.734734
  0
LINE
  8
5
 62
94
  6
CONTINUOUS
 10
144.234597
 20
98.734734
 11
6.734597
 21
98.734734
  0
LINE
  8
5
 62
94
  6
CONTINUOUS
 10
6.734597
 20
98.734734
 11
6.734597
 21
6.234734
  0
TEXT
  8
5
 62
94
  6
CONTINUOUS
 10
107.215971
 20
14.060479
 40
0.875000
 41
4.000000
  1
製図
  7
KANJI
 50
-90.000000
 51
0.000000
  0
TEXT
  8
5
 62
94
  6
CONTINUOUS
 10
117.132362
 20
13.978526
 40
0.875000
 41
4.000000
  1
図番
  7
KANJI
 50
-90.000000
 51
0.000000
  0
TEXT
  8
5
 62
94
  6
CONTINUOUS
 10
117.132362
 20
20.616771
 40
0.875000
 41
4.000000
  1
図　名
  7
KANJI
 50
-90.000000
 51
0.000000
  0
TEXT
  8
5
 62
94
  6
CONTINUOUS
 10
84.678720
 20
17.912300
 40
0.875000
 41
4.000000
  1
日付
  7
KANJI
 50
-90.000000
 51
0.000000
  0
TEXT
  8
5
 62
94
  6
CONTINUOUS
 10
102.216799
 20
17.994254
 40
0.875000
 41
4.000000
  1
図法
  7
KANJI
 50
-90.000000
 51
0.000000
  0
TEXT
  8
5
 62
94
  6
CONTINUOUS
 10
102.134846
 20
22.009983
 40
0.875000
 41
4.000000
  1
尺度
  7
KANJI
 50
-90.000000
 51
0.000000
  0
TEXT
  8
5
 62
94
  6
CONTINUOUS
 10
84.678720
 20
21.928029
 40
0.875000
 41
4.000000
  1
公差
  7
KANJI
 50
-90.000000
 51
0.000000
  0
TEXT
  8
5
 62
94
  6
CONTINUOUS
 10
84.678720
 20
13.978526
 40
0.875000
 41
4.000000
  1
承認
  7
KANJI
 50
-90.000000
 51
0.000000
  0
TEXT
  8
5
 62
94
  6
CONTINUOUS
 10
97.217627
 20
13.978526
 40
0.875000
 41
4.000000
  1
設計
  7
KANJI
 50
-90.000000
 51
0.000000
  0
TEXT
  8
5
 62
94
  6
CONTINUOUS
 10
93.939481
 20
7.012466
 40
2.250000
 41
1.888889
  1
ジャパンセンサー株式会社
  7
KANJI
 50
0.000000
 51
0.000000
  0
LINE
  8
5
 62
94
  6
CONTINUOUS
 10
84.234597
 20
22.234734
 11
144.234597
 21
22.234734
  0
LINE
  8
5
 62
94
  6
CONTINUOUS
 10
84.234597
 20
6.234734
 11
84.234597
 21
22.234734
  0
LINE
  8
5
 62
94
  6
CONTINUOUS
 10
144.234597
 20
10.234734
 11
84.234597
 21
10.234734
  0
LINE
  8
5
 62
94
  6
CONTINUOUS
 10
116.734597
 20
22.234734
 11
116.734597
 21
10.234734
  0
LINE
  8
5
 62
94
  6
CONTINUOUS
 10
144.234597
 20
14.234734
 11
84.234597
 21
14.234734
  0
LINE
  8
5
 62
94
  6
CONTINUOUS
 10
119.234597
 20
10.234734
 11
119.234597
 21
22.234734
  0
LINE
  8
5
 62
94
  6
CONTINUOUS
 10
104.234597
 20
22.234734
 11
104.234597
 21
14.234734
  0
LINE
  8
5
 62
94
  6
CONTINUOUS
 10
86.734597
 20
10.234734
 11
86.734597
 21
22.234734
  0
LINE
  8
5
 62
94
  6
CONTINUOUS
 10
84.234597
 20
18.234734
 11
116.734597
 21
18.234734
  0
LINE
  8
5
 62
94
  6
CONTINUOUS
 10
101.734597
 20
22.234734
 11
101.734597
 21
14.234734
  0
LINE
  8
5
 62
94
  6
CONTINUOUS
 10
96.734597
 20
10.234734
 11
96.734597
 21
14.234734
  0
LINE
  8
5
 62
94
  6
CONTINUOUS
 10
106.734597
 20
10.234734
 11
106.734597
 21
14.234734
  0
LINE
  8
5
 62
94
  6
CONTINUOUS
 10
99.234597
 20
14.234734
 11
99.234597
 21
10.234734
  0
LINE
  8
5
 62
94
  6
CONTINUOUS
 10
109.234597
 20
14.234734
 11
109.234597
 21
10.234734
  0
TEXT
  8
5
 62
94
  6
CONTINUOUS
 10
106.232528
 20
14.880016
 40
2.000000
 41
1.000000
  1
三角法
  7
KANJI
 50
0.000000
 51
0.000000
  0
LINE
  8
5
 62
94
  6
CONTINUOUS
 10
120.556448
 20
18.219970
 11
142.626822
 21
18.219970
  0
TEXT
  8
5
 62
94
  6
CONTINUOUS
 10
100.824656
 20
11.204222
 40
2.000000
 41
1.000000
  1
須藤
  7
KANJI
 50
0.000000
 51
0.000000
  0
TEXT
  8
5
 62
94
  6
CONTINUOUS
 10
107.548081
 20
19.096939
 40
2.000000
 41
1.000000
  1
２／１
  7
KANJI
 50
0.000000
 51
0.000000
  0
TEXT
  8
5
 62
94
  6
CONTINUOUS
 10
110.824656
 20
11.204222
 40
2.000000
 41
1.000000
  1
須藤
  7
KANJI
 50
0.000000
 51
0.000000
  0
TEXT
  8
5
 62
94
  6
CONTINUOUS
 10
89.277904
 20
15.150581
 40
2.000000
 41
0.500000
  1
2013/04/20
  7
KANJI
 50
0.000000
 51
0.000000
  0
TEXT
  8
5
 62
94
  6
CONTINUOUS
 10
120.695594
 20
15.160706
 40
2.000000
 41
1.000000
  1
φ25直角ミラー 外形図
  7
KANJI
 50
0.000000
 51
0.000000
  0
LINE
  8
1
 62
7
  6
DASHDOT
 10
53.617355
 20
60.928614
 11
13.939425
 21
60.928614
  0
LINE
  8
1
 62
7
  6
DASHDOT
 10
33.759058
 20
82.664888
 11
33.759058
 21
32.599875
  0
LINE
  8
1
 62
7
  6
DASHDOT
 10
33.759058
 20
86.564404
 11
33.759058
 21
74.311929
  0
LINE
  8
1
 62
7
  6
DOT
 10
20.759058
 20
44.928614
 11
20.759058
 21
60.080854
  0
LINE
  8
1
 62
7
  6
DOT
 10
46.759058
 20
44.928614
 11
46.759058
 21
60.928614
  0
LINE
  8
1
 62
7
  6
DASHDOT
 10
56.523358
 20
79.928614
 11
12.259058
 21
79.928614
  0
LINE
  8
1
 62
7
  6
DOT
 10
19.259058
 20
44.428614
 11
19.259058
 21
43.928614
  0
LINE
  8
1
 62
7
  6
DOT
 10
20.259058
 20
44.428614
 11
19.259058
 21
44.428614
  0
LINE
  8
1
 62
7
  6
DOT
 10
19.259058
 20
43.928614
 11
18.665058
 21
43.928614
  0
LINE
  8
1
 62
7
  6
DOT
 10
47.259058
 20
44.428614
 11
47.259058
 21
43.928614
  0
LINE
  8
1
 62
7
  6
DOT
 10
48.259058
 20
44.428614
 11
48.259058
 21
43.928614
  0
LINE
  8
1
 62
7
  6
DOT
 10
47.259058
 20
44.428614
 11
48.259058
 21
44.428614
  0
LINE
  8
1
 62
7
  6
DOT
 10
20.259058
 20
44.428614
 11
20.259058
 21
43.928614
  0
LINE
  8
1
 62
7
  6
DOT
 10
48.853058
 20
38.928614
 11
48.853058
 21
43.928614
  0
LINE
  8
1
 62
7
  6
DOT
 10
18.665058
 20
38.928614
 11
18.665058
 21
43.928614
  0
LINE
  8
1
 62
7
  6
DOT
 10
19.259058
 20
43.928614
 11
48.853058
 21
43.928614
  0
LINE
  8
1
 62
7
  6
DOT
 10
49.259058
 20
42.928614
 11
18.259058
 21
42.928614
  0
LINE
  8
1
 62
7
  6
DOT
 10
49.259058
 20
42.928614
 11
48.853058
 21
43.928614
  0
LINE
  8
1
 62
7
  6
DOT
 10
49.259058
 20
38.928614
 11
49.259058
 21
42.928614
  0
LINE
  8
1
 62
7
  6
DOT
 10
18.259058
 20
42.928614
 11
18.665058
 21
43.928614
  0
LINE
  8
1
 62
7
  6
DOT
 10
18.259058
 20
38.928614
 11
18.259058
 21
42.928614
  0
LINE
  8
1
 62
7
  6
DOT
 10
48.224016
 20
78.328614
 11
34.259058
 21
78.328614
  0
LINE
  8
1
 62
7
  6
DOT
 10
51.759058
 20
82.928614
 11
48.259058
 21
82.928614
  0
LINE
  8
1
 62
7
  6
DOT
 10
51.759058
 20
76.828614
 11
48.259058
 21
76.828614
  0
LINE
  8
1
 62
7
  6
DOT
 10
48.259058
 20
82.928614
 11
48.259058
 21
76.828614
  0
LINE
  8
1
 62
7
  6
DOT
 10
48.259058
 20
81.463159
 11
34.259058
 21
81.463159
  0
LINE
  8
1
 62
7
  6
DOT
 10
33.259058
 20
78.428614
 11
15.759058
 21
78.428614
  0
LINE
  8
1
 62
7
  6
DOT
 10
33.259058
 20
78.628614
 11
15.759058
 21
78.628614
  0
LINE
  8
1
 62
7
  6
DOT
 10
33.259058
 20
81.234201
 11
15.759058
 21
81.234201
  0
LINE
  8
1
 62
7
  6
CONTINUOUS
 10
51.826809
 20
40.928614
 11
15.759058
 21
40.928614
  0
LINE
  8
1
 62
7
  6
CONTINUOUS
 10
51.259058
 20
81.788264
 11
51.759058
 21
81.288264
  0
LINE
  8
1
 62
7
  6
CONTINUOUS
 10
51.259058
 20
81.788264
 11
16.259058
 21
81.788264
  0
LINE
  8
1
 62
7
  6
CONTINUOUS
 10
51.259058
 20
44.672229
 11
51.759058
 21
45.172229
  0
LINE
  8
1
 62
7
  6
CONTINUOUS
 10
51.259058
 20
42.543837
 11
51.759058
 21
43.043837
  0
LINE
  8
1
 62
7
  6
CONTINUOUS
 10
51.259058
 20
44.672229
 11
16.259058
 21
44.672229
  0
LINE
  8
1
 62
7
  6
CONTINUOUS
 10
16.259058
 20
44.672229
 11
15.759058
 21
45.172229
  0
LINE
  8
1
 62
7
  6
CONTINUOUS
 10
51.759058
 20
39.928614
 11
50.759058
 21
38.928614
  0
LINE
  8
1
 62
7
  6
CONTINUOUS
 10
50.759058
 20
38.928614
 11
16.759058
 21
38.928614
  0
LINE
  8
1
 62
7
  6
CONTINUOUS
 10
16.759058
 20
38.928614
 11
15.759058
 21
39.928614
  0
LINE
  8
1
 62
7
  6
CONTINUOUS
 10
15.759058
 20
39.928614
 11
15.759058
 21
82.928614
  0
LINE
  8
1
 62
7
  6
CONTINUOUS
 10
15.759058
 20
82.928614
 11
16.759058
 21
83.928614
  0
LINE
  8
1
 62
7
  6
CONTINUOUS
 10
51.759058
 20
39.928614
 11
51.759058
 21
82.928614
  0
LINE
  8
1
 62
7
  6
CONTINUOUS
 10
51.759058
 20
82.928614
 11
50.759058
 21
83.928614
  0
LINE
  8
1
 62
7
  6
CONTINUOUS
 10
16.759058
 20
83.928614
 11
33.259058
 21
83.928614
  0
LINE
  8
1
 62
7
  6
CONTINUOUS
 10
50.737371
 20
83.928614
 11
50.759058
 21
83.928614
  0
LINE
  8
1
 62
7
  6
CONTINUOUS
 10
34.259058
 20
83.928614
 11
50.737371
 21
83.928614
  0
LINE
  8
1
 62
7
  6
CONTINUOUS
 10
15.759058
 20
81.288264
 11
16.259058
 21
81.788264
  0
LINE
  8
1
 62
7
  6
CONTINUOUS
 10
51.259058
 20
42.543837
 11
16.259058
 21
42.543837
  0
LINE
  8
1
 62
7
  6
CONTINUOUS
 10
16.259058
 20
42.543837
 11
15.759058
 21
43.043837
  0
LINE
  8
1
 62
7
  6
DOT
 10
20.413050
 20
81.428614
 11
15.759058
 21
81.428614
  0
LINE
  8
1
 62
7
  6
DOT
 10
33.259058
 20
81.428614
 11
20.868433
 21
81.428614
  0
LINE
  8
1
 62
7
  6
CONTINUOUS
 10
23.759058
 20
81.788264
 11
23.751447
 21
81.911521
  0
LINE
  8
1
 62
7
  6
CONTINUOUS
 10
23.751447
 20
81.911521
 11
23.728674
 21
82.033839
  0
LINE
  8
1
 62
7
  6
CONTINUOUS
 10
23.728674
 20
82.033839
 11
23.690910
 21
82.154289
  0
LINE
  8
1
 62
7
  6
CONTINUOUS
 10
23.690910
 20
82.154289
 11
23.638443
 21
82.271953
  0
LINE
  8
1
 62
7
  6
CONTINUOUS
 10
23.638443
 20
82.271953
 11
23.571674
 21
82.385936
  0
LINE
  8
1
 62
7
  6
CONTINUOUS
 10
23.571674
 20
82.385936
 11
23.491109
 21
82.495371
  0
LINE
  8
1
 62
7
  6
CONTINUOUS
 10
23.491109
 20
82.495371
 11
23.397362
 21
82.599423
  0
LINE
  8
1
 62
7
  6
CONTINUOUS
 10
23.397362
 20
82.599423
 11
23.291147
 21
82.697303
  0
LINE
  8
1
 62
7
  6
CONTINUOUS
 10
23.291147
 20
82.697303
 11
23.173272
 21
82.788264
  0
LINE
  8
1
 62
7
  6
CONTINUOUS
 10
23.173272
 20
82.788264
 11
23.044633
 21
82.871614
  0
LINE
  8
1
 62
7
  6
CONTINUOUS
 10
23.044633
 20
82.871614
 11
22.906211
 21
82.946720
  0
LINE
  8
1
 62
7
  6
CONTINUOUS
 10
22.906211
 20
82.946720
 11
22.759058
 21
83.013009
  0
LINE
  8
1
 62
7
  6
CONTINUOUS
 10
22.759058
 20
83.013009
 11
22.604295
 21
83.069977
  0
LINE
  8
1
 62
7
  6
CONTINUOUS
 10
22.604295
 20
83.069977
 11
22.443098
 21
83.117190
  0
LINE
  8
1
 62
7
  6
CONTINUOUS
 10
22.443098
 20
83.117190
 11
22.276696
 21
83.154289
  0
LINE
  8
1
 62
7
  6
CONTINUOUS
 10
22.276696
 20
83.154289
 11
22.106354
 21
83.180992
  0
LINE
  8
1
 62
7
  6
CONTINUOUS
 10
22.106354
 20
83.180992
 11
21.933370
 21
83.197096
  0
LINE
  8
1
 62
7
  6
CONTINUOUS
 10
21.933370
 20
83.197096
 11
21.759058
 21
83.202477
  0
LINE
  8
1
 62
7
  6
CONTINUOUS
 10
21.759058
 20
83.202477
 11
21.584747
 21
83.197096
  0
LINE
  8
1
 62
7
  6
CONTINUOUS
 10
21.584747
 20
83.197096
 11
21.411762
 21
83.180992
  0
LINE
  8
1
 62
7
  6
CONTINUOUS
 10
21.411762
 20
83.180992
 11
21.241420
 21
83.154289
  0
LINE
  8
1
 62
7
  6
CONTINUOUS
 10
21.241420
 20
83.154289
 11
21.075018
 21
83.117190
  0
LINE
  8
1
 62
7
  6
CONTINUOUS
 10
21.075018
 20
83.117190
 11
20.913822
 21
83.069977
  0
LINE
  8
1
 62
7
  6
CONTINUOUS
 10
20.913822
 20
83.069977
 11
20.759058
 21
83.013009
  0
LINE
  8
1
 62
7
  6
CONTINUOUS
 10
20.759058
 20
83.013009
 11
20.611905
 21
82.946720
  0
LINE
  8
1
 62
7
  6
CONTINUOUS
 10
20.611905
 20
82.946720
 11
20.473483
 21
82.871614
  0
LINE
  8
1
 62
7
  6
CONTINUOUS
 10
20.473483
 20
82.871614
 11
20.344844
 21
82.788264
  0
LINE
  8
1
 62
7
  6
CONTINUOUS
 10
20.344844
 20
82.788264
 11
20.226969
 21
82.697303
  0
LINE
  8
1
 62
7
  6
CONTINUOUS
 10
20.226969
 20
82.697303
 11
20.120754
 21
82.599423
  0
LINE
  8
1
 62
7
  6
CONTINUOUS
 10
20.120754
 20
82.599423
 11
20.027007
 21
82.495371
  0
LINE
  8
1
 62
7
  6
CONTINUOUS
 10
20.027007
 20
82.495371
 11
19.946442
 21
82.385936
  0
LINE
  8
1
 62
7
  6
CONTINUOUS
 10
19.946442
 20
82.385936
 11
19.879673
 21
82.271953
  0
LINE
  8
1
 62
7
  6
CONTINUOUS
 10
19.879673
 20
82.271953
 11
19.827206
 21
82.154289
  0
LINE
  8
1
 62
7
  6
CONTINUOUS
 10
19.827206
 20
82.154289
 11
19.789443
 21
82.033839
  0
LINE
  8
1
 62
7
  6
CONTINUOUS
 10
19.789443
 20
82.033839
 11
19.766669
 21
81.911521
  0
LINE
  8
1
 62
7
  6
CONTINUOUS
 10
19.766669
 20
81.911521
 11
19.759058
 21
81.788264
  0
LINE
  8
1
 62
7
  6
CONTINUOUS
 10
19.759058
 20
81.788264
 11
19.766669
 21
81.665007
  0
LINE
  8
1
 62
7
  6
CONTINUOUS
 10
19.766669
 20
81.665007
 11
19.789443
 21
81.542688
  0
LINE
  8
1
 62
7
  6
CONTINUOUS
 10
19.789443
 20
81.542688
 11
19.827206
 21
81.422238
  0
LINE
  8
1
 62
7
  6
CONTINUOUS
 10
19.827206
 20
81.422238
 11
19.879673
 21
81.304574
  0
LINE
  8
1
 62
7
  6
CONTINUOUS
 10
19.879673
 20
81.304574
 11
19.946442
 21
81.190591
  0
LINE
  8
1
 62
7
  6
CONTINUOUS
 10
19.946442
 20
81.190591
 11
20.027007
 21
81.081157
  0
LINE
  8
1
 62
7
  6
CONTINUOUS
 10
20.027007
 20
81.081157
 11
20.120754
 21
80.977104
  0
LINE
  8
1
 62
7
  6
CONTINUOUS
 10
20.120754
 20
80.977104
 11
20.226969
 21
80.879225
  0
LINE
  8
1
 62
7
  6
CONTINUOUS
 10
20.226969
 20
80.879225
 11
20.344844
 21
80.788264
  0
LINE
  8
1
 62
7
  6
CONTINUOUS
 10
20.344844
 20
80.788264
 11
20.473483
 21
80.704913
  0
LINE
  8
1
 62
7
  6
CONTINUOUS
 10
20.473483
 20
80.704913
 11
20.611905
 21
80.629808
  0
LINE
  8
1
 62
7
  6
CONTINUOUS
 10
20.611905
 20
80.629808
 11
20.759058
 21
80.563519
  0
LINE
  8
1
 62
7
  6
CONTINUOUS
 10
20.759058
 20
80.563519
 11
20.913822
 21
80.506551
  0
LINE
  8
1
 62
7
  6
CONTINUOUS
 10
20.913822
 20
80.506551
 11
21.075018
 21
80.459338
  0
LINE
  8
1
 62
7
  6
CONTINUOUS
 10
21.075018
 20
80.459338
 11
21.241420
 21
80.422238
  0
LINE
  8
1
 62
7
  6
CONTINUOUS
 10
21.241420
 20
80.422238
 11
21.411762
 21
80.395535
  0
LINE
  8
1
 62
7
  6
CONTINUOUS
 10
21.411762
 20
80.395535
 11
21.584747
 21
80.379432
  0
LINE
  8
1
 62
7
  6
CONTINUOUS
 10
21.584747
 20
80.379432
 11
21.759058
 21
80.374050
  0
LINE
  8
1
 62
7
  6
CONTINUOUS
 10
21.759058
 20
80.374050
 11
21.933370
 21
80.379432
  0
LINE
  8
1
 62
7
  6
CONTINUOUS
 10
21.933370
 20
80.379432
 11
22.106354
 21
80.395535
  0
LINE
  8
1
 62
7
  6
CONTINUOUS
 10
22.106354
 20
80.395535
 11
22.276696
 21
80.422238
  0
LINE
  8
1
 62
7
  6
CONTINUOUS
 10
22.276696
 20
80.422238
 11
22.443098
 21
80.459338
  0
LINE
  8
1
 62
7
  6
CONTINUOUS
 10
22.443098
 20
80.459338
 11
22.604295
 21
80.506551
  0
LINE
  8
1
 62
7
  6
CONTINUOUS
 10
22.604295
 20
80.506551
 11
22.759058
 21
80.563519
  0
LINE
  8
1
 62
7
  6
CONTINUOUS
 10
22.759058
 20
80.563519
 11
22.906211
 21
80.629808
  0
LINE
  8
1
 62
7
  6
CONTINUOUS
 10
22.906211
 20
80.629808
 11
23.044633
 21
80.704913
  0
LINE
  8
1
 62
7
  6
CONTINUOUS
 10
23.044633
 20
80.704913
 11
23.173272
 21
80.788264
  0
LINE
  8
1
 62
7
  6
CONTINUOUS
 10
23.173272
 20
80.788264
 11
23.291147
 21
80.879225
  0
LINE
  8
1
 62
7
  6
CONTINUOUS
 10
23.291147
 20
80.879225
 11
23.397362
 21
80.977104
  0
LINE
  8
1
 62
7
  6
CONTINUOUS
 10
23.397362
 20
80.977104
 11
23.491109
 21
81.081157
  0
LINE
  8
1
 62
7
  6
CONTINUOUS
 10
23.491109
 20
81.081157
 11
23.571674
 21
81.190591
  0
LINE
  8
1
 62
7
  6
CONTINUOUS
 10
23.571674
 20
81.190591
 11
23.638443
 21
81.304574
  0
LINE
  8
1
 62
7
  6
CONTINUOUS
 10
23.638443
 20
81.304574
 11
23.690910
 21
81.422238
  0
LINE
  8
1
 62
7
  6
CONTINUOUS
 10
23.690910
 20
81.422238
 11
23.728674
 21
81.542688
  0
LINE
  8
1
 62
7
  6
CONTINUOUS
 10
23.728674
 20
81.542688
 11
23.751447
 21
81.665007
  0
LINE
  8
1
 62
7
  6
CONTINUOUS
 10
23.751447
 20
81.665007
 11
23.759058
 21
81.788264
  0
LINE
  8
1
 62
7
  6
CONTINUOUS
 10
19.759058
 20
81.788264
 11
19.759058
 21
80.374050
  0
LINE
  8
1
 62
7
  6
CONTINUOUS
 10
23.759058
 20
81.788264
 11
23.759058
 21
80.374050
  0
LINE
  8
1
 62
7
  6
CONTINUOUS
 10
19.758368
 20
80.374050
 11
19.760395
 21
80.310382
  0
LINE
  8
1
 62
7
  6
CONTINUOUS
 10
19.760395
 20
80.310382
 11
19.766475
 21
80.246843
  0
LINE
  8
1
 62
7
  6
CONTINUOUS
 10
19.766475
 20
80.246843
 11
19.776593
 21
80.183562
  0
LINE
  8
1
 62
7
  6
CONTINUOUS
 10
19.776593
 20
80.183562
 11
19.790731
 21
80.120667
  0
LINE
  8
1
 62
7
  6
CONTINUOUS
 10
19.790731
 20
80.120667
 11
19.808858
 21
80.058286
  0
LINE
  8
1
 62
7
  6
CONTINUOUS
 10
19.808858
 20
80.058286
 11
19.830939
 21
79.996545
  0
LINE
  8
1
 62
7
  6
CONTINUOUS
 10
19.830939
 20
79.996545
 11
19.856928
 21
79.935570
  0
LINE
  8
1
 62
7
  6
CONTINUOUS
 10
19.856928
 20
79.935570
 11
19.886773
 21
79.875484
  0
LINE
  8
1
 62
7
  6
CONTINUOUS
 10
19.886773
 20
79.875484
 11
19.920414
 21
79.816409
  0
LINE
  8
1
 62
7
  6
CONTINUOUS
 10
19.920414
 20
79.816409
 11
19.957781
 21
79.758465
  0
LINE
  8
1
 62
7
  6
CONTINUOUS
 10
19.957781
 20
79.758465
 11
19.998800
 21
79.701769
  0
LINE
  8
1
 62
7
  6
CONTINUOUS
 10
19.998800
 20
79.701769
 11
20.043387
 21
79.646437
  0
LINE
  8
1
 62
7
  6
CONTINUOUS
 10
20.043387
 20
79.646437
 11
20.091452
 21
79.592580
  0
LINE
  8
1
 62
7
  6
CONTINUOUS
 10
20.091452
 20
79.592580
 11
20.142897
 21
79.540307
  0
LINE
  8
1
 62
7
  6
CONTINUOUS
 10
20.142897
 20
79.540307
 11
20.197618
 21
79.489726
  0
LINE
  8
1
 62
7
  6
CONTINUOUS
 10
20.197618
 20
79.489726
 11
20.255503
 21
79.440937
  0
LINE
  8
1
 62
7
  6
CONTINUOUS
 10
20.255503
 20
79.440937
 11
20.316437
 21
79.394041
  0
LINE
  8
1
 62
7
  6
CONTINUOUS
 10
20.316437
 20
79.394041
 11
20.380294
 21
79.349132
  0
LINE
  8
1
 62
7
  6
CONTINUOUS
 10
20.380294
 20
79.349132
 11
20.446946
 21
79.306302
  0
LINE
  8
1
 62
7
  6
CONTINUOUS
 10
20.446946
 20
79.306302
 11
20.516257
 21
79.265636
  0
LINE
  8
1
 62
7
  6
CONTINUOUS
 10
20.516257
 20
79.265636
 11
20.588087
 21
79.227219
  0
LINE
  8
1
 62
7
  6
CONTINUOUS
 10
20.588087
 20
79.227219
 11
20.662290
 21
79.191127
  0
LINE
  8
1
 62
7
  6
CONTINUOUS
 10
20.662290
 20
79.191127
 11
20.738716
 21
79.157434
  0
LINE
  8
1
 62
7
  6
CONTINUOUS
 10
20.738716
 20
79.157434
 11
20.817210
 21
79.126208
  0
LINE
  8
1
 62
7
  6
CONTINUOUS
 10
20.817210
 20
79.126208
 11
20.897612
 21
79.097512
  0
LINE
  8
1
 62
7
  6
CONTINUOUS
 10
20.897612
 20
79.097512
 11
20.979760
 21
79.071405
  0
LINE
  8
1
 62
7
  6
CONTINUOUS
 10
20.979760
 20
79.071405
 11
21.063486
 21
79.047939
  0
LINE
  8
1
 62
7
  6
CONTINUOUS
 10
21.063486
 20
79.047939
 11
21.148622
 21
79.027163
  0
LINE
  8
1
 62
7
  6
CONTINUOUS
 10
21.148622
 20
79.027163
 11
21.234994
 21
79.009118
  0
LINE
  8
1
 62
7
  6
CONTINUOUS
 10
21.234994
 20
79.009118
 11
21.322427
 21
78.993841
  0
LINE
  8
1
 62
7
  6
CONTINUOUS
 10
21.322427
 20
78.993841
 11
21.410744
 21
78.981362
  0
LINE
  8
1
 62
7
  6
CONTINUOUS
 10
21.410744
 20
78.981362
 11
21.499767
 21
78.971708
  0
LINE
  8
1
 62
7
  6
CONTINUOUS
 10
21.499767
 20
78.971708
 11
21.589314
 21
78.964898
  0
LINE
  8
1
 62
7
  6
CONTINUOUS
 10
21.589314
 20
78.964898
 11
21.679203
 21
78.960945
  0
LINE
  8
1
 62
7
  6
CONTINUOUS
 10
21.679203
 20
78.960945
 11
21.769253
 21
78.959858
  0
LINE
  8
1
 62
7
  6
CONTINUOUS
 10
21.769253
 20
78.959858
 11
21.859281
 21
78.961638
  0
LINE
  8
1
 62
7
  6
CONTINUOUS
 10
21.859281
 20
78.961638
 11
21.949104
 21
78.966283
  0
LINE
  8
1
 62
7
  6
CONTINUOUS
 10
21.949104
 20
78.966283
 11
22.038541
 21
78.973782
  0
LINE
  8
1
 62
7
  6
CONTINUOUS
 10
22.038541
 20
78.973782
 11
22.127409
 21
78.984121
  0
LINE
  8
1
 62
7
  6
CONTINUOUS
 10
22.127409
 20
78.984121
 11
22.215530
 21
78.997278
  0
LINE
  8
1
 62
7
  6
CONTINUOUS
 10
22.215530
 20
78.997278
 11
22.302723
 21
79.013227
  0
LINE
  8
1
 62
7
  6
CONTINUOUS
 10
22.302723
 20
79.013227
 11
22.388812
 21
79.031936
  0
LINE
  8
1
 62
7
  6
CONTINUOUS
 10
22.388812
 20
79.031936
 11
22.473622
 21
79.053367
  0
LINE
  8
1
 62
7
  6
CONTINUOUS
 10
22.473622
 20
79.053367
 11
22.556983
 21
79.077475
  0
LINE
  8
1
 62
7
  6
CONTINUOUS
 10
22.556983
 20
79.077475
 11
22.638723
 21
79.104213
  0
LINE
  8
1
 62
7
  6
CONTINUOUS
 10
22.638723
 20
79.104213
 11
22.718679
 21
79.133526
  0
LINE
  8
1
 62
7
  6
CONTINUOUS
 10
22.718679
 20
79.133526
 11
22.796687
 21
79.165354
  0
LINE
  8
1
 62
7
  6
CONTINUOUS
 10
22.796687
 20
79.165354
 11
22.872590
 21
79.199634
  0
LINE
  8
1
 62
7
  6
CONTINUOUS
 10
22.872590
 20
79.199634
 11
22.946233
 21
79.236295
  0
LINE
  8
1
 62
7
  6
CONTINUOUS
 10
22.946233
 20
79.236295
 11
23.017468
 21
79.275263
  0
LINE
  8
1
 62
7
  6
CONTINUOUS
 10
23.017468
 20
79.275263
 11
23.086149
 21
79.316459
  0
LINE
  8
1
 62
7
  6
CONTINUOUS
 10
23.086149
 20
79.316459
 11
23.152137
 21
79.359800
  0
LINE
  8
1
 62
7
  6
CONTINUOUS
 10
23.152137
 20
79.359800
 11
23.215299
 21
79.405198
  0
LINE
  8
1
 62
7
  6
CONTINUOUS
 10
23.215299
 20
79.405198
 11
23.275507
 21
79.452560
  0
LINE
  8
1
 62
7
  6
CONTINUOUS
 10
23.275507
 20
79.452560
 11
23.332639
 21
79.501791
  0
LINE
  8
1
 62
7
  6
CONTINUOUS
 10
23.332639
 20
79.501791
 11
23.386577
 21
79.552791
  0
LINE
  8
1
 62
7
  6
CONTINUOUS
 10
23.386577
 20
79.552791
 11
23.437215
 21
79.605457
  0
LINE
  8
1
 62
7
  6
CONTINUOUS
 10
23.437215
 20
79.605457
 11
23.484447
 21
79.659680
  0
LINE
  8
1
 62
7
  6
CONTINUOUS
 10
23.484447
 20
79.659680
 11
23.528180
 21
79.715353
  0
LINE
  8
1
 62
7
  6
CONTINUOUS
 10
23.528180
 20
79.715353
 11
23.568323
 21
79.772361
  0
LINE
  8
1
 62
7
  6
CONTINUOUS
 10
23.568323
 20
79.772361
 11
23.604797
 21
79.830589
  0
LINE
  8
1
 62
7
  6
CONTINUOUS
 10
23.604797
 20
79.830589
 11
23.637526
 21
79.889920
  0
LINE
  8
1
 62
7
  6
CONTINUOUS
 10
23.637526
 20
79.889920
 11
23.666444
 21
79.950232
  0
LINE
  8
1
 62
7
  6
CONTINUOUS
 10
23.666444
 20
79.950232
 11
23.691493
 21
80.011404
  0
LINE
  8
1
 62
7
  6
CONTINUOUS
 10
23.691493
 20
80.011404
 11
23.712622
 21
80.073311
  0
LINE
  8
1
 62
7
  6
CONTINUOUS
 10
23.712622
 20
80.073311
 11
23.729788
 21
80.135827
  0
LINE
  8
1
 62
7
  6
CONTINUOUS
 10
23.729788
 20
80.135827
 11
23.742957
 21
80.198827
  0
LINE
  8
1
 62
7
  6
CONTINUOUS
 10
23.742957
 20
80.198827
 11
23.752100
 21
80.262182
  0
LINE
  8
1
 62
7
  6
CONTINUOUS
 10
23.752100
 20
80.262182
 11
23.757201
 21
80.325765
  0
LINE
  8
1
 62
7
  6
CONTINUOUS
 10
23.757201
 20
80.325765
 11
23.758249
 21
80.389445
  0
LINE
  8
1
 62
7
  6
CONTINUOUS
 10
23.758249
 20
80.389445
 11
23.755241
 21
80.453093
  0
LINE
  8
1
 62
7
  6
CONTINUOUS
 10
23.755241
 20
80.453093
 11
23.748184
 21
80.516582
  0
LINE
  8
1
 62
7
  6
CONTINUOUS
 10
47.759058
 20
81.788264
 11
47.751447
 21
81.911521
  0
LINE
  8
1
 62
7
  6
CONTINUOUS
 10
47.751447
 20
81.911521
 11
47.728674
 21
82.033839
  0
LINE
  8
1
 62
7
  6
CONTINUOUS
 10
47.728674
 20
82.033839
 11
47.690910
 21
82.154289
  0
LINE
  8
1
 62
7
  6
CONTINUOUS
 10
47.690910
 20
82.154289
 11
47.638443
 21
82.271953
  0
LINE
  8
1
 62
7
  6
CONTINUOUS
 10
47.638443
 20
82.271953
 11
47.571674
 21
82.385936
  0
LINE
  8
1
 62
7
  6
CONTINUOUS
 10
47.571674
 20
82.385936
 11
47.491109
 21
82.495371
  0
LINE
  8
1
 62
7
  6
CONTINUOUS
 10
47.491109
 20
82.495371
 11
47.397362
 21
82.599423
  0
LINE
  8
1
 62
7
  6
CONTINUOUS
 10
47.397362
 20
82.599423
 11
47.291147
 21
82.697303
  0
LINE
  8
1
 62
7
  6
CONTINUOUS
 10
47.291147
 20
82.697303
 11
47.173272
 21
82.788264
  0
LINE
  8
1
 62
7
  6
CONTINUOUS
 10
47.173272
 20
82.788264
 11
47.044633
 21
82.871614
  0
LINE
  8
1
 62
7
  6
CONTINUOUS
 10
47.044633
 20
82.871614
 11
46.906211
 21
82.946720
  0
LINE
  8
1
 62
7
  6
CONTINUOUS
 10
46.906211
 20
82.946720
 11
46.759058
 21
83.013009
  0
LINE
  8
1
 62
7
  6
CONTINUOUS
 10
46.759058
 20
83.013009
 11
46.604295
 21
83.069977
  0
LINE
  8
1
 62
7
  6
CONTINUOUS
 10
46.604295
 20
83.069977
 11
46.443098
 21
83.117190
  0
LINE
  8
1
 62
7
  6
CONTINUOUS
 10
46.443098
 20
83.117190
 11
46.276696
 21
83.154289
  0
LINE
  8
1
 62
7
  6
CONTINUOUS
 10
46.276696
 20
83.154289
 11
46.106354
 21
83.180992
  0
LINE
  8
1
 62
7
  6
CONTINUOUS
 10
46.106354
 20
83.180992
 11
45.933370
 21
83.197096
  0
LINE
  8
1
 62
7
  6
CONTINUOUS
 10
45.933370
 20
83.197096
 11
45.759058
 21
83.202477
  0
LINE
  8
1
 62
7
  6
CONTINUOUS
 10
45.759058
 20
83.202477
 11
45.584747
 21
83.197096
  0
LINE
  8
1
 62
7
  6
CONTINUOUS
 10
45.584747
 20
83.197096
 11
45.411762
 21
83.180992
  0
LINE
  8
1
 62
7
  6
CONTINUOUS
 10
45.411762
 20
83.180992
 11
45.241420
 21
83.154289
  0
LINE
  8
1
 62
7
  6
CONTINUOUS
 10
45.241420
 20
83.154289
 11
45.075018
 21
83.117190
  0
LINE
  8
1
 62
7
  6
CONTINUOUS
 10
45.075018
 20
83.117190
 11
44.913822
 21
83.069977
  0
LINE
  8
1
 62
7
  6
CONTINUOUS
 10
44.913822
 20
83.069977
 11
44.759058
 21
83.013009
  0
LINE
  8
1
 62
7
  6
CONTINUOUS
 10
44.759058
 20
83.013009
 11
44.611905
 21
82.946720
  0
LINE
  8
1
 62
7
  6
CONTINUOUS
 10
44.611905
 20
82.946720
 11
44.473483
 21
82.871614
  0
LINE
  8
1
 62
7
  6
CONTINUOUS
 10
44.473483
 20
82.871614
 11
44.344844
 21
82.788264
  0
LINE
  8
1
 62
7
  6
CONTINUOUS
 10
44.344844
 20
82.788264
 11
44.226969
 21
82.697303
  0
LINE
  8
1
 62
7
  6
CONTINUOUS
 10
44.226969
 20
82.697303
 11
44.120754
 21
82.599423
  0
LINE
  8
1
 62
7
  6
CONTINUOUS
 10
44.120754
 20
82.599423
 11
44.027007
 21
82.495371
  0
LINE
  8
1
 62
7
  6
CONTINUOUS
 10
44.027007
 20
82.495371
 11
43.946442
 21
82.385936
  0
LINE
  8
1
 62
7
  6
CONTINUOUS
 10
43.946442
 20
82.385936
 11
43.879673
 21
82.271953
  0
LINE
  8
1
 62
7
  6
CONTINUOUS
 10
43.879673
 20
82.271953
 11
43.827206
 21
82.154289
  0
LINE
  8
1
 62
7
  6
CONTINUOUS
 10
43.827206
 20
82.154289
 11
43.789443
 21
82.033839
  0
LINE
  8
1
 62
7
  6
CONTINUOUS
 10
43.789443
 20
82.033839
 11
43.766669
 21
81.911521
  0
LINE
  8
1
 62
7
  6
CONTINUOUS
 10
43.766669
 20
81.911521
 11
43.759058
 21
81.788264
  0
LINE
  8
1
 62
7
  6
CONTINUOUS
 10
43.759058
 20
81.788264
 11
43.766669
 21
81.665007
  0
LINE
  8
1
 62
7
  6
CONTINUOUS
 10
43.766669
 20
81.665007
 11
43.789443
 21
81.542688
  0
LINE
  8
1
 62
7
  6
CONTINUOUS
 10
43.789443
 20
81.542688
 11
43.827206
 21
81.422238
  0
LINE
  8
1
 62
7
  6
CONTINUOUS
 10
43.827206
 20
81.422238
 11
43.879673
 21
81.304574
  0
LINE
  8
1
 62
7
  6
CONTINUOUS
 10
43.879673
 20
81.304574
 11
43.946442
 21
81.190591
  0
LINE
  8
1
 62
7
  6
CONTINUOUS
 10
43.946442
 20
81.190591
 11
44.027007
 21
81.081157
  0
LINE
  8
1
 62
7
  6
CONTINUOUS
 10
44.027007
 20
81.081157
 11
44.120754
 21
80.977104
  0
LINE
  8
1
 62
7
  6
CONTINUOUS
 10
44.120754
 20
80.977104
 11
44.226969
 21
80.879225
  0
LINE
  8
1
 62
7
  6
CONTINUOUS
 10
44.226969
 20
80.879225
 11
44.344844
 21
80.788264
  0
LINE
  8
1
 62
7
  6
CONTINUOUS
 10
44.344844
 20
80.788264
 11
44.473483
 21
80.704913
  0
LINE
  8
1
 62
7
  6
CONTINUOUS
 10
44.473483
 20
80.704913
 11
44.611905
 21
80.629808
  0
LINE
  8
1
 62
7
  6
CONTINUOUS
 10
44.611905
 20
80.629808
 11
44.759058
 21
80.563519
  0
LINE
  8
1
 62
7
  6
CONTINUOUS
 10
44.759058
 20
80.563519
 11
44.913822
 21
80.506551
  0
LINE
  8
1
 62
7
  6
CONTINUOUS
 10
44.913822
 20
80.506551
 11
45.075018
 21
80.459338
  0
LINE
  8
1
 62
7
  6
CONTINUOUS
 10
45.075018
 20
80.459338
 11
45.241420
 21
80.422238
  0
LINE
  8
1
 62
7
  6
CONTINUOUS
 10
45.241420
 20
80.422238
 11
45.411762
 21
80.395535
  0
LINE
  8
1
 62
7
  6
CONTINUOUS
 10
45.411762
 20
80.395535
 11
45.584747
 21
80.379432
  0
LINE
  8
1
 62
7
  6
CONTINUOUS
 10
45.584747
 20
80.379432
 11
45.759058
 21
80.374050
  0
LINE
  8
1
 62
7
  6
CONTINUOUS
 10
45.759058
 20
80.374050
 11
45.933370
 21
80.379432
  0
LINE
  8
1
 62
7
  6
CONTINUOUS
 10
45.933370
 20
80.379432
 11
46.106354
 21
80.395535
  0
LINE
  8
1
 62
7
  6
CONTINUOUS
 10
46.106354
 20
80.395535
 11
46.276696
 21
80.422238
  0
LINE
  8
1
 62
7
  6
CONTINUOUS
 10
46.276696
 20
80.422238
 11
46.443098
 21
80.459338
  0
LINE
  8
1
 62
7
  6
CONTINUOUS
 10
46.443098
 20
80.459338
 11
46.604295
 21
80.506551
  0
LINE
  8
1
 62
7
  6
CONTINUOUS
 10
46.604295
 20
80.506551
 11
46.759058
 21
80.563519
  0
LINE
  8
1
 62
7
  6
CONTINUOUS
 10
46.759058
 20
80.563519
 11
46.906211
 21
80.629808
  0
LINE
  8
1
 62
7
  6
CONTINUOUS
 10
46.906211
 20
80.629808
 11
47.044633
 21
80.704913
  0
LINE
  8
1
 62
7
  6
CONTINUOUS
 10
47.044633
 20
80.704913
 11
47.173272
 21
80.788264
  0
LINE
  8
1
 62
7
  6
CONTINUOUS
 10
47.173272
 20
80.788264
 11
47.291147
 21
80.879225
  0
LINE
  8
1
 62
7
  6
CONTINUOUS
 10
47.291147
 20
80.879225
 11
47.397362
 21
80.977104
  0
LINE
  8
1
 62
7
  6
CONTINUOUS
 10
47.397362
 20
80.977104
 11
47.491109
 21
81.081157
  0
LINE
  8
1
 62
7
  6
CONTINUOUS
 10
47.491109
 20
81.081157
 11
47.571674
 21
81.190591
  0
LINE
  8
1
 62
7
  6
CONTINUOUS
 10
47.571674
 20
81.190591
 11
47.638443
 21
81.304574
  0
LINE
  8
1
 62
7
  6
CONTINUOUS
 10
47.638443
 20
81.304574
 11
47.690910
 21
81.422238
  0
LINE
  8
1
 62
7
  6
CONTINUOUS
 10
47.690910
 20
81.422238
 11
47.728674
 21
81.542688
  0
LINE
  8
1
 62
7
  6
CONTINUOUS
 10
47.728674
 20
81.542688
 11
47.751447
 21
81.665007
  0
LINE
  8
1
 62
7
  6
CONTINUOUS
 10
47.751447
 20
81.665007
 11
47.759058
 21
81.788264
  0
LINE
  8
1
 62
7
  6
CONTINUOUS
 10
43.759058
 20
81.788264
 11
43.759058
 21
80.374050
  0
LINE
  8
1
 62
7
  6
CONTINUOUS
 10
47.759058
 20
81.788264
 11
47.759058
 21
80.374050
  0
LINE
  8
1
 62
7
  6
CONTINUOUS
 10
43.758368
 20
80.374050
 11
43.760395
 21
80.310382
  0
LINE
  8
1
 62
7
  6
CONTINUOUS
 10
43.760395
 20
80.310382
 11
43.766475
 21
80.246843
  0
LINE
  8
1
 62
7
  6
CONTINUOUS
 10
43.766475
 20
80.246843
 11
43.776593
 21
80.183562
  0
LINE
  8
1
 62
7
  6
CONTINUOUS
 10
43.776593
 20
80.183562
 11
43.790731
 21
80.120667
  0
LINE
  8
1
 62
7
  6
CONTINUOUS
 10
43.790731
 20
80.120667
 11
43.808858
 21
80.058286
  0
LINE
  8
1
 62
7
  6
CONTINUOUS
 10
43.808858
 20
80.058286
 11
43.830939
 21
79.996545
  0
LINE
  8
1
 62
7
  6
CONTINUOUS
 10
43.830939
 20
79.996545
 11
43.856928
 21
79.935570
  0
LINE
  8
1
 62
7
  6
CONTINUOUS
 10
43.856928
 20
79.935570
 11
43.886773
 21
79.875484
  0
LINE
  8
1
 62
7
  6
CONTINUOUS
 10
43.886773
 20
79.875484
 11
43.920414
 21
79.816409
  0
LINE
  8
1
 62
7
  6
CONTINUOUS
 10
43.920414
 20
79.816409
 11
43.957781
 21
79.758465
  0
LINE
  8
1
 62
7
  6
CONTINUOUS
 10
43.957781
 20
79.758465
 11
43.998800
 21
79.701769
  0
LINE
  8
1
 62
7
  6
CONTINUOUS
 10
43.998800
 20
79.701769
 11
44.043387
 21
79.646437
  0
LINE
  8
1
 62
7
  6
CONTINUOUS
 10
44.043387
 20
79.646437
 11
44.091452
 21
79.592580
  0
LINE
  8
1
 62
7
  6
CONTINUOUS
 10
44.091452
 20
79.592580
 11
44.142897
 21
79.540307
  0
LINE
  8
1
 62
7
  6
CONTINUOUS
 10
44.142897
 20
79.540307
 11
44.197618
 21
79.489726
  0
LINE
  8
1
 62
7
  6
CONTINUOUS
 10
44.197618
 20
79.489726
 11
44.255503
 21
79.440937
  0
LINE
  8
1
 62
7
  6
CONTINUOUS
 10
44.255503
 20
79.440937
 11
44.316437
 21
79.394041
  0
LINE
  8
1
 62
7
  6
CONTINUOUS
 10
44.316437
 20
79.394041
 11
44.380294
 21
79.349132
  0
LINE
  8
1
 62
7
  6
CONTINUOUS
 10
44.380294
 20
79.349132
 11
44.446946
 21
79.306302
  0
LINE
  8
1
 62
7
  6
CONTINUOUS
 10
44.446946
 20
79.306302
 11
44.516257
 21
79.265636
  0
LINE
  8
1
 62
7
  6
CONTINUOUS
 10
44.516257
 20
79.265636
 11
44.588087
 21
79.227219
  0
LINE
  8
1
 62
7
  6
CONTINUOUS
 10
44.588087
 20
79.227219
 11
44.662290
 21
79.191127
  0
LINE
  8
1
 62
7
  6
CONTINUOUS
 10
44.662290
 20
79.191127
 11
44.738716
 21
79.157434
  0
LINE
  8
1
 62
7
  6
CONTINUOUS
 10
44.738716
 20
79.157434
 11
44.817210
 21
79.126208
  0
LINE
  8
1
 62
7
  6
CONTINUOUS
 10
44.817210
 20
79.126208
 11
44.897612
 21
79.097512
  0
LINE
  8
1
 62
7
  6
CONTINUOUS
 10
44.897612
 20
79.097512
 11
44.979760
 21
79.071405
  0
LINE
  8
1
 62
7
  6
CONTINUOUS
 10
44.979760
 20
79.071405
 11
45.063486
 21
79.047939
  0
LINE
  8
1
 62
7
  6
CONTINUOUS
 10
45.063486
 20
79.047939
 11
45.148622
 21
79.027163
  0
LINE
  8
1
 62
7
  6
CONTINUOUS
 10
45.148622
 20
79.027163
 11
45.234994
 21
79.009118
  0
LINE
  8
1
 62
7
  6
CONTINUOUS
 10
45.234994
 20
79.009118
 11
45.322427
 21
78.993841
  0
LINE
  8
1
 62
7
  6
CONTINUOUS
 10
45.322427
 20
78.993841
 11
45.410744
 21
78.981362
  0
LINE
  8
1
 62
7
  6
CONTINUOUS
 10
45.410744
 20
78.981362
 11
45.499767
 21
78.971708
  0
LINE
  8
1
 62
7
  6
CONTINUOUS
 10
45.499767
 20
78.971708
 11
45.589314
 21
78.964898
  0
LINE
  8
1
 62
7
  6
CONTINUOUS
 10
45.589314
 20
78.964898
 11
45.679203
 21
78.960945
  0
LINE
  8
1
 62
7
  6
CONTINUOUS
 10
45.679203
 20
78.960945
 11
45.769253
 21
78.959858
  0
LINE
  8
1
 62
7
  6
CONTINUOUS
 10
45.769253
 20
78.959858
 11
45.859281
 21
78.961638
  0
LINE
  8
1
 62
7
  6
CONTINUOUS
 10
45.859281
 20
78.961638
 11
45.949104
 21
78.966283
  0
LINE
  8
1
 62
7
  6
CONTINUOUS
 10
45.949104
 20
78.966283
 11
46.038541
 21
78.973782
  0
LINE
  8
1
 62
7
  6
CONTINUOUS
 10
46.038541
 20
78.973782
 11
46.127409
 21
78.984121
  0
LINE
  8
1
 62
7
  6
CONTINUOUS
 10
46.127409
 20
78.984121
 11
46.215530
 21
78.997278
  0
LINE
  8
1
 62
7
  6
CONTINUOUS
 10
46.215530
 20
78.997278
 11
46.302723
 21
79.013227
  0
LINE
  8
1
 62
7
  6
CONTINUOUS
 10
46.302723
 20
79.013227
 11
46.388812
 21
79.031936
  0
LINE
  8
1
 62
7
  6
CONTINUOUS
 10
46.388812
 20
79.031936
 11
46.473622
 21
79.053367
  0
LINE
  8
1
 62
7
  6
CONTINUOUS
 10
46.473622
 20
79.053367
 11
46.556983
 21
79.077475
  0
LINE
  8
1
 62
7
  6
CONTINUOUS
 10
46.556983
 20
79.077475
 11
46.638723
 21
79.104213
  0
LINE
  8
1
 62
7
  6
CONTINUOUS
 10
46.638723
 20
79.104213
 11
46.718679
 21
79.133526
  0
LINE
  8
1
 62
7
  6
CONTINUOUS
 10
46.718679
 20
79.133526
 11
46.796687
 21
79.165354
  0
LINE
  8
1
 62
7
  6
CONTINUOUS
 10
46.796687
 20
79.165354
 11
46.872590
 21
79.199634
  0
LINE
  8
1
 62
7
  6
CONTINUOUS
 10
46.872590
 20
79.199634
 11
46.946233
 21
79.236295
  0
LINE
  8
1
 62
7
  6
CONTINUOUS
 10
46.946233
 20
79.236295
 11
47.017468
 21
79.275263
  0
LINE
  8
1
 62
7
  6
CONTINUOUS
 10
47.017468
 20
79.275263
 11
47.086149
 21
79.316459
  0
LINE
  8
1
 62
7
  6
CONTINUOUS
 10
47.086149
 20
79.316459
 11
47.152137
 21
79.359800
  0
LINE
  8
1
 62
7
  6
CONTINUOUS
 10
47.152137
 20
79.359800
 11
47.215299
 21
79.405198
  0
LINE
  8
1
 62
7
  6
CONTINUOUS
 10
47.215299
 20
79.405198
 11
47.275507
 21
79.452560
  0
LINE
  8
1
 62
7
  6
CONTINUOUS
 10
47.275507
 20
79.452560
 11
47.332639
 21
79.501791
  0
LINE
  8
1
 62
7
  6
CONTINUOUS
 10
47.332639
 20
79.501791
 11
47.386577
 21
79.552791
  0
LINE
  8
1
 62
7
  6
CONTINUOUS
 10
47.386577
 20
79.552791
 11
47.437215
 21
79.605457
  0
LINE
  8
1
 62
7
  6
CONTINUOUS
 10
47.437215
 20
79.605457
 11
47.484447
 21
79.659680
  0
LINE
  8
1
 62
7
  6
CONTINUOUS
 10
47.484447
 20
79.659680
 11
47.528180
 21
79.715353
  0
LINE
  8
1
 62
7
  6
CONTINUOUS
 10
47.528180
 20
79.715353
 11
47.568323
 21
79.772361
  0
LINE
  8
1
 62
7
  6
CONTINUOUS
 10
47.568323
 20
79.772361
 11
47.604797
 21
79.830589
  0
LINE
  8
1
 62
7
  6
CONTINUOUS
 10
47.604797
 20
79.830589
 11
47.637526
 21
79.889920
  0
LINE
  8
1
 62
7
  6
CONTINUOUS
 10
47.637526
 20
79.889920
 11
47.666444
 21
79.950232
  0
LINE
  8
1
 62
7
  6
CONTINUOUS
 10
47.666444
 20
79.950232
 11
47.691493
 21
80.011404
  0
LINE
  8
1
 62
7
  6
CONTINUOUS
 10
47.691493
 20
80.011404
 11
47.712622
 21
80.073311
  0
LINE
  8
1
 62
7
  6
CONTINUOUS
 10
47.712622
 20
80.073311
 11
47.729788
 21
80.135827
  0
LINE
  8
1
 62
7
  6
CONTINUOUS
 10
47.729788
 20
80.135827
 11
47.742957
 21
80.198827
  0
LINE
  8
1
 62
7
  6
CONTINUOUS
 10
47.742957
 20
80.198827
 11
47.752100
 21
80.262182
  0
LINE
  8
1
 62
7
  6
CONTINUOUS
 10
47.752100
 20
80.262182
 11
47.757201
 21
80.325765
  0
LINE
  8
1
 62
7
  6
CONTINUOUS
 10
47.757201
 20
80.325765
 11
47.758249
 21
80.389445
  0
LINE
  8
1
 62
7
  6
CONTINUOUS
 10
47.758249
 20
80.389445
 11
47.755241
 21
80.453093
  0
LINE
  8
1
 62
7
  6
CONTINUOUS
 10
47.755241
 20
80.453093
 11
47.748184
 21
80.516582
  0
LINE
  8
1
 62
7
  6
CONTINUOUS
 10
23.759058
 20
47.493585
 11
23.751447
 21
47.616842
  0
LINE
  8
1
 62
7
  6
CONTINUOUS
 10
23.751447
 20
47.616842
 11
23.728674
 21
47.739161
  0
LINE
  8
1
 62
7
  6
CONTINUOUS
 10
23.728674
 20
47.739161
 11
23.690910
 21
47.859610
  0
LINE
  8
1
 62
7
  6
CONTINUOUS
 10
23.690910
 20
47.859610
 11
23.638443
 21
47.977274
  0
LINE
  8
1
 62
7
  6
CONTINUOUS
 10
23.638443
 20
47.977274
 11
23.571674
 21
48.091257
  0
LINE
  8
1
 62
7
  6
CONTINUOUS
 10
23.571674
 20
48.091257
 11
23.491109
 21
48.200692
  0
LINE
  8
1
 62
7
  6
CONTINUOUS
 10
23.491109
 20
48.200692
 11
23.397362
 21
48.304745
  0
LINE
  8
1
 62
7
  6
CONTINUOUS
 10
23.397362
 20
48.304745
 11
23.291147
 21
48.402624
  0
LINE
  8
1
 62
7
  6
CONTINUOUS
 10
23.291147
 20
48.402624
 11
23.173272
 21
48.493585
  0
LINE
  8
1
 62
7
  6
CONTINUOUS
 10
23.173272
 20
48.493585
 11
23.044633
 21
48.576935
  0
LINE
  8
1
 62
7
  6
CONTINUOUS
 10
23.044633
 20
48.576935
 11
22.906211
 21
48.652041
  0
LINE
  8
1
 62
7
  6
CONTINUOUS
 10
22.906211
 20
48.652041
 11
22.759058
 21
48.718330
  0
LINE
  8
1
 62
7
  6
CONTINUOUS
 10
22.759058
 20
48.718330
 11
22.604295
 21
48.775298
  0
LINE
  8
1
 62
7
  6
CONTINUOUS
 10
22.604295
 20
48.775298
 11
22.443098
 21
48.822511
  0
LINE
  8
1
 62
7
  6
CONTINUOUS
 10
22.443098
 20
48.822511
 11
22.276696
 21
48.859610
  0
LINE
  8
1
 62
7
  6
CONTINUOUS
 10
22.276696
 20
48.859610
 11
22.106354
 21
48.886313
  0
LINE
  8
1
 62
7
  6
CONTINUOUS
 10
22.106354
 20
48.886313
 11
21.933370
 21
48.902417
  0
LINE
  8
1
 62
7
  6
CONTINUOUS
 10
21.933370
 20
48.902417
 11
21.759058
 21
48.907799
  0
LINE
  8
1
 62
7
  6
CONTINUOUS
 10
21.759058
 20
48.907799
 11
21.584747
 21
48.902417
  0
LINE
  8
1
 62
7
  6
CONTINUOUS
 10
21.584747
 20
48.902417
 11
21.411762
 21
48.886313
  0
LINE
  8
1
 62
7
  6
CONTINUOUS
 10
21.411762
 20
48.886313
 11
21.241420
 21
48.859610
  0
LINE
  8
1
 62
7
  6
CONTINUOUS
 10
21.241420
 20
48.859610
 11
21.075018
 21
48.822511
  0
LINE
  8
1
 62
7
  6
CONTINUOUS
 10
21.075018
 20
48.822511
 11
20.913822
 21
48.775298
  0
LINE
  8
1
 62
7
  6
CONTINUOUS
 10
20.913822
 20
48.775298
 11
20.759058
 21
48.718330
  0
LINE
  8
1
 62
7
  6
CONTINUOUS
 10
20.759058
 20
48.718330
 11
20.611905
 21
48.652041
  0
LINE
  8
1
 62
7
  6
CONTINUOUS
 10
20.611905
 20
48.652041
 11
20.473483
 21
48.576935
  0
LINE
  8
1
 62
7
  6
CONTINUOUS
 10
20.473483
 20
48.576935
 11
20.344844
 21
48.493585
  0
LINE
  8
1
 62
7
  6
CONTINUOUS
 10
20.344844
 20
48.493585
 11
20.226969
 21
48.402624
  0
LINE
  8
1
 62
7
  6
CONTINUOUS
 10
20.226969
 20
48.402624
 11
20.120754
 21
48.304745
  0
LINE
  8
1
 62
7
  6
CONTINUOUS
 10
20.120754
 20
48.304745
 11
20.027007
 21
48.200692
  0
LINE
  8
1
 62
7
  6
CONTINUOUS
 10
20.027007
 20
48.200692
 11
19.946442
 21
48.091257
  0
LINE
  8
1
 62
7
  6
CONTINUOUS
 10
19.946442
 20
48.091257
 11
19.879673
 21
47.977274
  0
LINE
  8
1
 62
7
  6
CONTINUOUS
 10
19.879673
 20
47.977274
 11
19.827206
 21
47.859610
  0
LINE
  8
1
 62
7
  6
CONTINUOUS
 10
19.827206
 20
47.859610
 11
19.789443
 21
47.739161
  0
LINE
  8
1
 62
7
  6
CONTINUOUS
 10
19.789443
 20
47.739161
 11
19.766669
 21
47.616842
  0
LINE
  8
1
 62
7
  6
CONTINUOUS
 10
19.766669
 20
47.616842
 11
19.759058
 21
47.493585
  0
LINE
  8
1
 62
7
  6
CONTINUOUS
 10
19.759058
 20
47.493585
 11
19.766669
 21
47.370328
  0
LINE
  8
1
 62
7
  6
CONTINUOUS
 10
19.766669
 20
47.370328
 11
19.789443
 21
47.248009
  0
LINE
  8
1
 62
7
  6
CONTINUOUS
 10
19.789443
 20
47.248009
 11
19.827206
 21
47.127559
  0
LINE
  8
1
 62
7
  6
CONTINUOUS
 10
19.827206
 20
47.127559
 11
19.879673
 21
47.009895
  0
LINE
  8
1
 62
7
  6
CONTINUOUS
 10
19.879673
 20
47.009895
 11
19.946442
 21
46.895912
  0
LINE
  8
1
 62
7
  6
CONTINUOUS
 10
19.946442
 20
46.895912
 11
20.027007
 21
46.786478
  0
LINE
  8
1
 62
7
  6
CONTINUOUS
 10
20.027007
 20
46.786478
 11
20.120754
 21
46.682425
  0
LINE
  8
1
 62
7
  6
CONTINUOUS
 10
20.120754
 20
46.682425
 11
20.226969
 21
46.584546
  0
LINE
  8
1
 62
7
  6
CONTINUOUS
 10
20.226969
 20
46.584546
 11
20.344844
 21
46.493585
  0
LINE
  8
1
 62
7
  6
CONTINUOUS
 10
20.344844
 20
46.493585
 11
20.473483
 21
46.410234
  0
LINE
  8
1
 62
7
  6
CONTINUOUS
 10
20.473483
 20
46.410234
 11
20.611905
 21
46.335129
  0
LINE
  8
1
 62
7
  6
CONTINUOUS
 10
20.611905
 20
46.335129
 11
20.759058
 21
46.268840
  0
LINE
  8
1
 62
7
  6
CONTINUOUS
 10
20.759058
 20
46.268840
 11
20.913822
 21
46.211872
  0
LINE
  8
1
 62
7
  6
CONTINUOUS
 10
20.913822
 20
46.211872
 11
21.075018
 21
46.164659
  0
LINE
  8
1
 62
7
  6
CONTINUOUS
 10
21.075018
 20
46.164659
 11
21.241420
 21
46.127559
  0
LINE
  8
1
 62
7
  6
CONTINUOUS
 10
21.241420
 20
46.127559
 11
21.411762
 21
46.100856
  0
LINE
  8
1
 62
7
  6
CONTINUOUS
 10
21.411762
 20
46.100856
 11
21.584747
 21
46.084753
  0
LINE
  8
1
 62
7
  6
CONTINUOUS
 10
21.584747
 20
46.084753
 11
21.759058
 21
46.079371
  0
LINE
  8
1
 62
7
  6
CONTINUOUS
 10
21.759058
 20
46.079371
 11
21.933370
 21
46.084753
  0
LINE
  8
1
 62
7
  6
CONTINUOUS
 10
21.933370
 20
46.084753
 11
22.106354
 21
46.100856
  0
LINE
  8
1
 62
7
  6
CONTINUOUS
 10
22.106354
 20
46.100856
 11
22.276696
 21
46.127559
  0
LINE
  8
1
 62
7
  6
CONTINUOUS
 10
22.276696
 20
46.127559
 11
22.443098
 21
46.164659
  0
LINE
  8
1
 62
7
  6
CONTINUOUS
 10
22.443098
 20
46.164659
 11
22.604295
 21
46.211872
  0
LINE
  8
1
 62
7
  6
CONTINUOUS
 10
22.604295
 20
46.211872
 11
22.759058
 21
46.268840
  0
LINE
  8
1
 62
7
  6
CONTINUOUS
 10
22.759058
 20
46.268840
 11
22.906211
 21
46.335129
  0
LINE
  8
1
 62
7
  6
CONTINUOUS
 10
22.906211
 20
46.335129
 11
23.044633
 21
46.410234
  0
LINE
  8
1
 62
7
  6
CONTINUOUS
 10
23.044633
 20
46.410234
 11
23.173272
 21
46.493585
  0
LINE
  8
1
 62
7
  6
CONTINUOUS
 10
23.173272
 20
46.493585
 11
23.291147
 21
46.584546
  0
LINE
  8
1
 62
7
  6
CONTINUOUS
 10
23.291147
 20
46.584546
 11
23.397362
 21
46.682425
  0
LINE
  8
1
 62
7
  6
CONTINUOUS
 10
23.397362
 20
46.682425
 11
23.491109
 21
46.786478
  0
LINE
  8
1
 62
7
  6
CONTINUOUS
 10
23.491109
 20
46.786478
 11
23.571674
 21
46.895912
  0
LINE
  8
1
 62
7
  6
CONTINUOUS
 10
23.571674
 20
46.895912
 11
23.638443
 21
47.009895
  0
LINE
  8
1
 62
7
  6
CONTINUOUS
 10
23.638443
 20
47.009895
 11
23.690910
 21
47.127559
  0
LINE
  8
1
 62
7
  6
CONTINUOUS
 10
23.690910
 20
47.127559
 11
23.728674
 21
47.248009
  0
LINE
  8
1
 62
7
  6
CONTINUOUS
 10
23.728674
 20
47.248009
 11
23.751447
 21
47.370328
  0
LINE
  8
1
 62
7
  6
CONTINUOUS
 10
23.751447
 20
47.370328
 11
23.759058
 21
47.493585
  0
LINE
  8
1
 62
7
  6
CONTINUOUS
 10
19.759058
 20
47.493585
 11
19.759058
 21
46.079371
  0
LINE
  8
1
 62
7
  6
CONTINUOUS
 10
23.759058
 20
47.493585
 11
23.759058
 21
46.079371
  0
LINE
  8
1
 62
7
  6
CONTINUOUS
 10
19.758368
 20
46.079371
 11
19.760395
 21
46.015703
  0
LINE
  8
1
 62
7
  6
CONTINUOUS
 10
19.760395
 20
46.015703
 11
19.766475
 21
45.952164
  0
LINE
  8
1
 62
7
  6
CONTINUOUS
 10
19.766475
 20
45.952164
 11
19.776593
 21
45.888883
  0
LINE
  8
1
 62
7
  6
CONTINUOUS
 10
19.776593
 20
45.888883
 11
19.790731
 21
45.825988
  0
LINE
  8
1
 62
7
  6
CONTINUOUS
 10
19.790731
 20
45.825988
 11
19.808858
 21
45.763607
  0
LINE
  8
1
 62
7
  6
CONTINUOUS
 10
19.808858
 20
45.763607
 11
19.830939
 21
45.701867
  0
LINE
  8
1
 62
7
  6
CONTINUOUS
 10
19.830939
 20
45.701867
 11
19.856928
 21
45.640891
  0
LINE
  8
1
 62
7
  6
CONTINUOUS
 10
19.856928
 20
45.640891
 11
19.886773
 21
45.580805
  0
LINE
  8
1
 62
7
  6
CONTINUOUS
 10
19.886773
 20
45.580805
 11
19.920414
 21
45.521730
  0
LINE
  8
1
 62
7
  6
CONTINUOUS
 10
19.920414
 20
45.521730
 11
19.957781
 21
45.463786
  0
LINE
  8
1
 62
7
  6
CONTINUOUS
 10
19.957781
 20
45.463786
 11
19.998800
 21
45.407090
  0
LINE
  8
1
 62
7
  6
CONTINUOUS
 10
19.998800
 20
45.407090
 11
20.043387
 21
45.351758
  0
LINE
  8
1
 62
7
  6
CONTINUOUS
 10
20.043387
 20
45.351758
 11
20.091452
 21
45.297901
  0
LINE
  8
1
 62
7
  6
CONTINUOUS
 10
20.091452
 20
45.297901
 11
20.142897
 21
45.245628
  0
LINE
  8
1
 62
7
  6
CONTINUOUS
 10
20.142897
 20
45.245628
 11
20.197618
 21
45.195047
  0
LINE
  8
1
 62
7
  6
CONTINUOUS
 10
20.197618
 20
45.195047
 11
20.255503
 21
45.146258
  0
LINE
  8
1
 62
7
  6
CONTINUOUS
 10
20.255503
 20
45.146258
 11
20.316437
 21
45.099362
  0
LINE
  8
1
 62
7
  6
CONTINUOUS
 10
20.316437
 20
45.099362
 11
20.380294
 21
45.054453
  0
LINE
  8
1
 62
7
  6
CONTINUOUS
 10
20.380294
 20
45.054453
 11
20.446946
 21
45.011623
  0
LINE
  8
1
 62
7
  6
CONTINUOUS
 10
20.446946
 20
45.011623
 11
20.516257
 21
44.970958
  0
LINE
  8
1
 62
7
  6
CONTINUOUS
 10
20.516257
 20
44.970958
 11
20.588087
 21
44.932540
  0
LINE
  8
1
 62
7
  6
CONTINUOUS
 10
20.588087
 20
44.932540
 11
20.662290
 21
44.896448
  0
LINE
  8
1
 62
7
  6
CONTINUOUS
 10
20.662290
 20
44.896448
 11
20.738716
 21
44.862755
  0
LINE
  8
1
 62
7
  6
CONTINUOUS
 10
20.738716
 20
44.862755
 11
20.817210
 21
44.831529
  0
LINE
  8
1
 62
7
  6
CONTINUOUS
 10
20.817210
 20
44.831529
 11
20.897612
 21
44.802833
  0
LINE
  8
1
 62
7
  6
CONTINUOUS
 10
20.897612
 20
44.802833
 11
20.979760
 21
44.776726
  0
LINE
  8
1
 62
7
  6
CONTINUOUS
 10
20.979760
 20
44.776726
 11
21.063486
 21
44.753260
  0
LINE
  8
1
 62
7
  6
CONTINUOUS
 10
21.063486
 20
44.753260
 11
21.148622
 21
44.732484
  0
LINE
  8
1
 62
7
  6
CONTINUOUS
 10
21.148622
 20
44.732484
 11
21.234994
 21
44.714439
  0
LINE
  8
1
 62
7
  6
CONTINUOUS
 10
21.234994
 20
44.714439
 11
21.322427
 21
44.699162
  0
LINE
  8
1
 62
7
  6
CONTINUOUS
 10
21.322427
 20
44.699162
 11
21.410744
 21
44.686684
  0
LINE
  8
1
 62
7
  6
CONTINUOUS
 10
21.410744
 20
44.686684
 11
21.499767
 21
44.677029
  0
LINE
  8
1
 62
7
  6
CONTINUOUS
 10
21.499767
 20
44.677029
 11
21.589314
 21
44.670219
  0
LINE
  8
1
 62
7
  6
CONTINUOUS
 10
21.589314
 20
44.670219
 11
21.679203
 21
44.666266
  0
LINE
  8
1
 62
7
  6
CONTINUOUS
 10
21.679203
 20
44.666266
 11
21.769253
 21
44.665179
  0
LINE
  8
1
 62
7
  6
CONTINUOUS
 10
21.769253
 20
44.665179
 11
21.859281
 21
44.666959
  0
LINE
  8
1
 62
7
  6
CONTINUOUS
 10
21.859281
 20
44.666959
 11
21.949104
 21
44.671604
  0
LINE
  8
1
 62
7
  6
CONTINUOUS
 10
21.949104
 20
44.671604
 11
22.038541
 21
44.679103
  0
LINE
  8
1
 62
7
  6
CONTINUOUS
 10
22.038541
 20
44.679103
 11
22.127409
 21
44.689442
  0
LINE
  8
1
 62
7
  6
CONTINUOUS
 10
22.127409
 20
44.689442
 11
22.215530
 21
44.702599
  0
LINE
  8
1
 62
7
  6
CONTINUOUS
 10
22.215530
 20
44.702599
 11
22.302723
 21
44.718548
  0
LINE
  8
1
 62
7
  6
CONTINUOUS
 10
22.302723
 20
44.718548
 11
22.388812
 21
44.737257
  0
LINE
  8
1
 62
7
  6
CONTINUOUS
 10
22.388812
 20
44.737257
 11
22.473622
 21
44.758688
  0
LINE
  8
1
 62
7
  6
CONTINUOUS
 10
22.473622
 20
44.758688
 11
22.556983
 21
44.782796
  0
LINE
  8
1
 62
7
  6
CONTINUOUS
 10
22.556983
 20
44.782796
 11
22.638723
 21
44.809534
  0
LINE
  8
1
 62
7
  6
CONTINUOUS
 10
22.638723
 20
44.809534
 11
22.718679
 21
44.838847
  0
LINE
  8
1
 62
7
  6
CONTINUOUS
 10
22.718679
 20
44.838847
 11
22.796687
 21
44.870675
  0
LINE
  8
1
 62
7
  6
CONTINUOUS
 10
22.796687
 20
44.870675
 11
22.872590
 21
44.904955
  0
LINE
  8
1
 62
7
  6
CONTINUOUS
 10
22.872590
 20
44.904955
 11
22.946233
 21
44.941616
  0
LINE
  8
1
 62
7
  6
CONTINUOUS
 10
22.946233
 20
44.941616
 11
23.017468
 21
44.980584
  0
LINE
  8
1
 62
7
  6
CONTINUOUS
 10
23.017468
 20
44.980584
 11
23.086149
 21
45.021780
  0
LINE
  8
1
 62
7
  6
CONTINUOUS
 10
23.086149
 20
45.021780
 11
23.152137
 21
45.065121
  0
LINE
  8
1
 62
7
  6
CONTINUOUS
 10
23.152137
 20
45.065121
 11
23.215299
 21
45.110519
  0
LINE
  8
1
 62
7
  6
CONTINUOUS
 10
23.215299
 20
45.110519
 11
23.275507
 21
45.157881
  0
LINE
  8
1
 62
7
  6
CONTINUOUS
 10
23.275507
 20
45.157881
 11
23.332639
 21
45.207113
  0
LINE
  8
1
 62
7
  6
CONTINUOUS
 10
23.332639
 20
45.207113
 11
23.386577
 21
45.258112
  0
LINE
  8
1
 62
7
  6
CONTINUOUS
 10
23.386577
 20
45.258112
 11
23.437215
 21
45.310778
  0
LINE
  8
1
 62
7
  6
CONTINUOUS
 10
23.437215
 20
45.310778
 11
23.484447
 21
45.365002
  0
LINE
  8
1
 62
7
  6
CONTINUOUS
 10
23.484447
 20
45.365002
 11
23.528180
 21
45.420674
  0
LINE
  8
1
 62
7
  6
CONTINUOUS
 10
23.528180
 20
45.420674
 11
23.568323
 21
45.477682
  0
LINE
  8
1
 62
7
  6
CONTINUOUS
 10
23.568323
 20
45.477682
 11
23.604797
 21
45.535911
  0
LINE
  8
1
 62
7
  6
CONTINUOUS
 10
23.604797
 20
45.535911
 11
23.637526
 21
45.595241
  0
LINE
  8
1
 62
7
  6
CONTINUOUS
 10
23.637526
 20
45.595241
 11
23.666444
 21
45.655553
  0
LINE
  8
1
 62
7
  6
CONTINUOUS
 10
23.666444
 20
45.655553
 11
23.691493
 21
45.716725
  0
LINE
  8
1
 62
7
  6
CONTINUOUS
 10
23.691493
 20
45.716725
 11
23.712622
 21
45.778632
  0
LINE
  8
1
 62
7
  6
CONTINUOUS
 10
23.712622
 20
45.778632
 11
23.729788
 21
45.841148
  0
LINE
  8
1
 62
7
  6
CONTINUOUS
 10
23.729788
 20
45.841148
 11
23.742957
 21
45.904148
  0
LINE
  8
1
 62
7
  6
CONTINUOUS
 10
23.742957
 20
45.904148
 11
23.752100
 21
45.967504
  0
LINE
  8
1
 62
7
  6
CONTINUOUS
 10
23.752100
 20
45.967504
 11
23.757201
 21
46.031086
  0
LINE
  8
1
 62
7
  6
CONTINUOUS
 10
23.757201
 20
46.031086
 11
23.758249
 21
46.094766
  0
LINE
  8
1
 62
7
  6
CONTINUOUS
 10
23.758249
 20
46.094766
 11
23.755241
 21
46.158414
  0
LINE
  8
1
 62
7
  6
CONTINUOUS
 10
23.755241
 20
46.158414
 11
23.748184
 21
46.221903
  0
LINE
  8
1
 62
7
  6
CONTINUOUS
 10
47.759058
 20
47.493585
 11
47.751447
 21
47.616842
  0
LINE
  8
1
 62
7
  6
CONTINUOUS
 10
47.751447
 20
47.616842
 11
47.728674
 21
47.739161
  0
LINE
  8
1
 62
7
  6
CONTINUOUS
 10
47.728674
 20
47.739161
 11
47.690910
 21
47.859610
  0
LINE
  8
1
 62
7
  6
CONTINUOUS
 10
47.690910
 20
47.859610
 11
47.638443
 21
47.977274
  0
LINE
  8
1
 62
7
  6
CONTINUOUS
 10
47.638443
 20
47.977274
 11
47.571674
 21
48.091257
  0
LINE
  8
1
 62
7
  6
CONTINUOUS
 10
47.571674
 20
48.091257
 11
47.491109
 21
48.200692
  0
LINE
  8
1
 62
7
  6
CONTINUOUS
 10
47.491109
 20
48.200692
 11
47.397362
 21
48.304745
  0
LINE
  8
1
 62
7
  6
CONTINUOUS
 10
47.397362
 20
48.304745
 11
47.291147
 21
48.402624
  0
LINE
  8
1
 62
7
  6
CONTINUOUS
 10
47.291147
 20
48.402624
 11
47.173272
 21
48.493585
  0
LINE
  8
1
 62
7
  6
CONTINUOUS
 10
47.173272
 20
48.493585
 11
47.044633
 21
48.576935
  0
LINE
  8
1
 62
7
  6
CONTINUOUS
 10
47.044633
 20
48.576935
 11
46.906211
 21
48.652041
  0
LINE
  8
1
 62
7
  6
CONTINUOUS
 10
46.906211
 20
48.652041
 11
46.759058
 21
48.718330
  0
LINE
  8
1
 62
7
  6
CONTINUOUS
 10
46.759058
 20
48.718330
 11
46.604295
 21
48.775298
  0
LINE
  8
1
 62
7
  6
CONTINUOUS
 10
46.604295
 20
48.775298
 11
46.443098
 21
48.822511
  0
LINE
  8
1
 62
7
  6
CONTINUOUS
 10
46.443098
 20
48.822511
 11
46.276696
 21
48.859610
  0
LINE
  8
1
 62
7
  6
CONTINUOUS
 10
46.276696
 20
48.859610
 11
46.106354
 21
48.886313
  0
LINE
  8
1
 62
7
  6
CONTINUOUS
 10
46.106354
 20
48.886313
 11
45.933370
 21
48.902417
  0
LINE
  8
1
 62
7
  6
CONTINUOUS
 10
45.933370
 20
48.902417
 11
45.759058
 21
48.907799
  0
LINE
  8
1
 62
7
  6
CONTINUOUS
 10
45.759058
 20
48.907799
 11
45.584747
 21
48.902417
  0
LINE
  8
1
 62
7
  6
CONTINUOUS
 10
45.584747
 20
48.902417
 11
45.411762
 21
48.886313
  0
LINE
  8
1
 62
7
  6
CONTINUOUS
 10
45.411762
 20
48.886313
 11
45.241420
 21
48.859610
  0
LINE
  8
1
 62
7
  6
CONTINUOUS
 10
45.241420
 20
48.859610
 11
45.075018
 21
48.822511
  0
LINE
  8
1
 62
7
  6
CONTINUOUS
 10
45.075018
 20
48.822511
 11
44.913822
 21
48.775298
  0
LINE
  8
1
 62
7
  6
CONTINUOUS
 10
44.913822
 20
48.775298
 11
44.759058
 21
48.718330
  0
LINE
  8
1
 62
7
  6
CONTINUOUS
 10
44.759058
 20
48.718330
 11
44.611905
 21
48.652041
  0
LINE
  8
1
 62
7
  6
CONTINUOUS
 10
44.611905
 20
48.652041
 11
44.473483
 21
48.576935
  0
LINE
  8
1
 62
7
  6
CONTINUOUS
 10
44.473483
 20
48.576935
 11
44.344844
 21
48.493585
  0
LINE
  8
1
 62
7
  6
CONTINUOUS
 10
44.344844
 20
48.493585
 11
44.226969
 21
48.402624
  0
LINE
  8
1
 62
7
  6
CONTINUOUS
 10
44.226969
 20
48.402624
 11
44.120754
 21
48.304745
  0
LINE
  8
1
 62
7
  6
CONTINUOUS
 10
44.120754
 20
48.304745
 11
44.027007
 21
48.200692
  0
LINE
  8
1
 62
7
  6
CONTINUOUS
 10
44.027007
 20
48.200692
 11
43.946442
 21
48.091257
  0
LINE
  8
1
 62
7
  6
CONTINUOUS
 10
43.946442
 20
48.091257
 11
43.879673
 21
47.977274
  0
LINE
  8
1
 62
7
  6
CONTINUOUS
 10
43.879673
 20
47.977274
 11
43.827206
 21
47.859610
  0
LINE
  8
1
 62
7
  6
CONTINUOUS
 10
43.827206
 20
47.859610
 11
43.789443
 21
47.739161
  0
LINE
  8
1
 62
7
  6
CONTINUOUS
 10
43.789443
 20
47.739161
 11
43.766669
 21
47.616842
  0
LINE
  8
1
 62
7
  6
CONTINUOUS
 10
43.766669
 20
47.616842
 11
43.759058
 21
47.493585
  0
LINE
  8
1
 62
7
  6
CONTINUOUS
 10
43.759058
 20
47.493585
 11
43.766669
 21
47.370328
  0
LINE
  8
1
 62
7
  6
CONTINUOUS
 10
43.766669
 20
47.370328
 11
43.789443
 21
47.248009
  0
LINE
  8
1
 62
7
  6
CONTINUOUS
 10
43.789443
 20
47.248009
 11
43.827206
 21
47.127559
  0
LINE
  8
1
 62
7
  6
CONTINUOUS
 10
43.827206
 20
47.127559
 11
43.879673
 21
47.009895
  0
LINE
  8
1
 62
7
  6
CONTINUOUS
 10
43.879673
 20
47.009895
 11
43.946442
 21
46.895912
  0
LINE
  8
1
 62
7
  6
CONTINUOUS
 10
43.946442
 20
46.895912
 11
44.027007
 21
46.786478
  0
LINE
  8
1
 62
7
  6
CONTINUOUS
 10
44.027007
 20
46.786478
 11
44.120754
 21
46.682425
  0
LINE
  8
1
 62
7
  6
CONTINUOUS
 10
44.120754
 20
46.682425
 11
44.226969
 21
46.584546
  0
LINE
  8
1
 62
7
  6
CONTINUOUS
 10
44.226969
 20
46.584546
 11
44.344844
 21
46.493585
  0
LINE
  8
1
 62
7
  6
CONTINUOUS
 10
44.344844
 20
46.493585
 11
44.473483
 21
46.410234
  0
LINE
  8
1
 62
7
  6
CONTINUOUS
 10
44.473483
 20
46.410234
 11
44.611905
 21
46.335129
  0
LINE
  8
1
 62
7
  6
CONTINUOUS
 10
44.611905
 20
46.335129
 11
44.759058
 21
46.268840
  0
LINE
  8
1
 62
7
  6
CONTINUOUS
 10
44.759058
 20
46.268840
 11
44.913822
 21
46.211872
  0
LINE
  8
1
 62
7
  6
CONTINUOUS
 10
44.913822
 20
46.211872
 11
45.075018
 21
46.164659
  0
LINE
  8
1
 62
7
  6
CONTINUOUS
 10
45.075018
 20
46.164659
 11
45.241420
 21
46.127559
  0
LINE
  8
1
 62
7
  6
CONTINUOUS
 10
45.241420
 20
46.127559
 11
45.411762
 21
46.100856
  0
LINE
  8
1
 62
7
  6
CONTINUOUS
 10
45.411762
 20
46.100856
 11
45.584747
 21
46.084753
  0
LINE
  8
1
 62
7
  6
CONTINUOUS
 10
45.584747
 20
46.084753
 11
45.759058
 21
46.079371
  0
LINE
  8
1
 62
7
  6
CONTINUOUS
 10
45.759058
 20
46.079371
 11
45.933370
 21
46.084753
  0
LINE
  8
1
 62
7
  6
CONTINUOUS
 10
45.933370
 20
46.084753
 11
46.106354
 21
46.100856
  0
LINE
  8
1
 62
7
  6
CONTINUOUS
 10
46.106354
 20
46.100856
 11
46.276696
 21
46.127559
  0
LINE
  8
1
 62
7
  6
CONTINUOUS
 10
46.276696
 20
46.127559
 11
46.443098
 21
46.164659
  0
LINE
  8
1
 62
7
  6
CONTINUOUS
 10
46.443098
 20
46.164659
 11
46.604295
 21
46.211872
  0
LINE
  8
1
 62
7
  6
CONTINUOUS
 10
46.604295
 20
46.211872
 11
46.759058
 21
46.268840
  0
LINE
  8
1
 62
7
  6
CONTINUOUS
 10
46.759058
 20
46.268840
 11
46.906211
 21
46.335129
  0
LINE
  8
1
 62
7
  6
CONTINUOUS
 10
46.906211
 20
46.335129
 11
47.044633
 21
46.410234
  0
LINE
  8
1
 62
7
  6
CONTINUOUS
 10
47.044633
 20
46.410234
 11
47.173272
 21
46.493585
  0
LINE
  8
1
 62
7
  6
CONTINUOUS
 10
47.173272
 20
46.493585
 11
47.291147
 21
46.584546
  0
LINE
  8
1
 62
7
  6
CONTINUOUS
 10
47.291147
 20
46.584546
 11
47.397362
 21
46.682425
  0
LINE
  8
1
 62
7
  6
CONTINUOUS
 10
47.397362
 20
46.682425
 11
47.491109
 21
46.786478
  0
LINE
  8
1
 62
7
  6
CONTINUOUS
 10
47.491109
 20
46.786478
 11
47.571674
 21
46.895912
  0
LINE
  8
1
 62
7
  6
CONTINUOUS
 10
47.571674
 20
46.895912
 11
47.638443
 21
47.009895
  0
LINE
  8
1
 62
7
  6
CONTINUOUS
 10
47.638443
 20
47.009895
 11
47.690910
 21
47.127559
  0
LINE
  8
1
 62
7
  6
CONTINUOUS
 10
47.690910
 20
47.127559
 11
47.728674
 21
47.248009
  0
LINE
  8
1
 62
7
  6
CONTINUOUS
 10
47.728674
 20
47.248009
 11
47.751447
 21
47.370328
  0
LINE
  8
1
 62
7
  6
CONTINUOUS
 10
47.751447
 20
47.370328
 11
47.759058
 21
47.493585
  0
LINE
  8
1
 62
7
  6
CONTINUOUS
 10
43.759058
 20
47.493585
 11
43.759058
 21
46.079371
  0
LINE
  8
1
 62
7
  6
CONTINUOUS
 10
47.759058
 20
47.493585
 11
47.759058
 21
46.079371
  0
LINE
  8
1
 62
7
  6
CONTINUOUS
 10
43.758368
 20
46.079371
 11
43.760395
 21
46.015703
  0
LINE
  8
1
 62
7
  6
CONTINUOUS
 10
43.760395
 20
46.015703
 11
43.766475
 21
45.952164
  0
LINE
  8
1
 62
7
  6
CONTINUOUS
 10
43.766475
 20
45.952164
 11
43.776593
 21
45.888883
  0
LINE
  8
1
 62
7
  6
CONTINUOUS
 10
43.776593
 20
45.888883
 11
43.790731
 21
45.825988
  0
LINE
  8
1
 62
7
  6
CONTINUOUS
 10
43.790731
 20
45.825988
 11
43.808858
 21
45.763607
  0
LINE
  8
1
 62
7
  6
CONTINUOUS
 10
43.808858
 20
45.763607
 11
43.830939
 21
45.701867
  0
LINE
  8
1
 62
7
  6
CONTINUOUS
 10
43.830939
 20
45.701867
 11
43.856928
 21
45.640891
  0
LINE
  8
1
 62
7
  6
CONTINUOUS
 10
43.856928
 20
45.640891
 11
43.886773
 21
45.580805
  0
LINE
  8
1
 62
7
  6
CONTINUOUS
 10
43.886773
 20
45.580805
 11
43.920414
 21
45.521730
  0
LINE
  8
1
 62
7
  6
CONTINUOUS
 10
43.920414
 20
45.521730
 11
43.957781
 21
45.463786
  0
LINE
  8
1
 62
7
  6
CONTINUOUS
 10
43.957781
 20
45.463786
 11
43.998800
 21
45.407090
  0
LINE
  8
1
 62
7
  6
CONTINUOUS
 10
43.998800
 20
45.407090
 11
44.043387
 21
45.351758
  0
LINE
  8
1
 62
7
  6
CONTINUOUS
 10
44.043387
 20
45.351758
 11
44.091452
 21
45.297901
  0
LINE
  8
1
 62
7
  6
CONTINUOUS
 10
44.091452
 20
45.297901
 11
44.142897
 21
45.245628
  0
LINE
  8
1
 62
7
  6
CONTINUOUS
 10
44.142897
 20
45.245628
 11
44.197618
 21
45.195047
  0
LINE
  8
1
 62
7
  6
CONTINUOUS
 10
44.197618
 20
45.195047
 11
44.255503
 21
45.146258
  0
LINE
  8
1
 62
7
  6
CONTINUOUS
 10
44.255503
 20
45.146258
 11
44.316437
 21
45.099362
  0
LINE
  8
1
 62
7
  6
CONTINUOUS
 10
44.316437
 20
45.099362
 11
44.380294
 21
45.054453
  0
LINE
  8
1
 62
7
  6
CONTINUOUS
 10
44.380294
 20
45.054453
 11
44.446946
 21
45.011623
  0
LINE
  8
1
 62
7
  6
CONTINUOUS
 10
44.446946
 20
45.011623
 11
44.516257
 21
44.970958
  0
LINE
  8
1
 62
7
  6
CONTINUOUS
 10
44.516257
 20
44.970958
 11
44.588087
 21
44.932540
  0
LINE
  8
1
 62
7
  6
CONTINUOUS
 10
44.588087
 20
44.932540
 11
44.662290
 21
44.896448
  0
LINE
  8
1
 62
7
  6
CONTINUOUS
 10
44.662290
 20
44.896448
 11
44.738716
 21
44.862755
  0
LINE
  8
1
 62
7
  6
CONTINUOUS
 10
44.738716
 20
44.862755
 11
44.817210
 21
44.831529
  0
LINE
  8
1
 62
7
  6
CONTINUOUS
 10
44.817210
 20
44.831529
 11
44.897612
 21
44.802833
  0
LINE
  8
1
 62
7
  6
CONTINUOUS
 10
44.897612
 20
44.802833
 11
44.979760
 21
44.776726
  0
LINE
  8
1
 62
7
  6
CONTINUOUS
 10
44.979760
 20
44.776726
 11
45.063486
 21
44.753260
  0
LINE
  8
1
 62
7
  6
CONTINUOUS
 10
45.063486
 20
44.753260
 11
45.148622
 21
44.732484
  0
LINE
  8
1
 62
7
  6
CONTINUOUS
 10
45.148622
 20
44.732484
 11
45.234994
 21
44.714439
  0
LINE
  8
1
 62
7
  6
CONTINUOUS
 10
45.234994
 20
44.714439
 11
45.322427
 21
44.699162
  0
LINE
  8
1
 62
7
  6
CONTINUOUS
 10
45.322427
 20
44.699162
 11
45.410744
 21
44.686684
  0
LINE
  8
1
 62
7
  6
CONTINUOUS
 10
45.410744
 20
44.686684
 11
45.499767
 21
44.677029
  0
LINE
  8
1
 62
7
  6
CONTINUOUS
 10
45.499767
 20
44.677029
 11
45.589314
 21
44.670219
  0
LINE
  8
1
 62
7
  6
CONTINUOUS
 10
45.589314
 20
44.670219
 11
45.679203
 21
44.666266
  0
LINE
  8
1
 62
7
  6
CONTINUOUS
 10
45.679203
 20
44.666266
 11
45.769253
 21
44.665179
  0
LINE
  8
1
 62
7
  6
CONTINUOUS
 10
45.769253
 20
44.665179
 11
45.859281
 21
44.666959
  0
LINE
  8
1
 62
7
  6
CONTINUOUS
 10
45.859281
 20
44.666959
 11
45.949104
 21
44.671604
  0
LINE
  8
1
 62
7
  6
CONTINUOUS
 10
45.949104
 20
44.671604
 11
46.038541
 21
44.679103
  0
LINE
  8
1
 62
7
  6
CONTINUOUS
 10
46.038541
 20
44.679103
 11
46.127409
 21
44.689442
  0
LINE
  8
1
 62
7
  6
CONTINUOUS
 10
46.127409
 20
44.689442
 11
46.215530
 21
44.702599
  0
LINE
  8
1
 62
7
  6
CONTINUOUS
 10
46.215530
 20
44.702599
 11
46.302723
 21
44.718548
  0
LINE
  8
1
 62
7
  6
CONTINUOUS
 10
46.302723
 20
44.718548
 11
46.388812
 21
44.737257
  0
LINE
  8
1
 62
7
  6
CONTINUOUS
 10
46.388812
 20
44.737257
 11
46.473622
 21
44.758688
  0
LINE
  8
1
 62
7
  6
CONTINUOUS
 10
46.473622
 20
44.758688
 11
46.556983
 21
44.782796
  0
LINE
  8
1
 62
7
  6
CONTINUOUS
 10
46.556983
 20
44.782796
 11
46.638723
 21
44.809534
  0
LINE
  8
1
 62
7
  6
CONTINUOUS
 10
46.638723
 20
44.809534
 11
46.718679
 21
44.838847
  0
LINE
  8
1
 62
7
  6
CONTINUOUS
 10
46.718679
 20
44.838847
 11
46.796687
 21
44.870675
  0
LINE
  8
1
 62
7
  6
CONTINUOUS
 10
46.796687
 20
44.870675
 11
46.872590
 21
44.904955
  0
LINE
  8
1
 62
7
  6
CONTINUOUS
 10
46.872590
 20
44.904955
 11
46.946233
 21
44.941616
  0
LINE
  8
1
 62
7
  6
CONTINUOUS
 10
46.946233
 20
44.941616
 11
47.017468
 21
44.980584
  0
LINE
  8
1
 62
7
  6
CONTINUOUS
 10
47.017468
 20
44.980584
 11
47.086149
 21
45.021780
  0
LINE
  8
1
 62
7
  6
CONTINUOUS
 10
47.086149
 20
45.021780
 11
47.152137
 21
45.065121
  0
LINE
  8
1
 62
7
  6
CONTINUOUS
 10
47.152137
 20
45.065121
 11
47.215299
 21
45.110519
  0
LINE
  8
1
 62
7
  6
CONTINUOUS
 10
47.215299
 20
45.110519
 11
47.275507
 21
45.157881
  0
LINE
  8
1
 62
7
  6
CONTINUOUS
 10
47.275507
 20
45.157881
 11
47.332639
 21
45.207113
  0
LINE
  8
1
 62
7
  6
CONTINUOUS
 10
47.332639
 20
45.207113
 11
47.386577
 21
45.258112
  0
LINE
  8
1
 62
7
  6
CONTINUOUS
 10
47.386577
 20
45.258112
 11
47.437215
 21
45.310778
  0
LINE
  8
1
 62
7
  6
CONTINUOUS
 10
47.437215
 20
45.310778
 11
47.484447
 21
45.365002
  0
LINE
  8
1
 62
7
  6
CONTINUOUS
 10
47.484447
 20
45.365002
 11
47.528180
 21
45.420674
  0
LINE
  8
1
 62
7
  6
CONTINUOUS
 10
47.528180
 20
45.420674
 11
47.568323
 21
45.477682
  0
LINE
  8
1
 62
7
  6
CONTINUOUS
 10
47.568323
 20
45.477682
 11
47.604797
 21
45.535911
  0
LINE
  8
1
 62
7
  6
CONTINUOUS
 10
47.604797
 20
45.535911
 11
47.637526
 21
45.595241
  0
LINE
  8
1
 62
7
  6
CONTINUOUS
 10
47.637526
 20
45.595241
 11
47.666444
 21
45.655553
  0
LINE
  8
1
 62
7
  6
CONTINUOUS
 10
47.666444
 20
45.655553
 11
47.691493
 21
45.716725
  0
LINE
  8
1
 62
7
  6
CONTINUOUS
 10
47.691493
 20
45.716725
 11
47.712622
 21
45.778632
  0
LINE
  8
1
 62
7
  6
CONTINUOUS
 10
47.712622
 20
45.778632
 11
47.729788
 21
45.841148
  0
LINE
  8
1
 62
7
  6
CONTINUOUS
 10
47.729788
 20
45.841148
 11
47.742957
 21
45.904148
  0
LINE
  8
1
 62
7
  6
CONTINUOUS
 10
47.742957
 20
45.904148
 11
47.752100
 21
45.967504
  0
LINE
  8
1
 62
7
  6
CONTINUOUS
 10
47.752100
 20
45.967504
 11
47.757201
 21
46.031086
  0
LINE
  8
1
 62
7
  6
CONTINUOUS
 10
47.757201
 20
46.031086
 11
47.758249
 21
46.094766
  0
LINE
  8
1
 62
7
  6
CONTINUOUS
 10
47.758249
 20
46.094766
 11
47.755241
 21
46.158414
  0
LINE
  8
1
 62
7
  6
CONTINUOUS
 10
47.755241
 20
46.158414
 11
47.748184
 21
46.221903
  0
LINE
  8
1
 62
7
  6
DOT
 10
34.259058
 20
74.419351
 11
33.259058
 21
74.419351
  0
LINE
  8
1
 62
7
  6
DOT
 10
33.259058
 20
74.428614
 11
33.259058
 21
83.928614
  0
LINE
  8
1
 62
7
  6
DOT
 10
34.259058
 20
74.419351
 11
34.259058
 21
83.928614
  0
LINE
  8
1
 62
7
  6
CONTINUOUS
 10
33.259058
 20
83.928614
 11
33.259058
 21
81.788264
  0
LINE
  8
1
 62
7
  6
CONTINUOUS
 10
34.259058
 20
83.928614
 11
34.259058
 21
81.788264
  0
DIMENSION
  8
2
 62
134
  6
CONTINUOUS
  2
*D1
 10
15.759058
 20
31.294406
 11
33.759058
 21
31.294406
 70
     0
  1
36
 13
15.759058
 23
39.428614
 14
51.759058
 24
39.428614
 50
0.000000
  0
TEXT
  8
2
 62
134
  6
CONTINUOUS
 10
76.677685
 20
25.969923
 40
2.000000
 41
1.000000
  1
光路長： 52mm
  7
KANJI
 50
0.000000
 51
0.000000
  0
LINE
  8
1
 62
7
  6
DOT
 10
71.491670
 20
43.928614
 11
71.491670
 21
41.928614
  0
LINE
  8
1
 62
7
  6
DOT
 10
71.491670
 20
41.928614
 11
101.491670
 21
41.928614
  0
LINE
  8
1
 62
7
  6
DOT
 10
101.491670
 20
41.928614
 11
101.491670
 21
43.928614
  0
LINE
  8
1
 62
7
  6
DOT
 10
101.491670
 20
43.928614
 11
71.491670
 21
43.928614
  0
LINE
  8
1
 62
7
  6
DASHDOT
 10
99.949620
 20
82.118895
 11
102.116757
 21
79.951758
  0
LINE
  8
1
 62
7
  6
CONTINUOUS
 10
98.873110
 20
80.381121
 11
100.287323
 21
78.966908
  0
LINE
  8
1
 62
7
  6
CONTINUOUS
 10
100.287323
 20
78.966908
 11
103.101608
 21
81.781193
  0
LINE
  8
1
 62
7
  6
CONTINUOUS
 10
103.101608
 20
81.781193
 11
101.687394
 21
83.195406
  0
LINE
  8
1
 62
7
  6
CONTINUOUS
 10
101.687394
 20
83.195406
 11
98.873110
 21
80.381121
  0
LINE
  8
1
 62
7
  6
DASHDOT
 10
65.654941
 20
47.824217
 11
67.822078
 21
45.657080
  0
LINE
  8
1
 62
7
  6
CONTINUOUS
 10
64.578431
 20
46.086442
 11
65.992644
 21
44.672229
  0
LINE
  8
1
 62
7
  6
CONTINUOUS
 10
65.992644
 20
44.672229
 11
68.806929
 21
47.486514
  0
LINE
  8
1
 62
7
  6
CONTINUOUS
 10
68.806929
 20
47.486514
 11
67.392716
 21
48.900727
  0
LINE
  8
1
 62
7
  6
CONTINUOUS
 10
67.392716
 20
48.900727
 11
64.578431
 21
46.086442
  0
LINE
  8
1
 62
7
  6
DASHDOT
 10
99.941672
 20
82.126844
 11
105.826121
 21
76.242395
  0
LINE
  8
1
 62
7
  6
CONTINUOUS
 10
103.108679
 20
81.788264
 11
105.229999
 21
79.666943
  0
LINE
  8
1
 62
7
  6
CONTINUOUS
 10
105.229999
 20
79.666943
 11
68.106893
 21
42.543837
  0
LINE
  8
1
 62
7
  6
CONTINUOUS
 10
68.106893
 20
42.543837
 11
65.985573
 21
44.665158
  0
LINE
  8
1
 62
7
  6
CONTINUOUS
 10
65.985573
 20
44.665158
 11
103.108679
 21
81.788264
  0
LINE
  8
1
 62
7
  6
DOT
 10
100.810582
 20
79.490167
 11
102.931902
 21
77.368846
  0
LINE
  8
1
 62
7
  6
DOT
 10
102.578349
 20
81.257934
 11
104.699669
 21
79.136613
  0
LINE
  8
1
 62
7
  6
DASHDOT
 10
65.646993
 20
47.832165
 11
72.215680
 21
41.263478
  0
LINE
  8
1
 62
7
  6
DOT
 10
66.515903
 20
45.195488
 11
68.637224
 21
43.074168
  0
LINE
  8
1
 62
7
  6
DOT
 10
68.283670
 20
46.963255
 11
70.404990
 21
44.841934
  0
LINE
  8
1
 62
7
  6
DOT
 10
70.581767
 20
47.140032
 11
68.814000
 21
45.372265
  0
LINE
  8
1
 62
7
  6
DOT
 10
70.864610
 20
46.857189
 11
100.831795
 21
76.824374
  0
LINE
  8
1
 62
7
  6
DOT
 10
70.581767
 20
47.140032
 11
70.864610
 21
46.857189
  0
LINE
  8
1
 62
7
  6
DOT
 10
68.814000
 20
45.372265
 11
69.874660
 21
44.311604
  0
LINE
  8
1
 62
7
  6
DOT
 10
102.316720
 20
78.874984
 11
100.548953
 21
77.107217
  0
LINE
  8
1
 62
7
  6
DOT
 10
100.831795
 20
76.824374
 11
100.548953
 21
77.107217
  0
LINE
  8
1
 62
7
  6
DOT
 10
103.377380
 20
77.814324
 11
102.316720
 21
78.874984
  0
LINE
  8
1
 62
7
  6
CONTINUOUS
 10
112.491670
 20
81.776135
 11
110.891670
 21
80.852374
  0
LINE
  8
1
 62
7
  6
CONTINUOUS
 10
110.891670
 20
80.852374
 11
110.891670
 21
79.004853
  0
LINE
  8
1
 62
7
  6
CONTINUOUS
 10
110.891670
 20
79.004853
 11
112.491670
 21
78.081093
  0
LINE
  8
1
 62
7
  6
CONTINUOUS
 10
112.491670
 20
78.081093
 11
114.091670
 21
79.004853
  0
LINE
  8
1
 62
7
  6
CONTINUOUS
 10
114.091670
 20
79.004853
 11
114.091670
 21
80.852374
  0
LINE
  8
1
 62
7
  6
CONTINUOUS
 10
114.091670
 20
80.852374
 11
112.491670
 21
81.776135
  0
LINE
  8
1
 62
7
  6
DASHDOT
 10
86.491670
 20
60.928614
 11
122.081100
 21
60.928614
  0
LINE
  8
1
 62
7
  6
DASHDOT
 10
99.949620
 20
82.118895
 11
104.966831
 21
77.101685
  0
LINE
  8
1
 62
7
  6
CONTINUOUS
 10
116.491670
 20
39.928614
 11
116.491670
 21
82.928614
  0
LINE
  8
1
 62
7
  6
CONTINUOUS
 10
115.491670
 20
38.928614
 11
116.491670
 21
39.928614
  0
LINE
  8
1
 62
7
  6
CONTINUOUS
 10
66.491670
 20
38.928614
 11
66.491670
 21
40.928614
  0
LINE
  8
1
 62
7
  6
CONTINUOUS
 10
115.491670
 20
38.928614
 11
66.491670
 21
38.928614
  0
LINE
  8
1
 62
7
  6
CONTINUOUS
 10
73.491670
 20
47.928614
 11
66.491670
 21
40.928614
  0
LINE
  8
1
 62
7
  6
CONTINUOUS
 10
109.491670
 20
83.928614
 11
115.491670
 21
83.928614
  0
LINE
  8
1
 62
7
  6
DASHDOT
 10
107.120650
 20
79.928614
 11
116.878527
 21
79.928614
  0
LINE
  8
1
 62
7
  6
DASHDOT
 10
112.491670
 20
84.026322
 11
112.491670
 21
75.937421
  0
LINE
  8
1
 62
7
  6
CONTINUOUS
 10
115.491670
 20
83.928614
 11
116.491670
 21
82.928614
  0
CIRCLE
  8
1
 62
7
  6
CONTINUOUS
 10
112.491670
 20
79.928614
 40
3.100000
  0
LINE
  8
1
 62
7
  6
DASHDOT
 10
65.654941
 20
47.824217
 11
75.674757
 21
37.804401
  0
LINE
  8
1
 62
7
  6
CONTINUOUS
 10
107.491670
 20
81.928614
 11
107.491670
 21
74.428614
  0
LINE
  8
1
 62
7
  6
CONTINUOUS
 10
107.491670
 20
74.428614
 11
108.491670
 21
74.428614
  0
LINE
  8
1
 62
7
  6
CONTINUOUS
 10
108.491670
 20
74.428614
 11
108.491670
 21
82.928614
  0
LINE
  8
1
 62
7
  6
CONTINUOUS
 10
73.491670
 20
47.928614
 11
107.491670
 21
81.928614
  0
LINE
  8
1
 62
7
  6
CONTINUOUS
 10
108.491670
 20
82.928614
 11
109.491670
 21
83.928614
  0
LINE
  8
1
 62
7
  6
DOT
 10
73.991670
 20
48.428614
 11
108.491670
 21
48.428614
  0
LINE
  8
1
 62
7
  6
DOT
 10
98.991670
 20
73.428614
 11
108.491670
 21
73.428614
  0
LINE
  8
1
 62
7
  6
DOT
 10
73.991670
 20
43.928614
 11
73.991670
 21
48.428614
  0
LINE
  8
1
 62
7
  6
DOT
 10
98.991670
 20
43.928614
 11
98.991670
 21
48.428614
  0
LINE
  8
1
 62
7
  6
DOT
 10
115.991670
 20
75.428614
 11
115.991670
 21
46.428614
  0
LINE
  8
1
 62
7
  6
DOT
 10
108.491670
 20
74.428614
 11
115.991670
 21
74.428614
  0
LINE
  8
1
 62
7
  6
DOT
 10
108.491670
 20
74.428614
 11
108.491670
 21
47.428614
  0
LINE
  8
1
 62
7
  6
DOT
 10
115.991670
 20
75.428614
 11
116.491670
 21
75.428614
  0
LINE
  8
1
 62
7
  6
DOT
 10
108.491670
 20
47.428614
 11
115.991670
 21
47.428614
  0
LINE
  8
1
 62
7
  6
DOT
 10
115.991670
 20
46.428614
 11
116.491670
 21
46.428614
  0
LINE
  8
1
 62
7
  6
DOT
 10
100.991670
 20
43.928614
 11
71.991670
 21
43.928614
  0
LINE
  8
1
 62
7
  6
DOT
 10
100.991670
 20
44.428614
 11
100.991670
 21
43.928614
  0
LINE
  8
1
 62
7
  6
DOT
 10
99.991670
 20
44.428614
 11
100.991670
 21
44.428614
  0
LINE
  8
1
 62
7
  6
DOT
 10
100.991670
 20
43.928614
 11
101.585670
 21
43.928614
  0
LINE
  8
1
 62
7
  6
DOT
 10
101.991670
 20
42.928614
 11
101.585670
 21
43.928614
  0
LINE
  8
1
 62
7
  6
DOT
 10
70.991670
 20
42.928614
 11
101.991670
 21
42.928614
  0
LINE
  8
1
 62
7
  6
DOT
 10
70.991670
 20
42.928614
 11
71.397670
 21
43.928614
  0
LINE
  8
1
 62
7
  6
DOT
 10
72.991670
 20
44.428614
 11
72.991670
 21
43.928614
  0
LINE
  8
1
 62
7
  6
DOT
 10
72.991670
 20
43.928614
 11
73.491670
 21
43.928614
  0
LINE
  8
1
 62
7
  6
DOT
 10
71.991670
 20
44.428614
 11
71.991670
 21
43.928614
  0
LINE
  8
1
 62
7
  6
DOT
 10
72.991670
 20
44.428614
 11
71.991670
 21
44.428614
  0
LINE
  8
1
 62
7
  6
DOT
 10
71.991670
 20
43.928614
 11
71.397670
 21
43.928614
  0
LINE
  8
1
 62
7
  6
DOT
 10
99.991670
 20
44.428614
 11
99.991670
 21
43.928614
  0
LINE
  8
1
 62
7
  6
DOT
 10
71.397670
 20
38.928614
 11
71.397670
 21
43.928614
  0
LINE
  8
1
 62
7
  6
DOT
 10
70.991670
 20
38.928614
 11
70.991670
 21
42.928614
  0
LINE
  8
1
 62
7
  6
DOT
 10
101.585670
 20
38.928614
 11
101.585670
 21
43.928614
  0
LINE
  8
1
 62
7
  6
DOT
 10
101.991670
 20
38.928614
 11
101.991670
 21
42.928614
  0
LINE
  8
1
 62
7
  6
DASHDOT
 10
86.491670
 20
60.928614
 11
122.081100
 21
60.928614
  0
LINE
  8
1
 62
7
  6
DASHDOT
 10
86.491670
 20
60.928614
 11
86.491670
 21
33.609610
  0
LINE
  8
2
 62
134
  6
CONTINUOUS
 10
90.031473
 20
66.024051
 11
85.223263
 21
69.773016
  0
LINE
  8
2
 62
134
  6
CONTINUOUS
 10
85.223263
 20
69.773016
 11
77.541511
 21
69.773016
  0
TEXT
  8
2
 62
134
  6
CONTINUOUS
 10
77.541511
 20
69.773016
 40
2.000000
 41
1.000000
  1
反射ﾐﾗｰ
  7
KANJI
 50
0.000000
 51
0.000000
  0
LINE
  8
2
 62
134
  6
CONTINUOUS
 10
90.031473
 20
66.024051
 11
89.110583
 21
66.413876
  0
LINE
  8
2
 62
134
  6
CONTINUOUS
 10
90.031473
 20
66.024051
 11
89.428871
 21
66.822094
  0
LINE
  8
2
 62
134
  6
CONTINUOUS
 10
89.110583
 20
66.413876
 11
89.428871
 21
66.822094
  0
LINE
  8
2
 62
134
  6
CONTINUOUS
 10
89.841036
 20
66.172535
 11
89.380592
 21
66.367447
  0
LINE
  8
2
 62
134
  6
CONTINUOUS
 10
89.841036
 20
66.172535
 11
89.539736
 21
66.571556
  0
LINE
  8
2
 62
134
  6
CONTINUOUS
 10
89.380592
 20
66.367447
 11
89.539736
 21
66.571556
  0
CIRCLE
  8
1
 62
7
  6
CONTINUOUS
 10
116.250375
 20
74.828614
 40
0.400000
  0
CIRCLE
  8
1
 62
7
  6
CONTINUOUS
 10
116.250375
 20
47.028614
 40
0.400000
  0
LINE
  8
2
 62
134
  6
CONTINUOUS
 10
116.491670
 20
46.709589
 11
126.337209
 21
36.322078
  0
LINE
  8
2
 62
134
  6
CONTINUOUS
 10
126.337209
 20
36.322078
 11
131.554375
 21
36.322078
  0
TEXT
  8
2
 62
134
  6
CONTINUOUS
 10
126.554375
 20
36.322078
 40
2.000000
 41
0.500000
  1
Oﾘﾝｸﾞ
  7
KANJI
 50
0.000000
 51
0.000000
  0
LINE
  8
2
 62
134
  6
CONTINUOUS
 10
116.491670
 20
46.709589
 11
117.343996
 21
46.186579
  0
LINE
  8
2
 62
134
  6
CONTINUOUS
 10
116.491670
 20
46.709589
 11
116.968301
 21
45.830486
  0
LINE
  8
2
 62
134
  6
CONTINUOUS
 10
117.343996
 20
46.186579
 11
116.968301
 21
45.830486
  0
LINE
  8
2
 62
134
  6
CONTINUOUS
 10
116.657789
 20
46.534325
 11
117.083953
 21
46.272820
  0
LINE
  8
2
 62
134
  6
CONTINUOUS
 10
116.657789
 20
46.534325
 11
116.896105
 21
46.094773
  0
LINE
  8
2
 62
134
  6
CONTINUOUS
 10
117.083953
 20
46.272820
 11
116.896105
 21
46.094773
  0
LINE
  8
1
 62
7
  6
CONTINUOUS
 10
117.491670
 20
73.428614
 11
116.491670
 21
73.428614
  0
LINE
  8
1
 62
7
  6
CONTINUOUS
 10
117.491670
 20
47.928614
 11
117.491670
 21
48.428614
  0
LINE
  8
1
 62
7
  6
CONTINUOUS
 10
117.491670
 20
48.428614
 11
116.491670
 21
48.428614
  0
LINE
  8
1
 62
7
  6
CONTINUOUS
 10
116.491670
 20
73.428614
 11
121.491670
 21
73.428614
  0
LINE
  8
1
 62
7
  6
CONTINUOUS
 10
117.491670
 20
73.928614
 11
121.291670
 21
73.928614
  0
LINE
  8
1
 62
7
  6
CONTINUOUS
 10
121.291670
 20
73.928614
 11
121.491670
 21
73.728614
  0
LINE
  8
1
 62
7
  6
CONTINUOUS
 10
116.491670
 20
48.428614
 11
121.491670
 21
48.428614
  0
LINE
  8
1
 62
7
  6
CONTINUOUS
 10
117.491670
 20
47.928614
 11
121.291670
 21
47.928614
  0
LINE
  8
1
 62
7
  6
CONTINUOUS
 10
121.491670
 20
73.728614
 11
121.491670
 21
48.128614
  0
LINE
  8
1
 62
7
  6
CONTINUOUS
 10
121.291670
 20
47.928614
 11
121.491670
 21
48.128614
  0
LINE
  8
1
 62
7
  6
DOT
 10
121.491670
 20
49.428614
 11
108.491670
 21
49.428614
  0
LINE
  8
1
 62
7
  6
DOT
 10
121.491670
 20
72.428614
 11
108.491670
 21
72.428614
  0
LINE
  8
1
 62
7
  6
DOT
 10
116.491670
 20
47.428614
 11
108.691670
 21
47.428614
  0
LINE
  8
1
 62
7
  6
DOT
 10
116.491670
 20
48.428614
 11
116.491670
 21
47.428614
  0
LINE
  8
1
 62
7
  6
DOT
 10
116.491670
 20
73.428614
 11
116.491670
 21
74.428614
  0
LINE
  8
1
 62
7
  6
DOT
 10
116.491670
 20
74.428614
 11
108.691670
 21
74.428614
  0
LINE
  8
1
 62
7
  6
DOT
 10
108.491670
 20
47.628614
 11
108.491670
 21
74.228614
  0
LINE
  8
1
 62
7
  6
DOT
 10
108.491670
 20
47.628614
 11
108.691670
 21
47.428614
  0
LINE
  8
1
 62
7
  6
DOT
 10
108.491670
 20
74.228614
 11
108.691670
 21
74.428614
  0
LINE
  8
1
 62
7
  6
CONTINUOUS
 10
117.491670
 20
73.928614
 11
117.491670
 21
48.428614
  0
LINE
  8
1
 62
7
  6
CONTINUOUS
 10
121.291670
 20
73.928614
 11
121.291670
 21
47.928614
  0
LINE
  8
1
 62
7
  6
DASHDOT
 10
101.814864
 20
60.928614
 11
123.571904
 21
60.928614
  0
DIMENSION
  8
2
 62
134
  6
CONTINUOUS
  2
*D2
 10
125.366240
 20
38.928614
 11
125.366240
 21
52.883748
 70
     0
  1
22
 13
115.991670
 23
38.928614
 14
124.071904
 24
60.928614
 50
90.000000
  0
DIMENSION
  8
2
 62
134
  6
CONTINUOUS
  2
*D3
 10
129.034831
 20
47.928614
 11
129.034831
 21
60.900823
 70
     0
  1
M26P0.75
 13
121.791670
 23
47.928614
 14
121.791670
 24
73.928614
 50
90.000000
  0
DIMENSION
  8
2
 62
134
  6
CONTINUOUS
  2
*D4
 10
116.491670
 20
34.512465
 11
118.708952
 21
34.512465
 70
     0
  1
5
 13
116.491670
 23
39.428614
 14
121.491670
 24
47.628614
 50
0.000000
  0
DIMENSION
  8
2
 62
134
  6
CONTINUOUS
  2
*D5
 10
116.491670
 20
34.512465
 11
99.714433
 21
34.512465
 70
     0
  1
30
 13
116.491670
 23
39.428614
 14
86.491670
 24
34.512465
 50
180.000000
  0
DIMENSION
  8
2
 62
134
  6
CONTINUOUS
  2
*D6
 10
116.491670
 20
30.624325
 11
90.089693
 21
30.624325
 70
     0
  1
50
 13
116.491670
 23
39.428614
 14
66.491670
 24
38.428614
 50
180.000000
  0
LINE
  8
2
 62
134
  6
CONTINUOUS
 10
96.997917
 20
42.529729
 11
109.633884
 21
27.572395
  0
LINE
  8
2
 62
134
  6
CONTINUOUS
 10
109.633884
 20
27.572395
 11
113.689767
 21
27.572395
  0
TEXT
  8
2
 62
134
  6
CONTINUOUS
 10
109.689767
 20
27.441169
 40
2.000000
 41
1.000000
  1
窓材
  7
KANJI
 50
0.000000
 51
0.000000
  0
LINE
  8
2
 62
134
  6
CONTINUOUS
 10
96.997917
 20
42.529729
 11
97.818978
 21
41.958889
  0
LINE
  8
2
 62
134
  6
CONTINUOUS
 10
96.997917
 20
42.529729
 11
97.423556
 21
41.624836
  0
LINE
  8
2
 62
134
  6
CONTINUOUS
 10
97.818978
 20
41.958889
 11
97.423556
 21
41.624836
  0
LINE
  8
2
 62
134
  6
CONTINUOUS
 10
97.153754
 20
42.345263
 11
97.564285
 21
42.059842
  0
LINE
  8
2
 62
134
  6
CONTINUOUS
 10
97.153754
 20
42.345263
 11
97.366574
 21
41.892816
  0
LINE
  8
2
 62
134
  6
CONTINUOUS
 10
97.564285
 20
42.059842
 11
97.366574
 21
41.892816
  0
DIMENSION
  8
2
 62
134
  6
CONTINUOUS
  2
*D7
 10
132.640848
 20
38.928614
 11
132.640848
 21
62.036223
 70
     0
  1
45
 13
115.991670
 23
38.928614
 14
115.991670
 24
83.928614
 50
90.000000
  0
LINE
  8
2
 62
134
  6
CONTINUOUS
 10
111.251069
 20
81.059873
 11
103.268919
 21
87.070048
  0
LINE
  8
2
 62
134
  6
CONTINUOUS
 10
103.268919
 20
87.070048
 11
91.263972
 21
87.070048
  0
TEXT
  8
2
 62
134
  6
CONTINUOUS
 10
91.263972
 20
86.837728
 40
2.000000
 41
1.000000
  1
回転固定ﾈｼﾞ
  7
KANJI
 50
0.000000
 51
0.000000
  0
LINE
  8
2
 62
134
  6
CONTINUOUS
 10
111.251069
 20
81.059873
 11
110.323741
 21
81.434124
  0
LINE
  8
2
 62
134
  6
CONTINUOUS
 10
111.251069
 20
81.059873
 11
110.635105
 21
81.847647
  0
LINE
  8
2
 62
134
  6
CONTINUOUS
 10
110.323741
 20
81.434124
 11
110.635105
 21
81.847647
  0
LINE
  8
2
 62
134
  6
CONTINUOUS
 10
111.058157
 20
81.205126
 11
110.594493
 21
81.392252
  0
LINE
  8
2
 62
134
  6
CONTINUOUS
 10
111.058157
 20
81.205126
 11
110.750175
 21
81.599013
  0
LINE
  8
2
 62
134
  6
CONTINUOUS
 10
110.594493
 20
81.392252
 11
110.750175
 21
81.599013
  0
TEXT
  8
2
 62
134
  6
CONTINUOUS
 10
93.343781
 20
84.984797
 40
2.000000
 41
0.500000
  1
M3
  7
KANJI
 50
0.000000
 51
0.000000
  0
TEXT
  8
5
 62
94
  6
CONTINUOUS
 10
121.811453
 20
19.231433
 40
2.000000
 41
1.000000
  1
ＴＭＬＸ－２５
  7
KANJI
 50
0.000000
 51
0.000000
  0
TEXT
  8
5
 62
94
  6
CONTINUOUS
 10
119.929671
 20
11.204222
 40
2.000000
 41
1.000000
  1
００５－０６５－Ａ１４４
  7
KANJI
 50
0.000000
 51
0.000000
  0
LINE
  8
2
 62
134
  6
CONTINUOUS
 10
9.322457
 20
32.770000
 11
10.221618
 21
32.332381
  0
LINE
  8
2
 62
134
  6
CONTINUOUS
 10
10.221618
 20
32.332381
 11
9.882343
 21
31.941430
  0
LINE
  8
2
 62
134
  6
CONTINUOUS
 10
9.882343
 20
31.941430
 11
9.322457
 21
32.770000
  0
LINE
  8
2
 62
134
  6
CONTINUOUS
 10
57.221672
 20
31.953440
 11
56.633870
 21
31.144435
  0
LINE
  8
2
 62
134
  6
CONTINUOUS
 10
56.633870
 20
31.144435
 11
56.308118
 21
31.546722
  0
LINE
  8
2
 62
134
  6
CONTINUOUS
 10
56.308118
 20
31.546722
 11
57.221672
 21
31.953440
  0
ARC
  8
2
 62
134
  6
CONTINUOUS
 10
33.759058
 20
60.928614
 40
37.283441
 50
-130.952090
 51
-51.001217
  0
TEXT
  8
2
 62
134
  6
CONTINUOUS
 10
31.475000
 20
23.661496
 40
2.000000
 41
1.000000
  1
回転
  7
KANJI
 50
-0.436623
 51
0.000000
  0
DIMENSION
  8
2
 62
134
  6
CONTINUOUS
  2
*D8
 10
15.759058
 20
89.407583
 11
33.341232
 21
89.407583
 70
     0
  1
36
 13
15.759058
 23
83.428614
 14
51.759058
 24
83.428614
 50
0.000000
  0
LINE
  8
1
 62
7
  6
DASHDOT
 10
21.759058
 20
86.919431
 11
21.759058
 21
75.926512
  0
LINE
  8
1
 62
7
  6
DASHDOT
 10
45.759058
 20
86.919431
 11
45.759058
 21
75.926512
  0
ENDSEC
  0
EOF
