  0
SECTION
  2
HEADER
  9
$ACADVER
  1
AC1009
  9
$INSBASE
 10
0.000000
 20
0.000000
  9
$EXTMIN
 10
0.000000
 20
0.000000
  9
$EXTMAX
 10
105.000000
 20
148.500000
  9
$LIMMIN
 10
0.000000
 20
0.000000
  9
$LIMMAX
 10
105.000000
 20
148.500000
  9
$VIEWCTR
 10
52.500000
 20
74.250000
  9
$VIEWSIZE
 40
148.500000
  9
$PEXTMIN
 10
0.000000
 20
0.000000
 30
0.000000
  9
$PEXTMAX
 10
210.000000
 20
297.000000
 30
0.000000
  9
$SNAPMODE
 70
     0
  9
$SNAPUNIT
 10
1.000000
 20
1.000000
  9
$SNAPBASE
 10
0.000000
 20
0.000000
  9
$SNAPANG
 50
0.000000
  9
$SNAPISOPAIR
 70
     0
  9
$SNAPSTYLE
 70
     0
  9
$GRIDMODE
 70
     0
  9
$GRIDUNIT
 10
0.000000
 20
0.000000
  9
$ORTHOMODE
 70
     0
  9
$REGENMODE
 70
     1
  9
$FILLMODE
 70
     1
  9
$QTEXTMODE
 70
     0
  9
$DRAGMODE
 70
     2
  9
$LTSCALE
 40
0.125000
  9
$OSMODE
 70
     0
  9
$ATTMODE
 70
     1
  9
$TEXTSIZE
 40
2.000000
  9
$TRACEWID
 40
0.050000
  9
$TEXTSTYLE
  7
STANDARD
  9
$CLAYER
  8
0
  9
$CELTYPE
  6
BYLAYER
  9
$CECOLOR
 62
   256
  9
$DIMSCALE
 40
1.000000
  9
$DIMASZ
 40
1.000000
  9
$DIMEXO
 40
0.000000
  9
$DIMDLI
 40
0.500000
  9
$DIMRND
 40
0.000000
  9
$DIMDLE
 40
0.000000
  9
$DIMEXE
 40
0.000000
  9
$DIMTP
 40
0.000000
  9
$DIMTM
 40
0.000000
  9
$DIMTXT
 40
4.000000
  9
$DIMCEN
 40
0.000000
  9
$DIMTSZ
 40
0.000000
  9
$DIMTOL
 70
     0
  9
$DIMLIM
 70
     0
  9
$DIMTIH
 70
     1
  9
$DIMTOH
 70
     1
  9
$DIMSE1
 70
     0
  9
$DIMSE2
 70
     0
  9
$DIMTAD
 70
     0
  9
$DIMZIN
 70
     0
  9
$DIMBLK
  1

  9
$DIMASO
 70
     0
  9
$DIMSHO
 70
     0
  9
$DIMPOST
  1

  9
$DIMAPOST
  1

  9
$DIMALT
 70
     0
  9
$DIMALTD
 70
     0
  9
$DIMALTF
 40
25.400000
  9
$DIMLFAC
 40
1.000000
  9
$DIMTOFL
 70
     0
  9
$DIMTVP
 40
0.000000
  9
$DIMTIX
 70
     0
  9
$DIMSOXD
 70
     0
  9
$DIMSAH
 70
     0
  9
$DIMBLKL
  1

  9
$DIMBLKR
  1

  9
$LUNITS
 70
     2
  9
$LUPREC
 70
     2
  9
$AXISMODE
 70
     0
  9
$AXISUNIT
 10
1.000000
 20
1.000000
  9
$SKETCHINC
 40
0.000000
  9
$FILLETRAD
 40
0.000000
  9
$AUNITS
 70
     1
  9
$AUPREC
 70
     2
  9
$MENU
  1
ACAD
  9
$ELEVATION
 40
0.000000
  9
$THICKNESS
 40
0.000000
  9
$VIEWDIR
 10
0.000000
 20
0.000000
 30
1.000000
  9
$LIMCHECK
 70
     1
  9
$BLIPMODE
 70
     1
  9
$CHAMFERA
 40
0.000000
  9
$CHAMFERB
 40
0.000000
  9
$FASTZOOM
 70
     1
  9
$SKPOLY
 70
     0
  9
$TDCREATE
 40
0.000000
  9
$TDUPDATE
 40
0.000000
  9
$TDINDWG
 40
0.000000
  9
$TDUSRTIMER
 40
0.000000
  9
$USRTIMER
 70
     1
  9
$ANGBASE
 50
0.000000
  9
$ANGDIR
 70
     0
  9
$PDMODE
 70
     0
  9
$PDSIZE
 40
0.000000
  9
$PLINEWID
 40
0.000000
  9
$COORDS
 70
     2
  9
$USERI1
 70
     0
  9
$USERI2
 70
     0
  9
$USERI3
 70
     0
  9
$USERI4
 70
     0
  9
$USERI5
 70
     0
  9
$USERR1
 40
0.000000
  9
$USERR2
 40
0.000000
  9
$USERR3
 40
0.000000
  9
$USERR4
 40
0.000000
  9
$USERR5
 40
0.000000
  0
ENDSEC
  0
SECTION
  2
TABLES
  0
TABLE
  2
LTYPE
 70
     5
  0
LTYPE
  2
CONTINUOUS
 70
    64
  3
Solid line
 72
    65
 73
     0
 40
0.0
  0
LTYPE
  2
HIDDEN
 70
    64
  3
------------------------
 72
    65
 73
     2
 40
12.6
 49
8.4
 49
-4.2
  0
LTYPE
  2
DOT
 70
    64
  3
････････････････････････
 72
    65
 73
     2
 40
8.0
 49
6.0
 49
-2.0
  0
LTYPE
  2
DASHDOT
 70
    64
  3
--･--･--･--･--･--･--･--
 72
    65
 73
     4
 40
50.5
 49
30.0
 49
-9.0
 49
2.5
 49
-9.0
  0
LTYPE
  2
DIVIDE
 70
    64
  3
--･･--･･--･･--･･--･･--
 72
    65
 73
     6
 40
58.0
 49
30.0
 49
-9.0
 49
2.5
 49
-5.0
 49
2.5
 49
-9.0
  0
LTYPE
  2
ACAD_ISO06W100
 70
    64
  3
____ ... ____ ... ____
 72
    65
 73
     8
 40
37.5
 49
24.0
 49
-3.0
 49
0.5
 49
-3.0
 49
0.5
 49
-3.0
 49
0.5
 49
-3.0
  0
LTYPE
  2
ACAD_ISO14W100
 70
    64
  3
__ . . . __ . . . __ . . . 
 72
    65
 73
     8
 40
25.5
 49
12.0
 49
-3.0
 49
0.5
 49
-3.0
 49
0.5
 49
-3.0
 49
0.5
 49
-3.0
  0
ENDTAB
  0
TABLE
  2
LAYER
 70
4
  0
LAYER
  2
1
 70
64
 62
7
  6
CONTINUOUS
  0
LAYER
  2
2
 70
64
 62
134
  6
CONTINUOUS
  0
LAYER
  2
4
 70
64
 62
54
  6
CONTINUOUS
  0
LAYER
  2
5
 70
64
 62
94
  6
CONTINUOUS
  0
ENDTAB
  0
TABLE
  2
STYLE
 70
     2
  0
STYLE
  2
STANDARD
 70
    64
 40
0.0
 41
1.0
 50
0.0
 71
     0
 42
0.2
  3
TXT
  4

  0
STYLE
  2
KANJI
 70
    64
 40
0.0
 41
1.0
 50
0.0
 71
     0
 42
0.2
  3
TXT
  4
BIGFONT
  0
ENDTAB
  0
TABLE
  2
VIEW
 70
     0
  0
ENDTAB
  0
ENDSEC
  0
SECTION
  2
BLOCKS
  0
BLOCK
  8
2
 62
134
  6
CONTINUOUS
  2
*D1
 70
    65
 10
0.0
 20
0.0
  0
LINE
  8
2
 62
134
  6
CONTINUOUS
 10
60.776869
 20
70.693994
 11
80.776869
 21
70.693994
  0
LINE
  8
2
 62
134
  6
CONTINUOUS
 10
60.776869
 20
70.193994
 11
60.776869
 21
73.291434
  0
LINE
  8
2
 62
134
  6
CONTINUOUS
 10
80.776869
 20
70.193994
 11
80.776869
 21
75.352053
  0
LINE
  8
2
 62
134
  6
CONTINUOUS
 10
60.776869
 20
70.693994
 11
61.742794
 21
70.952813
  0
LINE
  8
2
 62
134
  6
CONTINUOUS
 10
60.776869
 20
70.693994
 11
61.742794
 21
70.435175
  0
LINE
  8
2
 62
134
  6
CONTINUOUS
 10
61.742794
 20
70.952813
 11
61.742794
 21
70.435175
  0
LINE
  8
2
 62
134
  6
CONTINUOUS
 10
61.018350
 20
70.693994
 11
61.501313
 21
70.823403
  0
LINE
  8
2
 62
134
  6
CONTINUOUS
 10
61.018350
 20
70.693994
 11
61.501313
 21
70.564584
  0
LINE
  8
2
 62
134
  6
CONTINUOUS
 10
61.501313
 20
70.823403
 11
61.501313
 21
70.564584
  0
LINE
  8
2
 62
134
  6
CONTINUOUS
 10
80.776869
 20
70.693994
 11
79.810943
 21
70.435175
  0
LINE
  8
2
 62
134
  6
CONTINUOUS
 10
80.776869
 20
70.693994
 11
79.810943
 21
70.952813
  0
LINE
  8
2
 62
134
  6
CONTINUOUS
 10
79.810943
 20
70.435175
 11
79.810943
 21
70.952813
  0
LINE
  8
2
 62
134
  6
CONTINUOUS
 10
80.535387
 20
70.693994
 11
80.052424
 21
70.564584
  0
LINE
  8
2
 62
134
  6
CONTINUOUS
 10
80.535387
 20
70.693994
 11
80.052424
 21
70.823403
  0
LINE
  8
2
 62
134
  6
CONTINUOUS
 10
80.052424
 20
70.564584
 11
80.052424
 21
70.823403
  0
TEXT
  8
2
 62
134
  6
CONTINUOUS
 10
72.067610
 20
70.693994
 40
2.000000
 41
0.500000
  1
20
  7
KANJI
 50
0.000000
 51
0.000000
  0
ENDBLK
  0
BLOCK
  8
2
 62
134
  6
CONTINUOUS
  2
*D2
 70
    65
 10
0.0
 20
0.0
  0
LINE
  8
2
 62
134
  6
CONTINUOUS
 10
46.776869
 20
67.195437
 11
80.776869
 21
67.195437
  0
LINE
  8
2
 62
134
  6
CONTINUOUS
 10
46.776869
 20
66.695437
 11
46.776869
 21
74.352053
  0
LINE
  8
2
 62
134
  6
CONTINUOUS
 10
80.776869
 20
66.695437
 11
80.776869
 21
75.352053
  0
LINE
  8
2
 62
134
  6
CONTINUOUS
 10
46.776869
 20
67.195437
 11
47.742794
 21
67.454256
  0
LINE
  8
2
 62
134
  6
CONTINUOUS
 10
46.776869
 20
67.195437
 11
47.742794
 21
66.936618
  0
LINE
  8
2
 62
134
  6
CONTINUOUS
 10
47.742794
 20
67.454256
 11
47.742794
 21
66.936618
  0
LINE
  8
2
 62
134
  6
CONTINUOUS
 10
47.018350
 20
67.195437
 11
47.501313
 21
67.324847
  0
LINE
  8
2
 62
134
  6
CONTINUOUS
 10
47.018350
 20
67.195437
 11
47.501313
 21
67.066028
  0
LINE
  8
2
 62
134
  6
CONTINUOUS
 10
47.501313
 20
67.324847
 11
47.501313
 21
67.066028
  0
LINE
  8
2
 62
134
  6
CONTINUOUS
 10
80.776869
 20
67.195437
 11
79.810943
 21
66.936618
  0
LINE
  8
2
 62
134
  6
CONTINUOUS
 10
80.776869
 20
67.195437
 11
79.810943
 21
67.454256
  0
LINE
  8
2
 62
134
  6
CONTINUOUS
 10
79.810943
 20
66.936618
 11
79.810943
 21
67.454256
  0
LINE
  8
2
 62
134
  6
CONTINUOUS
 10
80.535387
 20
67.195437
 11
80.052424
 21
67.066028
  0
LINE
  8
2
 62
134
  6
CONTINUOUS
 10
80.535387
 20
67.195437
 11
80.052424
 21
67.324847
  0
LINE
  8
2
 62
134
  6
CONTINUOUS
 10
80.052424
 20
67.066028
 11
80.052424
 21
67.324847
  0
TEXT
  8
2
 62
134
  6
CONTINUOUS
 10
63.490389
 20
67.195437
 40
2.000000
 41
0.500000
  1
34
  7
KANJI
 50
0.000000
 51
0.000000
  0
ENDBLK
  0
BLOCK
  8
2
 62
134
  6
CONTINUOUS
  2
*D3
 70
    65
 10
0.0
 20
0.0
  0
LINE
  8
2
 62
134
  6
CONTINUOUS
 10
14.080225
 20
111.920787
 11
37.880225
 21
111.920787
  0
LINE
  8
2
 62
134
  6
CONTINUOUS
 10
14.080225
 20
112.420787
 11
14.080225
 21
104.152053
  0
LINE
  8
2
 62
134
  6
CONTINUOUS
 10
37.880225
 20
112.420787
 11
37.880225
 21
104.152053
  0
LINE
  8
2
 62
134
  6
CONTINUOUS
 10
14.080225
 20
111.920787
 11
15.046151
 21
112.179606
  0
LINE
  8
2
 62
134
  6
CONTINUOUS
 10
14.080225
 20
111.920787
 11
15.046151
 21
111.661968
  0
LINE
  8
2
 62
134
  6
CONTINUOUS
 10
15.046151
 20
112.179606
 11
15.046151
 21
111.661968
  0
LINE
  8
2
 62
134
  6
CONTINUOUS
 10
14.321706
 20
111.920787
 11
14.804669
 21
112.050197
  0
LINE
  8
2
 62
134
  6
CONTINUOUS
 10
14.321706
 20
111.920787
 11
14.804669
 21
111.791378
  0
LINE
  8
2
 62
134
  6
CONTINUOUS
 10
14.804669
 20
112.050197
 11
14.804669
 21
111.791378
  0
LINE
  8
2
 62
134
  6
CONTINUOUS
 10
37.880225
 20
111.920787
 11
36.914299
 21
111.661968
  0
LINE
  8
2
 62
134
  6
CONTINUOUS
 10
37.880225
 20
111.920787
 11
36.914299
 21
112.179606
  0
LINE
  8
2
 62
134
  6
CONTINUOUS
 10
36.914299
 20
111.661968
 11
36.914299
 21
112.179606
  0
LINE
  8
2
 62
134
  6
CONTINUOUS
 10
37.638743
 20
111.920787
 11
37.155780
 21
111.791378
  0
LINE
  8
2
 62
134
  6
CONTINUOUS
 10
37.638743
 20
111.920787
 11
37.155780
 21
112.050197
  0
LINE
  8
2
 62
134
  6
CONTINUOUS
 10
37.155780
 20
111.791378
 11
37.155780
 21
112.050197
  0
TEXT
  8
2
 62
134
  6
CONTINUOUS
 10
23.980225
 20
111.920787
 40
2.000000
 41
0.500000
  1
23.8
  7
KANJI
 50
0.000000
 51
0.000000
  0
ENDBLK
  0
BLOCK
  8
2
 62
134
  6
CONTINUOUS
  2
*D4
 70
    65
 10
0.0
 20
0.0
  0
LINE
  8
2
 62
134
  6
CONTINUOUS
 10
89.411614
 20
74.852053
 11
89.411614
 21
89.752053
  0
LINE
  8
2
 62
134
  6
CONTINUOUS
 10
89.911614
 20
74.852053
 11
80.260160
 21
74.852053
  0
LINE
  8
2
 62
134
  6
CONTINUOUS
 10
88.911614
 20
89.752053
 11
89.268507
 21
89.752053
  0
LINE
  8
2
 62
134
  6
CONTINUOUS
 10
89.411614
 20
74.852053
 11
89.152795
 21
75.817979
  0
LINE
  8
2
 62
134
  6
CONTINUOUS
 10
89.411614
 20
74.852053
 11
89.670433
 21
75.817979
  0
LINE
  8
2
 62
134
  6
CONTINUOUS
 10
89.152795
 20
75.817979
 11
89.670433
 21
75.817979
  0
LINE
  8
2
 62
134
  6
CONTINUOUS
 10
89.411614
 20
75.093535
 11
89.282204
 21
75.576498
  0
LINE
  8
2
 62
134
  6
CONTINUOUS
 10
89.411614
 20
75.093535
 11
89.541024
 21
75.576498
  0
LINE
  8
2
 62
134
  6
CONTINUOUS
 10
89.282204
 20
75.576498
 11
89.541024
 21
75.576498
  0
LINE
  8
2
 62
134
  6
CONTINUOUS
 10
89.411614
 20
89.752053
 11
89.670433
 21
88.786127
  0
LINE
  8
2
 62
134
  6
CONTINUOUS
 10
89.411614
 20
89.752053
 11
89.152795
 21
88.786127
  0
LINE
  8
2
 62
134
  6
CONTINUOUS
 10
89.670433
 20
88.786127
 11
89.152795
 21
88.786127
  0
LINE
  8
2
 62
134
  6
CONTINUOUS
 10
89.411614
 20
89.510572
 11
89.541024
 21
89.027609
  0
LINE
  8
2
 62
134
  6
CONTINUOUS
 10
89.411614
 20
89.510572
 11
89.282204
 21
89.027609
  0
LINE
  8
2
 62
134
  6
CONTINUOUS
 10
89.541024
 20
89.027609
 11
89.282204
 21
89.027609
  0
TEXT
  8
2
 62
134
  6
CONTINUOUS
 10
89.411614
 20
82.539486
 40
2.000000
 41
0.500000
  1
14.9
  7
KANJI
 50
90.000000
 51
0.000000
  0
ENDBLK
  0
BLOCK
  8
2
 62
134
  6
CONTINUOUS
  2
*D5
 70
    65
 10
0.0
 20
0.0
  0
LINE
  8
2
 62
134
  6
CONTINUOUS
 10
95.078414
 20
74.852053
 11
95.078414
 21
104.652053
  0
LINE
  8
2
 62
134
  6
CONTINUOUS
 10
95.578414
 20
74.852053
 11
80.260160
 21
74.852053
  0
LINE
  8
2
 62
134
  6
CONTINUOUS
 10
95.578414
 20
104.652053
 11
81.276869
 21
104.652053
  0
LINE
  8
2
 62
134
  6
CONTINUOUS
 10
95.078414
 20
74.852053
 11
94.819595
 21
75.817979
  0
LINE
  8
2
 62
134
  6
CONTINUOUS
 10
95.078414
 20
74.852053
 11
95.337233
 21
75.817979
  0
LINE
  8
2
 62
134
  6
CONTINUOUS
 10
94.819595
 20
75.817979
 11
95.337233
 21
75.817979
  0
LINE
  8
2
 62
134
  6
CONTINUOUS
 10
95.078414
 20
75.093535
 11
94.949004
 21
75.576498
  0
LINE
  8
2
 62
134
  6
CONTINUOUS
 10
95.078414
 20
75.093535
 11
95.207824
 21
75.576498
  0
LINE
  8
2
 62
134
  6
CONTINUOUS
 10
94.949004
 20
75.576498
 11
95.207824
 21
75.576498
  0
LINE
  8
2
 62
134
  6
CONTINUOUS
 10
95.078414
 20
104.652053
 11
95.337233
 21
103.686127
  0
LINE
  8
2
 62
134
  6
CONTINUOUS
 10
95.078414
 20
104.652053
 11
94.819595
 21
103.686127
  0
LINE
  8
2
 62
134
  6
CONTINUOUS
 10
95.337233
 20
103.686127
 11
94.819595
 21
103.686127
  0
LINE
  8
2
 62
134
  6
CONTINUOUS
 10
95.078414
 20
104.410572
 11
95.207824
 21
103.927609
  0
LINE
  8
2
 62
134
  6
CONTINUOUS
 10
95.078414
 20
104.410572
 11
94.949004
 21
103.927609
  0
LINE
  8
2
 62
134
  6
CONTINUOUS
 10
95.207824
 20
103.927609
 11
94.949004
 21
103.927609
  0
TEXT
  8
2
 62
134
  6
CONTINUOUS
 10
95.078414
 20
87.272931
 40
2.000000
 41
0.500000
  1
29.8
  7
KANJI
 50
90.000000
 51
0.000000
  0
ENDBLK
  0
BLOCK
  8
2
 62
134
  6
CONTINUOUS
  2
*D6
 70
    65
 10
0.0
 20
0.0
  0
LINE
  8
2
 62
134
  6
CONTINUOUS
 10
92.411685
 20
81.752053
 11
92.411685
 21
97.752053
  0
LINE
  8
2
 62
134
  6
CONTINUOUS
 10
92.911685
 20
81.752053
 11
84.276869
 21
81.752053
  0
LINE
  8
2
 62
134
  6
CONTINUOUS
 10
92.911685
 20
97.752053
 11
84.276869
 21
97.752053
  0
LINE
  8
2
 62
134
  6
CONTINUOUS
 10
92.411685
 20
81.752053
 11
92.152866
 21
82.717979
  0
LINE
  8
2
 62
134
  6
CONTINUOUS
 10
92.411685
 20
81.752053
 11
92.670504
 21
82.717979
  0
LINE
  8
2
 62
134
  6
CONTINUOUS
 10
92.152866
 20
82.717979
 11
92.670504
 21
82.717979
  0
LINE
  8
2
 62
134
  6
CONTINUOUS
 10
92.411685
 20
81.993535
 11
92.282275
 21
82.476498
  0
LINE
  8
2
 62
134
  6
CONTINUOUS
 10
92.411685
 20
81.993535
 11
92.541094
 21
82.476498
  0
LINE
  8
2
 62
134
  6
CONTINUOUS
 10
92.282275
 20
82.476498
 11
92.541094
 21
82.476498
  0
LINE
  8
2
 62
134
  6
CONTINUOUS
 10
92.411685
 20
97.752053
 11
92.670504
 21
96.786127
  0
LINE
  8
2
 62
134
  6
CONTINUOUS
 10
92.411685
 20
97.752053
 11
92.152866
 21
96.786127
  0
LINE
  8
2
 62
134
  6
CONTINUOUS
 10
92.670504
 20
96.786127
 11
92.152866
 21
96.786127
  0
LINE
  8
2
 62
134
  6
CONTINUOUS
 10
92.411685
 20
97.510572
 11
92.541094
 21
97.027609
  0
LINE
  8
2
 62
134
  6
CONTINUOUS
 10
92.411685
 20
97.510572
 11
92.282275
 21
97.027609
  0
LINE
  8
2
 62
134
  6
CONTINUOUS
 10
92.541094
 20
97.027609
 11
92.282275
 21
97.027609
  0
TEXT
  8
2
 62
134
  6
CONTINUOUS
 10
92.411685
 20
86.286127
 40
2.000000
 41
0.500000
  1
M16P2
  7
KANJI
 50
90.000000
 51
0.000000
  0
ENDBLK
  0
BLOCK
  8
2
 62
134
  6
CONTINUOUS
  2
*D7
 70
    65
 10
0.0
 20
0.0
  0
LINE
  8
2
 62
134
  6
CONTINUOUS
 10
80.776869
 20
70.693994
 11
85.776869
 21
70.693994
  0
LINE
  8
2
 62
134
  6
CONTINUOUS
 10
80.776869
 20
70.193994
 11
80.776869
 21
75.352053
  0
LINE
  8
2
 62
134
  6
CONTINUOUS
 10
85.776869
 20
70.193994
 11
85.776869
 21
81.252053
  0
LINE
  8
2
 62
134
  6
CONTINUOUS
 10
80.776869
 20
70.693994
 11
81.742794
 21
70.952813
  0
LINE
  8
2
 62
134
  6
CONTINUOUS
 10
80.776869
 20
70.693994
 11
81.742794
 21
70.435175
  0
LINE
  8
2
 62
134
  6
CONTINUOUS
 10
81.742794
 20
70.952813
 11
81.742794
 21
70.435175
  0
LINE
  8
2
 62
134
  6
CONTINUOUS
 10
81.018350
 20
70.693994
 11
81.501313
 21
70.823403
  0
LINE
  8
2
 62
134
  6
CONTINUOUS
 10
81.018350
 20
70.693994
 11
81.501313
 21
70.564584
  0
LINE
  8
2
 62
134
  6
CONTINUOUS
 10
81.501313
 20
70.823403
 11
81.501313
 21
70.564584
  0
LINE
  8
2
 62
134
  6
CONTINUOUS
 10
85.776869
 20
70.693994
 11
84.810943
 21
70.435175
  0
LINE
  8
2
 62
134
  6
CONTINUOUS
 10
85.776869
 20
70.693994
 11
84.810943
 21
70.952813
  0
LINE
  8
2
 62
134
  6
CONTINUOUS
 10
84.810943
 20
70.435175
 11
84.810943
 21
70.952813
  0
LINE
  8
2
 62
134
  6
CONTINUOUS
 10
85.535387
 20
70.693994
 11
85.052424
 21
70.564584
  0
LINE
  8
2
 62
134
  6
CONTINUOUS
 10
85.535387
 20
70.693994
 11
85.052424
 21
70.823403
  0
LINE
  8
2
 62
134
  6
CONTINUOUS
 10
85.052424
 20
70.564584
 11
85.052424
 21
70.823403
  0
TEXT
  8
2
 62
134
  6
CONTINUOUS
 10
82.815931
 20
70.693994
 40
2.000000
 41
0.500000
  1
5
  7
KANJI
 50
0.000000
 51
0.000000
  0
ENDBLK
  0
ENDSEC
  0
SECTION
  2
ENTITIES
  0
TEXT
  8
5
 62
94
  6
CONTINUOUS
 10
62.215971
 20
12.429830
 40
0.875000
 41
4.000000
  1
製図
  7
KANJI
 50
-90.000000
 51
0.000000
  0
TEXT
  8
5
 62
94
  6
CONTINUOUS
 10
72.132362
 20
12.347876
 40
0.875000
 41
4.000000
  1
図番
  7
KANJI
 50
-90.000000
 51
0.000000
  0
TEXT
  8
5
 62
94
  6
CONTINUOUS
 10
72.132362
 20
18.986121
 40
0.875000
 41
4.000000
  1
図　名
  7
KANJI
 50
-90.000000
 51
0.000000
  0
TEXT
  8
5
 62
94
  6
CONTINUOUS
 10
39.678720
 20
16.281651
 40
0.875000
 41
4.000000
  1
日付
  7
KANJI
 50
-90.000000
 51
0.000000
  0
TEXT
  8
5
 62
94
  6
CONTINUOUS
 10
57.216799
 20
16.363605
 40
0.875000
 41
4.000000
  1
図法
  7
KANJI
 50
-90.000000
 51
0.000000
  0
TEXT
  8
5
 62
94
  6
CONTINUOUS
 10
57.134846
 20
20.379333
 40
0.875000
 41
4.000000
  1
尺度
  7
KANJI
 50
-90.000000
 51
0.000000
  0
TEXT
  8
5
 62
94
  6
CONTINUOUS
 10
39.678720
 20
20.297379
 40
0.875000
 41
4.000000
  1
公差
  7
KANJI
 50
-90.000000
 51
0.000000
  0
TEXT
  8
5
 62
94
  6
CONTINUOUS
 10
39.678720
 20
12.347876
 40
0.875000
 41
4.000000
  1
承認
  7
KANJI
 50
-90.000000
 51
0.000000
  0
TEXT
  8
5
 62
94
  6
CONTINUOUS
 10
52.217627
 20
12.347876
 40
0.875000
 41
4.000000
  1
設計
  7
KANJI
 50
-90.000000
 51
0.000000
  0
TEXT
  8
5
 62
94
  6
CONTINUOUS
 10
48.939481
 20
5.381816
 40
2.250000
 41
1.888889
  1
ジャパンセンサー株式会社
  7
KANJI
 50
0.000000
 51
0.000000
  0
LINE
  8
5
 62
94
  6
CONTINUOUS
 10
39.234597
 20
20.604085
 11
99.234597
 21
20.604085
  0
LINE
  8
5
 62
94
  6
CONTINUOUS
 10
39.234597
 20
4.604085
 11
39.234597
 21
20.604085
  0
LINE
  8
5
 62
94
  6
CONTINUOUS
 10
99.234597
 20
8.604085
 11
39.234597
 21
8.604085
  0
LINE
  8
5
 62
94
  6
CONTINUOUS
 10
71.734597
 20
20.604085
 11
71.734597
 21
8.604085
  0
LINE
  8
5
 62
94
  6
CONTINUOUS
 10
99.234597
 20
12.604085
 11
39.234597
 21
12.604085
  0
LINE
  8
5
 62
94
  6
CONTINUOUS
 10
74.234597
 20
8.604085
 11
74.234597
 21
20.604085
  0
LINE
  8
5
 62
94
  6
CONTINUOUS
 10
59.234597
 20
20.604085
 11
59.234597
 21
12.604085
  0
LINE
  8
5
 62
94
  6
CONTINUOUS
 10
41.734597
 20
8.604085
 11
41.734597
 21
20.604085
  0
LINE
  8
5
 62
94
  6
CONTINUOUS
 10
39.234597
 20
16.604085
 11
71.734597
 21
16.604085
  0
LINE
  8
5
 62
94
  6
CONTINUOUS
 10
56.734597
 20
20.604085
 11
56.734597
 21
12.604085
  0
LINE
  8
5
 62
94
  6
CONTINUOUS
 10
51.734597
 20
8.604085
 11
51.734597
 21
12.604085
  0
LINE
  8
5
 62
94
  6
CONTINUOUS
 10
61.734597
 20
8.604085
 11
61.734597
 21
12.604085
  0
LINE
  8
5
 62
94
  6
CONTINUOUS
 10
54.234597
 20
12.604085
 11
54.234597
 21
8.604085
  0
LINE
  8
5
 62
94
  6
CONTINUOUS
 10
64.234597
 20
12.604085
 11
64.234597
 21
8.604085
  0
TEXT
  8
5
 62
94
  6
CONTINUOUS
 10
61.232528
 20
13.249366
 40
2.000000
 41
1.000000
  1
三角法
  7
KANJI
 50
0.000000
 51
0.000000
  0
LINE
  8
5
 62
94
  6
CONTINUOUS
 10
75.556448
 20
16.589321
 11
97.626822
 21
16.589321
  0
TEXT
  8
5
 62
94
  6
CONTINUOUS
 10
55.824656
 20
9.573573
 40
2.000000
 41
1.000000
  1
須藤
  7
KANJI
 50
0.000000
 51
0.000000
  0
TEXT
  8
5
 62
94
  6
CONTINUOUS
 10
62.548081
 20
17.466289
 40
2.000000
 41
1.000000
  1
２／１
  7
KANJI
 50
0.000000
 51
0.000000
  0
TEXT
  8
5
 62
94
  6
CONTINUOUS
 10
65.824656
 20
9.573573
 40
2.000000
 41
1.000000
  1
須藤
  7
KANJI
 50
0.000000
 51
0.000000
  0
LINE
  8
5
 62
94
  6
CONTINUOUS
 10
6.734597
 20
142.104085
 11
6.734597
 21
4.604085
  0
LINE
  8
5
 62
94
  6
CONTINUOUS
 10
6.734597
 20
4.604085
 11
99.234597
 21
4.604085
  0
LINE
  8
5
 62
94
  6
CONTINUOUS
 10
99.234597
 20
4.604085
 11
99.234597
 21
142.104085
  0
LINE
  8
5
 62
94
  6
CONTINUOUS
 10
99.234597
 20
142.104085
 11
6.734597
 21
142.104085
  0
LINE
  8
2
 62
134
  6
CONTINUOUS
 10
65.368987
 20
78.250819
 11
78.491640
 21
61.901816
  0
LINE
  8
2
 62
134
  6
CONTINUOUS
 10
78.491640
 20
61.901816
 11
82.547523
 21
61.901816
  0
TEXT
  8
2
 62
134
  6
CONTINUOUS
 10
78.547523
 20
61.770589
 40
2.000000
 41
1.000000
  1
窓材
  7
KANJI
 50
0.000000
 51
0.000000
  0
LINE
  8
2
 62
134
  6
CONTINUOUS
 10
65.368987
 20
78.250819
 11
66.175457
 21
77.659545
  0
LINE
  8
2
 62
134
  6
CONTINUOUS
 10
65.368987
 20
78.250819
 11
65.771774
 21
77.335525
  0
LINE
  8
2
 62
134
  6
CONTINUOUS
 10
66.175457
 20
77.659545
 11
65.771774
 21
77.335525
  0
LINE
  8
2
 62
134
  6
CONTINUOUS
 10
65.520144
 20
78.062498
 11
65.923379
 21
77.766861
  0
LINE
  8
2
 62
134
  6
CONTINUOUS
 10
65.520144
 20
78.062498
 11
65.721537
 21
77.604851
  0
LINE
  8
2
 62
134
  6
CONTINUOUS
 10
65.923379
 20
77.766861
 11
65.721537
 21
77.604851
  0
DIMENSION
  8
2
 62
134
  6
CONTINUOUS
  2
*D1
 10
60.776869
 20
70.693994
 11
73.067610
 21
70.693994
 70
     0
  1
20
 13
60.776869
 23
73.291434
 14
80.776869
 24
75.352053
 50
0.000000
  0
DIMENSION
  8
2
 62
134
  6
CONTINUOUS
  2
*D2
 10
46.776869
 20
67.195437
 11
64.490389
 21
67.195437
 70
     0
  1
34
 13
46.776869
 23
74.352053
 14
80.776869
 24
75.352053
 50
0.000000
  0
LINE
  8
1
 62
7
  6
DOT
 10
67.845882
 20
98.239389
 11
52.289532
 21
82.683040
  0
LINE
  8
1
 62
7
  6
DOT
 10
52.289532
 20
82.683040
 11
52.996639
 21
81.975933
  0
LINE
  8
1
 62
7
  6
DOT
 10
52.996639
 20
81.975933
 11
68.552988
 21
97.532283
  0
LINE
  8
1
 62
7
  6
DOT
 10
68.552988
 20
97.532283
 11
67.845882
 21
98.239389
  0
LINE
  8
1
 62
7
  6
DASHDOT
 10
67.509356
 20
104.232769
 11
73.393805
 21
98.348320
  0
LINE
  8
1
 62
7
  6
CONTINUOUS
 10
71.383470
 20
104.601296
 11
73.504791
 21
102.479975
  0
LINE
  8
1
 62
7
  6
CONTINUOUS
 10
73.504791
 20
102.479975
 11
46.776869
 21
75.752053
  0
LINE
  8
1
 62
7
  6
CONTINUOUS
 10
46.776869
 20
75.752053
 11
44.655548
 21
77.873373
  0
LINE
  8
1
 62
7
  6
CONTINUOUS
 10
44.655548
 20
77.873373
 11
71.383470
 21
104.601296
  0
LINE
  8
1
 62
7
  6
DASHDOT
 10
44.881939
 20
81.605352
 11
51.450627
 21
75.036665
  0
LINE
  8
1
 62
7
  6
DASHDOT
 10
64.519564
 20
86.009357
 11
53.894965
 21
96.633956
  0
LINE
  8
1
 62
7
  6
DOT
 10
50.776866
 20
79.252053
 11
50.776866
 21
77.252053
  0
LINE
  8
1
 62
7
  6
DOT
 10
50.776866
 20
77.252053
 11
70.776869
 21
77.252053
  0
LINE
  8
1
 62
7
  6
DOT
 10
70.776869
 20
77.252053
 11
70.776869
 21
79.252053
  0
LINE
  8
1
 62
7
  6
DOT
 10
70.776869
 20
79.252053
 11
50.776866
 21
79.252053
  0
LINE
  8
1
 62
7
  6
DOT
 10
25.480225
 20
102.754775
 11
14.080225
 21
102.754775
  0
LINE
  8
1
 62
7
  6
DOT
 10
25.480225
 20
102.621575
 11
14.080225
 21
102.621575
  0
LINE
  8
1
 62
7
  6
DOT
 10
25.480225
 20
100.886253
 11
14.080225
 21
100.886253
  0
LINE
  8
1
 62
7
  6
DOT
 10
25.480225
 20
100.753053
 11
14.080225
 21
100.753053
  0
LINE
  8
1
 62
7
  6
DOT
 10
35.880225
 20
100.752053
 11
26.480225
 21
100.752053
  0
LINE
  8
1
 62
7
  6
DOT
 10
35.880225
 20
102.752053
 11
26.480225
 21
102.752053
  0
LINE
  8
1
 62
7
  6
DOT
 10
35.880225
 20
99.752053
 11
37.880225
 21
99.752053
  0
LINE
  8
1
 62
7
  6
DOT
 10
35.880225
 20
103.752053
 11
35.880225
 21
99.752053
  0
LINE
  8
1
 62
7
  6
DASHDOT
 10
39.196893
 20
101.752053
 11
13.158090
 21
101.752053
  0
LINE
  8
1
 62
7
  6
DASHDOT
 10
39.346429
 20
89.752053
 11
12.440356
 21
89.752053
  0
LINE
  8
1
 62
7
  6
DASHDOT
 10
25.980225
 20
106.567848
 11
25.980225
 21
73.349093
  0
LINE
  8
1
 62
7
  6
CONTINUOUS
 10
37.880225
 20
75.852053
 11
14.080225
 21
75.852053
  0
LINE
  8
1
 62
7
  6
CONTINUOUS
 10
37.880225
 20
75.852053
 11
36.880225
 21
74.852053
  0
LINE
  8
1
 62
7
  6
CONTINUOUS
 10
36.880225
 20
74.852053
 11
15.080225
 21
74.852053
  0
LINE
  8
1
 62
7
  6
CONTINUOUS
 10
15.080225
 20
74.852053
 11
14.080225
 21
75.852053
  0
LINE
  8
1
 62
7
  6
CONTINUOUS
 10
14.080225
 20
103.652053
 11
15.080225
 21
104.652053
  0
LINE
  8
1
 62
7
  6
CONTINUOUS
 10
15.080225
 20
104.652053
 11
25.480225
 21
104.652053
  0
LINE
  8
1
 62
7
  6
CONTINUOUS
 10
36.880225
 20
104.652053
 11
37.880225
 21
103.652053
  0
LINE
  8
1
 62
7
  6
CONTINUOUS
 10
26.480225
 20
104.652053
 11
36.880225
 21
104.652053
  0
LINE
  8
1
 62
7
  6
DOT
 10
37.780225
 20
103.752053
 11
35.880225
 21
103.752053
  0
LINE
  8
1
 62
7
  6
CONTINUOUS
 10
26.480225
 20
102.752053
 11
26.480225
 21
104.652053
  0
LINE
  8
1
 62
7
  6
CONTINUOUS
 10
25.480225
 20
104.652053
 11
25.480225
 21
102.754775
  0
LINE
  8
1
 62
7
  6
CONTINUOUS
 10
37.880225
 20
75.852053
 11
37.880225
 21
103.652053
  0
LINE
  8
1
 62
7
  6
CONTINUOUS
 10
36.880225
 20
77.994697
 11
37.880225
 21
78.994697
  0
LINE
  8
1
 62
7
  6
CONTINUOUS
 10
14.080225
 20
75.852053
 11
14.080225
 21
103.652053
  0
LINE
  8
1
 62
7
  6
CONTINUOUS
 10
36.880225
 20
77.994697
 11
15.080225
 21
77.994697
  0
LINE
  8
1
 62
7
  6
CONTINUOUS
 10
15.080225
 20
77.994697
 11
14.080225
 21
78.994697
  0
LINE
  8
1
 62
7
  6
CONTINUOUS
 10
15.080225
 20
77.994697
 11
15.080225
 21
75.852053
  0
LINE
  8
1
 62
7
  6
CONTINUOUS
 10
36.880225
 20
77.994697
 11
36.880225
 21
75.852053
  0
LINE
  8
1
 62
7
  6
CONTINUOUS
 10
36.880225
 20
75.852053
 11
37.880225
 21
76.852053
  0
LINE
  8
1
 62
7
  6
CONTINUOUS
 10
15.080225
 20
75.852053
 11
14.080225
 21
76.852053
  0
DIMENSION
  8
2
 62
134
  6
CONTINUOUS
  2
*D3
 10
14.080225
 20
111.920787
 11
25.980225
 21
111.920787
 70
     0
  1
23.8
 13
14.080225
 23
104.152053
 14
37.880225
 24
104.152053
 50
0.000000
  0
CIRCLE
  8
1
 62
7
  6
CONTINUOUS
 10
34.480225
 20
79.852558
 40
1.402970
  0
CIRCLE
  8
1
 62
7
  6
CONTINUOUS
 10
17.480225
 20
79.852558
 40
1.402970
  0
CIRCLE
  8
1
 62
7
  6
CONTINUOUS
 10
34.480225
 20
102.479975
 40
1.402970
  0
CIRCLE
  8
1
 62
7
  6
CONTINUOUS
 10
17.480225
 20
102.479975
 40
1.402970
  0
TEXT
  8
2
 62
134
  6
CONTINUOUS
 10
43.858126
 20
62.640042
 40
2.000000
 41
1.000000
  1
光路長： 34.9mm
  7
KANJI
 50
0.000000
 51
0.000000
  0
LINE
  8
2
 62
134
  6
CONTINUOUS
 10
60.586508
 20
90.553959
 11
56.318712
 21
97.801755
  0
LINE
  8
2
 62
134
  6
CONTINUOUS
 10
56.318712
 20
97.801755
 11
48.636960
 21
97.801755
  0
TEXT
  8
2
 62
134
  6
CONTINUOUS
 10
48.636960
 20
97.801755
 40
2.000000
 41
1.000000
  1
反射ﾐﾗｰ
  7
KANJI
 50
0.000000
 51
0.000000
  0
LINE
  8
2
 62
134
  6
CONTINUOUS
 10
60.586508
 20
90.553959
 11
59.873364
 21
91.254976
  0
LINE
  8
2
 62
134
  6
CONTINUOUS
 10
60.586508
 20
90.553959
 11
60.319416
 21
91.517630
  0
LINE
  8
2
 62
134
  6
CONTINUOUS
 10
59.873364
 20
91.254976
 11
60.319416
 21
91.517630
  0
LINE
  8
2
 62
134
  6
CONTINUOUS
 10
60.463979
 20
90.762045
 11
60.107407
 21
91.112554
  0
LINE
  8
2
 62
134
  6
CONTINUOUS
 10
60.463979
 20
90.762045
 11
60.330433
 21
91.243880
  0
LINE
  8
2
 62
134
  6
CONTINUOUS
 10
60.107407
 20
91.112554
 11
60.330433
 21
91.243880
  0
LINE
  8
2
 62
134
  6
CONTINUOUS
 10
76.994969
 20
102.525767
 11
70.645085
 21
110.037252
  0
LINE
  8
2
 62
134
  6
CONTINUOUS
 10
70.645085
 20
110.037252
 11
58.640137
 21
110.037252
  0
TEXT
  8
2
 62
134
  6
CONTINUOUS
 10
58.640137
 20
109.804932
 40
2.000000
 41
1.000000
  1
回転固定ﾈｼﾞ
  7
KANJI
 50
0.000000
 51
0.000000
  0
LINE
  8
2
 62
134
  6
CONTINUOUS
 10
76.994969
 20
102.525767
 11
76.173723
 21
103.096341
  0
LINE
  8
2
 62
134
  6
CONTINUOUS
 10
76.994969
 20
102.525767
 11
76.569036
 21
103.430522
  0
LINE
  8
2
 62
134
  6
CONTINUOUS
 10
76.173723
 20
103.096341
 11
76.569036
 21
103.430522
  0
LINE
  8
2
 62
134
  6
CONTINUOUS
 10
76.839072
 20
102.710183
 11
76.428449
 21
102.995470
  0
LINE
  8
2
 62
134
  6
CONTINUOUS
 10
76.839072
 20
102.710183
 11
76.626105
 21
103.162561
  0
LINE
  8
2
 62
134
  6
CONTINUOUS
 10
76.428449
 20
102.995470
 11
76.626105
 21
103.162561
  0
LINE
  8
2
 62
134
  6
CONTINUOUS
 10
80.301187
 20
81.452308
 11
86.476564
 21
70.230765
  0
LINE
  8
2
 62
134
  6
CONTINUOUS
 10
86.476564
 20
70.230765
 11
91.693731
 21
70.230765
  0
TEXT
  8
2
 62
134
  6
CONTINUOUS
 10
86.693731
 20
70.230765
 40
2.000000
 41
0.500000
  1
Oﾘﾝｸﾞ
  7
KANJI
 50
0.000000
 51
0.000000
  0
LINE
  8
2
 62
134
  6
CONTINUOUS
 10
80.301187
 20
81.452308
 11
80.993640
 21
80.730846
  0
LINE
  8
2
 62
134
  6
CONTINUOUS
 10
80.301187
 20
81.452308
 11
80.540138
 21
80.481277
  0
LINE
  8
2
 62
134
  6
CONTINUOUS
 10
80.993640
 20
80.730846
 11
80.540138
 21
80.481277
  0
LINE
  8
2
 62
134
  6
CONTINUOUS
 10
80.417612
 20
81.240747
 11
80.763839
 21
80.880015
  0
LINE
  8
2
 62
134
  6
CONTINUOUS
 10
80.417612
 20
81.240747
 11
80.537088
 21
80.755231
  0
LINE
  8
2
 62
134
  6
CONTINUOUS
 10
80.763839
 20
80.880015
 11
80.537088
 21
80.755231
  0
LINE
  8
1
 62
7
  6
DASHDOT
 10
58.807761
 20
89.752053
 11
84.751413
 21
89.752053
  0
CIRCLE
  8
1
 62
7
  6
CONTINUOUS
 10
77.776869
 20
101.752053
 40
2.000000
  0
LINE
  8
1
 62
7
  6
CONTINUOUS
 10
73.776869
 20
102.752053
 11
73.776869
 21
97.252053
  0
LINE
  8
1
 62
7
  6
CONTINUOUS
 10
74.776869
 20
103.752053
 11
74.776869
 21
97.252053
  0
LINE
  8
1
 62
7
  6
DASHDOT
 10
75.541745
 20
101.752053
 11
80.441977
 21
101.752053
  0
LINE
  8
1
 62
7
  6
DASHDOT
 10
77.776869
 20
106.001325
 11
77.776869
 21
99.148886
  0
LINE
  8
1
 62
7
  6
DOT
 10
53.276869
 20
79.252053
 11
70.880026
 21
79.252053
  0
LINE
  8
1
 62
7
  6
DOT
 10
67.276869
 20
96.252056
 11
67.276869
 21
79.252053
  0
LINE
  8
1
 62
7
  6
DOT
 10
54.276869
 20
83.252056
 11
54.276869
 21
79.252053
  0
LINE
  8
1
 62
7
  6
DOT
 10
69.026869
 20
79.752053
 11
69.026869
 21
79.252053
  0
LINE
  8
1
 62
7
  6
DOT
 10
69.026869
 20
79.752053
 11
70.026869
 21
79.752053
  0
LINE
  8
1
 62
7
  6
DOT
 10
70.026869
 20
79.752053
 11
70.026869
 21
79.252053
  0
LINE
  8
1
 62
7
  6
DOT
 10
52.526869
 20
79.752053
 11
52.526869
 21
79.252053
  0
LINE
  8
1
 62
7
  6
DOT
 10
52.526869
 20
79.752053
 11
51.526869
 21
79.752053
  0
LINE
  8
1
 62
7
  6
DOT
 10
51.526869
 20
79.752053
 11
51.526869
 21
79.252053
  0
LINE
  8
1
 62
7
  6
DOT
 10
70.874016
 20
79.248522
 11
70.874016
 21
74.752053
  0
LINE
  8
1
 62
7
  6
DOT
 10
50.679722
 20
79.248522
 11
50.679722
 21
74.752053
  0
LINE
  8
1
 62
7
  6
DOT
 10
67.155545
 20
96.252056
 11
75.776869
 21
96.252053
  0
LINE
  8
1
 62
7
  6
DOT
 10
54.276872
 20
83.252056
 11
75.776869
 21
83.252056
  0
LINE
  8
1
 62
7
  6
CONTINUOUS
 10
73.776869
 20
97.252053
 11
74.776869
 21
97.252053
  0
LINE
  8
1
 62
7
  6
DOT
 10
75.776869
 20
97.252053
 11
74.776869
 21
97.252053
  0
LINE
  8
1
 62
7
  6
DASHDOT
 10
60.776869
 20
95.062886
 11
60.776869
 21
73.791434
  0
LINE
  8
1
 62
7
  6
DOT
 10
71.276869
 20
78.250818
 11
71.276869
 21
74.752053
  0
LINE
  8
1
 62
7
  6
DOT
 10
71.276869
 20
78.250818
 11
70.878502
 21
79.255904
  0
LINE
  8
1
 62
7
  6
DOT
 10
50.276869
 20
78.250819
 11
71.276869
 21
78.250819
  0
LINE
  8
1
 62
7
  6
DOT
 10
50.276869
 20
78.250819
 11
50.276869
 21
74.752053
  0
LINE
  8
1
 62
7
  6
DOT
 10
50.276869
 20
78.250819
 11
50.675235
 21
79.255904
  0
LINE
  8
1
 62
7
  6
DOT
 10
80.776869
 20
99.752053
 11
75.776869
 21
99.752053
  0
LINE
  8
1
 62
7
  6
DOT
 10
80.776869
 20
79.752053
 11
75.776869
 21
79.752053
  0
LINE
  8
1
 62
7
  6
DOT
 10
75.776869
 20
99.752053
 11
75.776869
 21
79.752053
  0
LINE
  8
1
 62
7
  6
DASHDOT
 10
74.293584
 20
97.448541
 11
69.866951
 21
101.875175
  0
LINE
  8
1
 62
7
  6
DOT
 10
74.618428
 20
97.123697
 11
74.878292
 21
98.093522
  0
LINE
  8
1
 62
7
  6
DOT
 10
74.618428
 20
97.123697
 11
73.651235
 21
96.866465
  0
LINE
  8
1
 62
7
  6
DOT
 10
72.956426
 20
97.372900
 11
74.371857
 21
98.788330
  0
LINE
  8
1
 62
7
  6
DOT
 10
70.677071
 20
99.652255
 11
72.956426
 21
97.372900
  0
LINE
  8
1
 62
7
  6
DOT
 10
72.092502
 20
101.067686
 11
74.371857
 21
98.788330
  0
LINE
  8
1
 62
7
  6
DOT
 10
70.771257
 20
99.746442
 11
73.651235
 21
96.866465
  0
LINE
  8
1
 62
7
  6
DOT
 10
71.998315
 20
100.973499
 11
74.878292
 21
98.093522
  0
LINE
  8
1
 62
7
  6
DOT
 10
73.651235
 20
96.866465
 11
74.878292
 21
98.093522
  0
LINE
  8
1
 62
7
  6
DOT
 10
72.956426
 20
97.372900
 11
73.506447
 21
97.011252
  0
LINE
  8
1
 62
7
  6
DOT
 10
74.371857
 20
98.788330
 11
74.733505
 21
98.238310
  0
LINE
  8
1
 62
7
  6
DOT
 10
73.506447
 20
97.011252
 11
74.733505
 21
98.238310
  0
LINE
  8
1
 62
7
  6
CONTINUOUS
 10
80.776869
 20
103.752053
 11
74.776869
 21
103.752053
  0
LINE
  8
1
 62
7
  6
CONTINUOUS
 10
46.776869
 20
75.752053
 11
73.776869
 21
102.752053
  0
LINE
  8
1
 62
7
  6
DASHDOT
 10
53.121815
 20
73.365478
 11
47.239535
 21
79.247758
  0
LINE
  8
1
 62
7
  6
CONTINUOUS
 10
79.760160
 20
74.852053
 11
80.760160
 21
75.852053
  0
LINE
  8
1
 62
7
  6
CONTINUOUS
 10
79.760160
 20
74.852053
 11
46.760160
 21
74.852053
  0
LINE
  8
1
 62
7
  6
CONTINUOUS
 10
46.776869
 20
74.852053
 11
46.776869
 21
75.752053
  0
LINE
  8
1
 62
7
  6
CONTINUOUS
 10
46.876869
 20
75.852053
 11
80.760160
 21
75.852053
  0
LINE
  8
1
 62
7
  6
CONTINUOUS
 10
80.776869
 20
104.652053
 11
80.776869
 21
75.852053
  0
LINE
  8
1
 62
7
  6
CONTINUOUS
 10
80.776869
 20
104.652053
 11
75.676869
 21
104.652053
  0
LINE
  8
1
 62
7
  6
CONTINUOUS
 10
74.776869
 20
103.752053
 11
75.676869
 21
104.652053
  0
CIRCLE
  8
1
 62
7
  6
CONTINUOUS
 10
77.776869
 20
101.752053
 40
1.990000
  0
LINE
  8
1
 62
7
  6
CONTINUOUS
 10
77.776869
 20
102.750869
 11
76.911869
 21
102.251461
  0
LINE
  8
1
 62
7
  6
CONTINUOUS
 10
76.911869
 20
102.251461
 11
76.911869
 21
101.252645
  0
LINE
  8
1
 62
7
  6
CONTINUOUS
 10
76.911869
 20
101.252645
 11
77.776869
 21
100.753237
  0
LINE
  8
1
 62
7
  6
CONTINUOUS
 10
77.776869
 20
100.753237
 11
78.641869
 21
101.252645
  0
LINE
  8
1
 62
7
  6
CONTINUOUS
 10
78.641869
 20
101.252645
 11
78.641869
 21
102.251461
  0
LINE
  8
1
 62
7
  6
CONTINUOUS
 10
78.641869
 20
102.251461
 11
77.776869
 21
102.750869
  0
TEXT
  8
2
 62
134
  6
CONTINUOUS
 10
60.719947
 20
107.952001
 40
2.000000
 41
0.500000
  1
M2
  7
KANJI
 50
0.000000
 51
0.000000
  0
TEXT
  8
5
 62
94
  6
CONTINUOUS
 10
75.695594
 20
13.530056
 40
2.000000
 41
1.000000
  1
φ10直角ミラー 外形図
  7
KANJI
 50
0.000000
 51
0.000000
  0
CIRCLE
  8
1
 62
7
  6
CONTINUOUS
 10
80.230650
 20
81.443978
 40
0.750000
  0
CIRCLE
  8
1
 62
7
  6
CONTINUOUS
 10
80.230650
 20
98.060128
 40
0.750000
  0
DIMENSION
  8
2
 62
134
  6
CONTINUOUS
  2
*D4
 10
89.411614
 20
74.852053
 11
89.411614
 21
84.539486
 70
     0
  1
14.9
 13
80.260160
 23
74.852053
 14
89.268507
 24
89.752053
 50
90.000000
  0
DIMENSION
  8
2
 62
134
  6
CONTINUOUS
  2
*D5
 10
95.078414
 20
74.852053
 11
95.078414
 21
89.272931
 70
     0
  1
29.8
 13
80.260160
 23
74.852053
 14
81.276869
 24
104.652053
 50
90.000000
  0
LINE
  8
1
 62
7
  6
CONTINUOUS
 10
85.776869
 20
97.752053
 11
85.776869
 21
81.752053
  0
LINE
  8
1
 62
7
  6
CONTINUOUS
 10
81.776869
 20
96.669553
 11
80.776869
 21
96.669553
  0
LINE
  8
1
 62
7
  6
CONTINUOUS
 10
81.776869
 20
97.752053
 11
81.776869
 21
96.669553
  0
LINE
  8
1
 62
7
  6
CONTINUOUS
 10
81.776869
 20
82.834553
 11
80.776869
 21
82.834553
  0
LINE
  8
1
 62
7
  6
CONTINUOUS
 10
81.776869
 20
81.752053
 11
81.776869
 21
82.834553
  0
LINE
  8
1
 62
7
  6
CONTINUOUS
 10
81.776869
 20
97.752053
 11
85.776869
 21
97.752053
  0
LINE
  8
1
 62
7
  6
CONTINUOUS
 10
81.776869
 20
81.752053
 11
85.776869
 21
81.752053
  0
LINE
  8
1
 62
7
  6
CONTINUOUS
 10
85.776869
 20
96.669553
 11
81.776869
 21
96.669553
  0
LINE
  8
1
 62
7
  6
CONTINUOUS
 10
85.776869
 20
82.834553
 11
81.776869
 21
82.834553
  0
LINE
  8
1
 62
7
  6
CONTINUOUS
 10
80.776869
 20
97.752053
 11
80.776869
 21
96.669553
  0
LINE
  8
1
 62
7
  6
CONTINUOUS
 10
80.776869
 20
81.752053
 11
80.776869
 21
82.834553
  0
LINE
  8
1
 62
7
  6
DASHDOT
 10
73.750557
 20
89.752053
 11
89.768507
 21
89.752053
  0
LINE
  8
1
 62
7
  6
DOT
 10
79.776869
 20
81.752053
 11
79.776869
 21
79.752054
  0
LINE
  8
1
 62
7
  6
DOT
 10
79.776869
 20
79.752054
 11
76.276869
 21
79.752056
  0
LINE
  8
1
 62
7
  6
DOT
 10
79.776869
 20
97.752053
 11
79.776869
 21
99.752052
  0
LINE
  8
1
 62
7
  6
DOT
 10
79.776869
 20
99.752052
 11
76.276869
 21
99.752050
  0
LINE
  8
1
 62
7
  6
DOT
 10
80.776869
 20
81.752053
 11
79.776869
 21
81.752053
  0
LINE
  8
1
 62
7
  6
DOT
 10
80.776869
 20
97.752053
 11
79.776869
 21
97.752053
  0
LINE
  8
1
 62
7
  6
DOT
 10
75.776869
 20
99.252050
 11
75.776869
 21
80.252056
  0
LINE
  8
1
 62
7
  6
DOT
 10
75.776869
 20
80.252056
 11
76.276869
 21
79.752056
  0
LINE
  8
1
 62
7
  6
DOT
 10
75.776869
 20
99.252050
 11
76.276869
 21
99.752050
  0
LINE
  8
1
 62
7
  6
DOT
 10
85.776869
 20
83.552053
 11
75.776869
 21
83.552056
  0
LINE
  8
1
 62
7
  6
DOT
 10
85.776869
 20
95.952053
 11
75.776869
 21
95.952050
  0
DIMENSION
  8
2
 62
134
  6
CONTINUOUS
  2
*D6
 10
92.411685
 20
81.752053
 11
92.411685
 21
88.786127
 70
     0
  1
M16P2
 13
84.276869
 23
81.752053
 14
84.276869
 24
97.752053
 50
90.000000
  0
LINE
  8
4
 62
54
  6
CONTINUOUS
 10
91.576869
 20
80.652053
 11
96.276869
 21
80.652053
  0
LINE
  8
4
 62
54
  6
CONTINUOUS
 10
90.276869
 20
103.252053
 11
91.576869
 21
103.252053
  0
LINE
  8
4
 62
54
  6
CONTINUOUS
 10
91.576869
 20
76.252053
 11
91.576869
 21
103.252053
  0
CIRCLE
  8
4
 62
54
  6
CONTINUOUS
 10
94.276869
 20
78.652053
 40
1.000000
  0
CIRCLE
  8
4
 62
54
  6
CONTINUOUS
 10
94.276869
 20
78.652053
 40
0.782631
  0
LINE
  8
4
 62
54
  6
DASHDOT
 10
94.277645
 20
77.417980
 11
94.277645
 21
79.887048
  0
LINE
  8
4
 62
54
  6
DASHDOT
 10
92.908170
 20
78.652053
 11
95.858028
 21
78.652053
  0
LINE
  8
4
 62
54
  6
DASHDOT
 10
82.137630
 20
99.752053
 11
87.439906
 21
99.752053
  0
LINE
  8
4
 62
54
  6
DASHDOT
 10
84.776869
 20
97.515878
 11
84.776869
 21
102.472759
  0
LINE
  8
4
 62
54
  6
DASHDOT
 10
81.927593
 20
99.752053
 11
87.439906
 21
99.752053
  0
LINE
  8
4
 62
54
  6
DASHDOT
 10
82.207642
 20
79.752053
 11
87.696618
 21
79.752053
  0
LINE
  8
4
 62
54
  6
DASHDOT
 10
84.776869
 20
77.154345
 11
84.776869
 21
81.949777
  0
LINE
  8
4
 62
54
  6
CONTINUOUS
 10
90.276869
 20
103.153395
 11
90.276869
 21
104.752053
  0
LINE
  8
4
 62
54
  6
CONTINUOUS
 10
90.276869
 20
74.752053
 11
90.276869
 21
76.852053
  0
LINE
  8
4
 62
54
  6
CONTINUOUS
 10
90.276869
 20
76.852053
 11
90.276869
 21
100.252054
  0
LINE
  8
4
 62
54
  6
CONTINUOUS
 10
90.276869
 20
76.252053
 11
96.276869
 21
76.252053
  0
LINE
  8
4
 62
54
  6
CONTINUOUS
 10
96.276869
 20
80.652053
 11
96.276869
 21
76.252053
  0
LINE
  8
4
 62
54
  6
CONTINUOUS
 10
90.276869
 20
103.153395
 11
90.276869
 21
76.852053
  0
CIRCLE
  8
4
 62
54
  6
CONTINUOUS
 10
84.776869
 20
99.752053
 40
1.700000
  0
CIRCLE
  8
4
 62
54
  6
CONTINUOUS
 10
84.776869
 20
79.752053
 40
1.700000
  0
LINE
  8
4
 62
54
  6
DASHDOT
 10
78.637008
 20
89.752053
 11
93.284604
 21
89.752053
  0
LINE
  8
4
 62
54
  6
CONTINUOUS
 10
90.276869
 20
104.752053
 11
84.276869
 21
104.752053
  0
ARC
  8
4
 62
54
  6
CONTINUOUS
 10
84.276869
 20
101.252053
 40
3.500000
 50
90.000000
 51
180.000000
  0
LINE
  8
4
 62
54
  6
CONTINUOUS
 10
80.776869
 20
78.252053
 11
80.776869
 21
101.252053
  0
LINE
  8
4
 62
54
  6
CONTINUOUS
 10
90.276869
 20
74.752053
 11
84.276869
 21
74.752053
  0
ARC
  8
4
 62
54
  6
CONTINUOUS
 10
84.276869
 20
78.252053
 40
3.500000
 50
180.000000
 51
-90.000000
  0
LINE
  8
4
 62
54
  6
DOT
 10
80.776869
 20
97.752053
 11
87.776869
 21
97.752053
  0
LINE
  8
4
 62
54
  6
DOT
 10
80.776869
 20
81.752053
 11
87.776869
 21
81.752053
  0
LINE
  8
4
 62
54
  6
DOT
 10
87.776869
 20
85.752053
 11
91.576869
 21
85.752053
  0
LINE
  8
4
 62
54
  6
DOT
 10
87.776869
 20
86.252053
 11
91.576869
 21
86.252053
  0
LINE
  8
4
 62
54
  6
DOT
 10
87.776869
 20
93.752053
 11
91.576869
 21
93.752053
  0
LINE
  8
4
 62
54
  6
DOT
 10
87.776869
 20
93.252053
 11
91.576869
 21
93.252053
  0
LINE
  8
4
 62
54
  6
DOT
 10
87.776869
 20
82.834553
 11
87.776869
 21
96.669553
  0
LINE
  8
4
 62
54
  6
DOT
 10
87.776869
 20
81.752053
 11
87.776869
 21
82.834553
  0
LINE
  8
4
 62
54
  6
DOT
 10
87.776869
 20
97.752053
 11
87.776869
 21
81.752053
  0
LINE
  8
4
 62
54
  6
DOT
 10
86.776869
 20
81.752053
 11
87.776869
 21
81.752053
  0
LINE
  8
4
 62
54
  6
DOT
 10
86.776869
 20
97.752053
 11
87.776869
 21
97.752053
  0
LINE
  8
4
 62
54
  6
DOT
 10
80.776869
 20
96.669553
 11
86.776869
 21
96.669553
  0
LINE
  8
4
 62
54
  6
DOT
 10
80.776869
 20
82.834553
 11
86.776869
 21
82.834553
  0
LINE
  8
4
 62
54
  6
DOT
 10
86.776869
 20
89.752053
 11
86.776869
 21
97.752053
  0
LINE
  8
4
 62
54
  6
DOT
 10
86.776869
 20
89.752053
 11
86.776869
 21
81.752053
  0
DIMENSION
  8
2
 62
134
  6
CONTINUOUS
  2
*D7
 10
80.776869
 20
70.693994
 11
83.315931
 21
70.693994
 70
     0
  1
5
 13
80.776869
 23
75.352053
 14
85.776869
 24
81.252053
 50
0.000000
  0
TEXT
  8
5
 62
94
  6
CONTINUOUS
 10
76.811453
 20
17.600784
 40
2.000000
 41
1.000000
  1
ＴＭＬＸ－Ａ１
  7
KANJI
 50
0.000000
 51
0.000000
  0
TEXT
  8
5
 62
94
  6
CONTINUOUS
 10
74.610994
 20
9.646300
 40
2.000000
 41
1.000000
  1
００５－０６５－Ａ１４１
  7
KANJI
 50
0.000000
 51
0.000000
  0
TEXT
  8
5
 62
94
  6
CONTINUOUS
 10
44.277904
 20
13.519931
 40
2.000000
 41
0.500000
  1
2013/04/23
  7
KANJI
 50
0.000000
 51
0.000000
  0
LINE
  8
2
 62
134
  6
CONTINUOUS
 10
12.315364
 20
74.437941
 11
13.208400
 21
73.987956
  0
LINE
  8
2
 62
134
  6
CONTINUOUS
 10
13.208400
 20
73.987956
 11
12.863764
 21
73.601725
  0
LINE
  8
2
 62
134
  6
CONTINUOUS
 10
12.863764
 20
73.601725
 11
12.315364
 21
74.437941
  0
LINE
  8
2
 62
134
  6
CONTINUOUS
 10
38.527763
 20
73.509832
 11
37.921594
 21
72.714496
  0
LINE
  8
2
 62
134
  6
CONTINUOUS
 10
37.921594
 20
72.714496
 11
37.605137
 21
73.124135
  0
LINE
  8
2
 62
134
  6
CONTINUOUS
 10
37.605137
 20
73.124135
 11
38.527763
 21
73.509832
  0
ARC
  8
2
 62
134
  6
CONTINUOUS
 10
25.980225
 20
89.752053
 40
20.524387
 50
-131.742697
 51
-52.312981
  0
TEXT
  8
2
 62
134
  6
CONTINUOUS
 10
23.780464
 20
69.248114
 40
2.000000
 41
1.000000
  1
回転
  7
KANJI
 50
-0.557926
 51
0.000000
  0
TEXT
  8
2
 62
134
  6
CONTINUOUS
 10
44.423092
 20
56.482689
 40
2.000000
 41
1.000000
  1
質量：40g
  7
KANJI
 50
0.000000
 51
0.000000
  0
ENDSEC
  0
EOF
