  0
SECTION
  2
HEADER
  9
$ACADVER
  1
AC1009
  9
$INSBASE
 10
0.000000
 20
0.000000
  9
$EXTMIN
 10
0.000000
 20
0.000000
  9
$EXTMAX
 10
148.500000
 20
105.000000
  9
$LIMMIN
 10
0.000000
 20
0.000000
  9
$LIMMAX
 10
148.500000
 20
105.000000
  9
$VIEWCTR
 10
74.250000
 20
52.500000
  9
$VIEWSIZE
 40
105.000000
  9
$PEXTMIN
 10
0.000000
 20
0.000000
 30
0.000000
  9
$PEXTMAX
 10
297.000000
 20
210.000000
 30
0.000000
  9
$SNAPMODE
 70
     0
  9
$SNAPUNIT
 10
1.000000
 20
1.000000
  9
$SNAPBASE
 10
0.000000
 20
0.000000
  9
$SNAPANG
 50
0.000000
  9
$SNAPISOPAIR
 70
     0
  9
$SNAPSTYLE
 70
     0
  9
$GRIDMODE
 70
     0
  9
$GRIDUNIT
 10
0.000000
 20
0.000000
  9
$ORTHOMODE
 70
     0
  9
$REGENMODE
 70
     1
  9
$FILLMODE
 70
     1
  9
$QTEXTMODE
 70
     0
  9
$DRAGMODE
 70
     2
  9
$LTSCALE
 40
0.125000
  9
$OSMODE
 70
     0
  9
$ATTMODE
 70
     1
  9
$TEXTSIZE
 40
2.000000
  9
$TRACEWID
 40
0.050000
  9
$TEXTSTYLE
  7
STANDARD
  9
$CLAYER
  8
0
  9
$CELTYPE
  6
BYLAYER
  9
$CECOLOR
 62
   256
  9
$DIMSCALE
 40
1.000000
  9
$DIMASZ
 40
1.000000
  9
$DIMEXO
 40
0.000000
  9
$DIMDLI
 40
0.500000
  9
$DIMRND
 40
0.000000
  9
$DIMDLE
 40
0.000000
  9
$DIMEXE
 40
0.000000
  9
$DIMTP
 40
0.000000
  9
$DIMTM
 40
0.000000
  9
$DIMTXT
 40
4.000000
  9
$DIMCEN
 40
0.000000
  9
$DIMTSZ
 40
0.000000
  9
$DIMTOL
 70
     0
  9
$DIMLIM
 70
     0
  9
$DIMTIH
 70
     1
  9
$DIMTOH
 70
     1
  9
$DIMSE1
 70
     0
  9
$DIMSE2
 70
     0
  9
$DIMTAD
 70
     0
  9
$DIMZIN
 70
     0
  9
$DIMBLK
  1

  9
$DIMASO
 70
     0
  9
$DIMSHO
 70
     0
  9
$DIMPOST
  1

  9
$DIMAPOST
  1

  9
$DIMALT
 70
     0
  9
$DIMALTD
 70
     0
  9
$DIMALTF
 40
25.400000
  9
$DIMLFAC
 40
1.000000
  9
$DIMTOFL
 70
     0
  9
$DIMTVP
 40
0.000000
  9
$DIMTIX
 70
     0
  9
$DIMSOXD
 70
     0
  9
$DIMSAH
 70
     0
  9
$DIMBLKL
  1

  9
$DIMBLKR
  1

  9
$LUNITS
 70
     2
  9
$LUPREC
 70
     2
  9
$AXISMODE
 70
     0
  9
$AXISUNIT
 10
1.000000
 20
1.000000
  9
$SKETCHINC
 40
0.000000
  9
$FILLETRAD
 40
0.000000
  9
$AUNITS
 70
     1
  9
$AUPREC
 70
     2
  9
$MENU
  1
ACAD
  9
$ELEVATION
 40
0.000000
  9
$THICKNESS
 40
0.000000
  9
$VIEWDIR
 10
0.000000
 20
0.000000
 30
1.000000
  9
$LIMCHECK
 70
     1
  9
$BLIPMODE
 70
     1
  9
$CHAMFERA
 40
0.000000
  9
$CHAMFERB
 40
0.000000
  9
$FASTZOOM
 70
     1
  9
$SKPOLY
 70
     0
  9
$TDCREATE
 40
0.000000
  9
$TDUPDATE
 40
0.000000
  9
$TDINDWG
 40
0.000000
  9
$TDUSRTIMER
 40
0.000000
  9
$USRTIMER
 70
     1
  9
$ANGBASE
 50
0.000000
  9
$ANGDIR
 70
     0
  9
$PDMODE
 70
     0
  9
$PDSIZE
 40
0.000000
  9
$PLINEWID
 40
0.000000
  9
$COORDS
 70
     2
  9
$USERI1
 70
     0
  9
$USERI2
 70
     0
  9
$USERI3
 70
     0
  9
$USERI4
 70
     0
  9
$USERI5
 70
     0
  9
$USERR1
 40
0.000000
  9
$USERR2
 40
0.000000
  9
$USERR3
 40
0.000000
  9
$USERR4
 40
0.000000
  9
$USERR5
 40
0.000000
  0
ENDSEC
  0
SECTION
  2
TABLES
  0
TABLE
  2
LTYPE
 70
     5
  0
LTYPE
  2
CONTINUOUS
 70
    64
  3
Solid line
 72
    65
 73
     0
 40
0.0
  0
LTYPE
  2
HIDDEN
 70
    64
  3
------------------------
 72
    65
 73
     2
 40
12.6
 49
8.4
 49
-4.2
  0
LTYPE
  2
DOT
 70
    64
  3
････････････････････････
 72
    65
 73
     2
 40
8.0
 49
6.0
 49
-2.0
  0
LTYPE
  2
DASHDOT
 70
    64
  3
--･--･--･--･--･--･--･--
 72
    65
 73
     4
 40
50.5
 49
30.0
 49
-9.0
 49
2.5
 49
-9.0
  0
LTYPE
  2
DIVIDE
 70
    64
  3
--･･--･･--･･--･･--･･--
 72
    65
 73
     6
 40
58.0
 49
30.0
 49
-9.0
 49
2.5
 49
-5.0
 49
2.5
 49
-9.0
  0
LTYPE
  2
ACAD_ISO06W100
 70
    64
  3
____ ... ____ ... ____
 72
    65
 73
     8
 40
37.5
 49
24.0
 49
-3.0
 49
0.5
 49
-3.0
 49
0.5
 49
-3.0
 49
0.5
 49
-3.0
  0
LTYPE
  2
ACAD_ISO14W100
 70
    64
  3
__ . . . __ . . . __ . . . 
 72
    65
 73
     8
 40
25.5
 49
12.0
 49
-3.0
 49
0.5
 49
-3.0
 49
0.5
 49
-3.0
 49
0.5
 49
-3.0
  0
ENDTAB
  0
TABLE
  2
LAYER
 70
5
  0
LAYER
  2
1
 70
64
 62
7
  6
CONTINUOUS
  0
LAYER
  2
2
 70
64
 62
134
  6
CONTINUOUS
  0
LAYER
  2
5
 70
64
 62
94
  6
CONTINUOUS
  0
LAYER
  2
6
 70
64
 62
7
  6
CONTINUOUS
  0
LAYER
  2
11
 70
64
 62
251
  6
CONTINUOUS
  0
ENDTAB
  0
TABLE
  2
STYLE
 70
     2
  0
STYLE
  2
STANDARD
 70
    64
 40
0.0
 41
1.0
 50
0.0
 71
     0
 42
0.2
  3
TXT
  4

  0
STYLE
  2
KANJI
 70
    64
 40
0.0
 41
1.0
 50
0.0
 71
     0
 42
0.2
  3
TXT
  4
BIGFONT
  0
ENDTAB
  0
TABLE
  2
VIEW
 70
     0
  0
ENDTAB
  0
ENDSEC
  0
SECTION
  2
BLOCKS
  0
BLOCK
  8
2
 62
134
  6
CONTINUOUS
  2
*D1
 70
    65
 10
0.0
 20
0.0
  0
LINE
  8
2
 62
134
  6
CONTINUOUS
 10
119.384102
 20
40.836400
 11
119.384102
 21
66.836400
  0
LINE
  8
2
 62
134
  6
CONTINUOUS
 10
119.884102
 20
40.836400
 11
112.679982
 21
40.836400
  0
LINE
  8
2
 62
134
  6
CONTINUOUS
 10
119.884102
 20
66.836400
 11
112.679982
 21
66.836400
  0
LINE
  8
2
 62
134
  6
CONTINUOUS
 10
119.384102
 20
40.836400
 11
119.125283
 21
41.802326
  0
LINE
  8
2
 62
134
  6
CONTINUOUS
 10
119.384102
 20
40.836400
 11
119.642921
 21
41.802326
  0
LINE
  8
2
 62
134
  6
CONTINUOUS
 10
119.125283
 20
41.802326
 11
119.642921
 21
41.802326
  0
LINE
  8
2
 62
134
  6
CONTINUOUS
 10
119.384102
 20
41.077882
 11
119.254692
 21
41.560845
  0
LINE
  8
2
 62
134
  6
CONTINUOUS
 10
119.384102
 20
41.077882
 11
119.513511
 21
41.560845
  0
LINE
  8
2
 62
134
  6
CONTINUOUS
 10
119.254692
 20
41.560845
 11
119.513511
 21
41.560845
  0
LINE
  8
2
 62
134
  6
CONTINUOUS
 10
119.384102
 20
66.836400
 11
119.642921
 21
65.870475
  0
LINE
  8
2
 62
134
  6
CONTINUOUS
 10
119.384102
 20
66.836400
 11
119.125283
 21
65.870475
  0
LINE
  8
2
 62
134
  6
CONTINUOUS
 10
119.642921
 20
65.870475
 11
119.125283
 21
65.870475
  0
LINE
  8
2
 62
134
  6
CONTINUOUS
 10
119.384102
 20
66.594919
 11
119.513511
 21
66.111956
  0
LINE
  8
2
 62
134
  6
CONTINUOUS
 10
119.384102
 20
66.594919
 11
119.254692
 21
66.111956
  0
LINE
  8
2
 62
134
  6
CONTINUOUS
 10
119.513511
 20
66.111956
 11
119.254692
 21
66.111956
  0
TEXT
  8
2
 62
134
  6
CONTINUOUS
 10
119.384102
 20
49.858031
 40
2.000000
 41
0.500000
  1
M26P0.75
  7
KANJI
 50
90.000000
 51
0.000000
  0
ENDBLK
  0
BLOCK
  8
2
 62
134
  6
CONTINUOUS
  2
*D2
 70
    65
 10
0.0
 20
0.0
  0
LINE
  8
2
 62
134
  6
CONTINUOUS
 10
108.479982
 20
31.506002
 11
112.479982
 21
31.506002
  0
LINE
  8
2
 62
134
  6
CONTINUOUS
 10
108.479982
 20
31.006002
 11
108.479982
 21
38.636400
  0
LINE
  8
2
 62
134
  6
CONTINUOUS
 10
112.479982
 20
31.006002
 11
112.479982
 21
40.636400
  0
LINE
  8
2
 62
134
  6
CONTINUOUS
 10
108.479982
 20
31.506002
 11
109.445907
 21
31.764821
  0
LINE
  8
2
 62
134
  6
CONTINUOUS
 10
108.479982
 20
31.506002
 11
109.445907
 21
31.247183
  0
LINE
  8
2
 62
134
  6
CONTINUOUS
 10
109.445907
 20
31.764821
 11
109.445907
 21
31.247183
  0
LINE
  8
2
 62
134
  6
CONTINUOUS
 10
108.721463
 20
31.506002
 11
109.204426
 21
31.635412
  0
LINE
  8
2
 62
134
  6
CONTINUOUS
 10
108.721463
 20
31.506002
 11
109.204426
 21
31.376593
  0
LINE
  8
2
 62
134
  6
CONTINUOUS
 10
109.204426
 20
31.635412
 11
109.204426
 21
31.376593
  0
LINE
  8
2
 62
134
  6
CONTINUOUS
 10
112.479982
 20
31.506002
 11
111.514056
 21
31.247183
  0
LINE
  8
2
 62
134
  6
CONTINUOUS
 10
112.479982
 20
31.506002
 11
111.514056
 21
31.764821
  0
LINE
  8
2
 62
134
  6
CONTINUOUS
 10
111.514056
 20
31.247183
 11
111.514056
 21
31.764821
  0
LINE
  8
2
 62
134
  6
CONTINUOUS
 10
112.238500
 20
31.506002
 11
111.755537
 21
31.376593
  0
LINE
  8
2
 62
134
  6
CONTINUOUS
 10
112.238500
 20
31.506002
 11
111.755537
 21
31.635412
  0
LINE
  8
2
 62
134
  6
CONTINUOUS
 10
111.755537
 20
31.376593
 11
111.755537
 21
31.635412
  0
TEXT
  8
2
 62
134
  6
CONTINUOUS
 10
110.217822
 20
31.506002
 40
2.000000
 41
0.500000
  1
4
  7
KANJI
 50
0.000000
 51
0.000000
  0
ENDBLK
  0
BLOCK
  8
2
 62
134
  6
CONTINUOUS
  2
*D3
 70
    65
 10
0.0
 20
0.0
  0
LINE
  8
2
 62
134
  6
CONTINUOUS
 10
33.479982
 20
31.506002
 11
108.479982
 21
31.506002
  0
LINE
  8
2
 62
134
  6
CONTINUOUS
 10
33.479982
 20
31.006002
 11
33.479982
 21
38.836404
  0
LINE
  8
2
 62
134
  6
CONTINUOUS
 10
108.479982
 20
31.006002
 11
108.479982
 21
38.636400
  0
LINE
  8
2
 62
134
  6
CONTINUOUS
 10
33.479982
 20
31.506002
 11
34.445907
 21
31.764821
  0
LINE
  8
2
 62
134
  6
CONTINUOUS
 10
33.479982
 20
31.506002
 11
34.445907
 21
31.247183
  0
LINE
  8
2
 62
134
  6
CONTINUOUS
 10
34.445907
 20
31.764821
 11
34.445907
 21
31.247183
  0
LINE
  8
2
 62
134
  6
CONTINUOUS
 10
33.721463
 20
31.506002
 11
34.204426
 21
31.635412
  0
LINE
  8
2
 62
134
  6
CONTINUOUS
 10
33.721463
 20
31.506002
 11
34.204426
 21
31.376593
  0
LINE
  8
2
 62
134
  6
CONTINUOUS
 10
34.204426
 20
31.635412
 11
34.204426
 21
31.376593
  0
LINE
  8
2
 62
134
  6
CONTINUOUS
 10
108.479982
 20
31.506002
 11
107.514056
 21
31.247183
  0
LINE
  8
2
 62
134
  6
CONTINUOUS
 10
108.479982
 20
31.506002
 11
107.514056
 21
31.764821
  0
LINE
  8
2
 62
134
  6
CONTINUOUS
 10
107.514056
 20
31.247183
 11
107.514056
 21
31.764821
  0
LINE
  8
2
 62
134
  6
CONTINUOUS
 10
108.238500
 20
31.506002
 11
107.755537
 21
31.376593
  0
LINE
  8
2
 62
134
  6
CONTINUOUS
 10
108.238500
 20
31.506002
 11
107.755537
 21
31.635412
  0
LINE
  8
2
 62
134
  6
CONTINUOUS
 10
107.755537
 20
31.376593
 11
107.755537
 21
31.635412
  0
TEXT
  8
2
 62
134
  6
CONTINUOUS
 10
71.032751
 20
31.506002
 40
2.000000
 41
0.500000
  1
75
  7
KANJI
 50
0.000000
 51
0.000000
  0
ENDBLK
  0
BLOCK
  8
2
 62
134
  6
CONTINUOUS
  2
*D4
 70
    65
 10
0.0
 20
0.0
  0
LINE
  8
2
 62
134
  6
CONTINUOUS
 10
87.454833
 20
53.836400
 11
87.454833
 21
85.236400
  0
LINE
  8
2
 62
134
  6
CONTINUOUS
 10
86.954833
 20
85.236400
 11
112.879982
 21
85.236400
  0
LINE
  8
2
 62
134
  6
CONTINUOUS
 10
87.454833
 20
53.836400
 11
87.196013
 21
54.802326
  0
LINE
  8
2
 62
134
  6
CONTINUOUS
 10
87.454833
 20
53.836400
 11
87.713652
 21
54.802326
  0
LINE
  8
2
 62
134
  6
CONTINUOUS
 10
87.196013
 20
54.802326
 11
87.713652
 21
54.802326
  0
LINE
  8
2
 62
134
  6
CONTINUOUS
 10
87.454833
 20
54.077882
 11
87.325423
 21
54.560845
  0
LINE
  8
2
 62
134
  6
CONTINUOUS
 10
87.454833
 20
54.077882
 11
87.584242
 21
54.560845
  0
LINE
  8
2
 62
134
  6
CONTINUOUS
 10
87.325423
 20
54.560845
 11
87.584242
 21
54.560845
  0
LINE
  8
2
 62
134
  6
CONTINUOUS
 10
87.454833
 20
85.236400
 11
87.713652
 21
84.270475
  0
LINE
  8
2
 62
134
  6
CONTINUOUS
 10
87.454833
 20
85.236400
 11
87.196013
 21
84.270475
  0
LINE
  8
2
 62
134
  6
CONTINUOUS
 10
87.713652
 20
84.270475
 11
87.196013
 21
84.270475
  0
LINE
  8
2
 62
134
  6
CONTINUOUS
 10
87.454833
 20
84.994919
 11
87.584242
 21
84.511956
  0
LINE
  8
2
 62
134
  6
CONTINUOUS
 10
87.454833
 20
84.994919
 11
87.325423
 21
84.511956
  0
LINE
  8
2
 62
134
  6
CONTINUOUS
 10
87.584242
 20
84.511956
 11
87.325423
 21
84.511956
  0
TEXT
  8
2
 62
134
  6
CONTINUOUS
 10
87.454833
 20
74.217579
 40
2.000000
 41
0.500000
  1
32
  7
KANJI
 50
90.000000
 51
0.000000
  0
ENDBLK
  0
BLOCK
  8
2
 62
134
  6
CONTINUOUS
  2
*D5
 70
    65
 10
0.0
 20
0.0
  0
LINE
  8
2
 62
134
  6
CONTINUOUS
 10
28.640095
 20
41.336400
 11
28.640095
 21
66.336401
  0
LINE
  8
2
 62
134
  6
CONTINUOUS
 10
28.140095
 20
41.336400
 11
32.979982
 21
41.336400
  0
LINE
  8
2
 62
134
  6
CONTINUOUS
 10
28.140095
 20
66.336401
 11
32.979982
 21
66.336401
  0
LINE
  8
2
 62
134
  6
CONTINUOUS
 10
28.640095
 20
41.336400
 11
28.381276
 21
42.302326
  0
LINE
  8
2
 62
134
  6
CONTINUOUS
 10
28.640095
 20
41.336400
 11
28.898914
 21
42.302326
  0
LINE
  8
2
 62
134
  6
CONTINUOUS
 10
28.381276
 20
42.302326
 11
28.898914
 21
42.302326
  0
LINE
  8
2
 62
134
  6
CONTINUOUS
 10
28.640095
 20
41.577881
 11
28.510685
 21
42.060844
  0
LINE
  8
2
 62
134
  6
CONTINUOUS
 10
28.640095
 20
41.577881
 11
28.769504
 21
42.060844
  0
LINE
  8
2
 62
134
  6
CONTINUOUS
 10
28.510685
 20
42.060844
 11
28.769504
 21
42.060844
  0
LINE
  8
2
 62
134
  6
CONTINUOUS
 10
28.640095
 20
66.336401
 11
28.898914
 21
65.370475
  0
LINE
  8
2
 62
134
  6
CONTINUOUS
 10
28.640095
 20
66.336401
 11
28.381276
 21
65.370475
  0
LINE
  8
2
 62
134
  6
CONTINUOUS
 10
28.898914
 20
65.370475
 11
28.381276
 21
65.370475
  0
LINE
  8
2
 62
134
  6
CONTINUOUS
 10
28.640095
 20
66.094919
 11
28.769504
 21
65.611957
  0
LINE
  8
2
 62
134
  6
CONTINUOUS
 10
28.640095
 20
66.094919
 11
28.510685
 21
65.611957
  0
LINE
  8
2
 62
134
  6
CONTINUOUS
 10
28.769504
 20
65.611957
 11
28.510685
 21
65.611957
  0
TEXT
  8
2
 62
134
  6
CONTINUOUS
 10
28.640095
 20
51.966540
 40
2.000000
 41
1.000000
  1
φ25
  7
KANJI
 50
90.000000
 51
0.000000
  0
ENDBLK
  0
BLOCK
  8
2
 62
134
  6
CONTINUOUS
  2
*D6
 70
    65
 10
0.0
 20
0.0
  0
LINE
  8
2
 62
134
  6
CONTINUOUS
 10
25.048851
 20
38.836400
 11
25.048851
 21
68.836400
  0
LINE
  8
2
 62
134
  6
CONTINUOUS
 10
24.548851
 20
38.836400
 11
33.479982
 21
38.836400
  0
LINE
  8
2
 62
134
  6
CONTINUOUS
 10
24.548851
 20
68.836400
 11
33.479982
 21
68.836400
  0
LINE
  8
2
 62
134
  6
CONTINUOUS
 10
25.048851
 20
38.836400
 11
24.790032
 21
39.802326
  0
LINE
  8
2
 62
134
  6
CONTINUOUS
 10
25.048851
 20
38.836400
 11
25.307670
 21
39.802326
  0
LINE
  8
2
 62
134
  6
CONTINUOUS
 10
24.790032
 20
39.802326
 11
25.307670
 21
39.802326
  0
LINE
  8
2
 62
134
  6
CONTINUOUS
 10
25.048851
 20
39.077882
 11
24.919441
 21
39.560845
  0
LINE
  8
2
 62
134
  6
CONTINUOUS
 10
25.048851
 20
39.077882
 11
25.178260
 21
39.560845
  0
LINE
  8
2
 62
134
  6
CONTINUOUS
 10
24.919441
 20
39.560845
 11
25.178260
 21
39.560845
  0
LINE
  8
2
 62
134
  6
CONTINUOUS
 10
25.048851
 20
68.836400
 11
25.307670
 21
67.870475
  0
LINE
  8
2
 62
134
  6
CONTINUOUS
 10
25.048851
 20
68.836400
 11
24.790032
 21
67.870475
  0
LINE
  8
2
 62
134
  6
CONTINUOUS
 10
25.307670
 20
67.870475
 11
24.790032
 21
67.870475
  0
LINE
  8
2
 62
134
  6
CONTINUOUS
 10
25.048851
 20
68.594919
 11
25.178260
 21
68.111956
  0
LINE
  8
2
 62
134
  6
CONTINUOUS
 10
25.048851
 20
68.594919
 11
24.919441
 21
68.111956
  0
LINE
  8
2
 62
134
  6
CONTINUOUS
 10
25.178260
 20
68.111956
 11
24.919441
 21
68.111956
  0
TEXT
  8
2
 62
134
  6
CONTINUOUS
 10
25.048851
 20
52.237577
 40
2.000000
 41
1.000000
  1
φ30
  7
KANJI
 50
90.000000
 51
0.000000
  0
ENDBLK
  0
ENDSEC
  0
SECTION
  2
ENTITIES
  0
LINE
  8
1
 62
7
  6
DASHDOT
 10
31.238343
 20
53.836400
 11
115.242501
 21
53.836400
  0
LINE
  8
1
 62
7
  6
CONTINUOUS
 10
112.479982
 20
41.270251
 11
108.479982
 21
41.270251
  0
LINE
  8
1
 62
7
  6
CONTINUOUS
 10
112.479982
 20
66.402550
 11
108.479982
 21
66.402550
  0
LINE
  8
1
 62
7
  6
CONTINUOUS
 10
108.479982
 20
41.270251
 11
106.979982
 21
41.270251
  0
LINE
  8
1
 62
7
  6
CONTINUOUS
 10
104.479982
 20
41.270252
 11
103.479982
 21
41.270252
  0
LINE
  8
1
 62
7
  6
CONTINUOUS
 10
104.479982
 20
66.402548
 11
103.479982
 21
66.402548
  0
LINE
  8
1
 62
7
  6
CONTINUOUS
 10
108.479982
 20
66.402550
 11
106.979982
 21
66.402550
  0
LINE
  8
1
 62
7
  6
DASHDOT
 10
99.479982
 20
69.918499
 11
99.479982
 21
61.331587
  0
LINE
  8
1
 62
7
  6
CONTINUOUS
 10
103.479982
 20
68.836400
 11
33.979982
 21
68.836400
  0
LINE
  8
1
 62
7
  6
CONTINUOUS
 10
33.479982
 20
68.336400
 11
33.979982
 21
68.836400
  0
LINE
  8
1
 62
7
  6
CONTINUOUS
 10
103.479982
 20
66.402548
 11
103.479982
 21
68.836400
  0
LINE
  8
1
 62
7
  6
CONTINUOUS
 10
103.479982
 20
38.836400
 11
33.979982
 21
38.836400
  0
LINE
  8
1
 62
7
  6
CONTINUOUS
 10
33.479982
 20
39.336400
 11
33.979982
 21
38.836400
  0
LINE
  8
1
 62
7
  6
CONTINUOUS
 10
103.479982
 20
41.270252
 11
103.479982
 21
38.836400
  0
LINE
  8
1
 62
7
  6
CONTINUOUS
 10
33.479982
 20
39.336404
 11
33.479982
 21
68.336400
  0
LINE
  8
1
 62
7
  6
CONTINUOUS
 10
104.479982
 20
66.836399
 11
104.479982
 21
66.402548
  0
LINE
  8
1
 62
7
  6
CONTINUOUS
 10
108.479982
 20
40.836400
 11
108.479982
 21
41.270251
  0
LINE
  8
1
 62
7
  6
CONTINUOUS
 10
104.479982
 20
40.836402
 11
104.479982
 21
41.270252
  0
LINE
  8
1
 62
7
  6
CONTINUOUS
 10
108.479982
 20
41.270251
 11
106.979982
 21
41.270252
  0
LINE
  8
1
 62
7
  6
CONTINUOUS
 10
108.479982
 20
66.836400
 11
112.179982
 21
66.836400
  0
LINE
  8
1
 62
7
  6
CONTINUOUS
 10
112.179982
 20
66.836400
 11
112.479982
 21
66.536400
  0
LINE
  8
1
 62
7
  6
CONTINUOUS
 10
108.479982
 20
40.836400
 11
112.179982
 21
40.836400
  0
LINE
  8
1
 62
7
  6
CONTINUOUS
 10
112.479982
 20
66.536400
 11
112.479982
 21
41.136400
  0
LINE
  8
1
 62
7
  6
CONTINUOUS
 10
112.179982
 20
40.836400
 11
112.479982
 21
41.136400
  0
LINE
  8
1
 62
7
  6
DOT
 10
94.052672
 20
65.336397
 11
94.052672
 21
42.336407
  0
LINE
  8
1
 62
7
  6
DOT
 10
93.479982
 20
41.336400
 11
94.052672
 21
42.336404
  0
LINE
  8
1
 62
7
  6
DOT
 10
112.479982
 20
42.336400
 11
94.052672
 21
42.336407
  0
LINE
  8
1
 62
7
  6
DOT
 10
98.179982
 20
68.836400
 11
98.179982
 21
65.336398
  0
LINE
  8
1
 62
7
  6
DOT
 10
97.979982
 20
68.836400
 11
97.979982
 21
65.336398
  0
LINE
  8
1
 62
7
  6
DOT
 10
100.785569
 20
68.836400
 11
100.785569
 21
65.336398
  0
LINE
  8
1
 62
7
  6
DOT
 10
100.979982
 20
68.836400
 11
100.979982
 21
65.336398
  0
LINE
  8
1
 62
7
  6
DOT
 10
112.479982
 20
65.336400
 11
94.052672
 21
65.336397
  0
LINE
  8
1
 62
7
  6
DOT
 10
93.479982
 20
66.336400
 11
94.052672
 21
65.336397
  0
LINE
  8
1
 62
7
  6
DOT
 10
33.479982
 20
66.336401
 11
93.479982
 21
66.336401
  0
LINE
  8
1
 62
7
  6
DOT
 10
33.479982
 20
41.336400
 11
93.479982
 21
41.336400
  0
LINE
  8
1
 62
7
  6
DOT
 10
93.479982
 20
66.336401
 11
93.479982
 21
41.336400
  0
LINE
  8
1
 62
7
  6
CONTINUOUS
 10
33.979982
 20
68.836400
 11
33.979982
 21
38.836400
  0
LINE
  8
1
 62
7
  6
CONTINUOUS
 10
108.479982
 20
66.836400
 11
108.479982
 21
41.270251
  0
LINE
  8
1
 62
7
  6
CONTINUOUS
 10
112.179982
 20
66.836400
 11
112.179982
 21
40.836400
  0
LINE
  8
1
 62
7
  6
DOT
 10
104.479982
 20
40.836402
 11
106.979982
 21
40.836402
  0
LINE
  8
1
 62
7
  6
DOT
 10
106.979982
 20
41.270251
 11
106.979982
 21
40.836402
  0
LINE
  8
1
 62
7
  6
DOT
 10
104.479982
 20
66.836399
 11
106.979982
 21
66.836399
  0
LINE
  8
1
 62
7
  6
DOT
 10
106.979982
 20
66.402548
 11
106.979982
 21
66.836399
  0
LINE
  8
1
 62
7
  6
DOT
 10
106.979982
 20
66.402548
 11
104.275170
 21
66.402548
  0
LINE
  8
1
 62
7
  6
DOT
 10
106.979982
 20
41.270252
 11
104.275170
 21
41.270252
  0
LINE
  8
1
 62
7
  6
CONTINUOUS
 10
104.479982
 20
68.836400
 11
108.479982
 21
68.836400
  0
LINE
  8
1
 62
7
  6
CONTINUOUS
 10
104.479982
 20
38.836400
 11
108.479982
 21
38.836400
  0
LINE
  8
1
 62
7
  6
CONTINUOUS
 10
104.479982
 20
68.836400
 11
104.479982
 21
38.836400
  0
LINE
  8
1
 62
7
  6
CONTINUOUS
 10
108.479982
 20
39.136400
 11
108.479982
 21
38.836400
  0
LINE
  8
1
 62
7
  6
CONTINUOUS
 10
108.479982
 20
39.136400
 11
108.479982
 21
68.836400
  0
LINE
  8
1
 62
7
  6
DOT
 10
106.979982
 20
68.536400
 11
106.979982
 21
39.136400
  0
LINE
  8
1
 62
7
  6
DOT
 10
106.979982
 20
39.136400
 11
108.479982
 21
39.136400
  0
LINE
  8
1
 62
7
  6
DOT
 10
106.979982
 20
68.536400
 11
108.479982
 21
68.536400
  0
LINE
  8
1
 62
7
  6
DOT
 10
104.479982
 20
41.278325
 11
106.979982
 21
41.278325
  0
LINE
  8
1
 62
7
  6
DOT
 10
104.479982
 20
40.836400
 11
106.979982
 21
40.836400
  0
LINE
  8
1
 62
7
  6
DOT
 10
104.479982
 20
66.394475
 11
106.979982
 21
66.394475
  0
LINE
  8
1
 62
7
  6
DOT
 10
104.479982
 20
66.836400
 11
106.979982
 21
66.836400
  0
LINE
  8
1
 62
7
  6
DASHDOT
 10
111.442996
 20
53.836400
 11
101.919787
 21
53.836400
  0
CIRCLE
  8
11
 62
251
  6
CONTINUOUS
 10
107.733055
 20
40.520385
 40
0.750000
  0
CIRCLE
  8
11
 62
251
  6
CONTINUOUS
 10
107.733055
 20
67.152415
 40
0.750000
  0
DIMENSION
  8
2
 62
134
  6
CONTINUOUS
  2
*D1
 10
119.384102
 20
40.836400
 11
119.384102
 21
53.858031
 70
     0
  1
M26P0.75
 13
112.679982
 23
40.836400
 14
112.679982
 24
66.836400
 50
90.000000
  0
DIMENSION
  8
2
 62
134
  6
CONTINUOUS
  2
*D2
 10
108.479982
 20
31.506002
 11
110.717822
 21
31.506002
 70
     0
  1
4
 13
108.479982
 23
38.636400
 14
112.479982
 24
40.636400
 50
0.000000
  0
DIMENSION
  8
2
 62
134
  6
CONTINUOUS
  2
*D3
 10
33.479982
 20
31.506002
 11
72.032751
 21
31.506002
 70
     0
  1
75
 13
33.479982
 23
38.836404
 14
108.479982
 24
38.636400
 50
0.000000
  0
LINE
  8
6
 62
7
  6
DASHDOT
 10
99.479982
 20
85.495667
 11
99.479982
 21
65.632781
  0
LINE
  8
6
 62
7
  6
DASHDOT
 10
94.185790
 20
80.336400
 11
115.461462
 21
80.336400
  0
ARC
  8
6
 62
7
  6
CONTINUOUS
 10
99.262684
 20
71.053559
 40
5.304476
 50
61.553795
 51
78.946170
  0
ARC
  8
6
 62
7
  6
CONTINUOUS
 10
99.479978
 20
72.132806
 40
4.203594
 50
79.032543
 51
100.972113
  0
ARC
  8
6
 62
7
  6
CONTINUOUS
 10
99.697346
 20
71.053390
 40
5.304656
 50
101.057966
 51
118.445979
  0
ARC
  8
6
 62
7
  6
CONTINUOUS
 10
102.483344
 20
74.257415
 40
2.177562
 50
42.110188
 51
65.706506
  0
ARC
  8
6
 62
7
  6
CONTINUOUS
 10
102.944080
 20
75.284768
 40
1.051632
 50
65.557952
 51
114.446393
  0
ARC
  8
6
 62
7
  6
CONTINUOUS
 10
103.404957
 20
74.257240
 40
2.177779
 50
114.297085
 51
137.888779
  0
ARC
  8
6
 62
7
  6
CONTINUOUS
 10
95.555136
 20
74.065387
 40
2.177566
 50
-65.706337
 51
-42.110130
  0
ARC
  8
6
 62
7
  6
CONTINUOUS
 10
96.015878
 20
73.038033
 40
1.051633
 50
-114.446468
 51
-65.557877
  0
ARC
  8
6
 62
7
  6
CONTINUOUS
 10
96.476755
 20
74.065562
 40
2.177780
 50
-137.888771
 51
-114.297093
  0
ARC
  8
6
 62
7
  6
CONTINUOUS
 10
99.262684
 20
77.269242
 40
5.304476
 50
-78.946170
 51
-61.553795
  0
ARC
  8
6
 62
7
  6
CONTINUOUS
 10
99.479975
 20
76.189994
 40
4.203594
 50
-100.972077
 51
-79.032507
  0
ARC
  8
6
 62
7
  6
CONTINUOUS
 10
99.697350
 20
77.269410
 40
5.304657
 50
-118.446013
 51
-101.058000
  0
ARC
  8
6
 62
7
  6
CONTINUOUS
 10
102.483344
 20
74.065386
 40
2.177562
 50
-65.706506
 51
-42.110188
  0
ARC
  8
6
 62
7
  6
CONTINUOUS
 10
102.944079
 20
73.038032
 40
1.051632
 50
-114.446327
 51
-65.557886
  0
ARC
  8
6
 62
7
  6
CONTINUOUS
 10
103.404959
 20
74.065560
 40
2.177780
 50
-137.888831
 51
-114.297137
  0
ARC
  8
6
 62
7
  6
CONTINUOUS
 10
95.555139
 20
74.257413
 40
2.177564
 50
42.110182
 51
65.706389
  0
ARC
  8
6
 62
7
  6
CONTINUOUS
 10
96.015878
 20
75.284767
 40
1.051633
 50
65.557877
 51
114.446468
  0
ARC
  8
6
 62
7
  6
CONTINUOUS
 10
96.476752
 20
74.257239
 40
2.177779
 50
114.297041
 51
137.888719
  0
LINE
  8
6
 62
7
  6
CONTINUOUS
 10
101.249380
 20
77.913751
 11
100.364681
 21
79.125075
  0
LINE
  8
6
 62
7
  6
CONTINUOUS
 10
100.364681
 20
79.125075
 11
99.479982
 21
80.336400
  0
LINE
  8
6
 62
7
  6
CONTINUOUS
 10
101.249380
 20
77.913751
 11
102.364681
 21
77.625075
  0
LINE
  8
6
 62
7
  6
CONTINUOUS
 10
102.364681
 20
77.625075
 11
103.479982
 21
77.336400
  0
ARC
  8
6
 62
7
  6
CONTINUOUS
 10
99.479982
 20
80.336400
 40
4.000000
 50
90.000003
 51
180.000000
  0
ARC
  8
6
 62
7
  6
CONTINUOUS
 10
99.479982
 20
80.336400
 40
3.000000
 50
90.000003
 51
180.000000
  0
ARC
  8
6
 62
7
  6
CONTINUOUS
 10
114.379982
 20
85.036401
 40
0.200000
 50
0.000000
 51
90.000000
  0
ARC
  8
6
 62
7
  6
CONTINUOUS
 10
114.379982
 20
75.636400
 40
0.200000
 50
-90.000000
 51
0.000000
  0
ARC
  8
6
 62
7
  6
CONTINUOUS
 10
99.511355
 20
80.305027
 40
4.000000
 50
90.000003
 51
180.000000
  0
LINE
  8
6
 62
7
  6
CONTINUOUS
 10
95.479982
 20
76.336400
 11
103.479982
 21
76.336400
  0
LINE
  8
6
 62
7
  6
CONTINUOUS
 10
99.479982
 20
84.336400
 11
109.979982
 21
84.336400
  0
LINE
  8
6
 62
7
  6
CONTINUOUS
 10
111.979982
 20
84.336400
 11
111.979982
 21
76.336400
  0
LINE
  8
6
 62
7
  6
CONTINUOUS
 10
103.479982
 20
77.336400
 11
103.479982
 21
76.336400
  0
LINE
  8
6
 62
7
  6
CONTINUOUS
 10
95.479982
 20
80.336400
 11
95.479982
 21
76.336400
  0
LINE
  8
6
 62
7
  6
CONTINUOUS
 10
104.479982
 20
83.336400
 11
104.479982
 21
77.336400
  0
LINE
  8
6
 62
7
  6
CONTINUOUS
 10
105.057332
 20
76.336400
 11
109.979982
 21
76.336400
  0
LINE
  8
6
 62
7
  6
CONTINUOUS
 10
103.479982
 20
77.336400
 11
104.479982
 21
77.336400
  0
LINE
  8
6
 62
7
  6
CONTINUOUS
 10
99.479982
 20
83.336400
 11
104.479982
 21
83.336400
  0
LINE
  8
6
 62
7
  6
CONTINUOUS
 10
104.479982
 20
77.336400
 11
105.057332
 21
76.336400
  0
LINE
  8
6
 62
7
  6
CONTINUOUS
 10
95.511355
 20
77.336400
 11
103.479982
 21
77.336400
  0
LINE
  8
6
 62
7
  6
CONTINUOUS
 10
96.479982
 20
80.336400
 11
96.479982
 21
77.913751
  0
LINE
  8
6
 62
7
  6
CONTINUOUS
 10
96.479982
 20
77.913751
 11
101.249380
 21
77.913751
  0
LINE
  8
6
 62
7
  6
CONTINUOUS
 10
105.057332
 20
84.305027
 11
105.057332
 21
76.336400
  0
LINE
  8
6
 62
7
  6
CONTINUOUS
 10
109.979982
 20
84.336400
 11
109.979982
 21
76.336400
  0
LINE
  8
6
 62
7
  6
CONTINUOUS
 10
109.979981
 20
84.336401
 11
111.979981
 21
84.231585
  0
LINE
  8
6
 62
7
  6
CONTINUOUS
 10
109.979982
 20
76.336400
 11
111.979982
 21
76.441216
  0
LINE
  8
6
 62
7
  6
CONTINUOUS
 10
112.679982
 20
84.136400
 11
112.679982
 21
76.536400
  0
LINE
  8
6
 62
7
  6
CONTINUOUS
 10
112.479982
 20
84.336400
 11
111.979982
 21
84.336400
  0
LINE
  8
6
 62
7
  6
CONTINUOUS
 10
112.479982
 20
76.336400
 11
111.979982
 21
76.336400
  0
LINE
  8
6
 62
7
  6
CONTINUOUS
 10
113.379982
 20
82.936400
 11
112.679982
 21
82.936400
  0
LINE
  8
6
 62
7
  6
CONTINUOUS
 10
113.379982
 20
77.736400
 11
112.679982
 21
77.736400
  0
LINE
  8
6
 62
7
  6
CONTINUOUS
 10
112.479983
 20
84.336400
 11
112.679983
 21
84.136400
  0
LINE
  8
6
 62
7
  6
CONTINUOUS
 10
112.679982
 20
76.536400
 11
112.479982
 21
76.336400
  0
LINE
  8
6
 62
7
  6
CONTINUOUS
 10
113.379982
 20
85.236400
 11
113.379982
 21
75.436400
  0
LINE
  8
6
 62
7
  6
CONTINUOUS
 10
114.579982
 20
85.036401
 11
114.579982
 21
75.636400
  0
LINE
  8
6
 62
7
  6
HIDDEN
 10
103.579982
 20
82.336400
 11
103.579982
 21
78.336400
  0
LINE
  8
6
 62
7
  6
CONTINUOUS
 10
114.379982
 20
85.236400
 11
113.379982
 21
85.236400
  0
LINE
  8
6
 62
7
  6
CONTINUOUS
 10
114.379982
 20
75.436400
 11
113.379982
 21
75.436400
  0
LINE
  8
6
 62
7
  6
HIDDEN
 10
103.579982
 20
78.336400
 11
114.579982
 21
78.336400
  0
LINE
  8
6
 62
7
  6
HIDDEN
 10
103.579982
 20
82.336400
 11
114.579982
 21
82.336400
  0
LINE
  8
6
 62
7
  6
CONTINUOUS
 10
112.479982
 20
84.336400
 11
112.479982
 21
76.336400
  0
LINE
  8
6
 62
7
  6
CONTINUOUS
 10
95.511355
 20
80.305027
 11
95.511355
 21
77.336400
  0
LINE
  8
6
 62
7
  6
CONTINUOUS
 10
99.511355
 20
84.305027
 11
105.057332
 21
84.305027
  0
LINE
  8
6
 62
7
  6
CONTINUOUS
 10
104.479982
 20
83.336400
 11
105.057332
 21
84.305027
  0
LINE
  8
6
 62
7
  6
CONTINUOUS
 10
100.709482
 20
68.836400
 11
100.709482
 21
66.365899
  0
LINE
  8
6
 62
7
  6
CONTINUOUS
 10
98.250482
 20
68.836400
 11
98.250482
 21
66.365899
  0
LINE
  8
6
 62
7
  6
CONTINUOUS
 10
97.979982
 20
68.192061
 11
97.979982
 21
66.636399
  0
LINE
  8
6
 62
7
  6
CONTINUOUS
 10
100.979982
 20
68.192061
 11
100.979982
 21
66.636399
  0
LINE
  8
6
 62
7
  6
CONTINUOUS
 10
98.229982
 20
68.836400
 11
98.229982
 21
68.336400
  0
LINE
  8
6
 62
7
  6
CONTINUOUS
 10
96.729982
 20
69.336400
 11
102.229982
 21
69.336400
  0
LINE
  8
6
 62
7
  6
CONTINUOUS
 10
98.279981
 20
66.336400
 11
100.679983
 21
66.336400
  0
LINE
  8
6
 62
7
  6
CONTINUOUS
 10
98.229982
 20
68.336400
 11
100.729982
 21
68.336400
  0
LINE
  8
6
 62
7
  6
CONTINUOUS
 10
96.629984
 20
70.836400
 11
96.629984
 21
69.636399
  0
LINE
  8
6
 62
7
  6
CONTINUOUS
 10
102.329980
 20
70.836400
 11
102.329980
 21
69.636399
  0
LINE
  8
6
 62
7
  6
CONTINUOUS
 10
100.729982
 20
68.836400
 11
100.729982
 21
68.336400
  0
LINE
  8
6
 62
7
  6
CONTINUOUS
 10
102.329981
 20
69.636400
 11
102.029981
 21
69.336401
  0
LINE
  8
6
 62
7
  6
CONTINUOUS
 10
96.629982
 20
69.636400
 11
96.929981
 21
69.336401
  0
LINE
  8
6
 62
7
  6
CONTINUOUS
 10
97.979983
 20
68.192061
 11
98.229983
 21
68.336399
  0
LINE
  8
6
 62
7
  6
CONTINUOUS
 10
100.729982
 20
68.336399
 11
100.979980
 21
68.192063
  0
LINE
  8
6
 62
7
  6
CONTINUOUS
 10
97.979981
 20
66.636402
 11
98.279983
 21
66.336400
  0
LINE
  8
6
 62
7
  6
CONTINUOUS
 10
100.979983
 20
66.636399
 11
100.679983
 21
66.336399
  0
LINE
  8
6
 62
7
  6
CONTINUOUS
 10
97.979982
 20
66.636399
 11
100.979982
 21
66.636399
  0
LINE
  8
6
 62
7
  6
CONTINUOUS
 10
97.979982
 20
68.192061
 11
100.979982
 21
68.192061
  0
LINE
  8
6
 62
7
  6
CONTINUOUS
 10
96.629984
 20
69.636399
 11
102.329980
 21
69.636399
  0
LINE
  8
6
 62
7
  6
CONTINUOUS
 10
96.729982
 20
68.836400
 11
102.229982
 21
68.836400
  0
LINE
  8
6
 62
7
  6
CONTINUOUS
 10
96.729982
 20
69.336400
 11
96.729982
 21
68.836400
  0
LINE
  8
6
 62
7
  6
CONTINUOUS
 10
102.229982
 20
69.336400
 11
102.229982
 21
68.836400
  0
LINE
  8
6
 62
7
  6
CONTINUOUS
 10
94.861181
 20
75.717597
 11
94.861181
 21
72.605203
  0
LINE
  8
6
 62
7
  6
CONTINUOUS
 10
104.098783
 20
75.717597
 11
104.098783
 21
72.605203
  0
LINE
  8
6
 62
7
  6
CONTINUOUS
 10
97.170580
 20
75.717597
 11
97.170580
 21
72.605203
  0
LINE
  8
6
 62
7
  6
CONTINUOUS
 10
101.789384
 20
75.717597
 11
101.789384
 21
72.605203
  0
LINE
  8
6
 62
7
  6
CONTINUOUS
 10
103.479981
 20
76.336401
 11
104.098786
 21
75.717596
  0
LINE
  8
6
 62
7
  6
CONTINUOUS
 10
94.861181
 20
72.605201
 11
96.629981
 21
70.836400
  0
LINE
  8
6
 62
7
  6
CONTINUOUS
 10
102.329982
 20
70.836400
 11
104.098785
 21
72.605202
  0
LINE
  8
6
 62
7
  6
CONTINUOUS
 10
96.629984
 20
70.836400
 11
102.329980
 21
70.836400
  0
LINE
  8
6
 62
7
  6
CONTINUOUS
 10
94.861179
 20
75.717598
 11
95.479982
 21
76.336400
  0
LINE
  8
2
 62
134
  6
CONTINUOUS
 10
114.579982
 20
80.336400
 11
122.666630
 21
88.462483
  0
LINE
  8
2
 62
134
  6
CONTINUOUS
 10
122.666630
 20
88.462483
 11
107.656367
 21
88.462483
  0
TEXT
  8
2
 62
134
  6
CONTINUOUS
 10
107.656367
 20
88.332995
 40
2.000000
 41
1.000000
  1
φ4ﾁｭｰﾌﾞﾌｨﾃｨﾝｸﾞ
  7
KANJI
 50
0.000000
 51
0.000000
  0
LINE
  8
2
 62
134
  6
CONTINUOUS
 10
114.579982
 20
80.336400
 11
115.077874
 21
81.203639
  0
LINE
  8
2
 62
134
  6
CONTINUOUS
 10
114.579982
 20
80.336400
 11
115.444788
 21
80.838505
  0
LINE
  8
2
 62
134
  6
CONTINUOUS
 10
115.077874
 20
81.203639
 11
115.444788
 21
80.838505
  0
LINE
  8
2
 62
134
  6
CONTINUOUS
 10
114.750319
 20
80.507568
 11
114.999265
 21
80.941188
  0
LINE
  8
2
 62
134
  6
CONTINUOUS
 10
114.750319
 20
80.507568
 11
115.182722
 21
80.758621
  0
LINE
  8
2
 62
134
  6
CONTINUOUS
 10
114.999265
 20
80.941188
 11
115.182722
 21
80.758621
  0
TEXT
  8
2
 62
134
  6
CONTINUOUS
 10
109.000796
 20
86.465392
 40
2.000000
 41
1.000000
  1
計装ｴｱ入口
  7
KANJI
 50
0.000000
 51
0.000000
  0
DIMENSION
  8
2
 62
134
  6
CONTINUOUS
  2
*D4
 10
87.454833
 20
53.836400
 11
87.454833
 21
75.217579
 70
     0
  1
32
 13
87.454833
 23
53.836400
 14
112.879982
 24
85.236400
 50
90.000000
  0
LINE
  8
2
 62
134
  6
CONTINUOUS
 10
105.532134
 20
38.836400
 11
101.350227
 21
33.774633
  0
LINE
  8
2
 62
134
  6
CONTINUOUS
 10
101.350227
 20
33.774633
 11
97.978272
 21
33.774633
  0
TEXT
  8
2
 62
134
  6
CONTINUOUS
 10
97.978272
 20
33.815327
 40
2.000000
 41
0.500000
  1
ﾅｯﾄ
  7
KANJI
 50
0.000000
 51
0.000000
  0
LINE
  8
2
 62
134
  6
CONTINUOUS
 10
105.532134
 20
38.836400
 11
105.116445
 21
37.926893
  0
LINE
  8
2
 62
134
  6
CONTINUOUS
 10
105.532134
 20
38.836400
 11
104.717383
 21
38.256588
  0
LINE
  8
2
 62
134
  6
CONTINUOUS
 10
105.116445
 20
37.926893
 11
104.717383
 21
38.256588
  0
LINE
  8
2
 62
134
  6
CONTINUOUS
 10
105.378329
 20
38.650235
 11
105.170485
 21
38.195482
  0
LINE
  8
2
 62
134
  6
CONTINUOUS
 10
105.378329
 20
38.650235
 11
104.970954
 21
38.360329
  0
LINE
  8
2
 62
134
  6
CONTINUOUS
 10
105.170485
 20
38.195482
 11
104.970954
 21
38.360329
  0
LINE
  8
2
 62
134
  6
CONTINUOUS
 10
108.599166
 20
39.813514
 11
114.802794
 21
33.999427
  0
LINE
  8
2
 62
134
  6
CONTINUOUS
 10
114.802794
 20
33.999427
 11
119.985917
 21
33.999427
  0
TEXT
  8
2
 62
134
  6
CONTINUOUS
 10
114.985917
 20
34.010334
 40
2.000000
 41
0.500000
  1
Oﾘﾝｸﾞ
  7
KANJI
 50
0.000000
 51
0.000000
  0
LINE
  8
2
 62
134
  6
CONTINUOUS
 10
108.599166
 20
39.813514
 11
109.480935
 21
39.341833
  0
LINE
  8
2
 62
134
  6
CONTINUOUS
 10
108.599166
 20
39.813514
 11
109.126960
 21
38.964142
  0
LINE
  8
2
 62
134
  6
CONTINUOUS
 10
109.480935
 20
39.341833
 11
109.126960
 21
38.964142
  0
LINE
  8
2
 62
134
  6
CONTINUOUS
 10
108.775361
 20
39.648382
 11
109.216246
 21
39.412542
  0
LINE
  8
2
 62
134
  6
CONTINUOUS
 10
108.775361
 20
39.648382
 11
109.039258
 21
39.223696
  0
LINE
  8
2
 62
134
  6
CONTINUOUS
 10
109.216246
 20
39.412542
 11
109.039258
 21
39.223696
  0
LINE
  8
5
 62
94
  6
CONTINUOUS
 10
6.734597
 20
5.619729
 11
144.234597
 21
5.619729
  0
LINE
  8
5
 62
94
  6
CONTINUOUS
 10
144.234597
 20
5.619729
 11
144.234597
 21
98.119729
  0
LINE
  8
5
 62
94
  6
CONTINUOUS
 10
144.234597
 20
98.119729
 11
6.734597
 21
98.119729
  0
LINE
  8
5
 62
94
  6
CONTINUOUS
 10
6.734597
 20
98.119729
 11
6.734597
 21
5.619729
  0
TEXT
  8
5
 62
94
  6
CONTINUOUS
 10
107.215971
 20
13.445474
 40
0.875000
 41
4.000000
  1
製図
  7
KANJI
 50
-90.000000
 51
0.000000
  0
TEXT
  8
5
 62
94
  6
CONTINUOUS
 10
117.132362
 20
13.363520
 40
0.875000
 41
4.000000
  1
図番
  7
KANJI
 50
-90.000000
 51
0.000000
  0
TEXT
  8
5
 62
94
  6
CONTINUOUS
 10
117.132362
 20
20.001765
 40
0.875000
 41
4.000000
  1
図　名
  7
KANJI
 50
-90.000000
 51
0.000000
  0
TEXT
  8
5
 62
94
  6
CONTINUOUS
 10
84.678720
 20
17.297295
 40
0.875000
 41
4.000000
  1
日付
  7
KANJI
 50
-90.000000
 51
0.000000
  0
TEXT
  8
5
 62
94
  6
CONTINUOUS
 10
102.216799
 20
17.379249
 40
0.875000
 41
4.000000
  1
図法
  7
KANJI
 50
-90.000000
 51
0.000000
  0
TEXT
  8
5
 62
94
  6
CONTINUOUS
 10
102.134846
 20
21.394977
 40
0.875000
 41
4.000000
  1
尺度
  7
KANJI
 50
-90.000000
 51
0.000000
  0
TEXT
  8
5
 62
94
  6
CONTINUOUS
 10
84.678720
 20
21.313024
 40
0.875000
 41
4.000000
  1
公差
  7
KANJI
 50
-90.000000
 51
0.000000
  0
TEXT
  8
5
 62
94
  6
CONTINUOUS
 10
84.678720
 20
13.363520
 40
0.875000
 41
4.000000
  1
承認
  7
KANJI
 50
-90.000000
 51
0.000000
  0
TEXT
  8
5
 62
94
  6
CONTINUOUS
 10
97.217627
 20
13.363520
 40
0.875000
 41
4.000000
  1
設計
  7
KANJI
 50
-90.000000
 51
0.000000
  0
TEXT
  8
5
 62
94
  6
CONTINUOUS
 10
93.939481
 20
6.397461
 40
2.250000
 41
1.888889
  1
ジャパンセンサー株式会社
  7
KANJI
 50
0.000000
 51
0.000000
  0
LINE
  8
5
 62
94
  6
CONTINUOUS
 10
84.234597
 20
21.619729
 11
144.234597
 21
21.619729
  0
LINE
  8
5
 62
94
  6
CONTINUOUS
 10
84.234597
 20
5.619729
 11
84.234597
 21
21.619729
  0
LINE
  8
5
 62
94
  6
CONTINUOUS
 10
144.234597
 20
9.619729
 11
84.234597
 21
9.619729
  0
LINE
  8
5
 62
94
  6
CONTINUOUS
 10
116.734597
 20
21.619729
 11
116.734597
 21
9.619729
  0
LINE
  8
5
 62
94
  6
CONTINUOUS
 10
144.234597
 20
13.619729
 11
84.234597
 21
13.619729
  0
LINE
  8
5
 62
94
  6
CONTINUOUS
 10
119.234597
 20
9.619729
 11
119.234597
 21
21.619729
  0
LINE
  8
5
 62
94
  6
CONTINUOUS
 10
104.234597
 20
21.619729
 11
104.234597
 21
13.619729
  0
LINE
  8
5
 62
94
  6
CONTINUOUS
 10
86.734597
 20
9.619729
 11
86.734597
 21
21.619729
  0
LINE
  8
5
 62
94
  6
CONTINUOUS
 10
84.234597
 20
17.619729
 11
116.734597
 21
17.619729
  0
LINE
  8
5
 62
94
  6
CONTINUOUS
 10
101.734597
 20
21.619729
 11
101.734597
 21
13.619729
  0
LINE
  8
5
 62
94
  6
CONTINUOUS
 10
96.734597
 20
9.619729
 11
96.734597
 21
13.619729
  0
LINE
  8
5
 62
94
  6
CONTINUOUS
 10
106.734597
 20
9.619729
 11
106.734597
 21
13.619729
  0
LINE
  8
5
 62
94
  6
CONTINUOUS
 10
99.234597
 20
13.619729
 11
99.234597
 21
9.619729
  0
LINE
  8
5
 62
94
  6
CONTINUOUS
 10
109.234597
 20
13.619729
 11
109.234597
 21
9.619729
  0
TEXT
  8
5
 62
94
  6
CONTINUOUS
 10
106.232528
 20
14.265010
 40
2.000000
 41
1.000000
  1
三角法
  7
KANJI
 50
0.000000
 51
0.000000
  0
LINE
  8
5
 62
94
  6
CONTINUOUS
 10
120.556448
 20
17.604965
 11
142.626822
 21
17.604965
  0
TEXT
  8
5
 62
94
  6
CONTINUOUS
 10
100.824656
 20
10.589217
 40
2.000000
 41
1.000000
  1
須藤
  7
KANJI
 50
0.000000
 51
0.000000
  0
TEXT
  8
5
 62
94
  6
CONTINUOUS
 10
107.548081
 20
18.481934
 40
2.000000
 41
1.000000
  1
２／１
  7
KANJI
 50
0.000000
 51
0.000000
  0
TEXT
  8
5
 62
94
  6
CONTINUOUS
 10
110.824656
 20
10.589217
 40
2.000000
 41
1.000000
  1
須藤
  7
KANJI
 50
0.000000
 51
0.000000
  0
TEXT
  8
5
 62
94
  6
CONTINUOUS
 10
121.811453
 20
18.616428
 40
2.000000
 41
1.000000
  1
ＴＭＰＸ－２５
  7
KANJI
 50
0.000000
 51
0.000000
  0
TEXT
  8
5
 62
94
  6
CONTINUOUS
 10
120.695594
 20
14.545700
 40
2.000000
 41
1.000000
  1
φ25ｴｱﾊﾟｰｼﾞﾌｰﾄﾞ 外形図
  7
KANJI
 50
0.000000
 51
0.000000
  0
TEXT
  8
5
 62
94
  6
CONTINUOUS
 10
119.863115
 20
10.589217
 40
2.000000
 41
1.000000
  1
００５－０６５－Ａ１２４
  7
KANJI
 50
0.000000
 51
0.000000
  0
TEXT
  8
5
 62
94
  6
CONTINUOUS
 10
89.277904
 20
14.535575
 40
2.000000
 41
0.500000
  1
2013/04/23
  7
KANJI
 50
0.000000
 51
0.000000
  0
DIMENSION
  8
2
 62
134
  6
CONTINUOUS
  2
*D5
 10
28.640095
 20
41.336400
 11
28.640095
 21
53.966540
 70
     0
  1
φ25
 13
32.979982
 23
41.336400
 14
32.979982
 24
66.336401
 50
90.000000
  0
DIMENSION
  8
2
 62
134
  6
CONTINUOUS
  2
*D6
 10
25.048851
 20
38.836400
 11
25.048851
 21
54.237577
 70
     0
  1
φ30
 13
33.479982
 23
38.836400
 14
33.479982
 24
68.836400
 50
90.000000
  0
ENDSEC
  0
EOF
