  0
SECTION
  2
HEADER
  9
$ACADVER
  1
AC1009
  9
$INSBASE
 10
0.000000
 20
0.000000
  9
$EXTMIN
 10
0.000000
 20
0.000000
  9
$EXTMAX
 10
105.000000
 20
148.500000
  9
$LIMMIN
 10
0.000000
 20
0.000000
  9
$LIMMAX
 10
105.000000
 20
148.500000
  9
$VIEWCTR
 10
52.500000
 20
74.250000
  9
$VIEWSIZE
 40
148.500000
  9
$PEXTMIN
 10
0.000000
 20
0.000000
 30
0.000000
  9
$PEXTMAX
 10
210.000000
 20
297.000000
 30
0.000000
  9
$SNAPMODE
 70
     0
  9
$SNAPUNIT
 10
1.000000
 20
1.000000
  9
$SNAPBASE
 10
0.000000
 20
0.000000
  9
$SNAPANG
 50
0.000000
  9
$SNAPISOPAIR
 70
     0
  9
$SNAPSTYLE
 70
     0
  9
$GRIDMODE
 70
     0
  9
$GRIDUNIT
 10
0.000000
 20
0.000000
  9
$ORTHOMODE
 70
     0
  9
$REGENMODE
 70
     1
  9
$FILLMODE
 70
     1
  9
$QTEXTMODE
 70
     0
  9
$DRAGMODE
 70
     2
  9
$LTSCALE
 40
0.125000
  9
$OSMODE
 70
     0
  9
$ATTMODE
 70
     1
  9
$TEXTSIZE
 40
2.000000
  9
$TRACEWID
 40
0.050000
  9
$TEXTSTYLE
  7
STANDARD
  9
$CLAYER
  8
0
  9
$CELTYPE
  6
BYLAYER
  9
$CECOLOR
 62
   256
  9
$DIMSCALE
 40
1.000000
  9
$DIMASZ
 40
1.000000
  9
$DIMEXO
 40
0.000000
  9
$DIMDLI
 40
0.500000
  9
$DIMRND
 40
0.000000
  9
$DIMDLE
 40
0.000000
  9
$DIMEXE
 40
0.000000
  9
$DIMTP
 40
0.000000
  9
$DIMTM
 40
0.000000
  9
$DIMTXT
 40
4.000000
  9
$DIMCEN
 40
0.000000
  9
$DIMTSZ
 40
0.000000
  9
$DIMTOL
 70
     0
  9
$DIMLIM
 70
     0
  9
$DIMTIH
 70
     1
  9
$DIMTOH
 70
     1
  9
$DIMSE1
 70
     0
  9
$DIMSE2
 70
     0
  9
$DIMTAD
 70
     0
  9
$DIMZIN
 70
     0
  9
$DIMBLK
  1

  9
$DIMASO
 70
     0
  9
$DIMSHO
 70
     0
  9
$DIMPOST
  1

  9
$DIMAPOST
  1

  9
$DIMALT
 70
     0
  9
$DIMALTD
 70
     0
  9
$DIMALTF
 40
25.400000
  9
$DIMLFAC
 40
1.000000
  9
$DIMTOFL
 70
     0
  9
$DIMTVP
 40
0.000000
  9
$DIMTIX
 70
     0
  9
$DIMSOXD
 70
     0
  9
$DIMSAH
 70
     0
  9
$DIMBLKL
  1

  9
$DIMBLKR
  1

  9
$LUNITS
 70
     2
  9
$LUPREC
 70
     2
  9
$AXISMODE
 70
     0
  9
$AXISUNIT
 10
1.000000
 20
1.000000
  9
$SKETCHINC
 40
0.000000
  9
$FILLETRAD
 40
0.000000
  9
$AUNITS
 70
     1
  9
$AUPREC
 70
     2
  9
$MENU
  1
ACAD
  9
$ELEVATION
 40
0.000000
  9
$THICKNESS
 40
0.000000
  9
$VIEWDIR
 10
0.000000
 20
0.000000
 30
1.000000
  9
$LIMCHECK
 70
     1
  9
$BLIPMODE
 70
     1
  9
$CHAMFERA
 40
0.000000
  9
$CHAMFERB
 40
0.000000
  9
$FASTZOOM
 70
     1
  9
$SKPOLY
 70
     0
  9
$TDCREATE
 40
0.000000
  9
$TDUPDATE
 40
0.000000
  9
$TDINDWG
 40
0.000000
  9
$TDUSRTIMER
 40
0.000000
  9
$USRTIMER
 70
     1
  9
$ANGBASE
 50
0.000000
  9
$ANGDIR
 70
     0
  9
$PDMODE
 70
     0
  9
$PDSIZE
 40
0.000000
  9
$PLINEWID
 40
0.000000
  9
$COORDS
 70
     2
  9
$USERI1
 70
     0
  9
$USERI2
 70
     0
  9
$USERI3
 70
     0
  9
$USERI4
 70
     0
  9
$USERI5
 70
     0
  9
$USERR1
 40
0.000000
  9
$USERR2
 40
0.000000
  9
$USERR3
 40
0.000000
  9
$USERR4
 40
0.000000
  9
$USERR5
 40
0.000000
  0
ENDSEC
  0
SECTION
  2
TABLES
  0
TABLE
  2
LTYPE
 70
     5
  0
LTYPE
  2
CONTINUOUS
 70
    64
  3
Solid line
 72
    65
 73
     0
 40
0.0
  0
LTYPE
  2
HIDDEN
 70
    64
  3
------------------------
 72
    65
 73
     2
 40
12.6
 49
8.4
 49
-4.2
  0
LTYPE
  2
DOT
 70
    64
  3
････････････････････････
 72
    65
 73
     2
 40
8.0
 49
6.0
 49
-2.0
  0
LTYPE
  2
DASHDOT
 70
    64
  3
--･--･--･--･--･--･--･--
 72
    65
 73
     4
 40
50.5
 49
30.0
 49
-9.0
 49
2.5
 49
-9.0
  0
LTYPE
  2
DIVIDE
 70
    64
  3
--･･--･･--･･--･･--･･--
 72
    65
 73
     6
 40
58.0
 49
30.0
 49
-9.0
 49
2.5
 49
-5.0
 49
2.5
 49
-9.0
  0
LTYPE
  2
ACAD_ISO06W100
 70
    64
  3
____ ... ____ ... ____
 72
    65
 73
     8
 40
37.5
 49
24.0
 49
-3.0
 49
0.5
 49
-3.0
 49
0.5
 49
-3.0
 49
0.5
 49
-3.0
  0
LTYPE
  2
ACAD_ISO14W100
 70
    64
  3
__ . . . __ . . . __ . . . 
 72
    65
 73
     8
 40
25.5
 49
12.0
 49
-3.0
 49
0.5
 49
-3.0
 49
0.5
 49
-3.0
 49
0.5
 49
-3.0
  0
ENDTAB
  0
TABLE
  2
LAYER
 70
6
  0
LAYER
  2
1
 70
64
 62
7
  6
CONTINUOUS
  0
LAYER
  2
2
 70
64
 62
134
  6
CONTINUOUS
  0
LAYER
  2
3
 70
64
 62
7
  6
CONTINUOUS
  0
LAYER
  2
5
 70
64
 62
94
  6
CONTINUOUS
  0
LAYER
  2
6
 70
64
 62
7
  6
CONTINUOUS
  0
LAYER
  2
11
 70
64
 62
251
  6
CONTINUOUS
  0
ENDTAB
  0
TABLE
  2
STYLE
 70
     2
  0
STYLE
  2
STANDARD
 70
    64
 40
0.0
 41
1.0
 50
0.0
 71
     0
 42
0.2
  3
TXT
  4

  0
STYLE
  2
KANJI
 70
    64
 40
0.0
 41
1.0
 50
0.0
 71
     0
 42
0.2
  3
TXT
  4
BIGFONT
  0
ENDTAB
  0
TABLE
  2
VIEW
 70
     0
  0
ENDTAB
  0
ENDSEC
  0
SECTION
  2
BLOCKS
  0
BLOCK
  8
2
 62
134
  6
CONTINUOUS
  2
*D1
 70
    65
 10
0.0
 20
0.0
  0
LINE
  8
2
 62
134
  6
CONTINUOUS
 10
28.393401
 20
82.291704
 11
63.393401
 21
82.291704
  0
LINE
  8
2
 62
134
  6
CONTINUOUS
 10
28.393401
 20
81.791704
 11
28.393401
 21
89.669914
  0
LINE
  8
2
 62
134
  6
CONTINUOUS
 10
63.393401
 20
81.791704
 11
63.393401
 21
89.318961
  0
LINE
  8
2
 62
134
  6
CONTINUOUS
 10
28.393401
 20
82.291704
 11
29.359327
 21
82.550523
  0
LINE
  8
2
 62
134
  6
CONTINUOUS
 10
28.393401
 20
82.291704
 11
29.359327
 21
82.032885
  0
LINE
  8
2
 62
134
  6
CONTINUOUS
 10
29.359327
 20
82.550523
 11
29.359327
 21
82.032885
  0
LINE
  8
2
 62
134
  6
CONTINUOUS
 10
28.634882
 20
82.291704
 11
29.117845
 21
82.421114
  0
LINE
  8
2
 62
134
  6
CONTINUOUS
 10
28.634882
 20
82.291704
 11
29.117845
 21
82.162295
  0
LINE
  8
2
 62
134
  6
CONTINUOUS
 10
29.117845
 20
82.421114
 11
29.117845
 21
82.162295
  0
LINE
  8
2
 62
134
  6
CONTINUOUS
 10
63.393401
 20
82.291704
 11
62.427475
 21
82.032885
  0
LINE
  8
2
 62
134
  6
CONTINUOUS
 10
63.393401
 20
82.291704
 11
62.427475
 21
82.550523
  0
LINE
  8
2
 62
134
  6
CONTINUOUS
 10
62.427475
 20
82.032885
 11
62.427475
 21
82.550523
  0
LINE
  8
2
 62
134
  6
CONTINUOUS
 10
63.151920
 20
82.291704
 11
62.668957
 21
82.162295
  0
LINE
  8
2
 62
134
  6
CONTINUOUS
 10
63.151920
 20
82.291704
 11
62.668957
 21
82.421114
  0
LINE
  8
2
 62
134
  6
CONTINUOUS
 10
62.668957
 20
82.162295
 11
62.668957
 21
82.421114
  0
TEXT
  8
2
 62
134
  6
CONTINUOUS
 10
43.729360
 20
82.291704
 40
2.000000
 41
0.500000
  1
35
  7
KANJI
 50
0.000000
 51
0.000000
  0
ENDBLK
  0
BLOCK
  8
2
 62
134
  6
CONTINUOUS
  2
*D2
 70
    65
 10
0.0
 20
0.0
  0
LINE
  8
2
 62
134
  6
CONTINUOUS
 10
63.393401
 20
82.291704
 11
68.393401
 21
82.291704
  0
LINE
  8
2
 62
134
  6
CONTINUOUS
 10
63.393401
 20
81.791704
 11
63.393401
 21
89.318961
  0
LINE
  8
2
 62
134
  6
CONTINUOUS
 10
68.393401
 20
81.791704
 11
68.393401
 21
88.169914
  0
LINE
  8
2
 62
134
  6
CONTINUOUS
 10
63.393401
 20
82.291704
 11
64.359327
 21
82.550523
  0
LINE
  8
2
 62
134
  6
CONTINUOUS
 10
63.393401
 20
82.291704
 11
64.359327
 21
82.032885
  0
LINE
  8
2
 62
134
  6
CONTINUOUS
 10
64.359327
 20
82.550523
 11
64.359327
 21
82.032885
  0
LINE
  8
2
 62
134
  6
CONTINUOUS
 10
63.634882
 20
82.291704
 11
64.117845
 21
82.421114
  0
LINE
  8
2
 62
134
  6
CONTINUOUS
 10
63.634882
 20
82.291704
 11
64.117845
 21
82.162295
  0
LINE
  8
2
 62
134
  6
CONTINUOUS
 10
64.117845
 20
82.421114
 11
64.117845
 21
82.162295
  0
LINE
  8
2
 62
134
  6
CONTINUOUS
 10
68.393401
 20
82.291704
 11
67.427475
 21
82.032885
  0
LINE
  8
2
 62
134
  6
CONTINUOUS
 10
68.393401
 20
82.291704
 11
67.427475
 21
82.550523
  0
LINE
  8
2
 62
134
  6
CONTINUOUS
 10
67.427475
 20
82.032885
 11
67.427475
 21
82.550523
  0
LINE
  8
2
 62
134
  6
CONTINUOUS
 10
68.151920
 20
82.291704
 11
67.668957
 21
82.162295
  0
LINE
  8
2
 62
134
  6
CONTINUOUS
 10
68.151920
 20
82.291704
 11
67.668957
 21
82.421114
  0
LINE
  8
2
 62
134
  6
CONTINUOUS
 10
67.668957
 20
82.162295
 11
67.668957
 21
82.421114
  0
TEXT
  8
2
 62
134
  6
CONTINUOUS
 10
65.095206
 20
82.291704
 40
2.000000
 41
0.500000
  1
5
  7
KANJI
 50
0.000000
 51
0.000000
  0
ENDBLK
  0
BLOCK
  8
2
 62
134
  6
CONTINUOUS
  2
*D3
 70
    65
 10
0.0
 20
0.0
  0
LINE
  8
2
 62
134
  6
CONTINUOUS
 10
73.056510
 20
88.669914
 11
73.056510
 21
104.669914
  0
LINE
  8
2
 62
134
  6
CONTINUOUS
 10
73.556510
 20
88.669914
 11
68.893401
 21
88.669914
  0
LINE
  8
2
 62
134
  6
CONTINUOUS
 10
73.556510
 20
104.669914
 11
68.893401
 21
104.669914
  0
LINE
  8
2
 62
134
  6
CONTINUOUS
 10
73.056510
 20
88.669914
 11
72.797691
 21
89.635840
  0
LINE
  8
2
 62
134
  6
CONTINUOUS
 10
73.056510
 20
88.669914
 11
73.315329
 21
89.635840
  0
LINE
  8
2
 62
134
  6
CONTINUOUS
 10
72.797691
 20
89.635840
 11
73.315329
 21
89.635840
  0
LINE
  8
2
 62
134
  6
CONTINUOUS
 10
73.056510
 20
88.911396
 11
72.927101
 21
89.394359
  0
LINE
  8
2
 62
134
  6
CONTINUOUS
 10
73.056510
 20
88.911396
 11
73.185920
 21
89.394359
  0
LINE
  8
2
 62
134
  6
CONTINUOUS
 10
72.927101
 20
89.394359
 11
73.185920
 21
89.394359
  0
LINE
  8
2
 62
134
  6
CONTINUOUS
 10
73.056510
 20
104.669914
 11
73.315329
 21
103.703989
  0
LINE
  8
2
 62
134
  6
CONTINUOUS
 10
73.056510
 20
104.669914
 11
72.797691
 21
103.703989
  0
LINE
  8
2
 62
134
  6
CONTINUOUS
 10
73.315329
 20
103.703989
 11
72.797691
 21
103.703989
  0
LINE
  8
2
 62
134
  6
CONTINUOUS
 10
73.056510
 20
104.428433
 11
73.185920
 21
103.945470
  0
LINE
  8
2
 62
134
  6
CONTINUOUS
 10
73.056510
 20
104.428433
 11
72.927101
 21
103.945470
  0
LINE
  8
2
 62
134
  6
CONTINUOUS
 10
73.185920
 20
103.945470
 11
72.927101
 21
103.945470
  0
TEXT
  8
2
 62
134
  6
CONTINUOUS
 10
73.056510
 20
94.169914
 40
2.000000
 41
0.500000
  1
M16P2
  7
KANJI
 50
90.000000
 51
0.000000
  0
ENDBLK
  0
BLOCK
  8
2
 62
134
  6
CONTINUOUS
  2
*D4
 70
    65
 10
0.0
 20
0.0
  0
LINE
  8
2
 62
134
  6
CONTINUOUS
 10
22.340065
 20
91.669914
 11
22.340065
 21
101.669914
  0
LINE
  8
2
 62
134
  6
CONTINUOUS
 10
21.840065
 20
91.669914
 11
27.893401
 21
91.669914
  0
LINE
  8
2
 62
134
  6
CONTINUOUS
 10
21.840065
 20
101.669914
 11
27.893401
 21
101.669914
  0
LINE
  8
2
 62
134
  6
CONTINUOUS
 10
22.340065
 20
91.669914
 11
22.081246
 21
92.635840
  0
LINE
  8
2
 62
134
  6
CONTINUOUS
 10
22.340065
 20
91.669914
 11
22.598884
 21
92.635840
  0
LINE
  8
2
 62
134
  6
CONTINUOUS
 10
22.081246
 20
92.635840
 11
22.598884
 21
92.635840
  0
LINE
  8
2
 62
134
  6
CONTINUOUS
 10
22.340065
 20
91.911396
 11
22.210655
 21
92.394359
  0
LINE
  8
2
 62
134
  6
CONTINUOUS
 10
22.340065
 20
91.911396
 11
22.469474
 21
92.394359
  0
LINE
  8
2
 62
134
  6
CONTINUOUS
 10
22.210655
 20
92.394359
 11
22.469474
 21
92.394359
  0
LINE
  8
2
 62
134
  6
CONTINUOUS
 10
22.340065
 20
101.669914
 11
22.598884
 21
100.703989
  0
LINE
  8
2
 62
134
  6
CONTINUOUS
 10
22.340065
 20
101.669914
 11
22.081246
 21
100.703989
  0
LINE
  8
2
 62
134
  6
CONTINUOUS
 10
22.598884
 20
100.703989
 11
22.081246
 21
100.703989
  0
LINE
  8
2
 62
134
  6
CONTINUOUS
 10
22.340065
 20
101.428433
 11
22.469474
 21
100.945470
  0
LINE
  8
2
 62
134
  6
CONTINUOUS
 10
22.340065
 20
101.428433
 11
22.210655
 21
100.945470
  0
LINE
  8
2
 62
134
  6
CONTINUOUS
 10
22.469474
 20
100.945470
 11
22.210655
 21
100.945470
  0
TEXT
  8
2
 62
134
  6
CONTINUOUS
 10
22.340065
 20
94.669914
 40
2.000000
 41
1.000000
  1
φ10
  7
KANJI
 50
90.000000
 51
0.000000
  0
ENDBLK
  0
BLOCK
  8
2
 62
134
  6
CONTINUOUS
  2
*D5
 70
    65
 10
0.0
 20
0.0
  0
LINE
  8
2
 62
134
  6
CONTINUOUS
 10
18.901836
 20
87.669914
 11
18.901836
 21
105.669914
  0
LINE
  8
2
 62
134
  6
CONTINUOUS
 10
18.401836
 20
87.669914
 11
28.393401
 21
87.669914
  0
LINE
  8
2
 62
134
  6
CONTINUOUS
 10
18.401836
 20
105.669914
 11
28.393401
 21
105.669914
  0
LINE
  8
2
 62
134
  6
CONTINUOUS
 10
18.901836
 20
87.669914
 11
18.643017
 21
88.635840
  0
LINE
  8
2
 62
134
  6
CONTINUOUS
 10
18.901836
 20
87.669914
 11
19.160655
 21
88.635840
  0
LINE
  8
2
 62
134
  6
CONTINUOUS
 10
18.643017
 20
88.635840
 11
19.160655
 21
88.635840
  0
LINE
  8
2
 62
134
  6
CONTINUOUS
 10
18.901836
 20
87.911396
 11
18.772426
 21
88.394359
  0
LINE
  8
2
 62
134
  6
CONTINUOUS
 10
18.901836
 20
87.911396
 11
19.031245
 21
88.394359
  0
LINE
  8
2
 62
134
  6
CONTINUOUS
 10
18.772426
 20
88.394359
 11
19.031245
 21
88.394359
  0
LINE
  8
2
 62
134
  6
CONTINUOUS
 10
18.901836
 20
105.669914
 11
19.160655
 21
104.703989
  0
LINE
  8
2
 62
134
  6
CONTINUOUS
 10
18.901836
 20
105.669914
 11
18.643017
 21
104.703989
  0
LINE
  8
2
 62
134
  6
CONTINUOUS
 10
19.160655
 20
104.703989
 11
18.643017
 21
104.703989
  0
LINE
  8
2
 62
134
  6
CONTINUOUS
 10
18.901836
 20
105.428433
 11
19.031245
 21
104.945470
  0
LINE
  8
2
 62
134
  6
CONTINUOUS
 10
18.901836
 20
105.428433
 11
18.772426
 21
104.945470
  0
LINE
  8
2
 62
134
  6
CONTINUOUS
 10
19.031245
 20
104.945470
 11
18.772426
 21
104.945470
  0
TEXT
  8
2
 62
134
  6
CONTINUOUS
 10
18.901836
 20
94.669914
 40
2.000000
 41
1.000000
  1
φ18
  7
KANJI
 50
90.000000
 51
0.000000
  0
ENDBLK
  0
BLOCK
  8
2
 62
134
  6
CONTINUOUS
  2
*D6
 70
    65
 10
0.0
 20
0.0
  0
LINE
  8
2
 62
134
  6
CONTINUOUS
 10
46.010946
 20
96.669914
 11
46.010946
 21
121.169914
  0
LINE
  8
2
 62
134
  6
CONTINUOUS
 10
45.510946
 20
121.169914
 11
53.893401
 21
121.169914
  0
LINE
  8
2
 62
134
  6
CONTINUOUS
 10
46.010946
 20
96.669914
 11
45.752127
 21
97.635840
  0
LINE
  8
2
 62
134
  6
CONTINUOUS
 10
46.010946
 20
96.669914
 11
46.269765
 21
97.635840
  0
LINE
  8
2
 62
134
  6
CONTINUOUS
 10
45.752127
 20
97.635840
 11
46.269765
 21
97.635840
  0
LINE
  8
2
 62
134
  6
CONTINUOUS
 10
46.010946
 20
96.911396
 11
45.881537
 21
97.394359
  0
LINE
  8
2
 62
134
  6
CONTINUOUS
 10
46.010946
 20
96.911396
 11
46.140356
 21
97.394359
  0
LINE
  8
2
 62
134
  6
CONTINUOUS
 10
45.881537
 20
97.394359
 11
46.140356
 21
97.394359
  0
LINE
  8
2
 62
134
  6
CONTINUOUS
 10
46.010946
 20
121.169914
 11
46.269765
 21
120.203989
  0
LINE
  8
2
 62
134
  6
CONTINUOUS
 10
46.010946
 20
121.169914
 11
45.752127
 21
120.203989
  0
LINE
  8
2
 62
134
  6
CONTINUOUS
 10
46.269765
 20
120.203989
 11
45.752127
 21
120.203989
  0
LINE
  8
2
 62
134
  6
CONTINUOUS
 10
46.010946
 20
120.928433
 11
46.140356
 21
120.445470
  0
LINE
  8
2
 62
134
  6
CONTINUOUS
 10
46.010946
 20
120.928433
 11
45.881537
 21
120.445470
  0
LINE
  8
2
 62
134
  6
CONTINUOUS
 10
46.140356
 20
120.445470
 11
45.881537
 21
120.445470
  0
TEXT
  8
2
 62
134
  6
CONTINUOUS
 10
46.010946
 20
109.475258
 40
2.000000
 41
0.500000
  1
24.5
  7
KANJI
 50
90.000000
 51
0.000000
  0
ENDBLK
  0
BLOCK
  8
2
 62
134
  6
CONTINUOUS
  2
*D7
 70
    65
 10
0.0
 20
0.0
  0
LINE
  8
2
 62
134
  6
CONTINUOUS
 10
28.393401
 20
125.360412
 11
54.393401
 21
125.360412
  0
LINE
  8
2
 62
134
  6
CONTINUOUS
 10
28.393401
 20
125.860412
 11
28.393401
 21
105.669914
  0
LINE
  8
2
 62
134
  6
CONTINUOUS
 10
54.393401
 20
125.860412
 11
54.393401
 21
122.829181
  0
LINE
  8
2
 62
134
  6
CONTINUOUS
 10
28.393401
 20
125.360412
 11
29.359327
 21
125.619231
  0
LINE
  8
2
 62
134
  6
CONTINUOUS
 10
28.393401
 20
125.360412
 11
29.359327
 21
125.101593
  0
LINE
  8
2
 62
134
  6
CONTINUOUS
 10
29.359327
 20
125.619231
 11
29.359327
 21
125.101593
  0
LINE
  8
2
 62
134
  6
CONTINUOUS
 10
28.634882
 20
125.360412
 11
29.117845
 21
125.489821
  0
LINE
  8
2
 62
134
  6
CONTINUOUS
 10
28.634882
 20
125.360412
 11
29.117845
 21
125.231002
  0
LINE
  8
2
 62
134
  6
CONTINUOUS
 10
29.117845
 20
125.489821
 11
29.117845
 21
125.231002
  0
LINE
  8
2
 62
134
  6
CONTINUOUS
 10
54.393401
 20
125.360412
 11
53.427475
 21
125.101593
  0
LINE
  8
2
 62
134
  6
CONTINUOUS
 10
54.393401
 20
125.360412
 11
53.427475
 21
125.619231
  0
LINE
  8
2
 62
134
  6
CONTINUOUS
 10
53.427475
 20
125.101593
 11
53.427475
 21
125.619231
  0
LINE
  8
2
 62
134
  6
CONTINUOUS
 10
54.151920
 20
125.360412
 11
53.668957
 21
125.231002
  0
LINE
  8
2
 62
134
  6
CONTINUOUS
 10
54.151920
 20
125.360412
 11
53.668957
 21
125.489821
  0
LINE
  8
2
 62
134
  6
CONTINUOUS
 10
53.668957
 20
125.231002
 11
53.668957
 21
125.489821
  0
TEXT
  8
2
 62
134
  6
CONTINUOUS
 10
40.514801
 20
125.360412
 40
2.000000
 41
0.500000
  1
26
  7
KANJI
 50
0.000000
 51
0.000000
  0
ENDBLK
  0
ENDSEC
  0
SECTION
  2
ENTITIES
  0
TEXT
  8
5
 62
94
  6
CONTINUOUS
 10
62.215971
 20
12.429830
 40
0.875000
 41
4.000000
  1
製図
  7
KANJI
 50
-90.000000
 51
0.000000
  0
TEXT
  8
5
 62
94
  6
CONTINUOUS
 10
72.132362
 20
12.347876
 40
0.875000
 41
4.000000
  1
図番
  7
KANJI
 50
-90.000000
 51
0.000000
  0
TEXT
  8
5
 62
94
  6
CONTINUOUS
 10
72.132362
 20
18.986121
 40
0.875000
 41
4.000000
  1
図　名
  7
KANJI
 50
-90.000000
 51
0.000000
  0
TEXT
  8
5
 62
94
  6
CONTINUOUS
 10
39.678720
 20
16.281651
 40
0.875000
 41
4.000000
  1
日付
  7
KANJI
 50
-90.000000
 51
0.000000
  0
TEXT
  8
5
 62
94
  6
CONTINUOUS
 10
57.216799
 20
16.363605
 40
0.875000
 41
4.000000
  1
図法
  7
KANJI
 50
-90.000000
 51
0.000000
  0
TEXT
  8
5
 62
94
  6
CONTINUOUS
 10
57.134846
 20
20.379333
 40
0.875000
 41
4.000000
  1
尺度
  7
KANJI
 50
-90.000000
 51
0.000000
  0
TEXT
  8
5
 62
94
  6
CONTINUOUS
 10
39.678720
 20
20.297379
 40
0.875000
 41
4.000000
  1
公差
  7
KANJI
 50
-90.000000
 51
0.000000
  0
TEXT
  8
5
 62
94
  6
CONTINUOUS
 10
39.678720
 20
12.347876
 40
0.875000
 41
4.000000
  1
承認
  7
KANJI
 50
-90.000000
 51
0.000000
  0
TEXT
  8
5
 62
94
  6
CONTINUOUS
 10
52.217627
 20
12.347876
 40
0.875000
 41
4.000000
  1
設計
  7
KANJI
 50
-90.000000
 51
0.000000
  0
TEXT
  8
5
 62
94
  6
CONTINUOUS
 10
48.939481
 20
5.381816
 40
2.250000
 41
1.888889
  1
ジャパンセンサー株式会社
  7
KANJI
 50
0.000000
 51
0.000000
  0
LINE
  8
5
 62
94
  6
CONTINUOUS
 10
39.234597
 20
20.604085
 11
99.234597
 21
20.604085
  0
LINE
  8
5
 62
94
  6
CONTINUOUS
 10
39.234597
 20
4.604085
 11
39.234597
 21
20.604085
  0
LINE
  8
5
 62
94
  6
CONTINUOUS
 10
99.234597
 20
8.604085
 11
39.234597
 21
8.604085
  0
LINE
  8
5
 62
94
  6
CONTINUOUS
 10
71.734597
 20
20.604085
 11
71.734597
 21
8.604085
  0
LINE
  8
5
 62
94
  6
CONTINUOUS
 10
99.234597
 20
12.604085
 11
39.234597
 21
12.604085
  0
LINE
  8
5
 62
94
  6
CONTINUOUS
 10
74.234597
 20
8.604085
 11
74.234597
 21
20.604085
  0
LINE
  8
5
 62
94
  6
CONTINUOUS
 10
59.234597
 20
20.604085
 11
59.234597
 21
12.604085
  0
LINE
  8
5
 62
94
  6
CONTINUOUS
 10
41.734597
 20
8.604085
 11
41.734597
 21
20.604085
  0
LINE
  8
5
 62
94
  6
CONTINUOUS
 10
39.234597
 20
16.604085
 11
71.734597
 21
16.604085
  0
LINE
  8
5
 62
94
  6
CONTINUOUS
 10
56.734597
 20
20.604085
 11
56.734597
 21
12.604085
  0
LINE
  8
5
 62
94
  6
CONTINUOUS
 10
51.734597
 20
8.604085
 11
51.734597
 21
12.604085
  0
LINE
  8
5
 62
94
  6
CONTINUOUS
 10
61.734597
 20
8.604085
 11
61.734597
 21
12.604085
  0
LINE
  8
5
 62
94
  6
CONTINUOUS
 10
54.234597
 20
12.604085
 11
54.234597
 21
8.604085
  0
LINE
  8
5
 62
94
  6
CONTINUOUS
 10
64.234597
 20
12.604085
 11
64.234597
 21
8.604085
  0
TEXT
  8
5
 62
94
  6
CONTINUOUS
 10
61.232528
 20
13.249366
 40
2.000000
 41
1.000000
  1
三角法
  7
KANJI
 50
0.000000
 51
0.000000
  0
LINE
  8
5
 62
94
  6
CONTINUOUS
 10
75.556448
 20
16.589321
 11
97.626822
 21
16.589321
  0
TEXT
  8
5
 62
94
  6
CONTINUOUS
 10
55.824656
 20
9.573573
 40
2.000000
 41
1.000000
  1
須藤
  7
KANJI
 50
0.000000
 51
0.000000
  0
TEXT
  8
5
 62
94
  6
CONTINUOUS
 10
62.548081
 20
17.466289
 40
2.000000
 41
1.000000
  1
２／１
  7
KANJI
 50
0.000000
 51
0.000000
  0
TEXT
  8
5
 62
94
  6
CONTINUOUS
 10
65.824656
 20
9.573573
 40
2.000000
 41
1.000000
  1
須藤
  7
KANJI
 50
0.000000
 51
0.000000
  0
LINE
  8
5
 62
94
  6
CONTINUOUS
 10
6.734597
 20
142.104085
 11
6.734597
 21
4.604085
  0
LINE
  8
5
 62
94
  6
CONTINUOUS
 10
6.734597
 20
4.604085
 11
99.234597
 21
4.604085
  0
LINE
  8
5
 62
94
  6
CONTINUOUS
 10
99.234597
 20
4.604085
 11
99.234597
 21
142.104085
  0
LINE
  8
5
 62
94
  6
CONTINUOUS
 10
99.234597
 20
142.104085
 11
6.734597
 21
142.104085
  0
TEXT
  8
5
 62
94
  6
CONTINUOUS
 10
75.695594
 20
13.530056
 40
2.000000
 41
1.000000
  1
φ10ｴｱﾊﾟｰｼﾞﾌｰﾄﾞ 外形図
  7
KANJI
 50
0.000000
 51
0.000000
  0
LINE
  8
2
 62
134
  6
CONTINUOUS
 10
69.493401
 20
118.169914
 11
77.580049
 21
126.295997
  0
LINE
  8
2
 62
134
  6
CONTINUOUS
 10
77.580049
 20
126.295997
 11
62.569786
 21
126.295997
  0
TEXT
  8
2
 62
134
  6
CONTINUOUS
 10
62.569786
 20
126.166509
 40
2.000000
 41
1.000000
  1
φ4ﾁｭｰﾌﾞﾌｨﾃｨﾝｸﾞ
  7
KANJI
 50
0.000000
 51
0.000000
  0
LINE
  8
2
 62
134
  6
CONTINUOUS
 10
69.493401
 20
118.169914
 11
69.991293
 21
119.037153
  0
LINE
  8
2
 62
134
  6
CONTINUOUS
 10
69.493401
 20
118.169914
 11
70.358208
 21
118.672019
  0
LINE
  8
2
 62
134
  6
CONTINUOUS
 10
69.991293
 20
119.037153
 11
70.358208
 21
118.672019
  0
LINE
  8
2
 62
134
  6
CONTINUOUS
 10
69.663738
 20
118.341082
 11
69.912684
 21
118.774702
  0
LINE
  8
2
 62
134
  6
CONTINUOUS
 10
69.663738
 20
118.341082
 11
70.096142
 21
118.592135
  0
LINE
  8
2
 62
134
  6
CONTINUOUS
 10
69.912684
 20
118.774702
 11
70.096142
 21
118.592135
  0
TEXT
  8
2
 62
134
  6
CONTINUOUS
 10
63.914215
 20
124.298906
 40
2.000000
 41
1.000000
  1
計装ｴｱ入口
  7
KANJI
 50
0.000000
 51
0.000000
  0
LINE
  8
2
 62
134
  6
CONTINUOUS
 10
63.120436
 20
87.647028
 11
69.413178
 21
79.282888
  0
LINE
  8
2
 62
134
  6
CONTINUOUS
 10
69.413178
 20
79.282888
 11
74.596302
 21
79.282888
  0
TEXT
  8
2
 62
134
  6
CONTINUOUS
 10
69.596302
 20
79.293795
 40
2.000000
 41
0.500000
  1
Oﾘﾝｸﾞ
  7
KANJI
 50
0.000000
 51
0.000000
  0
LINE
  8
2
 62
134
  6
CONTINUOUS
 10
63.120436
 20
87.647028
 11
63.907972
 21
87.030760
  0
LINE
  8
2
 62
134
  6
CONTINUOUS
 10
63.120436
 20
87.647028
 11
63.494329
 21
86.719556
  0
LINE
  8
2
 62
134
  6
CONTINUOUS
 10
63.907972
 20
87.030760
 11
63.494329
 21
86.719556
  0
LINE
  8
2
 62
134
  6
CONTINUOUS
 10
63.265615
 20
87.454061
 11
63.659383
 21
87.145927
  0
LINE
  8
2
 62
134
  6
CONTINUOUS
 10
63.265615
 20
87.454061
 11
63.452561
 21
86.990325
  0
LINE
  8
2
 62
134
  6
CONTINUOUS
 10
63.659383
 20
87.145927
 11
63.452561
 21
86.990325
  0
DIMENSION
  8
2
 62
134
  6
CONTINUOUS
  2
*D1
 10
28.393401
 20
82.291704
 11
44.729360
 21
82.291704
 70
     0
  1
35
 13
28.393401
 23
89.669914
 14
63.393401
 24
89.318961
 50
0.000000
  0
DIMENSION
  8
2
 62
134
  6
CONTINUOUS
  2
*D2
 10
63.393401
 20
82.291704
 11
65.595206
 21
82.291704
 70
     0
  1
5
 13
63.393401
 23
89.318961
 14
68.393401
 24
88.169914
 50
0.000000
  0
DIMENSION
  8
2
 62
134
  6
CONTINUOUS
  2
*D3
 10
73.056510
 20
88.669914
 11
73.056510
 21
96.669914
 70
     0
  1
M16P2
 13
68.893401
 23
88.669914
 14
68.893401
 24
104.669914
 50
90.000000
  0
LINE
  8
1
 62
7
  6
CONTINUOUS
 10
28.393401
 20
88.169914
 11
28.393401
 21
105.169914
  0
LINE
  8
1
 62
7
  6
CONTINUOUS
 10
59.393401
 20
88.111841
 11
59.393401
 21
87.669916
  0
LINE
  8
1
 62
7
  6
CONTINUOUS
 10
61.893401
 20
87.669916
 11
61.893401
 21
88.669914
  0
LINE
  8
1
 62
7
  6
CONTINUOUS
 10
58.393401
 20
88.111841
 11
58.393401
 21
87.669914
  0
LINE
  8
1
 62
7
  6
CONTINUOUS
 10
28.393401
 20
88.169914
 11
28.893401
 21
87.669914
  0
LINE
  8
1
 62
7
  6
CONTINUOUS
 10
58.393401
 20
87.669914
 11
28.893401
 21
87.669914
  0
LINE
  8
1
 62
7
  6
CONTINUOUS
 10
59.393401
 20
88.111841
 11
61.893401
 21
88.111841
  0
LINE
  8
1
 62
7
  6
CONTINUOUS
 10
59.393401
 20
87.669916
 11
61.893401
 21
87.669916
  0
LINE
  8
1
 62
7
  6
CONTINUOUS
 10
59.393401
 20
88.111841
 11
58.393401
 21
88.111841
  0
LINE
  8
1
 62
7
  6
CONTINUOUS
 10
63.393401
 20
104.669914
 11
63.393401
 21
103.587414
  0
LINE
  8
1
 62
7
  6
CONTINUOUS
 10
59.393401
 20
105.227988
 11
59.393401
 21
105.669913
  0
LINE
  8
1
 62
7
  6
CONTINUOUS
 10
61.893401
 20
105.669913
 11
61.893401
 21
104.669914
  0
LINE
  8
1
 62
7
  6
CONTINUOUS
 10
63.393401
 20
104.669914
 11
61.893401
 21
104.669914
  0
LINE
  8
1
 62
7
  6
CONTINUOUS
 10
58.393401
 20
105.227988
 11
58.393401
 21
105.669914
  0
LINE
  8
1
 62
7
  6
CONTINUOUS
 10
28.393401
 20
105.169914
 11
28.893401
 21
105.669914
  0
LINE
  8
1
 62
7
  6
CONTINUOUS
 10
58.393401
 20
105.669914
 11
28.893401
 21
105.669914
  0
LINE
  8
1
 62
7
  6
CONTINUOUS
 10
59.393401
 20
105.227988
 11
61.893401
 21
105.227988
  0
LINE
  8
1
 62
7
  6
CONTINUOUS
 10
59.393401
 20
105.669913
 11
61.893401
 21
105.669913
  0
LINE
  8
1
 62
7
  6
CONTINUOUS
 10
59.393401
 20
105.227988
 11
58.393401
 21
105.227988
  0
LINE
  8
1
 62
7
  6
DASHDOT
 10
54.393401
 20
106.243938
 11
54.393401
 21
97.842229
  0
LINE
  8
1
 62
7
  6
CONTINUOUS
 10
63.393401
 20
89.111840
 11
63.393401
 21
89.752414
  0
LINE
  8
1
 62
7
  6
DASHDOT
 10
26.649137
 20
96.669914
 11
70.155921
 21
96.669914
  0
LINE
  8
1
 62
7
  6
CONTINUOUS
 10
64.393401
 20
89.752414
 11
63.393401
 21
89.752414
  0
LINE
  8
1
 62
7
  6
CONTINUOUS
 10
64.393401
 20
88.669914
 11
64.393401
 21
89.752414
  0
LINE
  8
1
 62
7
  6
CONTINUOUS
 10
68.393401
 20
89.752414
 11
64.393401
 21
89.752414
  0
LINE
  8
1
 62
7
  6
CONTINUOUS
 10
64.393401
 20
88.669914
 11
68.393401
 21
88.669914
  0
LINE
  8
1
 62
7
  6
CONTINUOUS
 10
64.393401
 20
103.587414
 11
63.393401
 21
103.587414
  0
LINE
  8
1
 62
7
  6
CONTINUOUS
 10
64.393401
 20
104.669914
 11
64.393401
 21
103.587414
  0
LINE
  8
1
 62
7
  6
CONTINUOUS
 10
68.393401
 20
103.587414
 11
64.393401
 21
103.587414
  0
LINE
  8
1
 62
7
  6
CONTINUOUS
 10
64.393401
 20
104.669914
 11
68.393401
 21
104.669914
  0
LINE
  8
1
 62
7
  6
CONTINUOUS
 10
68.393401
 20
104.669914
 11
68.393401
 21
88.669914
  0
LINE
  8
1
 62
7
  6
CONTINUOUS
 10
63.393401
 20
88.669914
 11
61.893401
 21
88.669914
  0
LINE
  8
1
 62
7
  6
CONTINUOUS
 10
63.393401
 20
88.669914
 11
63.393401
 21
89.752414
  0
LINE
  8
1
 62
7
  6
DOT
 10
68.393401
 20
102.869912
 11
61.893401
 21
102.869910
  0
LINE
  8
1
 62
7
  6
DOT
 10
68.393401
 20
90.469917
 11
61.893401
 21
90.469918
  0
LINE
  8
1
 62
7
  6
DOT
 10
61.893401
 20
102.869910
 11
61.893401
 21
90.469918
  0
LINE
  8
1
 62
7
  6
DOT
 10
61.893401
 20
101.669914
 11
28.393401
 21
101.669914
  0
LINE
  8
1
 62
7
  6
DOT
 10
52.893401
 20
105.669914
 11
52.893401
 21
101.669914
  0
LINE
  8
1
 62
7
  6
DOT
 10
53.093401
 20
105.669914
 11
53.093401
 21
101.669914
  0
LINE
  8
1
 62
7
  6
DOT
 10
55.698989
 20
105.669914
 11
55.698989
 21
101.669914
  0
LINE
  8
1
 62
7
  6
DOT
 10
55.893401
 20
105.669914
 11
55.893401
 21
101.669914
  0
LINE
  8
1
 62
7
  6
DOT
 10
61.893401
 20
91.669914
 11
28.393401
 21
91.669914
  0
LINE
  8
3
 62
7
  6
CONTINUOUS
 10
59.393401
 20
107.669914
 11
59.393401
 21
85.669914
  0
LINE
  8
3
 62
7
  6
CONTINUOUS
 10
59.393401
 20
85.669914
 11
63.393401
 21
85.669914
  0
LINE
  8
3
 62
7
  6
CONTINUOUS
 10
59.393401
 20
107.669914
 11
63.393401
 21
107.669914
  0
LINE
  8
3
 62
7
  6
CONTINUOUS
 10
63.393401
 20
85.669914
 11
63.393401
 21
86.869914
  0
LINE
  8
3
 62
7
  6
DOT
 10
62.393401
 20
106.469914
 11
62.393401
 21
86.869914
  0
LINE
  8
3
 62
7
  6
DOT
 10
63.393401
 20
86.869914
 11
62.393401
 21
86.869914
  0
LINE
  8
3
 62
7
  6
DOT
 10
63.393401
 20
106.469914
 11
62.393401
 21
106.469914
  0
LINE
  8
3
 62
7
  6
DOT
 10
59.393401
 20
105.227989
 11
62.393401
 21
105.227989
  0
LINE
  8
3
 62
7
  6
DOT
 10
59.393401
 20
105.669914
 11
62.393401
 21
105.669914
  0
LINE
  8
3
 62
7
  6
DOT
 10
59.393401
 20
88.111840
 11
62.393401
 21
88.111840
  0
LINE
  8
3
 62
7
  6
DOT
 10
59.393401
 20
87.669914
 11
62.393401
 21
87.669914
  0
LINE
  8
3
 62
7
  6
CONTINUOUS
 10
63.393401
 20
107.669914
 11
63.393401
 21
86.869914
  0
LINE
  8
3
 62
7
  6
DASHDOT
 10
56.626125
 20
96.669914
 11
65.678936
 21
96.669914
  0
CIRCLE
  8
11
 62
251
  6
CONTINUOUS
 10
62.893401
 20
105.419914
 40
0.750000
  0
CIRCLE
  8
11
 62
251
  6
CONTINUOUS
 10
62.893401
 20
87.919914
 40
0.750000
  0
LINE
  8
6
 62
7
  6
DASHDOT
 10
54.393401
 20
122.329181
 11
54.393401
 21
102.466295
  0
LINE
  8
6
 62
7
  6
DASHDOT
 10
49.099209
 20
117.169914
 11
70.374881
 21
117.169914
  0
ARC
  8
6
 62
7
  6
CONTINUOUS
 10
54.176104
 20
107.887073
 40
5.304476
 50
61.553795
 51
78.946170
  0
ARC
  8
6
 62
7
  6
CONTINUOUS
 10
54.393397
 20
108.966320
 40
4.203594
 50
79.032543
 51
100.972113
  0
ARC
  8
6
 62
7
  6
CONTINUOUS
 10
54.610766
 20
107.886904
 40
5.304656
 50
101.057966
 51
118.445979
  0
ARC
  8
6
 62
7
  6
CONTINUOUS
 10
57.396763
 20
111.090929
 40
2.177562
 50
42.110188
 51
65.706506
  0
ARC
  8
6
 62
7
  6
CONTINUOUS
 10
57.857499
 20
112.118282
 40
1.051632
 50
65.557952
 51
114.446393
  0
ARC
  8
6
 62
7
  6
CONTINUOUS
 10
58.318376
 20
111.090754
 40
2.177779
 50
114.297085
 51
137.888779
  0
ARC
  8
6
 62
7
  6
CONTINUOUS
 10
50.468556
 20
110.898901
 40
2.177566
 50
-65.706337
 51
-42.110130
  0
ARC
  8
6
 62
7
  6
CONTINUOUS
 10
50.929298
 20
109.871547
 40
1.051633
 50
-114.446468
 51
-65.557877
  0
ARC
  8
6
 62
7
  6
CONTINUOUS
 10
51.390174
 20
110.899076
 40
2.177780
 50
-137.888771
 51
-114.297093
  0
ARC
  8
6
 62
7
  6
CONTINUOUS
 10
54.176104
 20
114.102756
 40
5.304476
 50
-78.946170
 51
-61.553795
  0
ARC
  8
6
 62
7
  6
CONTINUOUS
 10
54.393395
 20
113.023508
 40
4.203594
 50
-100.972077
 51
-79.032507
  0
ARC
  8
6
 62
7
  6
CONTINUOUS
 10
54.610769
 20
114.102924
 40
5.304657
 50
-118.446013
 51
-101.058000
  0
ARC
  8
6
 62
7
  6
CONTINUOUS
 10
57.396763
 20
110.898900
 40
2.177562
 50
-65.706506
 51
-42.110188
  0
ARC
  8
6
 62
7
  6
CONTINUOUS
 10
57.857498
 20
109.871546
 40
1.051632
 50
-114.446327
 51
-65.557886
  0
ARC
  8
6
 62
7
  6
CONTINUOUS
 10
58.318379
 20
110.899074
 40
2.177780
 50
-137.888831
 51
-114.297137
  0
ARC
  8
6
 62
7
  6
CONTINUOUS
 10
50.468558
 20
111.090927
 40
2.177564
 50
42.110182
 51
65.706389
  0
ARC
  8
6
 62
7
  6
CONTINUOUS
 10
50.929298
 20
112.118281
 40
1.051633
 50
65.557877
 51
114.446468
  0
ARC
  8
6
 62
7
  6
CONTINUOUS
 10
51.390172
 20
111.090752
 40
2.177779
 50
114.297041
 51
137.888719
  0
LINE
  8
6
 62
7
  6
CONTINUOUS
 10
56.162799
 20
114.747265
 11
55.278100
 21
115.958589
  0
LINE
  8
6
 62
7
  6
CONTINUOUS
 10
55.278100
 20
115.958589
 11
54.393401
 21
117.169914
  0
LINE
  8
6
 62
7
  6
CONTINUOUS
 10
56.162799
 20
114.747265
 11
57.278100
 21
114.458589
  0
LINE
  8
6
 62
7
  6
CONTINUOUS
 10
57.278100
 20
114.458589
 11
58.393401
 21
114.169914
  0
ARC
  8
6
 62
7
  6
CONTINUOUS
 10
54.393401
 20
117.169914
 40
4.000000
 50
90.000003
 51
180.000000
  0
ARC
  8
6
 62
7
  6
CONTINUOUS
 10
54.393401
 20
117.169914
 40
3.000000
 50
90.000003
 51
180.000000
  0
ARC
  8
6
 62
7
  6
CONTINUOUS
 10
69.293401
 20
121.869915
 40
0.200000
 50
0.000000
 51
90.000000
  0
ARC
  8
6
 62
7
  6
CONTINUOUS
 10
69.293401
 20
112.469914
 40
0.200000
 50
-90.000000
 51
0.000000
  0
ARC
  8
6
 62
7
  6
CONTINUOUS
 10
54.424774
 20
117.138541
 40
4.000000
 50
90.000003
 51
180.000000
  0
LINE
  8
6
 62
7
  6
CONTINUOUS
 10
50.393401
 20
113.169914
 11
58.393401
 21
113.169914
  0
LINE
  8
6
 62
7
  6
CONTINUOUS
 10
54.393401
 20
121.169914
 11
64.893401
 21
121.169914
  0
LINE
  8
6
 62
7
  6
CONTINUOUS
 10
66.893401
 20
121.169914
 11
66.893401
 21
113.169914
  0
LINE
  8
6
 62
7
  6
CONTINUOUS
 10
58.393401
 20
114.169914
 11
58.393401
 21
113.169914
  0
LINE
  8
6
 62
7
  6
CONTINUOUS
 10
50.393401
 20
117.169914
 11
50.393401
 21
113.169914
  0
LINE
  8
6
 62
7
  6
CONTINUOUS
 10
59.393401
 20
120.169914
 11
59.393401
 21
114.169914
  0
LINE
  8
6
 62
7
  6
CONTINUOUS
 10
59.970751
 20
113.169914
 11
64.893401
 21
113.169914
  0
LINE
  8
6
 62
7
  6
CONTINUOUS
 10
58.393401
 20
114.169914
 11
59.393401
 21
114.169914
  0
LINE
  8
6
 62
7
  6
CONTINUOUS
 10
54.393401
 20
120.169914
 11
59.393401
 21
120.169914
  0
LINE
  8
6
 62
7
  6
CONTINUOUS
 10
59.393401
 20
114.169914
 11
59.970751
 21
113.169914
  0
LINE
  8
6
 62
7
  6
CONTINUOUS
 10
50.424774
 20
114.169914
 11
58.393401
 21
114.169914
  0
LINE
  8
6
 62
7
  6
CONTINUOUS
 10
51.393401
 20
117.169914
 11
51.393401
 21
114.747265
  0
LINE
  8
6
 62
7
  6
CONTINUOUS
 10
51.393401
 20
114.747265
 11
56.162799
 21
114.747265
  0
LINE
  8
6
 62
7
  6
CONTINUOUS
 10
59.970751
 20
121.138541
 11
59.970751
 21
113.169914
  0
LINE
  8
6
 62
7
  6
CONTINUOUS
 10
64.893401
 20
121.169914
 11
64.893401
 21
113.169914
  0
LINE
  8
6
 62
7
  6
CONTINUOUS
 10
64.893400
 20
121.169915
 11
66.893400
 21
121.065099
  0
LINE
  8
6
 62
7
  6
CONTINUOUS
 10
64.893401
 20
113.169914
 11
66.893401
 21
113.274730
  0
LINE
  8
6
 62
7
  6
CONTINUOUS
 10
67.593401
 20
120.969914
 11
67.593401
 21
113.369914
  0
LINE
  8
6
 62
7
  6
CONTINUOUS
 10
67.393401
 20
121.169914
 11
66.893401
 21
121.169914
  0
LINE
  8
6
 62
7
  6
CONTINUOUS
 10
67.393401
 20
113.169914
 11
66.893401
 21
113.169914
  0
LINE
  8
6
 62
7
  6
CONTINUOUS
 10
68.293401
 20
119.769914
 11
67.593401
 21
119.769914
  0
LINE
  8
6
 62
7
  6
CONTINUOUS
 10
68.293401
 20
114.569914
 11
67.593401
 21
114.569914
  0
LINE
  8
6
 62
7
  6
CONTINUOUS
 10
67.393402
 20
121.169914
 11
67.593402
 21
120.969914
  0
LINE
  8
6
 62
7
  6
CONTINUOUS
 10
67.593401
 20
113.369914
 11
67.393401
 21
113.169914
  0
LINE
  8
6
 62
7
  6
CONTINUOUS
 10
68.293401
 20
122.069914
 11
68.293401
 21
112.269914
  0
LINE
  8
6
 62
7
  6
CONTINUOUS
 10
69.493401
 20
121.869915
 11
69.493401
 21
112.469914
  0
LINE
  8
6
 62
7
  6
HIDDEN
 10
58.493401
 20
119.169914
 11
58.493401
 21
115.169914
  0
LINE
  8
6
 62
7
  6
CONTINUOUS
 10
69.293401
 20
122.069914
 11
68.293401
 21
122.069914
  0
LINE
  8
6
 62
7
  6
CONTINUOUS
 10
69.293401
 20
112.269914
 11
68.293401
 21
112.269914
  0
LINE
  8
6
 62
7
  6
HIDDEN
 10
58.493401
 20
115.169914
 11
69.493401
 21
115.169914
  0
LINE
  8
6
 62
7
  6
HIDDEN
 10
58.493401
 20
119.169914
 11
69.493401
 21
119.169914
  0
LINE
  8
6
 62
7
  6
CONTINUOUS
 10
67.393401
 20
121.169914
 11
67.393401
 21
113.169914
  0
LINE
  8
6
 62
7
  6
CONTINUOUS
 10
50.424774
 20
117.138541
 11
50.424774
 21
114.169914
  0
LINE
  8
6
 62
7
  6
CONTINUOUS
 10
54.424774
 20
121.138541
 11
59.970751
 21
121.138541
  0
LINE
  8
6
 62
7
  6
CONTINUOUS
 10
59.393401
 20
120.169914
 11
59.970751
 21
121.138541
  0
LINE
  8
6
 62
7
  6
CONTINUOUS
 10
55.622901
 20
105.669914
 11
55.622901
 21
103.199413
  0
LINE
  8
6
 62
7
  6
CONTINUOUS
 10
53.163901
 20
105.669914
 11
53.163901
 21
103.199413
  0
LINE
  8
6
 62
7
  6
CONTINUOUS
 10
52.893401
 20
105.025575
 11
52.893401
 21
103.469913
  0
LINE
  8
6
 62
7
  6
CONTINUOUS
 10
55.893401
 20
105.025575
 11
55.893401
 21
103.469913
  0
LINE
  8
6
 62
7
  6
CONTINUOUS
 10
53.143401
 20
105.669914
 11
53.143401
 21
105.169914
  0
LINE
  8
6
 62
7
  6
CONTINUOUS
 10
51.643401
 20
106.169914
 11
57.143401
 21
106.169914
  0
LINE
  8
6
 62
7
  6
CONTINUOUS
 10
53.193400
 20
103.169914
 11
55.593402
 21
103.169914
  0
LINE
  8
6
 62
7
  6
CONTINUOUS
 10
53.143401
 20
105.169914
 11
55.643401
 21
105.169914
  0
LINE
  8
6
 62
7
  6
CONTINUOUS
 10
51.543403
 20
107.669914
 11
51.543403
 21
106.469913
  0
LINE
  8
6
 62
7
  6
CONTINUOUS
 10
57.243399
 20
107.669914
 11
57.243399
 21
106.469913
  0
LINE
  8
6
 62
7
  6
CONTINUOUS
 10
55.643401
 20
105.669914
 11
55.643401
 21
105.169914
  0
LINE
  8
6
 62
7
  6
CONTINUOUS
 10
57.243400
 20
106.469914
 11
56.943400
 21
106.169915
  0
LINE
  8
6
 62
7
  6
CONTINUOUS
 10
51.543401
 20
106.469914
 11
51.843400
 21
106.169915
  0
LINE
  8
6
 62
7
  6
CONTINUOUS
 10
52.893402
 20
105.025575
 11
53.143402
 21
105.169913
  0
LINE
  8
6
 62
7
  6
CONTINUOUS
 10
55.643401
 20
105.169913
 11
55.893399
 21
105.025577
  0
LINE
  8
6
 62
7
  6
CONTINUOUS
 10
52.893400
 20
103.469916
 11
53.193402
 21
103.169914
  0
LINE
  8
6
 62
7
  6
CONTINUOUS
 10
55.893402
 20
103.469913
 11
55.593402
 21
103.169913
  0
LINE
  8
6
 62
7
  6
CONTINUOUS
 10
52.893401
 20
103.469913
 11
55.893401
 21
103.469913
  0
LINE
  8
6
 62
7
  6
CONTINUOUS
 10
52.893401
 20
105.025575
 11
55.893401
 21
105.025575
  0
LINE
  8
6
 62
7
  6
CONTINUOUS
 10
51.543403
 20
106.469913
 11
57.243399
 21
106.469913
  0
LINE
  8
6
 62
7
  6
CONTINUOUS
 10
51.643401
 20
105.669914
 11
57.143401
 21
105.669914
  0
LINE
  8
6
 62
7
  6
CONTINUOUS
 10
51.643401
 20
106.169914
 11
51.643401
 21
105.669914
  0
LINE
  8
6
 62
7
  6
CONTINUOUS
 10
57.143401
 20
106.169914
 11
57.143401
 21
105.669914
  0
LINE
  8
6
 62
7
  6
CONTINUOUS
 10
49.774600
 20
112.551111
 11
49.774600
 21
109.438717
  0
LINE
  8
6
 62
7
  6
CONTINUOUS
 10
59.012202
 20
112.551111
 11
59.012202
 21
109.438717
  0
LINE
  8
6
 62
7
  6
CONTINUOUS
 10
52.083999
 20
112.551111
 11
52.083999
 21
109.438717
  0
LINE
  8
6
 62
7
  6
CONTINUOUS
 10
56.702803
 20
112.551111
 11
56.702803
 21
109.438717
  0
LINE
  8
6
 62
7
  6
CONTINUOUS
 10
58.393400
 20
113.169915
 11
59.012205
 21
112.551110
  0
LINE
  8
6
 62
7
  6
CONTINUOUS
 10
49.774600
 20
109.438715
 11
51.543400
 21
107.669914
  0
LINE
  8
6
 62
7
  6
CONTINUOUS
 10
57.243401
 20
107.669914
 11
59.012204
 21
109.438716
  0
LINE
  8
6
 62
7
  6
CONTINUOUS
 10
51.543403
 20
107.669914
 11
57.243399
 21
107.669914
  0
LINE
  8
6
 62
7
  6
CONTINUOUS
 10
49.774598
 20
112.551112
 11
50.393401
 21
113.169914
  0
DIMENSION
  8
2
 62
134
  6
CONTINUOUS
  2
*D4
 10
22.340065
 20
91.669914
 11
22.340065
 21
96.669914
 70
     0
  1
φ10
 13
27.893401
 23
91.669914
 14
27.893401
 24
101.669914
 50
90.000000
  0
DIMENSION
  8
2
 62
134
  6
CONTINUOUS
  2
*D5
 10
18.901836
 20
87.669914
 11
18.901836
 21
96.669914
 70
     0
  1
φ18
 13
28.393401
 23
87.669914
 14
28.393401
 24
105.669914
 50
90.000000
  0
DIMENSION
  8
2
 62
134
  6
CONTINUOUS
  2
*D6
 10
46.010946
 20
96.669914
 11
46.010946
 21
111.475258
 70
     0
  1
24.5
 13
46.010946
 23
96.669914
 14
53.893401
 24
121.169914
 50
90.000000
  0
DIMENSION
  8
2
 62
134
  6
CONTINUOUS
  2
*D7
 10
28.393401
 20
125.360412
 11
41.514801
 21
125.360412
 70
     0
  1
26
 13
28.393401
 23
105.669914
 14
54.393401
 24
122.829181
 50
0.000000
  0
LINE
  8
2
 62
134
  6
CONTINUOUS
 10
59.882637
 20
85.684603
 11
56.635051
 21
79.282888
  0
LINE
  8
2
 62
134
  6
CONTINUOUS
 10
56.635051
 20
79.282888
 11
53.263096
 21
79.282888
  0
TEXT
  8
2
 62
134
  6
CONTINUOUS
 10
53.263096
 20
79.323582
 40
2.000000
 41
0.500000
  1
ﾅｯﾄ
  7
KANJI
 50
0.000000
 51
0.000000
  0
LINE
  8
2
 62
134
  6
CONTINUOUS
 10
59.882637
 20
85.684603
 11
59.676456
 21
84.706089
  0
LINE
  8
2
 62
134
  6
CONTINUOUS
 10
59.882637
 20
85.684603
 11
59.214822
 21
84.940276
  0
LINE
  8
2
 62
134
  6
CONTINUOUS
 10
59.676456
 20
84.706089
 11
59.214822
 21
84.940276
  0
LINE
  8
2
 62
134
  6
CONTINUOUS
 10
59.773388
 20
85.469248
 11
59.670297
 21
84.979991
  0
LINE
  8
2
 62
134
  6
CONTINUOUS
 10
59.773388
 20
85.469248
 11
59.439480
 21
85.097084
  0
LINE
  8
2
 62
134
  6
CONTINUOUS
 10
59.670297
 20
84.979991
 11
59.439480
 21
85.097084
  0
TEXT
  8
5
 62
94
  6
CONTINUOUS
 10
76.811453
 20
17.600784
 40
2.000000
 41
1.000000
  1
ＴＭＰＸ－Ａ１
  7
KANJI
 50
0.000000
 51
0.000000
  0
TEXT
  8
5
 62
94
  6
CONTINUOUS
 10
74.858890
 20
9.573573
 40
2.000000
 41
1.000000
  1
００５－０６５－Ａ１２１
  7
KANJI
 50
0.000000
 51
0.000000
  0
TEXT
  8
5
 62
94
  6
CONTINUOUS
 10
44.277904
 20
13.519931
 40
2.000000
 41
0.500000
  1
2013/04/23
  7
KANJI
 50
0.000000
 51
0.000000
  0
TEXT
  8
2
 62
134
  6
CONTINUOUS
 10
42.154839
 20
70.812903
 40
2.000000
 41
1.000000
  1
質量：25g
  7
KANJI
 50
0.000000
 51
0.000000
  0
ENDSEC
  0
EOF
