  0
SECTION
  2
HEADER
  9
$ACADVER
  1
AC1009
  9
$INSBASE
 10
0.000000
 20
0.000000
  9
$EXTMIN
 10
0.000000
 20
0.000000
  9
$EXTMAX
 10
105.000000
 20
148.500000
  9
$LIMMIN
 10
0.000000
 20
0.000000
  9
$LIMMAX
 10
105.000000
 20
148.500000
  9
$VIEWCTR
 10
52.500000
 20
74.250000
  9
$VIEWSIZE
 40
148.500000
  9
$PEXTMIN
 10
0.000000
 20
0.000000
 30
0.000000
  9
$PEXTMAX
 10
210.000000
 20
297.000000
 30
0.000000
  9
$SNAPMODE
 70
     0
  9
$SNAPUNIT
 10
1.000000
 20
1.000000
  9
$SNAPBASE
 10
0.000000
 20
0.000000
  9
$SNAPANG
 50
0.000000
  9
$SNAPISOPAIR
 70
     0
  9
$SNAPSTYLE
 70
     0
  9
$GRIDMODE
 70
     0
  9
$GRIDUNIT
 10
0.000000
 20
0.000000
  9
$ORTHOMODE
 70
     0
  9
$REGENMODE
 70
     1
  9
$FILLMODE
 70
     1
  9
$QTEXTMODE
 70
     0
  9
$DRAGMODE
 70
     2
  9
$LTSCALE
 40
0.125000
  9
$OSMODE
 70
     0
  9
$ATTMODE
 70
     1
  9
$TEXTSIZE
 40
2.000000
  9
$TRACEWID
 40
0.050000
  9
$TEXTSTYLE
  7
STANDARD
  9
$CLAYER
  8
0
  9
$CELTYPE
  6
BYLAYER
  9
$CECOLOR
 62
   256
  9
$DIMSCALE
 40
1.000000
  9
$DIMASZ
 40
1.000000
  9
$DIMEXO
 40
0.000000
  9
$DIMDLI
 40
0.500000
  9
$DIMRND
 40
0.000000
  9
$DIMDLE
 40
0.000000
  9
$DIMEXE
 40
0.000000
  9
$DIMTP
 40
0.000000
  9
$DIMTM
 40
0.000000
  9
$DIMTXT
 40
4.000000
  9
$DIMCEN
 40
0.000000
  9
$DIMTSZ
 40
0.000000
  9
$DIMTOL
 70
     0
  9
$DIMLIM
 70
     0
  9
$DIMTIH
 70
     1
  9
$DIMTOH
 70
     1
  9
$DIMSE1
 70
     0
  9
$DIMSE2
 70
     0
  9
$DIMTAD
 70
     0
  9
$DIMZIN
 70
     0
  9
$DIMBLK
  1

  9
$DIMASO
 70
     0
  9
$DIMSHO
 70
     0
  9
$DIMPOST
  1

  9
$DIMAPOST
  1

  9
$DIMALT
 70
     0
  9
$DIMALTD
 70
     0
  9
$DIMALTF
 40
25.400000
  9
$DIMLFAC
 40
1.000000
  9
$DIMTOFL
 70
     0
  9
$DIMTVP
 40
0.000000
  9
$DIMTIX
 70
     0
  9
$DIMSOXD
 70
     0
  9
$DIMSAH
 70
     0
  9
$DIMBLKL
  1

  9
$DIMBLKR
  1

  9
$LUNITS
 70
     2
  9
$LUPREC
 70
     2
  9
$AXISMODE
 70
     0
  9
$AXISUNIT
 10
1.000000
 20
1.000000
  9
$SKETCHINC
 40
0.000000
  9
$FILLETRAD
 40
0.000000
  9
$AUNITS
 70
     1
  9
$AUPREC
 70
     2
  9
$MENU
  1
ACAD
  9
$ELEVATION
 40
0.000000
  9
$THICKNESS
 40
0.000000
  9
$VIEWDIR
 10
0.000000
 20
0.000000
 30
1.000000
  9
$LIMCHECK
 70
     1
  9
$BLIPMODE
 70
     1
  9
$CHAMFERA
 40
0.000000
  9
$CHAMFERB
 40
0.000000
  9
$FASTZOOM
 70
     1
  9
$SKPOLY
 70
     0
  9
$TDCREATE
 40
0.000000
  9
$TDUPDATE
 40
0.000000
  9
$TDINDWG
 40
0.000000
  9
$TDUSRTIMER
 40
0.000000
  9
$USRTIMER
 70
     1
  9
$ANGBASE
 50
0.000000
  9
$ANGDIR
 70
     0
  9
$PDMODE
 70
     0
  9
$PDSIZE
 40
0.000000
  9
$PLINEWID
 40
0.000000
  9
$COORDS
 70
     2
  9
$USERI1
 70
     0
  9
$USERI2
 70
     0
  9
$USERI3
 70
     0
  9
$USERI4
 70
     0
  9
$USERI5
 70
     0
  9
$USERR1
 40
0.000000
  9
$USERR2
 40
0.000000
  9
$USERR3
 40
0.000000
  9
$USERR4
 40
0.000000
  9
$USERR5
 40
0.000000
  0
ENDSEC
  0
SECTION
  2
TABLES
  0
TABLE
  2
LTYPE
 70
     5
  0
LTYPE
  2
CONTINUOUS
 70
    64
  3
Solid line
 72
    65
 73
     0
 40
0.0
  0
LTYPE
  2
HIDDEN
 70
    64
  3
------------------------
 72
    65
 73
     2
 40
12.6
 49
8.4
 49
-4.2
  0
LTYPE
  2
DOT
 70
    64
  3
････････････････････････
 72
    65
 73
     2
 40
8.0
 49
6.0
 49
-2.0
  0
LTYPE
  2
DASHDOT
 70
    64
  3
--･--･--･--･--･--･--･--
 72
    65
 73
     4
 40
50.5
 49
30.0
 49
-9.0
 49
2.5
 49
-9.0
  0
LTYPE
  2
DIVIDE
 70
    64
  3
--･･--･･--･･--･･--･･--
 72
    65
 73
     6
 40
58.0
 49
30.0
 49
-9.0
 49
2.5
 49
-5.0
 49
2.5
 49
-9.0
  0
LTYPE
  2
ACAD_ISO06W100
 70
    64
  3
____ ... ____ ... ____
 72
    65
 73
     8
 40
37.5
 49
24.0
 49
-3.0
 49
0.5
 49
-3.0
 49
0.5
 49
-3.0
 49
0.5
 49
-3.0
  0
LTYPE
  2
ACAD_ISO14W100
 70
    64
  3
__ . . . __ . . . __ . . . 
 72
    65
 73
     8
 40
25.5
 49
12.0
 49
-3.0
 49
0.5
 49
-3.0
 49
0.5
 49
-3.0
 49
0.5
 49
-3.0
  0
ENDTAB
  0
TABLE
  2
LAYER
 70
5
  0
LAYER
  2
1
 70
64
 62
7
  6
CONTINUOUS
  0
LAYER
  2
2
 70
64
 62
134
  6
CONTINUOUS
  0
LAYER
  2
4
 70
64
 62
54
  6
CONTINUOUS
  0
LAYER
  2
5
 70
64
 62
94
  6
CONTINUOUS
  0
LAYER
  2
11
 70
64
 62
251
  6
CONTINUOUS
  0
ENDTAB
  0
TABLE
  2
STYLE
 70
     2
  0
STYLE
  2
STANDARD
 70
    64
 40
0.0
 41
1.0
 50
0.0
 71
     0
 42
0.2
  3
TXT
  4

  0
STYLE
  2
KANJI
 70
    64
 40
0.0
 41
1.0
 50
0.0
 71
     0
 42
0.2
  3
TXT
  4
BIGFONT
  0
ENDTAB
  0
TABLE
  2
VIEW
 70
     0
  0
ENDTAB
  0
ENDSEC
  0
SECTION
  2
BLOCKS
  0
BLOCK
  8
2
 62
134
  6
CONTINUOUS
  2
*D1
 70
    65
 10
0.0
 20
0.0
  0
LINE
  8
2
 62
134
  6
CONTINUOUS
 10
56.679181
 20
88.669914
 11
56.679181
 21
104.669914
  0
LINE
  8
2
 62
134
  6
CONTINUOUS
 10
57.179181
 20
88.669914
 11
52.494780
 21
88.669914
  0
LINE
  8
2
 62
134
  6
CONTINUOUS
 10
57.179181
 20
104.669914
 11
52.494780
 21
104.669914
  0
LINE
  8
2
 62
134
  6
CONTINUOUS
 10
56.679181
 20
88.669914
 11
56.420362
 21
89.635840
  0
LINE
  8
2
 62
134
  6
CONTINUOUS
 10
56.679181
 20
88.669914
 11
56.938000
 21
89.635840
  0
LINE
  8
2
 62
134
  6
CONTINUOUS
 10
56.420362
 20
89.635840
 11
56.938000
 21
89.635840
  0
LINE
  8
2
 62
134
  6
CONTINUOUS
 10
56.679181
 20
88.911396
 11
56.549771
 21
89.394359
  0
LINE
  8
2
 62
134
  6
CONTINUOUS
 10
56.679181
 20
88.911396
 11
56.808590
 21
89.394359
  0
LINE
  8
2
 62
134
  6
CONTINUOUS
 10
56.549771
 20
89.394359
 11
56.808590
 21
89.394359
  0
LINE
  8
2
 62
134
  6
CONTINUOUS
 10
56.679181
 20
104.669914
 11
56.938000
 21
103.703989
  0
LINE
  8
2
 62
134
  6
CONTINUOUS
 10
56.679181
 20
104.669914
 11
56.420362
 21
103.703989
  0
LINE
  8
2
 62
134
  6
CONTINUOUS
 10
56.938000
 20
103.703989
 11
56.420362
 21
103.703989
  0
LINE
  8
2
 62
134
  6
CONTINUOUS
 10
56.679181
 20
104.428433
 11
56.808590
 21
103.945470
  0
LINE
  8
2
 62
134
  6
CONTINUOUS
 10
56.679181
 20
104.428433
 11
56.549771
 21
103.945470
  0
LINE
  8
2
 62
134
  6
CONTINUOUS
 10
56.808590
 20
103.945470
 11
56.549771
 21
103.945470
  0
TEXT
  8
2
 62
134
  6
CONTINUOUS
 10
56.679181
 20
92.669914
 40
2.000000
 41
0.500000
  1
M16P0.75
  7
KANJI
 50
90.000000
 51
0.000000
  0
ENDBLK
  0
BLOCK
  8
2
 62
134
  6
CONTINUOUS
  2
*D2
 70
    65
 10
0.0
 20
0.0
  0
LINE
  8
2
 62
134
  6
CONTINUOUS
 10
41.994780
 20
78.650517
 11
51.994780
 21
78.650517
  0
LINE
  8
2
 62
134
  6
CONTINUOUS
 10
41.994780
 20
78.150517
 11
41.994780
 21
86.669918
  0
LINE
  8
2
 62
134
  6
CONTINUOUS
 10
51.994780
 20
78.150517
 11
51.994780
 21
88.169914
  0
LINE
  8
2
 62
134
  6
CONTINUOUS
 10
41.994780
 20
78.650517
 11
42.960706
 21
78.909336
  0
LINE
  8
2
 62
134
  6
CONTINUOUS
 10
41.994780
 20
78.650517
 11
42.960706
 21
78.391698
  0
LINE
  8
2
 62
134
  6
CONTINUOUS
 10
42.960706
 20
78.909336
 11
42.960706
 21
78.391698
  0
LINE
  8
2
 62
134
  6
CONTINUOUS
 10
42.236262
 20
78.650517
 11
42.719225
 21
78.779926
  0
LINE
  8
2
 62
134
  6
CONTINUOUS
 10
42.236262
 20
78.650517
 11
42.719225
 21
78.521107
  0
LINE
  8
2
 62
134
  6
CONTINUOUS
 10
42.719225
 20
78.779926
 11
42.719225
 21
78.521107
  0
LINE
  8
2
 62
134
  6
CONTINUOUS
 10
51.994780
 20
78.650517
 11
51.028854
 21
78.391698
  0
LINE
  8
2
 62
134
  6
CONTINUOUS
 10
51.994780
 20
78.650517
 11
51.028854
 21
78.909336
  0
LINE
  8
2
 62
134
  6
CONTINUOUS
 10
51.028854
 20
78.391698
 11
51.028854
 21
78.909336
  0
LINE
  8
2
 62
134
  6
CONTINUOUS
 10
51.753299
 20
78.650517
 11
51.270336
 21
78.521107
  0
LINE
  8
2
 62
134
  6
CONTINUOUS
 10
51.753299
 20
78.650517
 11
51.270336
 21
78.779926
  0
LINE
  8
2
 62
134
  6
CONTINUOUS
 10
51.270336
 20
78.521107
 11
51.270336
 21
78.779926
  0
TEXT
  8
2
 62
134
  6
CONTINUOUS
 10
45.848587
 20
78.650517
 40
2.000000
 41
0.500000
  1
10
  7
KANJI
 50
0.000000
 51
0.000000
  0
ENDBLK
  0
BLOCK
  8
2
 62
134
  6
CONTINUOUS
  2
*D3
 70
    65
 10
0.0
 20
0.0
  0
LINE
  8
2
 62
134
  6
CONTINUOUS
 10
37.017993
 20
86.669914
 11
37.017993
 21
106.669914
  0
LINE
  8
2
 62
134
  6
CONTINUOUS
 10
36.517993
 20
86.669914
 11
41.994780
 21
86.669914
  0
LINE
  8
2
 62
134
  6
CONTINUOUS
 10
36.517993
 20
106.669914
 11
41.994780
 21
106.669914
  0
LINE
  8
2
 62
134
  6
CONTINUOUS
 10
37.017993
 20
86.669914
 11
36.759173
 21
87.635840
  0
LINE
  8
2
 62
134
  6
CONTINUOUS
 10
37.017993
 20
86.669914
 11
37.276812
 21
87.635840
  0
LINE
  8
2
 62
134
  6
CONTINUOUS
 10
36.759173
 20
87.635840
 11
37.276812
 21
87.635840
  0
LINE
  8
2
 62
134
  6
CONTINUOUS
 10
37.017993
 20
86.911396
 11
36.888583
 21
87.394359
  0
LINE
  8
2
 62
134
  6
CONTINUOUS
 10
37.017993
 20
86.911396
 11
37.147402
 21
87.394359
  0
LINE
  8
2
 62
134
  6
CONTINUOUS
 10
36.888583
 20
87.394359
 11
37.147402
 21
87.394359
  0
LINE
  8
2
 62
134
  6
CONTINUOUS
 10
37.017993
 20
106.669914
 11
37.276812
 21
105.703989
  0
LINE
  8
2
 62
134
  6
CONTINUOUS
 10
37.017993
 20
106.669914
 11
36.759173
 21
105.703989
  0
LINE
  8
2
 62
134
  6
CONTINUOUS
 10
37.276812
 20
105.703989
 11
36.759173
 21
105.703989
  0
LINE
  8
2
 62
134
  6
CONTINUOUS
 10
37.017993
 20
106.428433
 11
37.147402
 21
105.945470
  0
LINE
  8
2
 62
134
  6
CONTINUOUS
 10
37.017993
 20
106.428433
 11
36.888583
 21
105.945470
  0
LINE
  8
2
 62
134
  6
CONTINUOUS
 10
37.147402
 20
105.945470
 11
36.888583
 21
105.945470
  0
TEXT
  8
2
 62
134
  6
CONTINUOUS
 10
37.017993
 20
93.669914
 40
2.000000
 41
1.000000
  1
φ20.5
  7
KANJI
 50
90.000000
 51
0.000000
  0
ENDBLK
  0
BLOCK
  8
2
 62
134
  6
CONTINUOUS
  2
*D4
 70
    65
 10
0.0
 20
0.0
  0
LINE
  8
2
 62
134
  6
CONTINUOUS
 10
48.994780
 20
82.312895
 11
51.994780
 21
82.312895
  0
LINE
  8
2
 62
134
  6
CONTINUOUS
 10
48.994780
 20
81.812895
 11
48.994780
 21
88.611840
  0
LINE
  8
2
 62
134
  6
CONTINUOUS
 10
51.994780
 20
81.812895
 11
51.994780
 21
88.169914
  0
LINE
  8
2
 62
134
  6
CONTINUOUS
 10
48.994780
 20
82.312895
 11
49.960706
 21
82.571714
  0
LINE
  8
2
 62
134
  6
CONTINUOUS
 10
48.994780
 20
82.312895
 11
49.960706
 21
82.054076
  0
LINE
  8
2
 62
134
  6
CONTINUOUS
 10
49.960706
 20
82.571714
 11
49.960706
 21
82.054076
  0
LINE
  8
2
 62
134
  6
CONTINUOUS
 10
49.236262
 20
82.312895
 11
49.719225
 21
82.442304
  0
LINE
  8
2
 62
134
  6
CONTINUOUS
 10
49.236262
 20
82.312895
 11
49.719225
 21
82.183485
  0
LINE
  8
2
 62
134
  6
CONTINUOUS
 10
49.719225
 20
82.442304
 11
49.719225
 21
82.183485
  0
LINE
  8
2
 62
134
  6
CONTINUOUS
 10
51.994780
 20
82.312895
 11
51.028854
 21
82.054076
  0
LINE
  8
2
 62
134
  6
CONTINUOUS
 10
51.994780
 20
82.312895
 11
51.028854
 21
82.571714
  0
LINE
  8
2
 62
134
  6
CONTINUOUS
 10
51.028854
 20
82.054076
 11
51.028854
 21
82.571714
  0
LINE
  8
2
 62
134
  6
CONTINUOUS
 10
51.753299
 20
82.312895
 11
51.270336
 21
82.183485
  0
LINE
  8
2
 62
134
  6
CONTINUOUS
 10
51.753299
 20
82.312895
 11
51.270336
 21
82.442304
  0
LINE
  8
2
 62
134
  6
CONTINUOUS
 10
51.270336
 20
82.183485
 11
51.270336
 21
82.442304
  0
TEXT
  8
2
 62
134
  6
CONTINUOUS
 10
49.868442
 20
82.312895
 40
2.000000
 41
0.500000
  1
3
  7
KANJI
 50
0.000000
 51
0.000000
  0
ENDBLK
  0
ENDSEC
  0
SECTION
  2
ENTITIES
  0
TEXT
  8
5
 62
94
  6
CONTINUOUS
 10
62.215971
 20
12.429830
 40
0.875000
 41
4.000000
  1
製図
  7
KANJI
 50
-90.000000
 51
0.000000
  0
TEXT
  8
5
 62
94
  6
CONTINUOUS
 10
72.132362
 20
12.347876
 40
0.875000
 41
4.000000
  1
図番
  7
KANJI
 50
-90.000000
 51
0.000000
  0
TEXT
  8
5
 62
94
  6
CONTINUOUS
 10
72.132362
 20
18.986121
 40
0.875000
 41
4.000000
  1
図　名
  7
KANJI
 50
-90.000000
 51
0.000000
  0
TEXT
  8
5
 62
94
  6
CONTINUOUS
 10
39.678720
 20
16.281651
 40
0.875000
 41
4.000000
  1
日付
  7
KANJI
 50
-90.000000
 51
0.000000
  0
TEXT
  8
5
 62
94
  6
CONTINUOUS
 10
57.216799
 20
16.363605
 40
0.875000
 41
4.000000
  1
図法
  7
KANJI
 50
-90.000000
 51
0.000000
  0
TEXT
  8
5
 62
94
  6
CONTINUOUS
 10
57.134846
 20
20.379333
 40
0.875000
 41
4.000000
  1
尺度
  7
KANJI
 50
-90.000000
 51
0.000000
  0
TEXT
  8
5
 62
94
  6
CONTINUOUS
 10
39.678720
 20
20.297379
 40
0.875000
 41
4.000000
  1
公差
  7
KANJI
 50
-90.000000
 51
0.000000
  0
TEXT
  8
5
 62
94
  6
CONTINUOUS
 10
39.678720
 20
12.347876
 40
0.875000
 41
4.000000
  1
承認
  7
KANJI
 50
-90.000000
 51
0.000000
  0
TEXT
  8
5
 62
94
  6
CONTINUOUS
 10
52.217627
 20
12.347876
 40
0.875000
 41
4.000000
  1
設計
  7
KANJI
 50
-90.000000
 51
0.000000
  0
TEXT
  8
5
 62
94
  6
CONTINUOUS
 10
48.939481
 20
5.381816
 40
2.250000
 41
1.888889
  1
ジャパンセンサー株式会社
  7
KANJI
 50
0.000000
 51
0.000000
  0
LINE
  8
5
 62
94
  6
CONTINUOUS
 10
39.234597
 20
20.604085
 11
99.234597
 21
20.604085
  0
LINE
  8
5
 62
94
  6
CONTINUOUS
 10
39.234597
 20
4.604085
 11
39.234597
 21
20.604085
  0
LINE
  8
5
 62
94
  6
CONTINUOUS
 10
99.234597
 20
8.604085
 11
39.234597
 21
8.604085
  0
LINE
  8
5
 62
94
  6
CONTINUOUS
 10
71.734597
 20
20.604085
 11
71.734597
 21
8.604085
  0
LINE
  8
5
 62
94
  6
CONTINUOUS
 10
99.234597
 20
12.604085
 11
39.234597
 21
12.604085
  0
LINE
  8
5
 62
94
  6
CONTINUOUS
 10
74.234597
 20
8.604085
 11
74.234597
 21
20.604085
  0
LINE
  8
5
 62
94
  6
CONTINUOUS
 10
59.234597
 20
20.604085
 11
59.234597
 21
12.604085
  0
LINE
  8
5
 62
94
  6
CONTINUOUS
 10
41.734597
 20
8.604085
 11
41.734597
 21
20.604085
  0
LINE
  8
5
 62
94
  6
CONTINUOUS
 10
39.234597
 20
16.604085
 11
71.734597
 21
16.604085
  0
LINE
  8
5
 62
94
  6
CONTINUOUS
 10
56.734597
 20
20.604085
 11
56.734597
 21
12.604085
  0
LINE
  8
5
 62
94
  6
CONTINUOUS
 10
51.734597
 20
8.604085
 11
51.734597
 21
12.604085
  0
LINE
  8
5
 62
94
  6
CONTINUOUS
 10
61.734597
 20
8.604085
 11
61.734597
 21
12.604085
  0
LINE
  8
5
 62
94
  6
CONTINUOUS
 10
54.234597
 20
12.604085
 11
54.234597
 21
8.604085
  0
LINE
  8
5
 62
94
  6
CONTINUOUS
 10
64.234597
 20
12.604085
 11
64.234597
 21
8.604085
  0
TEXT
  8
5
 62
94
  6
CONTINUOUS
 10
61.232528
 20
13.249366
 40
2.000000
 41
1.000000
  1
三角法
  7
KANJI
 50
0.000000
 51
0.000000
  0
LINE
  8
5
 62
94
  6
CONTINUOUS
 10
75.556448
 20
16.589321
 11
97.626822
 21
16.589321
  0
TEXT
  8
5
 62
94
  6
CONTINUOUS
 10
55.824656
 20
9.573573
 40
2.000000
 41
1.000000
  1
須藤
  7
KANJI
 50
0.000000
 51
0.000000
  0
TEXT
  8
5
 62
94
  6
CONTINUOUS
 10
62.548081
 20
17.466289
 40
2.000000
 41
1.000000
  1
２／１
  7
KANJI
 50
0.000000
 51
0.000000
  0
TEXT
  8
5
 62
94
  6
CONTINUOUS
 10
65.824656
 20
9.573573
 40
2.000000
 41
1.000000
  1
須藤
  7
KANJI
 50
0.000000
 51
0.000000
  0
LINE
  8
5
 62
94
  6
CONTINUOUS
 10
6.734597
 20
142.104085
 11
6.734597
 21
4.604085
  0
LINE
  8
5
 62
94
  6
CONTINUOUS
 10
6.734597
 20
4.604085
 11
99.234597
 21
4.604085
  0
LINE
  8
5
 62
94
  6
CONTINUOUS
 10
99.234597
 20
4.604085
 11
99.234597
 21
142.104085
  0
LINE
  8
5
 62
94
  6
CONTINUOUS
 10
99.234597
 20
142.104085
 11
6.734597
 21
142.104085
  0
LINE
  8
4
 62
54
  6
CONTINUOUS
 10
91.576869
 20
80.652053
 11
96.276869
 21
80.652053
  0
LINE
  8
4
 62
54
  6
CONTINUOUS
 10
90.276869
 20
103.252053
 11
91.576869
 21
103.252053
  0
LINE
  8
4
 62
54
  6
CONTINUOUS
 10
91.576869
 20
76.252053
 11
91.576869
 21
103.252053
  0
CIRCLE
  8
4
 62
54
  6
CONTINUOUS
 10
94.276869
 20
78.652053
 40
1.000000
  0
CIRCLE
  8
4
 62
54
  6
CONTINUOUS
 10
94.276869
 20
78.652053
 40
0.782631
  0
LINE
  8
4
 62
54
  6
DASHDOT
 10
94.277645
 20
77.417980
 11
94.277645
 21
79.887048
  0
LINE
  8
4
 62
54
  6
DASHDOT
 10
92.908170
 20
78.652053
 11
95.858028
 21
78.652053
  0
LINE
  8
4
 62
54
  6
DASHDOT
 10
82.137630
 20
99.752053
 11
87.439906
 21
99.752053
  0
LINE
  8
4
 62
54
  6
DASHDOT
 10
84.776869
 20
97.515878
 11
84.776869
 21
102.472759
  0
LINE
  8
4
 62
54
  6
DASHDOT
 10
81.927593
 20
99.752053
 11
87.439906
 21
99.752053
  0
LINE
  8
4
 62
54
  6
DASHDOT
 10
82.207642
 20
79.752053
 11
87.696618
 21
79.752053
  0
LINE
  8
4
 62
54
  6
DASHDOT
 10
84.776869
 20
77.154345
 11
84.776869
 21
81.949777
  0
LINE
  8
4
 62
54
  6
CONTINUOUS
 10
90.276869
 20
103.153395
 11
90.276869
 21
104.752053
  0
LINE
  8
4
 62
54
  6
CONTINUOUS
 10
90.276869
 20
74.752053
 11
90.276869
 21
76.852053
  0
LINE
  8
4
 62
54
  6
CONTINUOUS
 10
90.276869
 20
76.852053
 11
90.276869
 21
100.252054
  0
LINE
  8
4
 62
54
  6
CONTINUOUS
 10
90.276869
 20
76.252053
 11
96.276869
 21
76.252053
  0
LINE
  8
4
 62
54
  6
CONTINUOUS
 10
96.276869
 20
80.652053
 11
96.276869
 21
76.252053
  0
LINE
  8
4
 62
54
  6
CONTINUOUS
 10
90.276869
 20
103.153395
 11
90.276869
 21
76.852053
  0
CIRCLE
  8
4
 62
54
  6
CONTINUOUS
 10
84.776869
 20
99.752053
 40
1.700000
  0
CIRCLE
  8
4
 62
54
  6
CONTINUOUS
 10
84.776869
 20
79.752053
 40
1.700000
  0
LINE
  8
4
 62
54
  6
DASHDOT
 10
78.637008
 20
89.752053
 11
93.284604
 21
89.752053
  0
LINE
  8
4
 62
54
  6
CONTINUOUS
 10
90.276869
 20
104.752053
 11
84.276869
 21
104.752053
  0
ARC
  8
4
 62
54
  6
CONTINUOUS
 10
84.276869
 20
101.252053
 40
3.500000
 50
90.000000
 51
180.000000
  0
LINE
  8
4
 62
54
  6
CONTINUOUS
 10
80.776869
 20
78.252053
 11
80.776869
 21
101.252053
  0
LINE
  8
4
 62
54
  6
CONTINUOUS
 10
90.276869
 20
74.752053
 11
84.276869
 21
74.752053
  0
ARC
  8
4
 62
54
  6
CONTINUOUS
 10
84.276869
 20
78.252053
 40
3.500000
 50
180.000000
 51
-90.000000
  0
LINE
  8
4
 62
54
  6
DOT
 10
80.776869
 20
97.752053
 11
87.776869
 21
97.752053
  0
LINE
  8
4
 62
54
  6
DOT
 10
80.776869
 20
81.752053
 11
87.776869
 21
81.752053
  0
LINE
  8
4
 62
54
  6
DOT
 10
87.776869
 20
85.752053
 11
91.576869
 21
85.752053
  0
LINE
  8
4
 62
54
  6
DOT
 10
87.776869
 20
86.252053
 11
91.576869
 21
86.252053
  0
LINE
  8
4
 62
54
  6
DOT
 10
87.776869
 20
93.752053
 11
91.576869
 21
93.752053
  0
LINE
  8
4
 62
54
  6
DOT
 10
87.776869
 20
93.252053
 11
91.576869
 21
93.252053
  0
LINE
  8
4
 62
54
  6
DOT
 10
87.776869
 20
82.834553
 11
87.776869
 21
96.669553
  0
LINE
  8
4
 62
54
  6
DOT
 10
87.776869
 20
81.752053
 11
87.776869
 21
82.834553
  0
LINE
  8
4
 62
54
  6
DOT
 10
87.776869
 20
97.752053
 11
87.776869
 21
81.752053
  0
LINE
  8
4
 62
54
  6
DOT
 10
86.776869
 20
81.752053
 11
87.776869
 21
81.752053
  0
LINE
  8
4
 62
54
  6
DOT
 10
86.776869
 20
97.752053
 11
87.776869
 21
97.752053
  0
LINE
  8
4
 62
54
  6
DOT
 10
80.776869
 20
96.669553
 11
86.776869
 21
96.669553
  0
LINE
  8
4
 62
54
  6
DOT
 10
80.776869
 20
82.834553
 11
86.776869
 21
82.834553
  0
LINE
  8
4
 62
54
  6
DOT
 10
86.776869
 20
89.752053
 11
86.776869
 21
97.752053
  0
LINE
  8
4
 62
54
  6
DOT
 10
86.776869
 20
89.752053
 11
86.776869
 21
81.752053
  0
LINE
  8
1
 62
7
  6
CONTINUOUS
 10
41.994780
 20
87.169914
 11
42.494780
 21
86.669914
  0
LINE
  8
1
 62
7
  6
CONTINUOUS
 10
41.994780
 20
106.169914
 11
42.494780
 21
106.669914
  0
LINE
  8
1
 62
7
  6
CONTINUOUS
 10
41.994780
 20
87.169918
 11
41.994780
 21
106.169914
  0
LINE
  8
1
 62
7
  6
DASHDOT
 10
39.753141
 20
96.669914
 11
55.757300
 21
96.669914
  0
LINE
  8
1
 62
7
  6
CONTINUOUS
 10
51.994780
 20
104.669914
 11
51.994780
 21
88.669914
  0
LINE
  8
1
 62
7
  6
DOT
 10
46.498631
 20
104.771538
 11
46.498631
 21
88.572777
  0
LINE
  8
1
 62
7
  6
DOT
 10
46.494780
 20
89.669914
 11
46.494780
 21
103.669914
  0
LINE
  8
1
 62
7
  6
DOT
 10
45.493546
 20
105.169905
 11
46.498631
 21
104.771538
  0
LINE
  8
1
 62
7
  6
DOT
 10
46.994780
 20
103.669914
 11
46.994780
 21
104.767052
  0
LINE
  8
1
 62
7
  6
DOT
 10
46.994780
 20
103.669914
 11
46.494780
 21
103.669914
  0
LINE
  8
1
 62
7
  6
DOT
 10
51.994780
 20
103.169914
 11
46.494780
 21
103.169912
  0
LINE
  8
1
 62
7
  6
DOT
 10
46.994780
 20
104.767052
 11
41.994780
 21
104.767052
  0
LINE
  8
1
 62
7
  6
DOT
 10
45.493546
 20
105.169905
 11
41.994780
 21
105.169905
  0
LINE
  8
1
 62
7
  6
DOT
 10
46.994780
 20
89.669914
 11
46.994780
 21
88.572777
  0
LINE
  8
1
 62
7
  6
DOT
 10
46.994780
 20
89.669914
 11
46.494780
 21
89.669914
  0
LINE
  8
1
 62
7
  6
DOT
 10
46.994780
 20
88.572777
 11
41.994780
 21
88.572777
  0
LINE
  8
1
 62
7
  6
DOT
 10
45.493546
 20
88.169924
 11
41.994780
 21
88.169924
  0
LINE
  8
1
 62
7
  6
DOT
 10
51.994780
 20
90.169914
 11
46.494780
 21
90.169916
  0
LINE
  8
1
 62
7
  6
DOT
 10
45.493546
 20
105.169904
 11
45.493546
 21
88.169924
  0
LINE
  8
1
 62
7
  6
DOT
 10
45.493546
 20
88.169924
 11
46.498631
 21
88.568290
  0
LINE
  8
1
 62
7
  6
DOT
 10
46.498631
 20
104.669914
 11
45.497396
 21
104.669914
  0
LINE
  8
1
 62
7
  6
DOT
 10
46.498631
 20
88.669914
 11
46.498631
 21
104.669914
  0
LINE
  8
1
 62
7
  6
DOT
 10
45.497396
 20
104.669914
 11
45.497396
 21
88.669914
  0
LINE
  8
1
 62
7
  6
DOT
 10
46.498631
 20
88.669914
 11
45.497396
 21
88.669914
  0
DIMENSION
  8
2
 62
134
  6
CONTINUOUS
  2
*D1
 10
56.679181
 20
88.669914
 11
56.679181
 21
96.669914
 70
     0
  1
M16P0.75
 13
52.494780
 23
88.669914
 14
52.494780
 24
104.669914
 50
90.000000
  0
DIMENSION
  8
2
 62
134
  6
CONTINUOUS
  2
*D2
 10
41.994780
 20
78.650517
 11
46.848587
 21
78.650517
 70
     0
  1
10
 13
41.994780
 23
86.669918
 14
51.994780
 24
88.169914
 50
0.000000
  0
LINE
  8
2
 62
134
  6
CONTINUOUS
 10
45.952476
 20
99.052811
 11
36.036179
 21
102.863440
  0
LINE
  8
2
 62
134
  6
CONTINUOUS
 10
36.036179
 20
102.863440
 11
31.481325
 21
102.863440
  0
TEXT
  8
2
 62
134
  6
CONTINUOUS
 10
31.481325
 20
102.906743
 40
2.000000
 41
1.000000
  1
窓材
  7
KANJI
 50
0.000000
 51
0.000000
  0
LINE
  8
2
 62
134
  6
CONTINUOUS
 10
45.952476
 20
99.052811
 11
44.957992
 21
99.157699
  0
LINE
  8
2
 62
134
  6
CONTINUOUS
 10
45.952476
 20
99.052811
 11
45.143672
 21
99.640889
  0
LINE
  8
2
 62
134
  6
CONTINUOUS
 10
44.957992
 20
99.157699
 11
45.143672
 21
99.640889
  0
LINE
  8
2
 62
134
  6
CONTINUOUS
 10
45.727065
 20
99.139432
 11
45.229823
 21
99.191876
  0
LINE
  8
2
 62
134
  6
CONTINUOUS
 10
45.727065
 20
99.139432
 11
45.322663
 21
99.433471
  0
LINE
  8
2
 62
134
  6
CONTINUOUS
 10
45.229823
 20
99.191876
 11
45.322663
 21
99.433471
  0
TEXT
  8
5
 62
94
  6
CONTINUOUS
 10
75.695594
 20
13.530056
 40
2.000000
 41
1.000000
  1
φ15窓材 外形図
  7
KANJI
 50
0.000000
 51
0.000000
  0
TEXT
  8
5
 62
94
  6
CONTINUOUS
 10
76.811453
 20
17.600784
 40
2.000000
 41
1.000000
  1
ＴＭＤＸ－１５Ｃ
  7
KANJI
 50
0.000000
 51
0.000000
  0
TEXT
  8
5
 62
94
  6
CONTINUOUS
 10
74.748137
 20
9.573573
 40
2.000000
 41
1.000000
  1
００５－０６５－Ａ１１３
  7
KANJI
 50
0.000000
 51
0.000000
  0
TEXT
  8
5
 62
94
  6
CONTINUOUS
 10
44.277904
 20
13.519931
 40
2.000000
 41
0.500000
  1
2013/04/23
  7
KANJI
 50
0.000000
 51
0.000000
  0
DIMENSION
  8
2
 62
134
  6
CONTINUOUS
  2
*D3
 10
37.017993
 20
86.669914
 11
37.017993
 21
96.669914
 70
     0
  1
φ20.5
 13
41.994780
 23
86.669914
 14
41.994780
 24
106.669914
 50
90.000000
  0
LINE
  8
1
 62
7
  6
CONTINUOUS
 10
49.494780
 20
88.669914
 11
51.994780
 21
88.669914
  0
LINE
  8
1
 62
7
  6
CONTINUOUS
 10
51.994780
 20
89.111840
 11
49.494780
 21
89.111840
  0
LINE
  8
1
 62
7
  6
CONTINUOUS
 10
49.494780
 20
88.669914
 11
49.494780
 21
89.111840
  0
LINE
  8
1
 62
7
  6
CONTINUOUS
 10
49.494780
 20
104.669914
 11
51.994780
 21
104.669914
  0
LINE
  8
1
 62
7
  6
CONTINUOUS
 10
51.994780
 20
104.227989
 11
49.494780
 21
104.227989
  0
LINE
  8
1
 62
7
  6
CONTINUOUS
 10
49.494780
 20
104.669914
 11
49.494780
 21
89.111840
  0
LINE
  8
1
 62
7
  6
CONTINUOUS
 10
48.994780
 20
86.669914
 11
42.494780
 21
86.669914
  0
LINE
  8
1
 62
7
  6
CONTINUOUS
 10
48.994780
 20
106.669914
 11
42.494780
 21
106.669914
  0
LINE
  8
1
 62
7
  6
CONTINUOUS
 10
48.994780
 20
86.669914
 11
48.994780
 21
89.111840
  0
LINE
  8
1
 62
7
  6
CONTINUOUS
 10
48.994780
 20
106.669914
 11
48.994780
 21
89.111840
  0
LINE
  8
1
 62
7
  6
CONTINUOUS
 10
41.994780
 20
97.663112
 11
48.994780
 21
97.663112
  0
LINE
  8
1
 62
7
  6
CONTINUOUS
 10
48.994780
 20
98.646488
 11
41.994780
 21
98.646488
  0
LINE
  8
1
 62
7
  6
CONTINUOUS
 10
48.994780
 20
99.610318
 11
41.994780
 21
99.610318
  0
LINE
  8
1
 62
7
  6
CONTINUOUS
 10
48.994780
 20
100.545070
 11
41.994780
 21
100.545070
  0
LINE
  8
1
 62
7
  6
CONTINUOUS
 10
48.994780
 20
101.441502
 11
41.994780
 21
101.441502
  0
LINE
  8
1
 62
7
  6
CONTINUOUS
 10
48.994780
 20
102.290748
 11
41.994780
 21
102.290748
  0
LINE
  8
1
 62
7
  6
CONTINUOUS
 10
41.994780
 20
103.084410
 11
48.994780
 21
103.084410
  0
LINE
  8
1
 62
7
  6
CONTINUOUS
 10
41.994780
 20
103.814640
 11
48.994780
 21
103.814640
  0
LINE
  8
1
 62
7
  6
CONTINUOUS
 10
41.994780
 20
104.474219
 11
48.994780
 21
104.474219
  0
LINE
  8
1
 62
7
  6
CONTINUOUS
 10
48.994780
 20
105.056621
 11
41.994780
 21
105.056621
  0
LINE
  8
1
 62
7
  6
CONTINUOUS
 10
48.994780
 20
105.556088
 11
41.994780
 21
105.556088
  0
LINE
  8
1
 62
7
  6
CONTINUOUS
 10
48.994780
 20
105.967680
 11
41.994780
 21
105.967680
  0
LINE
  8
1
 62
7
  6
CONTINUOUS
 10
48.994780
 20
106.287328
 11
42.112193
 21
106.287328
  0
LINE
  8
1
 62
7
  6
CONTINUOUS
 10
41.994780
 20
95.676717
 11
48.994780
 21
95.676717
  0
LINE
  8
1
 62
7
  6
CONTINUOUS
 10
48.994780
 20
94.693341
 11
41.994780
 21
94.693341
  0
LINE
  8
1
 62
7
  6
CONTINUOUS
 10
48.994780
 20
93.729511
 11
41.994780
 21
93.729511
  0
LINE
  8
1
 62
7
  6
CONTINUOUS
 10
48.994780
 20
92.794759
 11
41.994780
 21
92.794759
  0
LINE
  8
1
 62
7
  6
CONTINUOUS
 10
48.994780
 20
91.898327
 11
41.994780
 21
91.898327
  0
LINE
  8
1
 62
7
  6
CONTINUOUS
 10
48.994780
 20
91.049081
 11
41.994780
 21
91.049081
  0
LINE
  8
1
 62
7
  6
CONTINUOUS
 10
41.994780
 20
90.255419
 11
48.994780
 21
90.255419
  0
LINE
  8
1
 62
7
  6
CONTINUOUS
 10
41.994780
 20
89.525188
 11
48.994780
 21
89.525188
  0
LINE
  8
1
 62
7
  6
CONTINUOUS
 10
41.994780
 20
88.865610
 11
48.994780
 21
88.865610
  0
LINE
  8
1
 62
7
  6
CONTINUOUS
 10
48.994780
 20
88.283207
 11
41.994780
 21
88.283207
  0
LINE
  8
1
 62
7
  6
CONTINUOUS
 10
48.994780
 20
87.783741
 11
41.994780
 21
87.783741
  0
LINE
  8
1
 62
7
  6
CONTINUOUS
 10
48.994780
 20
87.372149
 11
41.994780
 21
87.372149
  0
LINE
  8
1
 62
7
  6
CONTINUOUS
 10
48.994780
 20
87.052501
 11
42.112193
 21
87.052501
  0
DIMENSION
  8
2
 62
134
  6
CONTINUOUS
  2
*D4
 10
48.994780
 20
82.312895
 11
50.368442
 21
82.312895
 70
     0
  1
3
 13
48.994780
 23
88.611840
 14
51.994780
 24
88.169914
 50
0.000000
  0
LINE
  8
1
 62
7
  6
CONTINUOUS
 10
49.494780
 20
89.111840
 11
48.994780
 21
89.111840
  0
LINE
  8
1
 62
7
  6
CONTINUOUS
 10
49.494780
 20
104.227989
 11
48.994780
 21
104.227989
  0
LINE
  8
1
 62
7
  6
CONTINUOUS
 10
49.494780
 20
89.111840
 11
48.994780
 21
89.111840
  0
TEXT
  8
2
 62
134
  6
CONTINUOUS
 10
42.394355
 20
70.812903
 40
2.000000
 41
1.000000
  1
質量：5g
  7
KANJI
 50
0.000000
 51
0.000000
  0
CIRCLE
  8
11
 62
251
  6
CONTINUOUS
 10
48.913871
 20
105.169914
 40
0.500000
  0
CIRCLE
  8
11
 62
251
  6
CONTINUOUS
 10
48.913871
 20
88.169914
 40
0.500000
  0
LINE
  8
2
 62
134
  6
CONTINUOUS
 10
49.350478
 20
87.926245
 11
56.353662
 21
84.308915
  0
LINE
  8
2
 62
134
  6
CONTINUOUS
 10
56.353662
 20
84.308915
 11
61.536785
 21
84.308915
  0
TEXT
  8
2
 62
134
  6
CONTINUOUS
 10
56.536785
 20
84.319822
 40
2.000000
 41
0.500000
  1
Oﾘﾝｸﾞ
  7
KANJI
 50
0.000000
 51
0.000000
  0
LINE
  8
2
 62
134
  6
CONTINUOUS
 10
49.350478
 20
87.926245
 11
50.327458
 21
87.712916
  0
LINE
  8
2
 62
134
  6
CONTINUOUS
 10
49.350478
 20
87.926245
 11
50.089903
 21
87.253006
  0
LINE
  8
2
 62
134
  6
CONTINUOUS
 10
50.327458
 20
87.712916
 11
50.089903
 21
87.253006
  0
LINE
  8
2
 62
134
  6
CONTINUOUS
 10
49.565028
 20
87.815424
 11
50.053518
 21
87.708759
  0
LINE
  8
2
 62
134
  6
CONTINUOUS
 10
49.565028
 20
87.815424
 11
49.934741
 21
87.478805
  0
LINE
  8
2
 62
134
  6
CONTINUOUS
 10
50.053518
 20
87.708759
 11
49.934741
 21
87.478805
  0
ENDSEC
  0
EOF
