  0
SECTION
  2
HEADER
  9
$ACADVER
  1
AC1009
  9
$INSBASE
 10
0.000000
 20
0.000000
  9
$EXTMIN
 10
0.000000
 20
0.000000
  9
$EXTMAX
 10
210.000000
 20
297.000000
  9
$LIMMIN
 10
0.000000
 20
0.000000
  9
$LIMMAX
 10
210.000000
 20
297.000000
  9
$VIEWCTR
 10
105.000000
 20
148.500000
  9
$VIEWSIZE
 40
297.000000
  9
$PEXTMIN
 10
0.000000
 20
0.000000
 30
0.000000
  9
$PEXTMAX
 10
210.000000
 20
297.000000
 30
0.000000
  9
$SNAPMODE
 70
     0
  9
$SNAPUNIT
 10
1.000000
 20
1.000000
  9
$SNAPBASE
 10
0.000000
 20
0.000000
  9
$SNAPANG
 50
0.000000
  9
$SNAPISOPAIR
 70
     0
  9
$SNAPSTYLE
 70
     0
  9
$GRIDMODE
 70
     0
  9
$GRIDUNIT
 10
0.000000
 20
0.000000
  9
$ORTHOMODE
 70
     0
  9
$REGENMODE
 70
     1
  9
$FILLMODE
 70
     1
  9
$QTEXTMODE
 70
     0
  9
$DRAGMODE
 70
     2
  9
$LTSCALE
 40
0.250000
  9
$OSMODE
 70
     0
  9
$ATTMODE
 70
     1
  9
$TEXTSIZE
 40
4.000000
  9
$TRACEWID
 40
0.050000
  9
$TEXTSTYLE
  7
STANDARD
  9
$CLAYER
  8
0
  9
$CELTYPE
  6
BYLAYER
  9
$CECOLOR
 62
   256
  9
$DIMSCALE
 40
1.000000
  9
$DIMASZ
 40
1.000000
  9
$DIMEXO
 40
0.000000
  9
$DIMDLI
 40
0.500000
  9
$DIMRND
 40
0.000000
  9
$DIMDLE
 40
0.000000
  9
$DIMEXE
 40
0.000000
  9
$DIMTP
 40
0.000000
  9
$DIMTM
 40
0.000000
  9
$DIMTXT
 40
4.000000
  9
$DIMCEN
 40
0.000000
  9
$DIMTSZ
 40
0.000000
  9
$DIMTOL
 70
     0
  9
$DIMLIM
 70
     0
  9
$DIMTIH
 70
     1
  9
$DIMTOH
 70
     1
  9
$DIMSE1
 70
     0
  9
$DIMSE2
 70
     0
  9
$DIMTAD
 70
     0
  9
$DIMZIN
 70
     0
  9
$DIMBLK
  1

  9
$DIMASO
 70
     0
  9
$DIMSHO
 70
     0
  9
$DIMPOST
  1

  9
$DIMAPOST
  1

  9
$DIMALT
 70
     0
  9
$DIMALTD
 70
     0
  9
$DIMALTF
 40
25.400000
  9
$DIMLFAC
 40
1.000000
  9
$DIMTOFL
 70
     0
  9
$DIMTVP
 40
0.000000
  9
$DIMTIX
 70
     0
  9
$DIMSOXD
 70
     0
  9
$DIMSAH
 70
     0
  9
$DIMBLKL
  1

  9
$DIMBLKR
  1

  9
$LUNITS
 70
     2
  9
$LUPREC
 70
     2
  9
$AXISMODE
 70
     0
  9
$AXISUNIT
 10
1.000000
 20
1.000000
  9
$SKETCHINC
 40
0.000000
  9
$FILLETRAD
 40
0.000000
  9
$AUNITS
 70
     1
  9
$AUPREC
 70
     2
  9
$MENU
  1
ACAD
  9
$ELEVATION
 40
0.000000
  9
$THICKNESS
 40
0.000000
  9
$VIEWDIR
 10
0.000000
 20
0.000000
 30
1.000000
  9
$LIMCHECK
 70
     1
  9
$BLIPMODE
 70
     1
  9
$CHAMFERA
 40
0.000000
  9
$CHAMFERB
 40
0.000000
  9
$FASTZOOM
 70
     1
  9
$SKPOLY
 70
     0
  9
$TDCREATE
 40
0.000000
  9
$TDUPDATE
 40
0.000000
  9
$TDINDWG
 40
0.000000
  9
$TDUSRTIMER
 40
0.000000
  9
$USRTIMER
 70
     1
  9
$ANGBASE
 50
0.000000
  9
$ANGDIR
 70
     0
  9
$PDMODE
 70
     0
  9
$PDSIZE
 40
0.000000
  9
$PLINEWID
 40
0.000000
  9
$COORDS
 70
     2
  9
$USERI1
 70
     0
  9
$USERI2
 70
     0
  9
$USERI3
 70
     0
  9
$USERI4
 70
     0
  9
$USERI5
 70
     0
  9
$USERR1
 40
0.000000
  9
$USERR2
 40
0.000000
  9
$USERR3
 40
0.000000
  9
$USERR4
 40
0.000000
  9
$USERR5
 40
0.000000
  0
ENDSEC
  0
SECTION
  2
TABLES
  0
TABLE
  2
LTYPE
 70
     5
  0
LTYPE
  2
CONTINUOUS
 70
    64
  3
Solid line
 72
    65
 73
     0
 40
0.0
  0
LTYPE
  2
HIDDEN
 70
    64
  3
------------------------
 72
    65
 73
     2
 40
12.6
 49
8.4
 49
-4.2
  0
LTYPE
  2
DOT
 70
    64
  3
････････････････････････
 72
    65
 73
     2
 40
8.0
 49
6.0
 49
-2.0
  0
LTYPE
  2
DASHDOT
 70
    64
  3
--･--･--･--･--･--･--･--
 72
    65
 73
     4
 40
50.5
 49
30.0
 49
-9.0
 49
2.5
 49
-9.0
  0
LTYPE
  2
DIVIDE
 70
    64
  3
--･･--･･--･･--･･--･･--
 72
    65
 73
     6
 40
58.0
 49
30.0
 49
-9.0
 49
2.5
 49
-5.0
 49
2.5
 49
-9.0
  0
LTYPE
  2
ACAD_ISO06W100
 70
    64
  3
____ ... ____ ... ____
 72
    65
 73
     8
 40
37.5
 49
24.0
 49
-3.0
 49
0.5
 49
-3.0
 49
0.5
 49
-3.0
 49
0.5
 49
-3.0
  0
LTYPE
  2
ACAD_ISO14W100
 70
    64
  3
__ . . . __ . . . __ . . . 
 72
    65
 73
     8
 40
25.5
 49
12.0
 49
-3.0
 49
0.5
 49
-3.0
 49
0.5
 49
-3.0
 49
0.5
 49
-3.0
  0
ENDTAB
  0
TABLE
  2
LAYER
 70
3
  0
LAYER
  2
1
 70
64
 62
7
  6
CONTINUOUS
  0
LAYER
  2
2
 70
64
 62
134
  6
CONTINUOUS
  0
LAYER
  2
5
 70
64
 62
94
  6
CONTINUOUS
  0
ENDTAB
  0
TABLE
  2
STYLE
 70
     2
  0
STYLE
  2
STANDARD
 70
    64
 40
0.0
 41
1.0
 50
0.0
 71
     0
 42
0.2
  3
TXT
  4

  0
STYLE
  2
KANJI
 70
    64
 40
0.0
 41
1.0
 50
0.0
 71
     0
 42
0.2
  3
TXT
  4
BIGFONT
  0
ENDTAB
  0
TABLE
  2
VIEW
 70
     0
  0
ENDTAB
  0
ENDSEC
  0
SECTION
  2
BLOCKS
  0
BLOCK
  8
2
 62
134
  6
CONTINUOUS
  2
*D1
 70
    65
 10
0.0
 20
0.0
  0
LINE
  8
2
 62
134
  6
CONTINUOUS
 10
28.180519
 20
175.833076
 11
28.180519
 21
125.833076
  0
LINE
  8
2
 62
134
  6
CONTINUOUS
 10
26.180519
 20
175.833076
 11
39.590323
 21
175.833076
  0
LINE
  8
2
 62
134
  6
CONTINUOUS
 10
26.180519
 20
125.833076
 11
41.970526
 21
125.833076
  0
LINE
  8
2
 62
134
  6
CONTINUOUS
 10
28.180519
 20
175.833076
 11
28.698157
 21
173.901224
  0
LINE
  8
2
 62
134
  6
CONTINUOUS
 10
28.180519
 20
175.833076
 11
27.662881
 21
173.901224
  0
LINE
  8
2
 62
134
  6
CONTINUOUS
 10
28.698157
 20
173.901224
 11
27.662881
 21
173.901224
  0
LINE
  8
2
 62
134
  6
CONTINUOUS
 10
28.180519
 20
175.350113
 11
28.439338
 21
174.384187
  0
LINE
  8
2
 62
134
  6
CONTINUOUS
 10
28.180519
 20
175.350113
 11
27.921700
 21
174.384187
  0
LINE
  8
2
 62
134
  6
CONTINUOUS
 10
28.439338
 20
174.384187
 11
27.921700
 21
174.384187
  0
LINE
  8
2
 62
134
  6
CONTINUOUS
 10
28.180519
 20
125.833076
 11
27.662881
 21
127.764927
  0
LINE
  8
2
 62
134
  6
CONTINUOUS
 10
28.180519
 20
125.833076
 11
28.698157
 21
127.764927
  0
LINE
  8
2
 62
134
  6
CONTINUOUS
 10
27.662881
 20
127.764927
 11
28.698157
 21
127.764927
  0
LINE
  8
2
 62
134
  6
CONTINUOUS
 10
28.180519
 20
126.316039
 11
27.921700
 21
127.281964
  0
LINE
  8
2
 62
134
  6
CONTINUOUS
 10
28.180519
 20
126.316039
 11
28.439338
 21
127.281964
  0
LINE
  8
2
 62
134
  6
CONTINUOUS
 10
27.921700
 20
127.281964
 11
28.439338
 21
127.281964
  0
TEXT
  8
2
 62
134
  6
CONTINUOUS
 10
28.180519
 20
148.833076
 40
4.000000
 41
0.500000
  1
50
  7
KANJI
 50
90.000000
 51
30.000000
  0
ENDBLK
  0
BLOCK
  8
2
 62
134
  6
CONTINUOUS
  2
*D2
 70
    65
 10
0.0
 20
0.0
  0
LINE
  8
2
 62
134
  6
CONTINUOUS
 10
41.590323
 20
107.333074
 11
78.590323
 21
107.333074
  0
LINE
  8
2
 62
134
  6
CONTINUOUS
 10
41.590323
 20
105.333074
 11
41.590323
 21
126.301618
  0
LINE
  8
2
 62
134
  6
CONTINUOUS
 10
78.590323
 20
105.333074
 11
78.590323
 21
123.833076
  0
LINE
  8
2
 62
134
  6
CONTINUOUS
 10
41.590323
 20
107.333074
 11
43.522174
 21
107.850712
  0
LINE
  8
2
 62
134
  6
CONTINUOUS
 10
41.590323
 20
107.333074
 11
43.522174
 21
106.815436
  0
LINE
  8
2
 62
134
  6
CONTINUOUS
 10
43.522174
 20
107.850712
 11
43.522174
 21
106.815436
  0
LINE
  8
2
 62
134
  6
CONTINUOUS
 10
42.073285
 20
107.333074
 11
43.039211
 21
107.591893
  0
LINE
  8
2
 62
134
  6
CONTINUOUS
 10
42.073285
 20
107.333074
 11
43.039211
 21
107.074255
  0
LINE
  8
2
 62
134
  6
CONTINUOUS
 10
43.039211
 20
107.591893
 11
43.039211
 21
107.074255
  0
LINE
  8
2
 62
134
  6
CONTINUOUS
 10
78.590323
 20
107.333074
 11
76.658471
 21
106.815436
  0
LINE
  8
2
 62
134
  6
CONTINUOUS
 10
78.590323
 20
107.333074
 11
76.658471
 21
107.850712
  0
LINE
  8
2
 62
134
  6
CONTINUOUS
 10
76.658471
 20
106.815436
 11
76.658471
 21
107.850712
  0
LINE
  8
2
 62
134
  6
CONTINUOUS
 10
78.107360
 20
107.333074
 11
77.141434
 21
107.074255
  0
LINE
  8
2
 62
134
  6
CONTINUOUS
 10
78.107360
 20
107.333074
 11
77.141434
 21
107.591893
  0
LINE
  8
2
 62
134
  6
CONTINUOUS
 10
77.141434
 20
107.074255
 11
77.141434
 21
107.591893
  0
TEXT
  8
2
 62
134
  6
CONTINUOUS
 10
58.090323
 20
107.333074
 40
4.000000
 41
0.500000
  1
37
  7
KANJI
 50
0.000000
 51
30.000000
  0
ENDBLK
  0
BLOCK
  8
2
 62
134
  6
CONTINUOUS
  2
*D3
 70
    65
 10
0.0
 20
0.0
  0
LINE
  8
2
 62
134
  6
CONTINUOUS
 10
123.590323
 20
107.333074
 11
155.590322
 21
107.333074
  0
LINE
  8
2
 62
134
  6
CONTINUOUS
 10
123.590323
 20
105.333074
 11
123.590323
 21
123.833076
  0
LINE
  8
2
 62
134
  6
CONTINUOUS
 10
155.590322
 20
105.333074
 11
155.590322
 21
123.833076
  0
LINE
  8
2
 62
134
  6
CONTINUOUS
 10
123.590323
 20
107.333074
 11
125.522174
 21
107.850712
  0
LINE
  8
2
 62
134
  6
CONTINUOUS
 10
123.590323
 20
107.333074
 11
125.522174
 21
106.815436
  0
LINE
  8
2
 62
134
  6
CONTINUOUS
 10
125.522174
 20
107.850712
 11
125.522174
 21
106.815436
  0
LINE
  8
2
 62
134
  6
CONTINUOUS
 10
124.073285
 20
107.333074
 11
125.039211
 21
107.591893
  0
LINE
  8
2
 62
134
  6
CONTINUOUS
 10
124.073285
 20
107.333074
 11
125.039211
 21
107.074255
  0
LINE
  8
2
 62
134
  6
CONTINUOUS
 10
125.039211
 20
107.591893
 11
125.039211
 21
107.074255
  0
LINE
  8
2
 62
134
  6
CONTINUOUS
 10
155.590322
 20
107.333074
 11
153.658471
 21
106.815436
  0
LINE
  8
2
 62
134
  6
CONTINUOUS
 10
155.590322
 20
107.333074
 11
153.658471
 21
107.850712
  0
LINE
  8
2
 62
134
  6
CONTINUOUS
 10
153.658471
 20
106.815436
 11
153.658471
 21
107.850712
  0
LINE
  8
2
 62
134
  6
CONTINUOUS
 10
155.107359
 20
107.333074
 11
154.141434
 21
107.074255
  0
LINE
  8
2
 62
134
  6
CONTINUOUS
 10
155.107359
 20
107.333074
 11
154.141434
 21
107.591893
  0
LINE
  8
2
 62
134
  6
CONTINUOUS
 10
154.141434
 20
107.074255
 11
154.141434
 21
107.591893
  0
TEXT
  8
2
 62
134
  6
CONTINUOUS
 10
137.590322
 20
107.333074
 40
4.000000
 41
0.500000
  1
32
  7
KANJI
 50
0.000000
 51
30.000000
  0
ENDBLK
  0
BLOCK
  8
2
 62
134
  6
CONTINUOUS
  2
*D4
 70
    65
 10
0.0
 20
0.0
  0
LINE
  8
2
 62
134
  6
CONTINUOUS
 10
61.532016
 20
127.833076
 11
45.590323
 21
127.833076
  0
LINE
  8
2
 62
134
  6
CONTINUOUS
 10
43.590323
 20
145.774769
 11
43.590323
 21
129.833076
  0
ARC
  8
2
 62
134
  6
CONTINUOUS
 10
43.590323
 20
127.833076
 40
15.941694
 50
0.000000
 51
90.000000
  0
LINE
  8
2
 62
134
  6
CONTINUOUS
 10
59.532016
 20
127.833076
 11
59.014378
 21
129.764927
  0
LINE
  8
2
 62
134
  6
CONTINUOUS
 10
59.532016
 20
127.833076
 11
60.049654
 21
129.764927
  0
LINE
  8
2
 62
134
  6
CONTINUOUS
 10
59.014378
 20
129.764927
 11
60.049654
 21
129.764927
  0
LINE
  8
2
 62
134
  6
CONTINUOUS
 10
59.532016
 20
128.316039
 11
59.273197
 21
129.281964
  0
LINE
  8
2
 62
134
  6
CONTINUOUS
 10
59.532016
 20
128.316039
 11
59.790835
 21
129.281964
  0
LINE
  8
2
 62
134
  6
CONTINUOUS
 10
59.273197
 20
129.281964
 11
59.790835
 21
129.281964
  0
LINE
  8
2
 62
134
  6
CONTINUOUS
 10
43.590323
 20
143.774769
 11
45.522174
 21
144.292407
  0
LINE
  8
2
 62
134
  6
CONTINUOUS
 10
43.590323
 20
143.774769
 11
45.522174
 21
143.257131
  0
LINE
  8
2
 62
134
  6
CONTINUOUS
 10
45.522174
 20
144.292407
 11
45.522174
 21
143.257131
  0
LINE
  8
2
 62
134
  6
CONTINUOUS
 10
44.073285
 20
143.774769
 11
45.039211
 21
144.033588
  0
LINE
  8
2
 62
134
  6
CONTINUOUS
 10
44.073285
 20
143.774769
 11
45.039211
 21
143.515950
  0
LINE
  8
2
 62
134
  6
CONTINUOUS
 10
45.039211
 20
144.033588
 11
45.039211
 21
143.515950
  0
TEXT
  8
2
 62
134
  6
CONTINUOUS
 10
52.741482
 20
141.226876
 40
4.000000
 41
0.500000
  1
90ﾟ
  7
KANJI
 50
-45.000000
 51
30.000000
  0
ENDBLK
  0
BLOCK
  8
2
 62
134
  6
CONTINUOUS
  2
*D5
 70
    65
 10
0.0
 20
0.0
  0
LINE
  8
2
 62
134
  6
CONTINUOUS
 10
119.590323
 20
187.395324
 11
133.590323
 21
187.395324
  0
LINE
  8
2
 62
134
  6
CONTINUOUS
 10
123.590323
 20
189.395324
 11
123.590323
 21
174.833076
  0
LINE
  8
2
 62
134
  6
CONTINUOUS
 10
129.590323
 20
189.395324
 11
129.590323
 21
178.844641
  0
LINE
  8
2
 62
134
  6
CONTINUOUS
 10
123.590323
 20
187.395324
 11
121.658471
 21
186.877686
  0
LINE
  8
2
 62
134
  6
CONTINUOUS
 10
123.590323
 20
187.395324
 11
121.658471
 21
187.912962
  0
LINE
  8
2
 62
134
  6
CONTINUOUS
 10
121.658471
 20
186.877686
 11
121.658471
 21
187.912962
  0
LINE
  8
2
 62
134
  6
CONTINUOUS
 10
123.107360
 20
187.395324
 11
122.141434
 21
187.136505
  0
LINE
  8
2
 62
134
  6
CONTINUOUS
 10
123.107360
 20
187.395324
 11
122.141434
 21
187.654143
  0
LINE
  8
2
 62
134
  6
CONTINUOUS
 10
122.141434
 20
187.136505
 11
122.141434
 21
187.654143
  0
LINE
  8
2
 62
134
  6
CONTINUOUS
 10
129.590323
 20
187.395324
 11
131.522174
 21
187.912962
  0
LINE
  8
2
 62
134
  6
CONTINUOUS
 10
129.590323
 20
187.395324
 11
131.522174
 21
186.877686
  0
LINE
  8
2
 62
134
  6
CONTINUOUS
 10
131.522174
 20
187.912962
 11
131.522174
 21
186.877686
  0
LINE
  8
2
 62
134
  6
CONTINUOUS
 10
130.073285
 20
187.395324
 11
131.039211
 21
187.654143
  0
LINE
  8
2
 62
134
  6
CONTINUOUS
 10
130.073285
 20
187.395324
 11
131.039211
 21
187.136505
  0
LINE
  8
2
 62
134
  6
CONTINUOUS
 10
131.039211
 20
187.654143
 11
131.039211
 21
187.136505
  0
TEXT
  8
2
 62
134
  6
CONTINUOUS
 10
125.590323
 20
187.395324
 40
4.000000
 41
0.500000
  1
6
  7
KANJI
 50
0.000000
 51
30.000000
  0
ENDBLK
  0
BLOCK
  8
2
 62
134
  6
CONTINUOUS
  2
*D6
 70
    65
 10
0.0
 20
0.0
  0
LINE
  8
2
 62
134
  6
CONTINUOUS
 10
129.590323
 20
187.395324
 11
149.590323
 21
187.395324
  0
LINE
  8
2
 62
134
  6
CONTINUOUS
 10
129.590323
 20
189.395324
 11
129.590323
 21
178.844641
  0
LINE
  8
2
 62
134
  6
CONTINUOUS
 10
149.590323
 20
189.395324
 11
149.590323
 21
178.844640
  0
LINE
  8
2
 62
134
  6
CONTINUOUS
 10
129.590323
 20
187.395324
 11
131.522174
 21
187.912962
  0
LINE
  8
2
 62
134
  6
CONTINUOUS
 10
129.590323
 20
187.395324
 11
131.522174
 21
186.877686
  0
LINE
  8
2
 62
134
  6
CONTINUOUS
 10
131.522174
 20
187.912962
 11
131.522174
 21
186.877686
  0
LINE
  8
2
 62
134
  6
CONTINUOUS
 10
130.073285
 20
187.395324
 11
131.039211
 21
187.654143
  0
LINE
  8
2
 62
134
  6
CONTINUOUS
 10
130.073285
 20
187.395324
 11
131.039211
 21
187.136505
  0
LINE
  8
2
 62
134
  6
CONTINUOUS
 10
131.039211
 20
187.654143
 11
131.039211
 21
187.136505
  0
LINE
  8
2
 62
134
  6
CONTINUOUS
 10
149.590323
 20
187.395324
 11
147.658471
 21
186.877686
  0
LINE
  8
2
 62
134
  6
CONTINUOUS
 10
149.590323
 20
187.395324
 11
147.658471
 21
187.912962
  0
LINE
  8
2
 62
134
  6
CONTINUOUS
 10
147.658471
 20
186.877686
 11
147.658471
 21
187.912962
  0
LINE
  8
2
 62
134
  6
CONTINUOUS
 10
149.107360
 20
187.395324
 11
148.141434
 21
187.136505
  0
LINE
  8
2
 62
134
  6
CONTINUOUS
 10
149.107360
 20
187.395324
 11
148.141434
 21
187.654143
  0
LINE
  8
2
 62
134
  6
CONTINUOUS
 10
148.141434
 20
187.136505
 11
148.141434
 21
187.654143
  0
TEXT
  8
2
 62
134
  6
CONTINUOUS
 10
137.590323
 20
187.395324
 40
4.000000
 41
0.500000
  1
20
  7
KANJI
 50
0.000000
 51
30.000000
  0
ENDBLK
  0
BLOCK
  8
2
 62
134
  6
CONTINUOUS
  2
*D7
 70
    65
 10
0.0
 20
0.0
  0
LINE
  8
2
 62
134
  6
CONTINUOUS
 10
113.590322
 20
179.833076
 11
113.590322
 21
165.833076
  0
LINE
  8
2
 62
134
  6
CONTINUOUS
 10
111.590322
 20
175.833076
 11
124.590323
 21
175.833076
  0
LINE
  8
2
 62
134
  6
CONTINUOUS
 10
111.590322
 20
169.833076
 11
124.332449
 21
169.833076
  0
LINE
  8
2
 62
134
  6
CONTINUOUS
 10
113.590322
 20
175.833076
 11
113.072684
 21
177.764927
  0
LINE
  8
2
 62
134
  6
CONTINUOUS
 10
113.590322
 20
175.833076
 11
114.107960
 21
177.764927
  0
LINE
  8
2
 62
134
  6
CONTINUOUS
 10
113.072684
 20
177.764927
 11
114.107960
 21
177.764927
  0
LINE
  8
2
 62
134
  6
CONTINUOUS
 10
113.590322
 20
176.316039
 11
113.331503
 21
177.281964
  0
LINE
  8
2
 62
134
  6
CONTINUOUS
 10
113.590322
 20
176.316039
 11
113.849141
 21
177.281964
  0
LINE
  8
2
 62
134
  6
CONTINUOUS
 10
113.331503
 20
177.281964
 11
113.849141
 21
177.281964
  0
LINE
  8
2
 62
134
  6
CONTINUOUS
 10
113.590322
 20
169.833076
 11
114.107960
 21
167.901224
  0
LINE
  8
2
 62
134
  6
CONTINUOUS
 10
113.590322
 20
169.833076
 11
113.072684
 21
167.901224
  0
LINE
  8
2
 62
134
  6
CONTINUOUS
 10
114.107960
 20
167.901224
 11
113.072684
 21
167.901224
  0
LINE
  8
2
 62
134
  6
CONTINUOUS
 10
113.590322
 20
169.350113
 11
113.849141
 21
168.384187
  0
LINE
  8
2
 62
134
  6
CONTINUOUS
 10
113.590322
 20
169.350113
 11
113.331503
 21
168.384187
  0
LINE
  8
2
 62
134
  6
CONTINUOUS
 10
113.849141
 20
168.384187
 11
113.331503
 21
168.384187
  0
TEXT
  8
2
 62
134
  6
CONTINUOUS
 10
113.590322
 20
171.833076
 40
4.000000
 41
0.500000
  1
6
  7
KANJI
 50
90.000000
 51
30.000000
  0
ENDBLK
  0
BLOCK
  8
2
 62
134
  6
CONTINUOUS
  2
*D8
 70
    65
 10
0.0
 20
0.0
  0
LINE
  8
2
 62
134
  6
CONTINUOUS
 10
113.590322
 20
169.833076
 11
113.590322
 21
149.833076
  0
LINE
  8
2
 62
134
  6
CONTINUOUS
 10
111.590322
 20
169.833076
 11
124.332449
 21
169.833076
  0
LINE
  8
2
 62
134
  6
CONTINUOUS
 10
111.590322
 20
149.833076
 11
124.332449
 21
149.833076
  0
LINE
  8
2
 62
134
  6
CONTINUOUS
 10
113.590322
 20
169.833076
 11
114.107960
 21
167.901224
  0
LINE
  8
2
 62
134
  6
CONTINUOUS
 10
113.590322
 20
169.833076
 11
113.072684
 21
167.901224
  0
LINE
  8
2
 62
134
  6
CONTINUOUS
 10
114.107960
 20
167.901224
 11
113.072684
 21
167.901224
  0
LINE
  8
2
 62
134
  6
CONTINUOUS
 10
113.590322
 20
169.350113
 11
113.849141
 21
168.384187
  0
LINE
  8
2
 62
134
  6
CONTINUOUS
 10
113.590322
 20
169.350113
 11
113.331503
 21
168.384187
  0
LINE
  8
2
 62
134
  6
CONTINUOUS
 10
113.849141
 20
168.384187
 11
113.331503
 21
168.384187
  0
LINE
  8
2
 62
134
  6
CONTINUOUS
 10
113.590322
 20
149.833076
 11
113.072684
 21
151.764927
  0
LINE
  8
2
 62
134
  6
CONTINUOUS
 10
113.590322
 20
149.833076
 11
114.107960
 21
151.764927
  0
LINE
  8
2
 62
134
  6
CONTINUOUS
 10
113.072684
 20
151.764927
 11
114.107960
 21
151.764927
  0
LINE
  8
2
 62
134
  6
CONTINUOUS
 10
113.590322
 20
150.316039
 11
113.331503
 21
151.281964
  0
LINE
  8
2
 62
134
  6
CONTINUOUS
 10
113.590322
 20
150.316039
 11
113.849141
 21
151.281964
  0
LINE
  8
2
 62
134
  6
CONTINUOUS
 10
113.331503
 20
151.281964
 11
113.849141
 21
151.281964
  0
TEXT
  8
2
 62
134
  6
CONTINUOUS
 10
113.590322
 20
157.833076
 40
4.000000
 41
0.500000
  1
20
  7
KANJI
 50
90.000000
 51
30.000000
  0
ENDBLK
  0
BLOCK
  8
2
 62
134
  6
CONTINUOUS
  2
*D9
 70
    65
 10
0.0
 20
0.0
  0
LINE
  8
2
 62
134
  6
CONTINUOUS
 10
143.578757
 20
182.333074
 11
156.590322
 21
182.333074
  0
LINE
  8
2
 62
134
  6
CONTINUOUS
 10
147.578757
 20
184.333074
 11
147.578757
 21
171.833075
  0
LINE
  8
2
 62
134
  6
CONTINUOUS
 10
151.578757
 20
184.333074
 11
151.578757
 21
171.833075
  0
LINE
  8
2
 62
134
  6
CONTINUOUS
 10
147.578757
 20
182.333074
 11
145.646906
 21
181.815436
  0
LINE
  8
2
 62
134
  6
CONTINUOUS
 10
147.578757
 20
182.333074
 11
145.646906
 21
182.850712
  0
LINE
  8
2
 62
134
  6
CONTINUOUS
 10
145.646906
 20
181.815436
 11
145.646906
 21
182.850712
  0
LINE
  8
2
 62
134
  6
CONTINUOUS
 10
147.095794
 20
182.333074
 11
146.129868
 21
182.074255
  0
LINE
  8
2
 62
134
  6
CONTINUOUS
 10
147.095794
 20
182.333074
 11
146.129868
 21
182.591893
  0
LINE
  8
2
 62
134
  6
CONTINUOUS
 10
146.129868
 20
182.074255
 11
146.129868
 21
182.591893
  0
LINE
  8
2
 62
134
  6
CONTINUOUS
 10
151.578757
 20
182.333074
 11
153.510609
 21
182.850712
  0
LINE
  8
2
 62
134
  6
CONTINUOUS
 10
151.578757
 20
182.333074
 11
153.510609
 21
181.815436
  0
LINE
  8
2
 62
134
  6
CONTINUOUS
 10
153.510609
 20
182.850712
 11
153.510609
 21
181.815436
  0
LINE
  8
2
 62
134
  6
CONTINUOUS
 10
152.061720
 20
182.333074
 11
153.027646
 21
182.591893
  0
LINE
  8
2
 62
134
  6
CONTINUOUS
 10
152.061720
 20
182.333074
 11
153.027646
 21
182.074255
  0
LINE
  8
2
 62
134
  6
CONTINUOUS
 10
153.027646
 20
182.591893
 11
153.027646
 21
182.074255
  0
TEXT
  8
2
 62
134
  6
CONTINUOUS
 10
153.590322
 20
182.333074
 40
4.000000
 41
0.500000
  1
4
  7
KANJI
 50
0.000000
 51
30.000000
  0
ENDBLK
  0
BLOCK
  8
2
 62
134
  6
CONTINUOUS
  2
*D10
 70
    65
 10
0.0
 20
0.0
  0
LINE
  8
2
 62
134
  6
CONTINUOUS
 10
108.590322
 20
210.970968
 11
108.590322
 21
225.970968
  0
LINE
  8
2
 62
134
  6
CONTINUOUS
 10
106.590322
 20
214.970968
 11
124.590323
 21
214.970968
  0
LINE
  8
2
 62
134
  6
CONTINUOUS
 10
106.590322
 20
221.970968
 11
123.520933
 21
221.970968
  0
LINE
  8
2
 62
134
  6
CONTINUOUS
 10
108.590322
 20
214.970968
 11
109.107960
 21
213.039116
  0
LINE
  8
2
 62
134
  6
CONTINUOUS
 10
108.590322
 20
214.970968
 11
108.072684
 21
213.039116
  0
LINE
  8
2
 62
134
  6
CONTINUOUS
 10
109.107960
 20
213.039116
 11
108.072684
 21
213.039116
  0
LINE
  8
2
 62
134
  6
CONTINUOUS
 10
108.590322
 20
214.488005
 11
108.849141
 21
213.522079
  0
LINE
  8
2
 62
134
  6
CONTINUOUS
 10
108.590322
 20
214.488005
 11
108.331503
 21
213.522079
  0
LINE
  8
2
 62
134
  6
CONTINUOUS
 10
108.849141
 20
213.522079
 11
108.331503
 21
213.522079
  0
LINE
  8
2
 62
134
  6
CONTINUOUS
 10
108.590322
 20
221.970968
 11
108.072684
 21
223.902819
  0
LINE
  8
2
 62
134
  6
CONTINUOUS
 10
108.590322
 20
221.970968
 11
109.107960
 21
223.902819
  0
LINE
  8
2
 62
134
  6
CONTINUOUS
 10
108.072684
 20
223.902819
 11
109.107960
 21
223.902819
  0
LINE
  8
2
 62
134
  6
CONTINUOUS
 10
108.590322
 20
222.453931
 11
108.331503
 21
223.419856
  0
LINE
  8
2
 62
134
  6
CONTINUOUS
 10
108.590322
 20
222.453931
 11
108.849141
 21
223.419856
  0
LINE
  8
2
 62
134
  6
CONTINUOUS
 10
108.331503
 20
223.419856
 11
108.849141
 21
223.419856
  0
TEXT
  8
2
 62
134
  6
CONTINUOUS
 10
108.590322
 20
217.470968
 40
4.000000
 41
0.500000
  1
7
  7
KANJI
 50
90.000000
 51
30.000000
  0
ENDBLK
  0
BLOCK
  8
2
 62
134
  6
CONTINUOUS
  2
*D11
 70
    65
 10
0.0
 20
0.0
  0
LINE
  8
2
 62
134
  6
CONTINUOUS
 10
115.712080
 20
215.970968
 11
115.712080
 21
229.333074
  0
LINE
  8
2
 62
134
  6
CONTINUOUS
 10
113.712080
 20
219.970968
 11
127.634122
 21
219.970968
  0
LINE
  8
2
 62
134
  6
CONTINUOUS
 10
113.712080
 20
223.970488
 11
127.590323
 21
223.970488
  0
LINE
  8
2
 62
134
  6
CONTINUOUS
 10
115.712080
 20
219.970968
 11
116.229718
 21
218.039116
  0
LINE
  8
2
 62
134
  6
CONTINUOUS
 10
115.712080
 20
219.970968
 11
115.194442
 21
218.039116
  0
LINE
  8
2
 62
134
  6
CONTINUOUS
 10
116.229718
 20
218.039116
 11
115.194442
 21
218.039116
  0
LINE
  8
2
 62
134
  6
CONTINUOUS
 10
115.712080
 20
219.488005
 11
115.970899
 21
218.522079
  0
LINE
  8
2
 62
134
  6
CONTINUOUS
 10
115.712080
 20
219.488005
 11
115.453261
 21
218.522079
  0
LINE
  8
2
 62
134
  6
CONTINUOUS
 10
115.970899
 20
218.522079
 11
115.453261
 21
218.522079
  0
LINE
  8
2
 62
134
  6
CONTINUOUS
 10
115.712080
 20
223.970488
 11
115.194442
 21
225.902340
  0
LINE
  8
2
 62
134
  6
CONTINUOUS
 10
115.712080
 20
223.970488
 11
116.229718
 21
225.902340
  0
LINE
  8
2
 62
134
  6
CONTINUOUS
 10
115.194442
 20
225.902340
 11
116.229718
 21
225.902340
  0
LINE
  8
2
 62
134
  6
CONTINUOUS
 10
115.712080
 20
224.453451
 11
115.453261
 21
225.419377
  0
LINE
  8
2
 62
134
  6
CONTINUOUS
 10
115.712080
 20
224.453451
 11
115.970899
 21
225.419377
  0
LINE
  8
2
 62
134
  6
CONTINUOUS
 10
115.453261
 20
225.419377
 11
115.970899
 21
225.419377
  0
TEXT
  8
2
 62
134
  6
CONTINUOUS
 10
115.712080
 20
226.333074
 40
4.000000
 41
0.500000
  1
4
  7
KANJI
 50
90.000000
 51
30.000000
  0
ENDBLK
  0
BLOCK
  8
2
 62
134
  6
CONTINUOUS
  2
*D12
 70
    65
 10
0.0
 20
0.0
  0
LINE
  8
2
 62
134
  6
CONTINUOUS
 10
127.634122
 20
201.997120
 11
135.634122
 21
201.997120
  0
LINE
  8
2
 62
134
  6
CONTINUOUS
 10
127.634122
 20
199.997120
 11
127.634122
 21
219.970968
  0
LINE
  8
2
 62
134
  6
CONTINUOUS
 10
135.634122
 20
199.997120
 11
135.634122
 21
219.970968
  0
LINE
  8
2
 62
134
  6
CONTINUOUS
 10
127.634122
 20
201.997120
 11
129.565973
 21
202.514758
  0
LINE
  8
2
 62
134
  6
CONTINUOUS
 10
127.634122
 20
201.997120
 11
129.565973
 21
201.479482
  0
LINE
  8
2
 62
134
  6
CONTINUOUS
 10
129.565973
 20
202.514758
 11
129.565973
 21
201.479482
  0
LINE
  8
2
 62
134
  6
CONTINUOUS
 10
128.117085
 20
201.997120
 11
129.083011
 21
202.255939
  0
LINE
  8
2
 62
134
  6
CONTINUOUS
 10
128.117085
 20
201.997120
 11
129.083011
 21
201.738301
  0
LINE
  8
2
 62
134
  6
CONTINUOUS
 10
129.083011
 20
202.255939
 11
129.083011
 21
201.738301
  0
LINE
  8
2
 62
134
  6
CONTINUOUS
 10
135.634122
 20
201.997120
 11
133.702270
 21
201.479482
  0
LINE
  8
2
 62
134
  6
CONTINUOUS
 10
135.634122
 20
201.997120
 11
133.702270
 21
202.514758
  0
LINE
  8
2
 62
134
  6
CONTINUOUS
 10
133.702270
 20
201.479482
 11
133.702270
 21
202.514758
  0
LINE
  8
2
 62
134
  6
CONTINUOUS
 10
135.151159
 20
201.997120
 11
134.185233
 21
201.738301
  0
LINE
  8
2
 62
134
  6
CONTINUOUS
 10
135.151159
 20
201.997120
 11
134.185233
 21
202.255939
  0
LINE
  8
2
 62
134
  6
CONTINUOUS
 10
134.185233
 20
201.738301
 11
134.185233
 21
202.255939
  0
TEXT
  8
2
 62
134
  6
CONTINUOUS
 10
130.634122
 20
201.997120
 40
4.000000
 41
0.500000
  1
8
  7
KANJI
 50
0.000000
 51
30.000000
  0
ENDBLK
  0
BLOCK
  8
2
 62
134
  6
CONTINUOUS
  2
*D13
 70
    65
 10
0.0
 20
0.0
  0
LINE
  8
2
 62
134
  6
CONTINUOUS
 10
135.634122
 20
201.997120
 11
149.590323
 21
201.997120
  0
LINE
  8
2
 62
134
  6
CONTINUOUS
 10
135.634122
 20
199.997120
 11
135.634122
 21
219.970968
  0
LINE
  8
2
 62
134
  6
CONTINUOUS
 10
149.590323
 20
199.997120
 11
149.590323
 21
213.965203
  0
LINE
  8
2
 62
134
  6
CONTINUOUS
 10
135.634122
 20
201.997120
 11
137.565973
 21
202.514758
  0
LINE
  8
2
 62
134
  6
CONTINUOUS
 10
135.634122
 20
201.997120
 11
137.565973
 21
201.479482
  0
LINE
  8
2
 62
134
  6
CONTINUOUS
 10
137.565973
 20
202.514758
 11
137.565973
 21
201.479482
  0
LINE
  8
2
 62
134
  6
CONTINUOUS
 10
136.117085
 20
201.997120
 11
137.083011
 21
202.255939
  0
LINE
  8
2
 62
134
  6
CONTINUOUS
 10
136.117085
 20
201.997120
 11
137.083011
 21
201.738301
  0
LINE
  8
2
 62
134
  6
CONTINUOUS
 10
137.083011
 20
202.255939
 11
137.083011
 21
201.738301
  0
LINE
  8
2
 62
134
  6
CONTINUOUS
 10
149.590323
 20
201.997120
 11
147.658471
 21
201.479482
  0
LINE
  8
2
 62
134
  6
CONTINUOUS
 10
149.590323
 20
201.997120
 11
147.658471
 21
202.514758
  0
LINE
  8
2
 62
134
  6
CONTINUOUS
 10
147.658471
 20
201.479482
 11
147.658471
 21
202.514758
  0
LINE
  8
2
 62
134
  6
CONTINUOUS
 10
149.107360
 20
201.997120
 11
148.141434
 21
201.738301
  0
LINE
  8
2
 62
134
  6
CONTINUOUS
 10
149.107360
 20
201.997120
 11
148.141434
 21
202.255939
  0
LINE
  8
2
 62
134
  6
CONTINUOUS
 10
148.141434
 20
201.738301
 11
148.141434
 21
202.255939
  0
TEXT
  8
2
 62
134
  6
CONTINUOUS
 10
140.612222
 20
201.997120
 40
4.000000
 41
0.500000
  1
14
  7
KANJI
 50
0.000000
 51
30.000000
  0
ENDBLK
  0
BLOCK
  8
2
 62
134
  6
CONTINUOUS
  2
*D14
 70
    65
 10
0.0
 20
0.0
  0
LINE
  8
2
 62
134
  6
CONTINUOUS
 10
143.590802
 20
208.835936
 11
160.590322
 21
208.835936
  0
LINE
  8
2
 62
134
  6
CONTINUOUS
 10
147.590802
 20
206.835936
 11
147.590802
 21
217.927169
  0
LINE
  8
2
 62
134
  6
CONTINUOUS
 10
151.589843
 20
206.835936
 11
151.589843
 21
217.927169
  0
LINE
  8
2
 62
134
  6
CONTINUOUS
 10
147.590802
 20
208.835936
 11
145.658951
 21
208.318298
  0
LINE
  8
2
 62
134
  6
CONTINUOUS
 10
147.590802
 20
208.835936
 11
145.658951
 21
209.353574
  0
LINE
  8
2
 62
134
  6
CONTINUOUS
 10
145.658951
 20
208.318298
 11
145.658951
 21
209.353574
  0
LINE
  8
2
 62
134
  6
CONTINUOUS
 10
147.107839
 20
208.835936
 11
146.141914
 21
208.577117
  0
LINE
  8
2
 62
134
  6
CONTINUOUS
 10
147.107839
 20
208.835936
 11
146.141914
 21
209.094755
  0
LINE
  8
2
 62
134
  6
CONTINUOUS
 10
146.141914
 20
208.577117
 11
146.141914
 21
209.094755
  0
LINE
  8
2
 62
134
  6
CONTINUOUS
 10
151.589843
 20
208.835936
 11
153.521695
 21
209.353574
  0
LINE
  8
2
 62
134
  6
CONTINUOUS
 10
151.589843
 20
208.835936
 11
153.521695
 21
208.318298
  0
LINE
  8
2
 62
134
  6
CONTINUOUS
 10
153.521695
 20
209.353574
 11
153.521695
 21
208.318298
  0
LINE
  8
2
 62
134
  6
CONTINUOUS
 10
152.072806
 20
208.835936
 11
153.038732
 21
209.094755
  0
LINE
  8
2
 62
134
  6
CONTINUOUS
 10
152.072806
 20
208.835936
 11
153.038732
 21
208.577117
  0
LINE
  8
2
 62
134
  6
CONTINUOUS
 10
153.038732
 20
209.094755
 11
153.038732
 21
208.577117
  0
TEXT
  8
2
 62
134
  6
CONTINUOUS
 10
157.590322
 20
208.835936
 40
4.000000
 41
0.500000
  1
4
  7
KANJI
 50
0.000000
 51
30.000000
  0
ENDBLK
  0
BLOCK
  8
2
 62
134
  6
CONTINUOUS
  2
*D15
 70
    65
 10
0.0
 20
0.0
  0
LINE
  8
2
 62
134
  6
CONTINUOUS
 10
116.590322
 20
201.997120
 11
131.634122
 21
201.997120
  0
LINE
  8
2
 62
134
  6
CONTINUOUS
 10
123.590323
 20
199.997120
 11
123.590323
 21
215.970968
  0
LINE
  8
2
 62
134
  6
CONTINUOUS
 10
127.634122
 20
199.997120
 11
127.634122
 21
219.970968
  0
LINE
  8
2
 62
134
  6
CONTINUOUS
 10
123.590323
 20
201.997120
 11
121.658471
 21
201.479482
  0
LINE
  8
2
 62
134
  6
CONTINUOUS
 10
123.590323
 20
201.997120
 11
121.658471
 21
202.514758
  0
LINE
  8
2
 62
134
  6
CONTINUOUS
 10
121.658471
 20
201.479482
 11
121.658471
 21
202.514758
  0
LINE
  8
2
 62
134
  6
CONTINUOUS
 10
123.107360
 20
201.997120
 11
122.141434
 21
201.738301
  0
LINE
  8
2
 62
134
  6
CONTINUOUS
 10
123.107360
 20
201.997120
 11
122.141434
 21
202.255939
  0
LINE
  8
2
 62
134
  6
CONTINUOUS
 10
122.141434
 20
201.738301
 11
122.141434
 21
202.255939
  0
LINE
  8
2
 62
134
  6
CONTINUOUS
 10
127.634122
 20
201.997120
 11
129.565973
 21
202.514758
  0
LINE
  8
2
 62
134
  6
CONTINUOUS
 10
127.634122
 20
201.997120
 11
129.565973
 21
201.479482
  0
LINE
  8
2
 62
134
  6
CONTINUOUS
 10
129.565973
 20
202.514758
 11
129.565973
 21
201.479482
  0
LINE
  8
2
 62
134
  6
CONTINUOUS
 10
128.117085
 20
201.997120
 11
129.083011
 21
202.255939
  0
LINE
  8
2
 62
134
  6
CONTINUOUS
 10
128.117085
 20
201.997120
 11
129.083011
 21
201.738301
  0
LINE
  8
2
 62
134
  6
CONTINUOUS
 10
129.083011
 20
202.255939
 11
129.083011
 21
201.738301
  0
TEXT
  8
2
 62
134
  6
CONTINUOUS
 10
117.590322
 20
201.997120
 40
4.000000
 41
0.500000
  1
4
  7
KANJI
 50
0.000000
 51
30.000000
  0
ENDBLK
  0
BLOCK
  8
2
 62
134
  6
CONTINUOUS
  2
*D16
 70
    65
 10
0.0
 20
0.0
  0
LINE
  8
2
 62
134
  6
CONTINUOUS
 10
168.590322
 20
210.970968
 11
168.590322
 21
221.970968
  0
LINE
  8
2
 62
134
  6
CONTINUOUS
 10
170.590322
 20
214.970968
 11
154.590322
 21
214.970968
  0
LINE
  8
2
 62
134
  6
CONTINUOUS
 10
170.590322
 20
217.970968
 11
151.590323
 21
217.970968
  0
LINE
  8
2
 62
134
  6
CONTINUOUS
 10
168.590322
 20
214.970968
 11
169.107960
 21
213.039116
  0
LINE
  8
2
 62
134
  6
CONTINUOUS
 10
168.590322
 20
214.970968
 11
168.072684
 21
213.039116
  0
LINE
  8
2
 62
134
  6
CONTINUOUS
 10
169.107960
 20
213.039116
 11
168.072684
 21
213.039116
  0
LINE
  8
2
 62
134
  6
CONTINUOUS
 10
168.590322
 20
214.488005
 11
168.849141
 21
213.522079
  0
LINE
  8
2
 62
134
  6
CONTINUOUS
 10
168.590322
 20
214.488005
 11
168.331503
 21
213.522079
  0
LINE
  8
2
 62
134
  6
CONTINUOUS
 10
168.849141
 20
213.522079
 11
168.331503
 21
213.522079
  0
LINE
  8
2
 62
134
  6
CONTINUOUS
 10
168.590322
 20
217.970968
 11
168.072684
 21
219.902819
  0
LINE
  8
2
 62
134
  6
CONTINUOUS
 10
168.590322
 20
217.970968
 11
169.107960
 21
219.902819
  0
LINE
  8
2
 62
134
  6
CONTINUOUS
 10
168.072684
 20
219.902819
 11
169.107960
 21
219.902819
  0
LINE
  8
2
 62
134
  6
CONTINUOUS
 10
168.590322
 20
218.453931
 11
168.331503
 21
219.419856
  0
LINE
  8
2
 62
134
  6
CONTINUOUS
 10
168.590322
 20
218.453931
 11
168.849141
 21
219.419856
  0
LINE
  8
2
 62
134
  6
CONTINUOUS
 10
168.331503
 20
219.419856
 11
168.849141
 21
219.419856
  0
TEXT
  8
2
 62
134
  6
CONTINUOUS
 10
168.590322
 20
215.357200
 40
4.000000
 41
0.500000
  1
3
  7
KANJI
 50
90.000000
 51
30.000000
  0
ENDBLK
  0
BLOCK
  8
2
 62
134
  6
CONTINUOUS
  2
*D17
 70
    65
 10
0.0
 20
0.0
  0
LINE
  8
2
 62
134
  6
CONTINUOUS
 10
168.590322
 20
217.970968
 11
168.590322
 21
225.970968
  0
LINE
  8
2
 62
134
  6
CONTINUOUS
 10
170.590322
 20
217.970968
 11
151.590323
 21
217.970968
  0
LINE
  8
2
 62
134
  6
CONTINUOUS
 10
170.590322
 20
225.970968
 11
151.590323
 21
225.970968
  0
LINE
  8
2
 62
134
  6
CONTINUOUS
 10
168.590322
 20
217.970968
 11
168.072684
 21
219.902819
  0
LINE
  8
2
 62
134
  6
CONTINUOUS
 10
168.590322
 20
217.970968
 11
169.107960
 21
219.902819
  0
LINE
  8
2
 62
134
  6
CONTINUOUS
 10
168.072684
 20
219.902819
 11
169.107960
 21
219.902819
  0
LINE
  8
2
 62
134
  6
CONTINUOUS
 10
168.590322
 20
218.453931
 11
168.331503
 21
219.419856
  0
LINE
  8
2
 62
134
  6
CONTINUOUS
 10
168.590322
 20
218.453931
 11
168.849141
 21
219.419856
  0
LINE
  8
2
 62
134
  6
CONTINUOUS
 10
168.331503
 20
219.419856
 11
168.849141
 21
219.419856
  0
LINE
  8
2
 62
134
  6
CONTINUOUS
 10
168.590322
 20
225.970968
 11
169.107960
 21
224.039116
  0
LINE
  8
2
 62
134
  6
CONTINUOUS
 10
168.590322
 20
225.970968
 11
168.072684
 21
224.039116
  0
LINE
  8
2
 62
134
  6
CONTINUOUS
 10
169.107960
 20
224.039116
 11
168.072684
 21
224.039116
  0
LINE
  8
2
 62
134
  6
CONTINUOUS
 10
168.590322
 20
225.488005
 11
168.849141
 21
224.522079
  0
LINE
  8
2
 62
134
  6
CONTINUOUS
 10
168.590322
 20
225.488005
 11
168.331503
 21
224.522079
  0
LINE
  8
2
 62
134
  6
CONTINUOUS
 10
168.849141
 20
224.522079
 11
168.331503
 21
224.522079
  0
TEXT
  8
2
 62
134
  6
CONTINUOUS
 10
168.590322
 20
221.333074
 40
4.000000
 41
0.500000
  1
8
  7
KANJI
 50
90.000000
 51
30.000000
  0
ENDBLK
  0
BLOCK
  8
2
 62
134
  6
CONTINUOUS
  2
*D18
 70
    65
 10
0.0
 20
0.0
  0
LINE
  8
2
 62
134
  6
CONTINUOUS
 10
183.670337
 20
214.970968
 11
183.670337
 21
241.970968
  0
LINE
  8
2
 62
134
  6
CONTINUOUS
 10
185.670337
 20
214.970968
 11
154.590322
 21
214.970968
  0
LINE
  8
2
 62
134
  6
CONTINUOUS
 10
185.670337
 20
241.970968
 11
156.590322
 21
241.970968
  0
LINE
  8
2
 62
134
  6
CONTINUOUS
 10
183.670337
 20
214.970968
 11
183.152698
 21
216.902819
  0
LINE
  8
2
 62
134
  6
CONTINUOUS
 10
183.670337
 20
214.970968
 11
184.187975
 21
216.902819
  0
LINE
  8
2
 62
134
  6
CONTINUOUS
 10
183.152698
 20
216.902819
 11
184.187975
 21
216.902819
  0
LINE
  8
2
 62
134
  6
CONTINUOUS
 10
183.670337
 20
215.453931
 11
183.411518
 21
216.419856
  0
LINE
  8
2
 62
134
  6
CONTINUOUS
 10
183.670337
 20
215.453931
 11
183.929156
 21
216.419856
  0
LINE
  8
2
 62
134
  6
CONTINUOUS
 10
183.411518
 20
216.419856
 11
183.929156
 21
216.419856
  0
LINE
  8
2
 62
134
  6
CONTINUOUS
 10
183.670337
 20
241.970968
 11
184.187975
 21
240.039116
  0
LINE
  8
2
 62
134
  6
CONTINUOUS
 10
183.670337
 20
241.970968
 11
183.152698
 21
240.039116
  0
LINE
  8
2
 62
134
  6
CONTINUOUS
 10
184.187975
 20
240.039116
 11
183.152698
 21
240.039116
  0
LINE
  8
2
 62
134
  6
CONTINUOUS
 10
183.670337
 20
241.488005
 11
183.929156
 21
240.522079
  0
LINE
  8
2
 62
134
  6
CONTINUOUS
 10
183.670337
 20
241.488005
 11
183.411518
 21
240.522079
  0
LINE
  8
2
 62
134
  6
CONTINUOUS
 10
183.929156
 20
240.522079
 11
183.411518
 21
240.522079
  0
TEXT
  8
2
 62
134
  6
CONTINUOUS
 10
183.670337
 20
225.333074
 40
4.000000
 41
0.500000
  1
27
  7
KANJI
 50
90.000000
 51
30.000000
  0
ENDBLK
  0
BLOCK
  8
2
 62
134
  6
CONTINUOUS
  2
*D19
 70
    65
 10
0.0
 20
0.0
  0
LINE
  8
2
 62
134
  6
CONTINUOUS
 10
129.590323
 20
154.383285
 11
129.590323
 21
167.833076
  0
LINE
  8
2
 62
134
  6
CONTINUOUS
 10
145.040113
 20
169.833076
 11
131.590323
 21
169.833076
  0
ARC
  8
2
 62
134
  6
CONTINUOUS
 10
129.590323
 20
169.833076
 40
13.449791
 50
-90.000000
 51
0.000000
  0
LINE
  8
2
 62
134
  6
CONTINUOUS
 10
129.590323
 20
156.383285
 11
131.522174
 21
156.900923
  0
LINE
  8
2
 62
134
  6
CONTINUOUS
 10
129.590323
 20
156.383285
 11
131.522174
 21
155.865647
  0
LINE
  8
2
 62
134
  6
CONTINUOUS
 10
131.522174
 20
156.900923
 11
131.522174
 21
155.865647
  0
LINE
  8
2
 62
134
  6
CONTINUOUS
 10
130.073285
 20
156.383285
 11
131.039211
 21
156.642104
  0
LINE
  8
2
 62
134
  6
CONTINUOUS
 10
130.073285
 20
156.383285
 11
131.039211
 21
156.124466
  0
LINE
  8
2
 62
134
  6
CONTINUOUS
 10
131.039211
 20
156.642104
 11
131.039211
 21
156.124466
  0
LINE
  8
2
 62
134
  6
CONTINUOUS
 10
143.040113
 20
169.833076
 11
143.557752
 21
167.901224
  0
LINE
  8
2
 62
134
  6
CONTINUOUS
 10
143.040113
 20
169.833076
 11
142.522475
 21
167.901224
  0
LINE
  8
2
 62
134
  6
CONTINUOUS
 10
143.557752
 20
167.901224
 11
142.522475
 21
167.901224
  0
LINE
  8
2
 62
134
  6
CONTINUOUS
 10
143.040113
 20
169.350113
 11
143.298932
 21
168.384187
  0
LINE
  8
2
 62
134
  6
CONTINUOUS
 10
143.040113
 20
169.350113
 11
142.781294
 21
168.384187
  0
LINE
  8
2
 62
134
  6
CONTINUOUS
 10
143.298932
 20
168.384187
 11
142.781294
 21
168.384187
  0
TEXT
  8
2
 62
134
  6
CONTINUOUS
 10
136.979441
 20
158.201317
 40
4.000000
 41
0.500000
  1
90ﾟ
  7
KANJI
 50
45.000000
 51
30.000000
  0
ENDBLK
  0
BLOCK
  8
2
 62
134
  6
CONTINUOUS
  2
*D20
 70
    65
 10
0.0
 20
0.0
  0
LINE
  8
2
 62
134
  6
CONTINUOUS
 10
154.090322
 20
174.333076
 11
169.683467
 21
189.926221
  0
LINE
  8
2
 62
134
  6
CONTINUOUS
 10
154.090322
 20
174.333076
 11
155.090322
 21
176.065126
  0
LINE
  8
2
 62
134
  6
CONTINUOUS
 10
154.090322
 20
174.333076
 11
155.822373
 21
175.333076
  0
LINE
  8
2
 62
134
  6
CONTINUOUS
 10
155.090322
 20
176.065126
 11
155.822373
 21
175.333076
  0
LINE
  8
2
 62
134
  6
CONTINUOUS
 10
154.431829
 20
174.674582
 11
154.931829
 21
175.540607
  0
LINE
  8
2
 62
134
  6
CONTINUOUS
 10
154.431829
 20
174.674582
 11
155.297854
 21
175.174582
  0
LINE
  8
2
 62
134
  6
CONTINUOUS
 10
154.931829
 20
175.540607
 11
155.297854
 21
175.174582
  0
TEXT
  8
2
 62
134
  6
CONTINUOUS
 10
164.026613
 20
184.269366
 40
4.000000
 41
0.500000
  1
4-C3
  7
KANJI
 50
45.000000
 51
30.000000
  0
ENDBLK
  0
ENDSEC
  0
SECTION
  2
ENTITIES
  0
TEXT
  8
5
 62
94
  6
CONTINUOUS
 10
122.938555
 20
25.232135
 40
1.750000
 41
4.000000
  1
製図
  7
KANJI
 50
-90.000000
 51
0.000000
  0
TEXT
  8
5
 62
94
  6
CONTINUOUS
 10
142.771336
 20
25.068228
 40
1.750000
 41
4.000000
  1
図番
  7
KANJI
 50
-90.000000
 51
0.000000
  0
TEXT
  8
5
 62
94
  6
CONTINUOUS
 10
142.771336
 20
38.344718
 40
1.750000
 41
4.000000
  1
図　名
  7
KANJI
 50
-90.000000
 51
0.000000
  0
TEXT
  8
5
 62
94
  6
CONTINUOUS
 10
77.864051
 20
32.935778
 40
1.750000
 41
4.000000
  1
日付
  7
KANJI
 50
-90.000000
 51
0.000000
  0
TEXT
  8
5
 62
94
  6
CONTINUOUS
 10
112.940210
 20
33.099685
 40
1.750000
 41
4.000000
  1
図法
  7
KANJI
 50
-90.000000
 51
0.000000
  0
TEXT
  8
5
 62
94
  6
CONTINUOUS
 10
112.776303
 20
41.131142
 40
1.750000
 41
4.000000
  1
尺度
  7
KANJI
 50
-90.000000
 51
0.000000
  0
TEXT
  8
5
 62
94
  6
CONTINUOUS
 10
77.864051
 20
40.967235
 40
1.750000
 41
4.000000
  1
公差
  7
KANJI
 50
-90.000000
 51
0.000000
  0
TEXT
  8
5
 62
94
  6
CONTINUOUS
 10
77.864051
 20
25.068228
 40
1.750000
 41
4.000000
  1
承認
  7
KANJI
 50
-90.000000
 51
0.000000
  0
TEXT
  8
5
 62
94
  6
CONTINUOUS
 10
102.941866
 20
25.068228
 40
1.750000
 41
4.000000
  1
設計
  7
KANJI
 50
-90.000000
 51
0.000000
  0
TEXT
  8
5
 62
94
  6
CONTINUOUS
 10
96.385575
 20
11.136109
 40
4.500000
 41
1.888889
  1
ジャパンセンサー株式会社
  7
KANJI
 50
0.000000
 51
0.000000
  0
LINE
  8
5
 62
94
  6
CONTINUOUS
 10
76.975806
 20
41.580645
 11
196.975806
 21
41.580645
  0
LINE
  8
5
 62
94
  6
CONTINUOUS
 10
76.975806
 20
9.580645
 11
76.975806
 21
41.580645
  0
LINE
  8
5
 62
94
  6
CONTINUOUS
 10
196.975806
 20
17.580645
 11
76.975806
 21
17.580645
  0
LINE
  8
5
 62
94
  6
CONTINUOUS
 10
141.975806
 20
41.580645
 11
141.975806
 21
17.580645
  0
LINE
  8
5
 62
94
  6
CONTINUOUS
 10
196.975806
 20
25.580645
 11
76.975806
 21
25.580645
  0
LINE
  8
5
 62
94
  6
CONTINUOUS
 10
146.975806
 20
17.580645
 11
146.975806
 21
41.580645
  0
LINE
  8
5
 62
94
  6
CONTINUOUS
 10
116.975806
 20
41.580645
 11
116.975806
 21
25.580645
  0
LINE
  8
5
 62
94
  6
CONTINUOUS
 10
81.975806
 20
17.580645
 11
81.975806
 21
41.580645
  0
LINE
  8
5
 62
94
  6
CONTINUOUS
 10
76.975806
 20
33.580645
 11
141.975806
 21
33.580645
  0
LINE
  8
5
 62
94
  6
CONTINUOUS
 10
111.975806
 20
41.580645
 11
111.975806
 21
25.580645
  0
LINE
  8
5
 62
94
  6
CONTINUOUS
 10
101.975806
 20
17.580645
 11
101.975806
 21
25.580645
  0
LINE
  8
5
 62
94
  6
CONTINUOUS
 10
121.975806
 20
17.580645
 11
121.975806
 21
25.580645
  0
LINE
  8
5
 62
94
  6
CONTINUOUS
 10
106.975806
 20
25.580645
 11
106.975806
 21
17.580645
  0
LINE
  8
5
 62
94
  6
CONTINUOUS
 10
126.975806
 20
25.580645
 11
126.975806
 21
17.580645
  0
TEXT
  8
5
 62
94
  6
CONTINUOUS
 10
120.971667
 20
26.871208
 40
4.000000
 41
1.000000
  1
三角法
  7
KANJI
 50
0.000000
 51
0.000000
  0
LINE
  8
5
 62
94
  6
CONTINUOUS
 10
149.619507
 20
33.551118
 11
193.760255
 21
33.551118
  0
TEXT
  8
5
 62
94
  6
CONTINUOUS
 10
130.155925
 20
19.519622
 40
4.000000
 41
1.000000
  1
須藤
  7
KANJI
 50
0.000000
 51
0.000000
  0
LINE
  8
5
 62
94
  6
CONTINUOUS
 10
11.975806
 20
284.580645
 11
11.975806
 21
9.580645
  0
LINE
  8
5
 62
94
  6
CONTINUOUS
 10
11.975806
 20
9.580645
 11
196.975806
 21
9.580645
  0
LINE
  8
5
 62
94
  6
CONTINUOUS
 10
196.975806
 20
9.580645
 11
196.975806
 21
284.580645
  0
LINE
  8
5
 62
94
  6
CONTINUOUS
 10
196.975806
 20
284.580645
 11
11.975806
 21
284.580645
  0
TEXT
  8
5
 62
94
  6
CONTINUOUS
 10
147.977951
 20
19.847933
 40
4.000000
 41
1.000000
  1
００５－０６５－Ａ１０１
  7
KANJI
 50
0.000000
 51
0.000000
  0
TEXT
  8
5
 62
94
  6
CONTINUOUS
 10
152.129517
 20
35.574043
 40
4.000000
 41
1.000000
  1
ＴＭＡＸ－Ａ
  7
KANJI
 50
0.000000
 51
0.000000
  0
TEXT
  8
5
 62
94
  6
CONTINUOUS
 10
87.062421
 20
27.412338
 40
4.000000
 41
0.500000
  1
2014/01/24
  7
KANJI
 50
0.000000
 51
0.000000
  0
CIRCLE
  8
1
 62
7
  6
CONTINUOUS
 10
129.590323
 20
169.844641
 40
2.000000
  0
LINE
  8
1
 62
7
  6
DASHDOT
 10
126.332449
 20
169.833076
 11
134.079004
 21
169.833076
  0
LINE
  8
1
 62
7
  6
DASHDOT
 10
129.590323
 20
154.844641
 11
129.590323
 21
144.844641
  0
ARC
  8
1
 62
7
  6
CONTINUOUS
 10
129.590323
 20
169.833075
 40
17.988435
 50
-90.000000
 51
0.000000
  0
ARC
  8
1
 62
7
  6
CONTINUOUS
 10
129.590323
 20
169.833075
 40
21.988435
 50
-90.000000
 51
0.000000
  0
LINE
  8
1
 62
7
  6
DASHDOT
 10
129.590323
 20
176.844641
 11
129.590323
 21
164.844641
  0
LINE
  8
1
 62
7
  6
CONTINUOUS
 10
152.590322
 20
175.833076
 11
126.590323
 21
175.833076
  0
LINE
  8
1
 62
7
  6
CONTINUOUS
 10
126.590323
 20
175.833076
 11
123.590323
 21
172.833076
  0
LINE
  8
1
 62
7
  6
CONTINUOUS
 10
152.590322
 20
175.833076
 11
155.590322
 21
172.833076
  0
LINE
  8
1
 62
7
  6
CONTINUOUS
 10
41.590323
 20
175.833076
 11
43.590323
 21
175.833076
  0
LINE
  8
1
 62
7
  6
DASHDOT
 10
35.249551
 20
169.833076
 11
51.514842
 21
169.833076
  0
LINE
  8
1
 62
7
  6
DASHDOT
 10
35.143932
 20
149.833076
 11
50.775511
 21
149.833076
  0
LINE
  8
1
 62
7
  6
DASHDOT
 10
146.332449
 20
169.833075
 11
154.590322
 21
169.833075
  0
ARC
  8
1
 62
7
  6
CONTINUOUS
 10
129.590323
 20
149.844641
 40
2.000000
 50
90.000000
 51
-90.000000
  0
ARC
  8
1
 62
7
  6
CONTINUOUS
 10
149.590323
 20
169.844640
 40
2.000000
 50
-0.331314
 51
-179.670597
  0
LINE
  8
1
 62
7
  6
CONTINUOUS
 10
123.590323
 20
127.833076
 11
155.590322
 21
127.833076
  0
LINE
  8
1
 62
7
  6
CONTINUOUS
 10
123.590323
 20
125.833076
 11
123.590323
 21
172.833076
  0
LINE
  8
1
 62
7
  6
CONTINUOUS
 10
155.590322
 20
125.833076
 11
155.590322
 21
172.833076
  0
LINE
  8
1
 62
7
  6
CONTINUOUS
 10
123.590323
 20
125.833076
 11
155.590322
 21
125.833076
  0
ARC
  8
1
 62
7
  6
CONTINUOUS
 10
43.090323
 20
127.333076
 40
1.500000
 50
180.000000
 51
-90.000000
  0
LINE
  8
1
 62
7
  6
CONTINUOUS
 10
78.590323
 20
125.833076
 11
43.090323
 21
125.833076
  0
LINE
  8
1
 62
7
  6
CONTINUOUS
 10
78.590323
 20
127.833076
 11
78.590323
 21
125.833076
  0
LINE
  8
1
 62
7
  6
CONTINUOUS
 10
43.590323
 20
127.833076
 11
78.590323
 21
127.833076
  0
LINE
  8
1
 62
7
  6
CONTINUOUS
 10
41.590323
 20
127.333076
 11
41.590323
 21
175.833076
  0
LINE
  8
1
 62
7
  6
CONTINUOUS
 10
43.590323
 20
175.833076
 11
43.590323
 21
127.833076
  0
LINE
  8
1
 62
7
  6
DASHDOT
 10
71.590323
 20
135.874815
 11
71.590323
 21
120.544374
  0
LINE
  8
1
 62
7
  6
DASHDOT
 10
149.590323
 20
134.708883
 11
149.590323
 21
119.272823
  0
LINE
  8
1
 62
7
  6
DASHDOT
 10
129.590323
 20
134.471240
 11
129.590323
 21
119.880131
  0
LINE
  8
1
 62
7
  6
DASHDOT
 10
133.582941
 20
134.682478
 11
133.582941
 21
120.091368
  0
DIMENSION
  8
2
 62
134
  6
CONTINUOUS
  2
*D1
 10
28.180519
 20
175.833076
 11
28.180519
 21
150.833076
 70
     0
  1
50
 13
39.590323
 23
175.833076
 14
41.970526
 24
125.833076
 50
-90.000000
  0
DIMENSION
  8
2
 62
134
  6
CONTINUOUS
  2
*D2
 10
41.590323
 20
107.333074
 11
60.090323
 21
107.333074
 70
     0
  1
37
 13
41.590323
 23
126.301618
 14
78.590323
 24
123.833076
 50
0.000000
  0
DIMENSION
  8
2
 62
134
  6
CONTINUOUS
  2
*D3
 10
123.590323
 20
107.333074
 11
139.590322
 21
107.333074
 70
     0
  1
32
 13
123.590323
 23
123.833076
 14
155.590322
 24
123.833076
 50
0.000000
  0
LINE
  8
1
 62
7
  6
CONTINUOUS
 10
123.590323
 20
249.970968
 11
155.590322
 21
249.970968
  0
LINE
  8
1
 62
7
  6
DASHDOT
 10
144.650055
 20
219.927169
 11
153.530535
 21
219.927169
  0
LINE
  8
1
 62
7
  6
DASHDOT
 10
144.522163
 20
223.919787
 11
153.418682
 21
223.919787
  0
ARC
  8
1
 62
7
  6
CONTINUOUS
 10
149.590323
 20
219.970968
 40
2.000000
 50
180.000000
 51
-90.000000
  0
LINE
  8
1
 62
7
  6
CONTINUOUS
 10
147.590323
 20
219.970968
 11
147.590323
 21
223.970968
  0
ARC
  8
1
 62
7
  6
CONTINUOUS
 10
149.590323
 20
223.970968
 40
2.000000
 50
90.000000
 51
180.000000
  0
ARC
  8
1
 62
7
  6
CONTINUOUS
 10
149.590323
 20
219.970968
 40
2.000000
 50
-90.000000
 51
0.000000
  0
LINE
  8
1
 62
7
  6
CONTINUOUS
 10
151.590323
 20
223.970968
 11
151.590323
 21
219.970968
  0
ARC
  8
1
 62
7
  6
CONTINUOUS
 10
149.590323
 20
223.970968
 40
2.000000
 50
0.000000
 51
90.000000
  0
LINE
  8
1
 62
7
  6
DASHDOT
 10
138.821622
 20
221.970968
 11
125.520933
 21
221.970968
  0
LINE
  8
1
 62
7
  6
DASHDOT
 10
129.590323
 20
226.911236
 11
129.590323
 21
218.030755
  0
LINE
  8
1
 62
7
  6
DASHDOT
 10
133.582941
 20
227.039127
 11
133.582941
 21
218.142609
  0
ARC
  8
1
 62
7
  6
CONTINUOUS
 10
129.634122
 20
221.970968
 40
2.000000
 50
90.000000
 51
180.000000
  0
LINE
  8
1
 62
7
  6
CONTINUOUS
 10
129.634122
 20
223.970968
 11
133.634122
 21
223.970968
  0
ARC
  8
1
 62
7
  6
CONTINUOUS
 10
133.634122
 20
221.970968
 40
2.000000
 50
0.000000
 51
90.000000
  0
ARC
  8
1
 62
7
  6
CONTINUOUS
 10
129.634122
 20
221.970968
 40
2.000000
 50
180.000000
 51
-90.000000
  0
LINE
  8
1
 62
7
  6
CONTINUOUS
 10
133.634122
 20
219.970968
 11
129.634122
 21
219.970968
  0
ARC
  8
1
 62
7
  6
CONTINUOUS
 10
133.634122
 20
221.970968
 40
2.000000
 50
-90.000000
 51
0.000000
  0
LINE
  8
1
 62
7
  6
CONTINUOUS
 10
155.590322
 20
251.970968
 11
123.590323
 21
251.970968
  0
LINE
  8
1
 62
7
  6
DASHDOT
 10
149.590323
 20
228.922965
 11
149.590323
 21
215.667809
  0
LINE
  8
1
 62
7
  6
DASHDOT
 10
129.590323
 20
243.243386
 11
129.590323
 21
262.149147
  0
LINE
  8
1
 62
7
  6
DASHDOT
 10
149.590323
 20
243.560242
 11
149.590323
 21
262.254766
  0
LINE
  8
1
 62
7
  6
CONTINUOUS
 10
123.590323
 20
251.970968
 11
123.590323
 21
217.970968
  0
LINE
  8
1
 62
7
  6
CONTINUOUS
 10
123.590323
 20
217.970968
 11
126.590323
 21
214.970968
  0
LINE
  8
1
 62
7
  6
CONTINUOUS
 10
126.590323
 20
214.970968
 11
152.590322
 21
214.970968
  0
LINE
  8
1
 62
7
  6
CONTINUOUS
 10
155.590322
 20
251.970968
 11
155.590322
 21
217.970968
  0
LINE
  8
1
 62
7
  6
CONTINUOUS
 10
152.590322
 20
214.970968
 11
155.590322
 21
217.970968
  0
LINE
  8
2
 62
134
  6
CONTINUOUS
 10
39.506441
 20
233.785319
 11
50.322386
 21
233.785319
  0
TEXT
  8
2
 62
134
  6
CONTINUOUS
 10
38.921795
 20
234.954610
 40
4.000000
 41
1.000000
  1
ｔ2.0
  7
KANJI
 50
0.000000
 51
0.000000
  0
DIMENSION
  8
2
 62
134
  6
CONTINUOUS
  2
*D4
 10
54.862802
 20
139.105555
 11
54.862802
 21
139.105555
 13
59.532016
 23
127.833076
 14
43.590323
 24
143.774769
 15
43.590323
 25
127.833076
 16
54.862802
 26
139.105555
 70
     5
  1
90ﾟ
  0
DIMENSION
  8
2
 62
134
  6
CONTINUOUS
  2
*D5
 10
123.590323
 20
187.395324
 11
126.590323
 21
187.395324
 70
     0
  1
6
 13
123.590323
 23
174.833076
 14
129.590323
 24
178.844641
 50
0.000000
  0
DIMENSION
  8
2
 62
134
  6
CONTINUOUS
  2
*D6
 10
129.590323
 20
187.395324
 11
139.590323
 21
187.395324
 70
     0
  1
20
 13
129.590323
 23
178.844641
 14
149.590323
 24
178.844640
 50
0.000000
  0
DIMENSION
  8
2
 62
134
  6
CONTINUOUS
  2
*D7
 10
113.590322
 20
175.833076
 11
113.590322
 21
172.833076
 70
     0
  1
6
 13
124.590323
 23
175.833076
 14
124.332449
 24
169.833076
 50
-90.000000
  0
DIMENSION
  8
2
 62
134
  6
CONTINUOUS
  2
*D8
 10
113.590322
 20
169.833076
 11
113.590322
 21
159.833076
 70
     0
  1
20
 13
124.332449
 23
169.833076
 14
124.332449
 24
149.833076
 50
-90.000000
  0
LINE
  8
2
 62
134
  6
CONTINUOUS
 10
128.152381
 20
171.234721
 11
103.590322
 21
197.333074
  0
LINE
  8
2
 62
134
  6
CONTINUOUS
 10
103.590322
 20
197.333074
 11
88.590322
 21
197.333074
  0
TEXT
  8
2
 62
134
  6
CONTINUOUS
 10
88.590322
 20
197.333074
 40
4.000000
 41
1.000000
  1
φ4穴
  7
KANJI
 50
0.000000
 51
30.000000
  0
LINE
  8
2
 62
134
  6
CONTINUOUS
 10
128.152381
 20
171.234721
 11
126.451437
 21
172.286762
  0
LINE
  8
2
 62
134
  6
CONTINUOUS
 10
128.152381
 20
171.234721
 11
127.205341
 21
172.996287
  0
LINE
  8
2
 62
134
  6
CONTINUOUS
 10
126.451437
 20
172.286762
 11
127.205341
 21
172.996287
  0
LINE
  8
2
 62
134
  6
CONTINUOUS
 10
127.821383
 20
171.586422
 11
126.970911
 21
172.112443
  0
LINE
  8
2
 62
134
  6
CONTINUOUS
 10
127.821383
 20
171.586422
 11
127.347863
 21
172.467205
  0
LINE
  8
2
 62
134
  6
CONTINUOUS
 10
126.970911
 20
172.112443
 11
127.347863
 21
172.467205
  0
DIMENSION
  8
2
 62
134
  6
CONTINUOUS
  2
*D9
 10
147.578757
 20
182.333074
 11
154.590322
 21
182.333074
 70
     0
  1
4
 13
147.578757
 23
171.833075
 14
151.578757
 24
171.833075
 50
0.000000
  0
DIMENSION
  8
2
 62
134
  6
CONTINUOUS
  2
*D10
 10
108.590322
 20
214.970968
 11
108.590322
 21
218.470968
 70
     0
  1
7
 13
124.590323
 23
214.970968
 14
123.520933
 24
221.970968
 50
90.000000
  0
DIMENSION
  8
2
 62
134
  6
CONTINUOUS
  2
*D11
 10
115.712080
 20
219.970968
 11
115.712080
 21
227.333074
 70
     0
  1
4
 13
127.634122
 23
219.970968
 14
127.590323
 24
223.970488
 50
90.000000
  0
DIMENSION
  8
2
 62
134
  6
CONTINUOUS
  2
*D12
 10
127.634122
 20
201.997120
 11
131.634122
 21
201.997120
 70
     0
  1
8
 13
127.634122
 23
219.970968
 14
135.634122
 24
219.970968
 50
0.000000
  0
DIMENSION
  8
2
 62
134
  6
CONTINUOUS
  2
*D13
 10
135.634122
 20
201.997120
 11
142.612222
 21
201.997120
 70
     0
  1
14
 13
135.634122
 23
219.970968
 14
149.590323
 24
213.965203
 50
0.000000
  0
DIMENSION
  8
2
 62
134
  6
CONTINUOUS
  2
*D14
 10
147.590802
 20
208.835936
 11
158.590322
 21
208.835936
 70
     0
  1
4
 13
147.590802
 23
217.927169
 14
151.589843
 24
217.927169
 50
0.000000
  0
DIMENSION
  8
2
 62
134
  6
CONTINUOUS
  2
*D15
 10
123.590323
 20
201.997120
 11
118.590322
 21
201.997120
 70
     0
  1
4
 13
123.590323
 23
215.970968
 14
127.634122
 24
219.970968
 50
0.000000
  0
DIMENSION
  8
2
 62
134
  6
CONTINUOUS
  2
*D16
 10
168.590322
 20
214.970968
 11
168.590322
 21
216.357200
 70
     0
  1
3
 13
154.590322
 23
214.970968
 14
151.590323
 24
217.970968
 50
90.000000
  0
DIMENSION
  8
2
 62
134
  6
CONTINUOUS
  2
*D17
 10
168.590322
 20
217.970968
 11
168.590322
 21
222.333074
 70
     0
  1
8
 13
151.590323
 23
217.970968
 14
151.590323
 24
225.970968
 50
90.000000
  0
CIRCLE
  8
1
 62
7
  6
CONTINUOUS
 10
149.590323
 20
241.982533
 40
2.000000
  0
LINE
  8
1
 62
7
  6
DASHDOT
 10
146.332449
 20
241.970968
 11
154.079004
 21
241.970968
  0
LINE
  8
1
 62
7
  6
DASHDOT
 10
149.590323
 20
248.982533
 11
149.590323
 21
236.982533
  0
DIMENSION
  8
2
 62
134
  6
CONTINUOUS
  2
*D18
 10
183.670337
 20
214.970968
 11
183.670337
 21
227.333074
 70
     0
  1
27
 13
154.590322
 23
214.970968
 14
156.590322
 24
241.970968
 50
90.000000
  0
LINE
  8
2
 62
134
  6
CONTINUOUS
 10
150.797973
 20
243.576767
 11
163.590322
 21
257.333074
  0
LINE
  8
2
 62
134
  6
CONTINUOUS
 10
163.590322
 20
257.333074
 11
173.590322
 21
257.333074
  0
TEXT
  8
2
 62
134
  6
CONTINUOUS
 10
163.590322
 20
257.333074
 40
4.000000
 41
1.000000
  1
φ4穴
  7
KANJI
 50
0.000000
 51
30.000000
  0
LINE
  8
2
 62
134
  6
CONTINUOUS
 10
150.797973
 20
243.576767
 11
151.734466
 21
245.343962
  0
LINE
  8
2
 62
134
  6
CONTINUOUS
 10
150.797973
 20
243.576767
 11
152.492598
 21
244.638956
  0
LINE
  8
2
 62
134
  6
CONTINUOUS
 10
151.734466
 20
245.343962
 11
152.492598
 21
244.638956
  0
LINE
  8
2
 62
134
  6
CONTINUOUS
 10
151.126862
 20
243.930440
 11
151.595109
 21
244.814037
  0
LINE
  8
2
 62
134
  6
CONTINUOUS
 10
151.126862
 20
243.930440
 11
151.974175
 21
244.461534
  0
LINE
  8
2
 62
134
  6
CONTINUOUS
 10
151.595109
 20
244.814037
 11
151.974175
 21
244.461534
  0
ARC
  8
1
 62
7
  6
DASHDOT
 10
129.590323
 20
169.833076
 40
20.000000
 50
-90.000000
 51
-0.000001
  0
LINE
  8
1
 62
7
  6
DASHDOT
 10
149.590323
 20
176.844640
 11
149.590323
 21
169.833075
  0
LINE
  8
1
 62
7
  6
DASHDOT
 10
126.332449
 20
149.833076
 11
129.590323
 21
149.833076
  0
DIMENSION
  8
2
 62
134
  6
CONTINUOUS
  2
*D19
 10
139.100761
 20
160.322637
 11
139.100761
 21
160.322637
 13
129.590323
 23
156.383285
 14
143.040113
 24
169.833076
 15
129.590323
 25
169.833076
 16
139.100761
 26
160.322637
 70
     5
  1
90ﾟ
  0
TEXT
  8
2
 62
134
  6
DASHDOT
 10
129.634122
 20
215.970968
 40
4.000000
 41
1.000000
  1
穴
  7
KANJI
 50
0.000000
 51
30.000000
  0
TEXT
  8
2
 62
134
  6
DASHDOT
 10
143.590322
 20
149.996570
 40
4.000000
 41
1.000000
  1
穴
  7
KANJI
 50
0.000000
 51
30.000000
  0
TEXT
  8
2
 62
134
  6
DASHDOT
 10
143.013709
 20
219.919787
 40
4.000000
 41
1.000000
  1
穴
  7
KANJI
 50
0.000000
 51
30.000000
  0
DIMENSION
  8
2
 62
134
  6
CONTINUOUS
  2
*D20
 10
154.090322
 20
174.333076
 11
166.855040
 21
187.097793
 70
     4
  1
4-C3
 15
169.683467
 25
189.926221
  0
TEXT
  8
2
 62
134
  6
CONTINUOUS
 10
38.155992
 20
224.600351
 40
4.000000
 41
1.000000
  1
質量：45g
  7
KANJI
 50
0.000000
 51
0.000000
  0
TEXT
  8
5
 62
94
  6
CONTINUOUS
 10
110.155925
 20
19.519622
 40
4.000000
 41
1.000000
  1
保田
  7
KANJI
 50
0.000000
 51
0.000000
  0
TEXT
  8
5
 62
94
  6
CONTINUOUS
 10
123.602775
 20
35.305055
 40
4.000000
 41
1.000000
  1
１／１
  7
KANJI
 50
0.000000
 51
0.000000
  0
TEXT
  8
5
 62
94
  6
CONTINUOUS
 10
149.897799
 20
27.432588
 40
4.000000
 41
1.000000
  1
取付金具Ａ 外形図
  7
KANJI
 50
0.000000
 51
0.000000
  0
ENDSEC
  0
EOF
