  0
SECTION
  2
HEADER
  9
$ACADVER
  1
AC1009
  9
$INSBASE
 10
0.000000
 20
0.000000
  9
$EXTMIN
 10
0.000000
 20
0.000000
  9
$EXTMAX
 10
297.000000
 20
210.000000
  9
$LIMMIN
 10
0.000000
 20
0.000000
  9
$LIMMAX
 10
297.000000
 20
210.000000
  9
$VIEWCTR
 10
148.500000
 20
105.000000
  9
$VIEWSIZE
 40
210.000000
  9
$PEXTMIN
 10
0.000000
 20
0.000000
 30
0.000000
  9
$PEXTMAX
 10
297.000000
 20
210.000000
 30
0.000000
  9
$SNAPMODE
 70
     0
  9
$SNAPUNIT
 10
1.000000
 20
1.000000
  9
$SNAPBASE
 10
0.000000
 20
0.000000
  9
$SNAPANG
 50
0.000000
  9
$SNAPISOPAIR
 70
     0
  9
$SNAPSTYLE
 70
     0
  9
$GRIDMODE
 70
     0
  9
$GRIDUNIT
 10
0.000000
 20
0.000000
  9
$ORTHOMODE
 70
     0
  9
$REGENMODE
 70
     1
  9
$FILLMODE
 70
     1
  9
$QTEXTMODE
 70
     0
  9
$DRAGMODE
 70
     2
  9
$LTSCALE
 40
0.250000
  9
$OSMODE
 70
     0
  9
$ATTMODE
 70
     1
  9
$TEXTSIZE
 40
4.000000
  9
$TRACEWID
 40
0.050000
  9
$TEXTSTYLE
  7
STANDARD
  9
$CLAYER
  8
0
  9
$CELTYPE
  6
BYLAYER
  9
$CECOLOR
 62
   256
  9
$DIMSCALE
 40
1.000000
  9
$DIMASZ
 40
1.000000
  9
$DIMEXO
 40
0.000000
  9
$DIMDLI
 40
0.500000
  9
$DIMRND
 40
0.000000
  9
$DIMDLE
 40
0.000000
  9
$DIMEXE
 40
0.000000
  9
$DIMTP
 40
0.000000
  9
$DIMTM
 40
0.000000
  9
$DIMTXT
 40
4.000000
  9
$DIMCEN
 40
0.000000
  9
$DIMTSZ
 40
0.000000
  9
$DIMTOL
 70
     0
  9
$DIMLIM
 70
     0
  9
$DIMTIH
 70
     1
  9
$DIMTOH
 70
     1
  9
$DIMSE1
 70
     0
  9
$DIMSE2
 70
     0
  9
$DIMTAD
 70
     0
  9
$DIMZIN
 70
     0
  9
$DIMBLK
  1

  9
$DIMASO
 70
     0
  9
$DIMSHO
 70
     0
  9
$DIMPOST
  1

  9
$DIMAPOST
  1

  9
$DIMALT
 70
     0
  9
$DIMALTD
 70
     0
  9
$DIMALTF
 40
25.400000
  9
$DIMLFAC
 40
1.000000
  9
$DIMTOFL
 70
     0
  9
$DIMTVP
 40
0.000000
  9
$DIMTIX
 70
     0
  9
$DIMSOXD
 70
     0
  9
$DIMSAH
 70
     0
  9
$DIMBLKL
  1

  9
$DIMBLKR
  1

  9
$LUNITS
 70
     2
  9
$LUPREC
 70
     2
  9
$AXISMODE
 70
     0
  9
$AXISUNIT
 10
1.000000
 20
1.000000
  9
$SKETCHINC
 40
0.000000
  9
$FILLETRAD
 40
0.000000
  9
$AUNITS
 70
     1
  9
$AUPREC
 70
     2
  9
$MENU
  1
ACAD
  9
$ELEVATION
 40
0.000000
  9
$THICKNESS
 40
0.000000
  9
$VIEWDIR
 10
0.000000
 20
0.000000
 30
1.000000
  9
$LIMCHECK
 70
     1
  9
$BLIPMODE
 70
     1
  9
$CHAMFERA
 40
0.000000
  9
$CHAMFERB
 40
0.000000
  9
$FASTZOOM
 70
     1
  9
$SKPOLY
 70
     0
  9
$TDCREATE
 40
0.000000
  9
$TDUPDATE
 40
0.000000
  9
$TDINDWG
 40
0.000000
  9
$TDUSRTIMER
 40
0.000000
  9
$USRTIMER
 70
     1
  9
$ANGBASE
 50
0.000000
  9
$ANGDIR
 70
     0
  9
$PDMODE
 70
     0
  9
$PDSIZE
 40
0.000000
  9
$PLINEWID
 40
0.000000
  9
$COORDS
 70
     2
  9
$USERI1
 70
     0
  9
$USERI2
 70
     0
  9
$USERI3
 70
     0
  9
$USERI4
 70
     0
  9
$USERI5
 70
     0
  9
$USERR1
 40
0.000000
  9
$USERR2
 40
0.000000
  9
$USERR3
 40
0.000000
  9
$USERR4
 40
0.000000
  9
$USERR5
 40
0.000000
  0
ENDSEC
  0
SECTION
  2
TABLES
  0
TABLE
  2
LTYPE
 70
     5
  0
LTYPE
  2
CONTINUOUS
 70
    64
  3
Solid line
 72
    65
 73
     0
 40
0.0
  0
LTYPE
  2
HIDDEN
 70
    64
  3
------------------------
 72
    65
 73
     2
 40
12.6
 49
8.4
 49
-4.2
  0
LTYPE
  2
DOT
 70
    64
  3
････････････････････････
 72
    65
 73
     2
 40
8.0
 49
6.0
 49
-2.0
  0
LTYPE
  2
DASHDOT
 70
    64
  3
--･--･--･--･--･--･--･--
 72
    65
 73
     4
 40
50.5
 49
30.0
 49
-9.0
 49
2.5
 49
-9.0
  0
LTYPE
  2
DIVIDE
 70
    64
  3
--･･--･･--･･--･･--･･--
 72
    65
 73
     6
 40
58.0
 49
30.0
 49
-9.0
 49
2.5
 49
-5.0
 49
2.5
 49
-9.0
  0
LTYPE
  2
ACAD_ISO06W100
 70
    64
  3
____ ... ____ ... ____
 72
    65
 73
     8
 40
37.5
 49
24.0
 49
-3.0
 49
0.5
 49
-3.0
 49
0.5
 49
-3.0
 49
0.5
 49
-3.0
  0
LTYPE
  2
ACAD_ISO14W100
 70
    64
  3
__ . . . __ . . . __ . . . 
 72
    65
 73
     8
 40
25.5
 49
12.0
 49
-3.0
 49
0.5
 49
-3.0
 49
0.5
 49
-3.0
 49
0.5
 49
-3.0
  0
ENDTAB
  0
TABLE
  2
LAYER
 70
4
  0
LAYER
  2
1
 70
64
 62
7
  6
CONTINUOUS
  0
LAYER
  2
2
 70
64
 62
134
  6
CONTINUOUS
  0
LAYER
  2
5
 70
64
 62
94
  6
CONTINUOUS
  0
LAYER
  2
10
 70
64
 62
3
  6
CONTINUOUS
  0
ENDTAB
  0
TABLE
  2
STYLE
 70
     2
  0
STYLE
  2
STANDARD
 70
    64
 40
0.0
 41
1.0
 50
0.0
 71
     0
 42
0.2
  3
TXT
  4

  0
STYLE
  2
KANJI
 70
    64
 40
0.0
 41
1.0
 50
0.0
 71
     0
 42
0.2
  3
TXT
  4
BIGFONT
  0
ENDTAB
  0
TABLE
  2
VIEW
 70
     0
  0
ENDTAB
  0
ENDSEC
  0
SECTION
  2
BLOCKS
  0
BLOCK
  8
2
 62
134
  6
CONTINUOUS
  2
*D1
 70
    65
 10
0.0
 20
0.0
  0
LINE
  8
2
 62
134
  6
CONTINUOUS
 10
242.598093
 20
160.000000
 11
254.598093
 21
160.000000
  0
LINE
  8
2
 62
134
  6
CONTINUOUS
 10
242.598093
 20
162.000000
 11
242.598093
 21
146.700000
  0
LINE
  8
2
 62
134
  6
CONTINUOUS
 10
254.598093
 20
162.000000
 11
254.598093
 21
149.141228
  0
LINE
  8
2
 62
134
  6
CONTINUOUS
 10
242.598093
 20
160.000000
 11
244.529944
 21
160.517638
  0
LINE
  8
2
 62
134
  6
CONTINUOUS
 10
242.598093
 20
160.000000
 11
244.529944
 21
159.482362
  0
LINE
  8
2
 62
134
  6
CONTINUOUS
 10
244.529944
 20
160.517638
 11
244.529944
 21
159.482362
  0
LINE
  8
2
 62
134
  6
CONTINUOUS
 10
243.081055
 20
160.000000
 11
244.046981
 21
160.258819
  0
LINE
  8
2
 62
134
  6
CONTINUOUS
 10
243.081055
 20
160.000000
 11
244.046981
 21
159.741181
  0
LINE
  8
2
 62
134
  6
CONTINUOUS
 10
244.046981
 20
160.258819
 11
244.046981
 21
159.741181
  0
LINE
  8
2
 62
134
  6
CONTINUOUS
 10
254.598093
 20
160.000000
 11
252.666241
 21
159.482362
  0
LINE
  8
2
 62
134
  6
CONTINUOUS
 10
254.598093
 20
160.000000
 11
252.666241
 21
160.517638
  0
LINE
  8
2
 62
134
  6
CONTINUOUS
 10
252.666241
 20
159.482362
 11
252.666241
 21
160.517638
  0
LINE
  8
2
 62
134
  6
CONTINUOUS
 10
254.115130
 20
160.000000
 11
253.149204
 21
159.741181
  0
LINE
  8
2
 62
134
  6
CONTINUOUS
 10
254.115130
 20
160.000000
 11
253.149204
 21
160.258819
  0
LINE
  8
2
 62
134
  6
CONTINUOUS
 10
253.149204
 20
159.741181
 11
253.149204
 21
160.258819
  0
TEXT
  8
2
 62
134
  6
CONTINUOUS
 10
246.598093
 20
160.000000
 40
4.000000
 41
1.000000
  1
12
  7
KANJI
 50
0.000000
 51
30.000000
  0
ENDBLK
  0
BLOCK
  8
2
 62
134
  6
CONTINUOUS
  2
*D2
 70
    65
 10
0.0
 20
0.0
  0
LINE
  8
2
 62
134
  6
CONTINUOUS
 10
254.598093
 20
160.000000
 11
266.598093
 21
160.000000
  0
LINE
  8
2
 62
134
  6
CONTINUOUS
 10
266.598093
 20
162.000000
 11
266.598093
 21
146.700000
  0
LINE
  8
2
 62
134
  6
CONTINUOUS
 10
254.598093
 20
160.000000
 11
256.529944
 21
160.517638
  0
LINE
  8
2
 62
134
  6
CONTINUOUS
 10
254.598093
 20
160.000000
 11
256.529944
 21
159.482362
  0
LINE
  8
2
 62
134
  6
CONTINUOUS
 10
256.529944
 20
160.517638
 11
256.529944
 21
159.482362
  0
LINE
  8
2
 62
134
  6
CONTINUOUS
 10
255.081055
 20
160.000000
 11
256.046981
 21
160.258819
  0
LINE
  8
2
 62
134
  6
CONTINUOUS
 10
255.081055
 20
160.000000
 11
256.046981
 21
159.741181
  0
LINE
  8
2
 62
134
  6
CONTINUOUS
 10
256.046981
 20
160.258819
 11
256.046981
 21
159.741181
  0
LINE
  8
2
 62
134
  6
CONTINUOUS
 10
266.598093
 20
160.000000
 11
264.666241
 21
159.482362
  0
LINE
  8
2
 62
134
  6
CONTINUOUS
 10
266.598093
 20
160.000000
 11
264.666241
 21
160.517638
  0
LINE
  8
2
 62
134
  6
CONTINUOUS
 10
264.666241
 20
159.482362
 11
264.666241
 21
160.517638
  0
LINE
  8
2
 62
134
  6
CONTINUOUS
 10
266.115130
 20
160.000000
 11
265.149204
 21
159.741181
  0
LINE
  8
2
 62
134
  6
CONTINUOUS
 10
266.115130
 20
160.000000
 11
265.149204
 21
160.258819
  0
LINE
  8
2
 62
134
  6
CONTINUOUS
 10
265.149204
 20
159.741181
 11
265.149204
 21
160.258819
  0
TEXT
  8
2
 62
134
  6
CONTINUOUS
 10
258.598093
 20
160.000000
 40
4.000000
 41
1.000000
  1
12
  7
KANJI
 50
0.000000
 51
30.000000
  0
ENDBLK
  0
BLOCK
  8
2
 62
134
  6
CONTINUOUS
  2
*D3
 70
    65
 10
0.0
 20
0.0
  0
LINE
  8
2
 62
134
  6
CONTINUOUS
 10
242.598093
 20
170.000000
 11
266.598093
 21
170.000000
  0
LINE
  8
2
 62
134
  6
CONTINUOUS
 10
242.598093
 20
172.000000
 11
242.598093
 21
146.700000
  0
LINE
  8
2
 62
134
  6
CONTINUOUS
 10
266.598093
 20
172.000000
 11
266.598093
 21
146.700000
  0
LINE
  8
2
 62
134
  6
CONTINUOUS
 10
242.598093
 20
170.000000
 11
244.529944
 21
170.517638
  0
LINE
  8
2
 62
134
  6
CONTINUOUS
 10
242.598093
 20
170.000000
 11
244.529944
 21
169.482362
  0
LINE
  8
2
 62
134
  6
CONTINUOUS
 10
244.529944
 20
170.517638
 11
244.529944
 21
169.482362
  0
LINE
  8
2
 62
134
  6
CONTINUOUS
 10
243.081055
 20
170.000000
 11
244.046981
 21
170.258819
  0
LINE
  8
2
 62
134
  6
CONTINUOUS
 10
243.081055
 20
170.000000
 11
244.046981
 21
169.741181
  0
LINE
  8
2
 62
134
  6
CONTINUOUS
 10
244.046981
 20
170.258819
 11
244.046981
 21
169.741181
  0
LINE
  8
2
 62
134
  6
CONTINUOUS
 10
266.598093
 20
170.000000
 11
264.666241
 21
169.482362
  0
LINE
  8
2
 62
134
  6
CONTINUOUS
 10
266.598093
 20
170.000000
 11
264.666241
 21
170.517638
  0
LINE
  8
2
 62
134
  6
CONTINUOUS
 10
264.666241
 20
169.482362
 11
264.666241
 21
170.517638
  0
LINE
  8
2
 62
134
  6
CONTINUOUS
 10
266.115130
 20
170.000000
 11
265.149204
 21
169.741181
  0
LINE
  8
2
 62
134
  6
CONTINUOUS
 10
266.115130
 20
170.000000
 11
265.149204
 21
170.258819
  0
LINE
  8
2
 62
134
  6
CONTINUOUS
 10
265.149204
 20
169.741181
 11
265.149204
 21
170.258819
  0
TEXT
  8
2
 62
134
  6
CONTINUOUS
 10
254.260391
 20
170.000000
 40
4.000000
 41
1.000000
  1
24
  7
KANJI
 50
0.000000
 51
30.000000
  0
ENDBLK
  0
BLOCK
  8
2
 62
134
  6
CONTINUOUS
  2
*D4
 70
    65
 10
0.0
 20
0.0
  0
LINE
  8
2
 62
134
  6
CONTINUOUS
 10
246.598093
 20
99.620666
 11
262.598093
 21
99.620666
  0
LINE
  8
2
 62
134
  6
CONTINUOUS
 10
246.598093
 20
97.620666
 11
246.598093
 21
124.256406
  0
LINE
  8
2
 62
134
  6
CONTINUOUS
 10
262.598093
 20
97.620666
 11
262.598093
 21
124.256406
  0
LINE
  8
2
 62
134
  6
CONTINUOUS
 10
246.598093
 20
99.620666
 11
248.529944
 21
100.138304
  0
LINE
  8
2
 62
134
  6
CONTINUOUS
 10
246.598093
 20
99.620666
 11
248.529944
 21
99.103028
  0
LINE
  8
2
 62
134
  6
CONTINUOUS
 10
248.529944
 20
100.138304
 11
248.529944
 21
99.103028
  0
LINE
  8
2
 62
134
  6
CONTINUOUS
 10
247.081055
 20
99.620666
 11
248.046981
 21
99.879485
  0
LINE
  8
2
 62
134
  6
CONTINUOUS
 10
247.081055
 20
99.620666
 11
248.046981
 21
99.361847
  0
LINE
  8
2
 62
134
  6
CONTINUOUS
 10
248.046981
 20
99.879485
 11
248.046981
 21
99.361847
  0
LINE
  8
2
 62
134
  6
CONTINUOUS
 10
262.598093
 20
99.620666
 11
260.666241
 21
99.103028
  0
LINE
  8
2
 62
134
  6
CONTINUOUS
 10
262.598093
 20
99.620666
 11
260.666241
 21
100.138304
  0
LINE
  8
2
 62
134
  6
CONTINUOUS
 10
260.666241
 20
99.103028
 11
260.666241
 21
100.138304
  0
LINE
  8
2
 62
134
  6
CONTINUOUS
 10
262.115130
 20
99.620666
 11
261.149204
 21
99.361847
  0
LINE
  8
2
 62
134
  6
CONTINUOUS
 10
262.115130
 20
99.620666
 11
261.149204
 21
99.879485
  0
LINE
  8
2
 62
134
  6
CONTINUOUS
 10
261.149204
 20
99.361847
 11
261.149204
 21
99.879485
  0
TEXT
  8
2
 62
134
  6
CONTINUOUS
 10
252.598093
 20
99.620666
 40
4.000000
 41
1.000000
  1
16
  7
KANJI
 50
0.000000
 51
30.000000
  0
ENDBLK
  0
BLOCK
  8
2
 62
134
  6
CONTINUOUS
  2
*D5
 70
    65
 10
0.0
 20
0.0
  0
LINE
  8
2
 62
134
  6
CONTINUOUS
 10
280.961644
 20
145.000000
 11
280.961644
 21
115.000000
  0
LINE
  8
2
 62
134
  6
CONTINUOUS
 10
282.961644
 20
145.000000
 11
268.298093
 21
145.000000
  0
LINE
  8
2
 62
134
  6
CONTINUOUS
 10
282.961644
 20
115.000000
 11
268.298093
 21
115.000000
  0
LINE
  8
2
 62
134
  6
CONTINUOUS
 10
280.961644
 20
145.000000
 11
281.479282
 21
143.068148
  0
LINE
  8
2
 62
134
  6
CONTINUOUS
 10
280.961644
 20
145.000000
 11
280.444006
 21
143.068148
  0
LINE
  8
2
 62
134
  6
CONTINUOUS
 10
281.479282
 20
143.068148
 11
280.444006
 21
143.068148
  0
LINE
  8
2
 62
134
  6
CONTINUOUS
 10
280.961644
 20
144.517037
 11
281.220463
 21
143.551111
  0
LINE
  8
2
 62
134
  6
CONTINUOUS
 10
280.961644
 20
144.517037
 11
280.702825
 21
143.551111
  0
LINE
  8
2
 62
134
  6
CONTINUOUS
 10
281.220463
 20
143.551111
 11
280.702825
 21
143.551111
  0
LINE
  8
2
 62
134
  6
CONTINUOUS
 10
280.961644
 20
115.000000
 11
280.444006
 21
116.931852
  0
LINE
  8
2
 62
134
  6
CONTINUOUS
 10
280.961644
 20
115.000000
 11
281.479282
 21
116.931852
  0
LINE
  8
2
 62
134
  6
CONTINUOUS
 10
280.444006
 20
116.931852
 11
281.479282
 21
116.931852
  0
LINE
  8
2
 62
134
  6
CONTINUOUS
 10
280.961644
 20
115.482963
 11
280.702825
 21
116.448889
  0
LINE
  8
2
 62
134
  6
CONTINUOUS
 10
280.961644
 20
115.482963
 11
281.220463
 21
116.448889
  0
LINE
  8
2
 62
134
  6
CONTINUOUS
 10
280.702825
 20
116.448889
 11
281.220463
 21
116.448889
  0
TEXT
  8
2
 62
134
  6
CONTINUOUS
 10
280.961644
 20
128.000000
 40
4.000000
 41
1.000000
  1
30
  7
KANJI
 50
90.000000
 51
30.000000
  0
ENDBLK
  0
BLOCK
  8
2
 62
134
  6
CONTINUOUS
  2
*D6
 70
    65
 10
0.0
 20
0.0
  0
LINE
  8
2
 62
134
  6
CONTINUOUS
 10
274.284495
 20
138.800000
 11
274.284495
 21
121.200000
  0
LINE
  8
2
 62
134
  6
CONTINUOUS
 10
276.284495
 20
138.800000
 11
257.481962
 21
138.800000
  0
LINE
  8
2
 62
134
  6
CONTINUOUS
 10
276.284495
 20
121.200000
 11
257.356045
 21
121.200000
  0
LINE
  8
2
 62
134
  6
CONTINUOUS
 10
274.284495
 20
138.800000
 11
274.802134
 21
136.868148
  0
LINE
  8
2
 62
134
  6
CONTINUOUS
 10
274.284495
 20
138.800000
 11
273.766857
 21
136.868148
  0
LINE
  8
2
 62
134
  6
CONTINUOUS
 10
274.802134
 20
136.868148
 11
273.766857
 21
136.868148
  0
LINE
  8
2
 62
134
  6
CONTINUOUS
 10
274.284495
 20
138.317037
 11
274.543315
 21
137.351111
  0
LINE
  8
2
 62
134
  6
CONTINUOUS
 10
274.284495
 20
138.317037
 11
274.025676
 21
137.351111
  0
LINE
  8
2
 62
134
  6
CONTINUOUS
 10
274.543315
 20
137.351111
 11
274.025676
 21
137.351111
  0
LINE
  8
2
 62
134
  6
CONTINUOUS
 10
274.284495
 20
121.200000
 11
273.766857
 21
123.131852
  0
LINE
  8
2
 62
134
  6
CONTINUOUS
 10
274.284495
 20
121.200000
 11
274.802134
 21
123.131852
  0
LINE
  8
2
 62
134
  6
CONTINUOUS
 10
273.766857
 20
123.131852
 11
274.802134
 21
123.131852
  0
LINE
  8
2
 62
134
  6
CONTINUOUS
 10
274.284495
 20
121.682963
 11
274.025676
 21
122.648889
  0
LINE
  8
2
 62
134
  6
CONTINUOUS
 10
274.284495
 20
121.682963
 11
274.543315
 21
122.648889
  0
LINE
  8
2
 62
134
  6
CONTINUOUS
 10
274.025676
 20
122.648889
 11
274.543315
 21
122.648889
  0
TEXT
  8
2
 62
134
  6
CONTINUOUS
 10
274.284495
 20
126.000000
 40
4.000000
 41
1.000000
  1
17.6
  7
KANJI
 50
90.000000
 51
30.000000
  0
ENDBLK
  0
BLOCK
  8
2
 62
134
  6
CONTINUOUS
  2
*D7
 70
    65
 10
0.0
 20
0.0
  0
LINE
  8
2
 62
134
  6
CONTINUOUS
 10
131.821518
 20
151.480847
 11
197.287376
 21
151.480847
  0
LINE
  8
2
 62
134
  6
CONTINUOUS
 10
131.821518
 20
153.480847
 11
131.821518
 21
136.850000
  0
LINE
  8
2
 62
134
  6
CONTINUOUS
 10
197.287376
 20
153.480847
 11
197.287376
 21
143.650000
  0
LINE
  8
2
 62
134
  6
CONTINUOUS
 10
131.821518
 20
151.480847
 11
133.753370
 21
151.998485
  0
LINE
  8
2
 62
134
  6
CONTINUOUS
 10
131.821518
 20
151.480847
 11
133.753370
 21
150.963209
  0
LINE
  8
2
 62
134
  6
CONTINUOUS
 10
133.753370
 20
151.998485
 11
133.753370
 21
150.963209
  0
LINE
  8
2
 62
134
  6
CONTINUOUS
 10
132.304481
 20
151.480847
 11
133.270407
 21
151.739666
  0
LINE
  8
2
 62
134
  6
CONTINUOUS
 10
132.304481
 20
151.480847
 11
133.270407
 21
151.222028
  0
LINE
  8
2
 62
134
  6
CONTINUOUS
 10
133.270407
 20
151.739666
 11
133.270407
 21
151.222028
  0
LINE
  8
2
 62
134
  6
CONTINUOUS
 10
197.287376
 20
151.480847
 11
195.355524
 21
150.963209
  0
LINE
  8
2
 62
134
  6
CONTINUOUS
 10
197.287376
 20
151.480847
 11
195.355524
 21
151.998485
  0
LINE
  8
2
 62
134
  6
CONTINUOUS
 10
195.355524
 20
150.963209
 11
195.355524
 21
151.998485
  0
LINE
  8
2
 62
134
  6
CONTINUOUS
 10
196.804413
 20
151.480847
 11
195.838487
 21
151.222028
  0
LINE
  8
2
 62
134
  6
CONTINUOUS
 10
196.804413
 20
151.480847
 11
195.838487
 21
151.739666
  0
LINE
  8
2
 62
134
  6
CONTINUOUS
 10
195.838487
 20
151.222028
 11
195.838487
 21
151.739666
  0
TEXT
  8
2
 62
134
  6
CONTINUOUS
 10
143.273699
 20
151.480847
 40
4.000000
 41
1.000000
  1
ｹｰﾌﾞﾙ長（標準2m）
  7
KANJI
 50
0.000000
 51
30.000000
  0
ENDBLK
  0
BLOCK
  8
2
 62
134
  6
CONTINUOUS
  2
*D8
 70
    65
 10
0.0
 20
0.0
  0
LINE
  8
2
 62
134
  6
CONTINUOUS
 10
177.482091
 20
118.500000
 11
177.482091
 21
142.712028
  0
LINE
  8
2
 62
134
  6
CONTINUOUS
 10
177.482091
 20
126.500000
 11
177.999729
 21
124.568148
  0
LINE
  8
2
 62
134
  6
CONTINUOUS
 10
177.482091
 20
126.500000
 11
176.964453
 21
124.568148
  0
LINE
  8
2
 62
134
  6
CONTINUOUS
 10
177.999729
 20
124.568148
 11
176.964453
 21
124.568148
  0
LINE
  8
2
 62
134
  6
CONTINUOUS
 10
177.482091
 20
126.017037
 11
177.740910
 21
125.051111
  0
LINE
  8
2
 62
134
  6
CONTINUOUS
 10
177.482091
 20
126.017037
 11
177.223272
 21
125.051111
  0
LINE
  8
2
 62
134
  6
CONTINUOUS
 10
177.740910
 20
125.051111
 11
177.223272
 21
125.051111
  0
LINE
  8
2
 62
134
  6
CONTINUOUS
 10
177.482091
 20
133.500000
 11
176.964453
 21
135.431852
  0
LINE
  8
2
 62
134
  6
CONTINUOUS
 10
177.482091
 20
133.500000
 11
177.999729
 21
135.431852
  0
LINE
  8
2
 62
134
  6
CONTINUOUS
 10
176.964453
 20
135.431852
 11
177.999729
 21
135.431852
  0
LINE
  8
2
 62
134
  6
CONTINUOUS
 10
177.482091
 20
133.982963
 11
177.223272
 21
134.948889
  0
LINE
  8
2
 62
134
  6
CONTINUOUS
 10
177.482091
 20
133.982963
 11
177.740910
 21
134.948889
  0
LINE
  8
2
 62
134
  6
CONTINUOUS
 10
177.223272
 20
134.948889
 11
177.740910
 21
134.948889
  0
TEXT
  8
2
 62
134
  6
CONTINUOUS
 10
177.482091
 20
136.712028
 40
4.000000
 41
1.000000
  1
φ7
  7
KANJI
 50
90.000000
 51
0.000000
  0
ENDBLK
  0
BLOCK
  8
2
 62
134
  6
CONTINUOUS
  2
*D9
 70
    65
 10
0.0
 20
0.0
  0
LINE
  8
2
 62
134
  6
CONTINUOUS
 10
228.845227
 20
151.459765
 11
234.845227
 21
151.459765
  0
LINE
  8
2
 62
134
  6
CONTINUOUS
 10
228.845227
 20
153.459765
 11
228.845227
 21
144.750000
  0
LINE
  8
2
 62
134
  6
CONTINUOUS
 10
234.845227
 20
153.459765
 11
234.845227
 21
144.750000
  0
LINE
  8
2
 62
134
  6
CONTINUOUS
 10
228.845227
 20
151.459765
 11
230.777079
 21
151.977403
  0
LINE
  8
2
 62
134
  6
CONTINUOUS
 10
228.845227
 20
151.459765
 11
230.777079
 21
150.942126
  0
LINE
  8
2
 62
134
  6
CONTINUOUS
 10
230.777079
 20
151.977403
 11
230.777079
 21
150.942126
  0
LINE
  8
2
 62
134
  6
CONTINUOUS
 10
229.328190
 20
151.459765
 11
230.294116
 21
151.718584
  0
LINE
  8
2
 62
134
  6
CONTINUOUS
 10
229.328190
 20
151.459765
 11
230.294116
 21
151.200945
  0
LINE
  8
2
 62
134
  6
CONTINUOUS
 10
230.294116
 20
151.718584
 11
230.294116
 21
151.200945
  0
LINE
  8
2
 62
134
  6
CONTINUOUS
 10
234.845227
 20
151.459765
 11
232.913376
 21
150.942126
  0
LINE
  8
2
 62
134
  6
CONTINUOUS
 10
234.845227
 20
151.459765
 11
232.913376
 21
151.977403
  0
LINE
  8
2
 62
134
  6
CONTINUOUS
 10
232.913376
 20
150.942126
 11
232.913376
 21
151.977403
  0
LINE
  8
2
 62
134
  6
CONTINUOUS
 10
234.362264
 20
151.459765
 11
233.396339
 21
151.200945
  0
LINE
  8
2
 62
134
  6
CONTINUOUS
 10
234.362264
 20
151.459765
 11
233.396339
 21
151.718584
  0
LINE
  8
2
 62
134
  6
CONTINUOUS
 10
233.396339
 20
151.200945
 11
233.396339
 21
151.718584
  0
TEXT
  8
2
 62
134
  6
CONTINUOUS
 10
230.845227
 20
151.459765
 40
4.000000
 41
1.000000
  1
6
  7
KANJI
 50
0.000000
 51
30.000000
  0
ENDBLK
  0
BLOCK
  8
2
 62
134
  6
CONTINUOUS
  2
*D10
 70
    65
 10
0.0
 20
0.0
  0
LINE
  8
2
 62
134
  6
CONTINUOUS
 10
114.821518
 20
160.000000
 11
131.821518
 21
160.000000
  0
LINE
  8
2
 62
134
  6
CONTINUOUS
 10
114.821518
 20
162.000000
 11
114.821518
 21
146.700000
  0
LINE
  8
2
 62
134
  6
CONTINUOUS
 10
131.821518
 20
162.000000
 11
131.821518
 21
136.850000
  0
LINE
  8
2
 62
134
  6
CONTINUOUS
 10
114.821518
 20
160.000000
 11
116.753370
 21
160.517638
  0
LINE
  8
2
 62
134
  6
CONTINUOUS
 10
114.821518
 20
160.000000
 11
116.753370
 21
159.482362
  0
LINE
  8
2
 62
134
  6
CONTINUOUS
 10
116.753370
 20
160.517638
 11
116.753370
 21
159.482362
  0
LINE
  8
2
 62
134
  6
CONTINUOUS
 10
115.304481
 20
160.000000
 11
116.270407
 21
160.258819
  0
LINE
  8
2
 62
134
  6
CONTINUOUS
 10
115.304481
 20
160.000000
 11
116.270407
 21
159.741181
  0
LINE
  8
2
 62
134
  6
CONTINUOUS
 10
116.270407
 20
160.258819
 11
116.270407
 21
159.741181
  0
LINE
  8
2
 62
134
  6
CONTINUOUS
 10
131.821518
 20
160.000000
 11
129.889666
 21
159.482362
  0
LINE
  8
2
 62
134
  6
CONTINUOUS
 10
131.821518
 20
160.000000
 11
129.889666
 21
160.517638
  0
LINE
  8
2
 62
134
  6
CONTINUOUS
 10
129.889666
 20
159.482362
 11
129.889666
 21
160.517638
  0
LINE
  8
2
 62
134
  6
CONTINUOUS
 10
131.338555
 20
160.000000
 11
130.372629
 21
159.741181
  0
LINE
  8
2
 62
134
  6
CONTINUOUS
 10
131.338555
 20
160.000000
 11
130.372629
 21
160.258819
  0
LINE
  8
2
 62
134
  6
CONTINUOUS
 10
130.372629
 20
159.741181
 11
130.372629
 21
160.258819
  0
TEXT
  8
2
 62
134
  6
CONTINUOUS
 10
121.321518
 20
160.000000
 40
4.000000
 41
1.000000
  1
17
  7
KANJI
 50
0.000000
 51
30.000000
  0
ENDBLK
  0
BLOCK
  8
2
 62
134
  6
CONTINUOUS
  2
*D11
 70
    65
 10
0.0
 20
0.0
  0
LINE
  8
2
 62
134
  6
CONTINUOUS
 10
66.321518
 20
160.000000
 11
114.821518
 21
160.000000
  0
LINE
  8
2
 62
134
  6
CONTINUOUS
 10
66.321518
 20
162.000000
 11
66.321518
 21
142.719254
  0
LINE
  8
2
 62
134
  6
CONTINUOUS
 10
114.821518
 20
162.000000
 11
114.821518
 21
146.700000
  0
LINE
  8
2
 62
134
  6
CONTINUOUS
 10
66.321518
 20
160.000000
 11
68.253370
 21
160.517638
  0
LINE
  8
2
 62
134
  6
CONTINUOUS
 10
66.321518
 20
160.000000
 11
68.253370
 21
159.482362
  0
LINE
  8
2
 62
134
  6
CONTINUOUS
 10
68.253370
 20
160.517638
 11
68.253370
 21
159.482362
  0
LINE
  8
2
 62
134
  6
CONTINUOUS
 10
66.804481
 20
160.000000
 11
67.770407
 21
160.258819
  0
LINE
  8
2
 62
134
  6
CONTINUOUS
 10
66.804481
 20
160.000000
 11
67.770407
 21
159.741181
  0
LINE
  8
2
 62
134
  6
CONTINUOUS
 10
67.770407
 20
160.258819
 11
67.770407
 21
159.741181
  0
LINE
  8
2
 62
134
  6
CONTINUOUS
 10
114.821518
 20
160.000000
 11
112.889666
 21
159.482362
  0
LINE
  8
2
 62
134
  6
CONTINUOUS
 10
114.821518
 20
160.000000
 11
112.889666
 21
160.517638
  0
LINE
  8
2
 62
134
  6
CONTINUOUS
 10
112.889666
 20
159.482362
 11
112.889666
 21
160.517638
  0
LINE
  8
2
 62
134
  6
CONTINUOUS
 10
114.338555
 20
160.000000
 11
113.372629
 21
159.741181
  0
LINE
  8
2
 62
134
  6
CONTINUOUS
 10
114.338555
 20
160.000000
 11
113.372629
 21
160.258819
  0
LINE
  8
2
 62
134
  6
CONTINUOUS
 10
113.372629
 20
159.741181
 11
113.372629
 21
160.258819
  0
TEXT
  8
2
 62
134
  6
CONTINUOUS
 10
86.571518
 20
160.000000
 40
4.000000
 41
1.000000
  1
48.5
  7
KANJI
 50
0.000000
 51
30.000000
  0
ENDBLK
  0
BLOCK
  8
2
 62
134
  6
CONTINUOUS
  2
*D12
 70
    65
 10
0.0
 20
0.0
  0
LINE
  8
2
 62
134
  6
CONTINUOUS
 10
88.191734
 20
140.000000
 11
88.191734
 21
120.000000
  0
LINE
  8
2
 62
134
  6
CONTINUOUS
 10
90.191734
 20
140.000000
 11
74.984555
 21
140.000000
  0
LINE
  8
2
 62
134
  6
CONTINUOUS
 10
90.191734
 20
120.000000
 11
75.241268
 21
120.000000
  0
LINE
  8
2
 62
134
  6
CONTINUOUS
 10
88.191734
 20
140.000000
 11
88.709372
 21
138.068148
  0
LINE
  8
2
 62
134
  6
CONTINUOUS
 10
88.191734
 20
140.000000
 11
87.674096
 21
138.068148
  0
LINE
  8
2
 62
134
  6
CONTINUOUS
 10
88.709372
 20
138.068148
 11
87.674096
 21
138.068148
  0
LINE
  8
2
 62
134
  6
CONTINUOUS
 10
88.191734
 20
139.517037
 11
88.450553
 21
138.551111
  0
LINE
  8
2
 62
134
  6
CONTINUOUS
 10
88.191734
 20
139.517037
 11
87.932915
 21
138.551111
  0
LINE
  8
2
 62
134
  6
CONTINUOUS
 10
88.450553
 20
138.551111
 11
87.932915
 21
138.551111
  0
LINE
  8
2
 62
134
  6
CONTINUOUS
 10
88.191734
 20
120.000000
 11
87.674096
 21
121.931852
  0
LINE
  8
2
 62
134
  6
CONTINUOUS
 10
88.191734
 20
120.000000
 11
88.709372
 21
121.931852
  0
LINE
  8
2
 62
134
  6
CONTINUOUS
 10
87.674096
 20
121.931852
 11
88.709372
 21
121.931852
  0
LINE
  8
2
 62
134
  6
CONTINUOUS
 10
88.191734
 20
120.482963
 11
87.932915
 21
121.448889
  0
LINE
  8
2
 62
134
  6
CONTINUOUS
 10
88.191734
 20
120.482963
 11
88.450553
 21
121.448889
  0
LINE
  8
2
 62
134
  6
CONTINUOUS
 10
87.932915
 20
121.448889
 11
88.450553
 21
121.448889
  0
TEXT
  8
2
 62
134
  6
CONTINUOUS
 10
88.191734
 20
131.500000
 40
4.000000
 41
1.000000
  1
20
  7
KANJI
 50
90.000000
 51
30.000000
  0
ENDBLK
  0
BLOCK
  8
2
 62
134
  6
CONTINUOUS
  2
*D13
 70
    65
 10
0.0
 20
0.0
  0
LINE
  8
2
 62
134
  6
CONTINUOUS
 10
62.321518
 20
150.283266
 11
74.321518
 21
150.283266
  0
LINE
  8
2
 62
134
  6
CONTINUOUS
 10
66.321518
 20
152.283266
 11
66.321518
 21
143.000000
  0
LINE
  8
2
 62
134
  6
CONTINUOUS
 10
70.321518
 20
152.283266
 11
70.321518
 21
144.720706
  0
LINE
  8
2
 62
134
  6
CONTINUOUS
 10
66.321518
 20
150.283266
 11
64.389666
 21
149.765628
  0
LINE
  8
2
 62
134
  6
CONTINUOUS
 10
66.321518
 20
150.283266
 11
64.389666
 21
150.800904
  0
LINE
  8
2
 62
134
  6
CONTINUOUS
 10
64.389666
 20
149.765628
 11
64.389666
 21
150.800904
  0
LINE
  8
2
 62
134
  6
CONTINUOUS
 10
65.838555
 20
150.283266
 11
64.872629
 21
150.024447
  0
LINE
  8
2
 62
134
  6
CONTINUOUS
 10
65.838555
 20
150.283266
 11
64.872629
 21
150.542085
  0
LINE
  8
2
 62
134
  6
CONTINUOUS
 10
64.872629
 20
150.024447
 11
64.872629
 21
150.542085
  0
LINE
  8
2
 62
134
  6
CONTINUOUS
 10
70.321518
 20
150.283266
 11
72.253370
 21
150.800904
  0
LINE
  8
2
 62
134
  6
CONTINUOUS
 10
70.321518
 20
150.283266
 11
72.253370
 21
149.765628
  0
LINE
  8
2
 62
134
  6
CONTINUOUS
 10
72.253370
 20
150.800904
 11
72.253370
 21
149.765628
  0
LINE
  8
2
 62
134
  6
CONTINUOUS
 10
70.804481
 20
150.283266
 11
71.770407
 21
150.542085
  0
LINE
  8
2
 62
134
  6
CONTINUOUS
 10
70.804481
 20
150.283266
 11
71.770407
 21
150.024447
  0
LINE
  8
2
 62
134
  6
CONTINUOUS
 10
71.770407
 20
150.542085
 11
71.770407
 21
150.024447
  0
TEXT
  8
2
 62
134
  6
CONTINUOUS
 10
67.253370
 20
150.283266
 40
4.000000
 41
1.000000
  1
4
  7
KANJI
 50
0.000000
 51
30.000000
  0
ENDBLK
  0
BLOCK
  8
2
 62
134
  6
CONTINUOUS
  2
*D14
 70
    65
 10
0.0
 20
0.0
  0
LINE
  8
2
 62
134
  6
CONTINUOUS
 10
57.975242
 20
115.000000
 11
57.975242
 21
130.000000
  0
LINE
  8
2
 62
134
  6
CONTINUOUS
 10
55.975242
 20
115.000000
 11
68.321518
 21
115.000000
  0
LINE
  8
2
 62
134
  6
CONTINUOUS
 10
55.975242
 20
130.000000
 11
63.820556
 21
130.000000
  0
LINE
  8
2
 62
134
  6
CONTINUOUS
 10
57.975242
 20
115.000000
 11
57.457604
 21
116.931852
  0
LINE
  8
2
 62
134
  6
CONTINUOUS
 10
57.975242
 20
115.000000
 11
58.492880
 21
116.931852
  0
LINE
  8
2
 62
134
  6
CONTINUOUS
 10
57.457604
 20
116.931852
 11
58.492880
 21
116.931852
  0
LINE
  8
2
 62
134
  6
CONTINUOUS
 10
57.975242
 20
115.482963
 11
57.716423
 21
116.448889
  0
LINE
  8
2
 62
134
  6
CONTINUOUS
 10
57.975242
 20
115.482963
 11
58.234061
 21
116.448889
  0
LINE
  8
2
 62
134
  6
CONTINUOUS
 10
57.716423
 20
116.448889
 11
58.234061
 21
116.448889
  0
LINE
  8
2
 62
134
  6
CONTINUOUS
 10
57.975242
 20
130.000000
 11
58.492880
 21
128.068148
  0
LINE
  8
2
 62
134
  6
CONTINUOUS
 10
57.975242
 20
130.000000
 11
57.457604
 21
128.068148
  0
LINE
  8
2
 62
134
  6
CONTINUOUS
 10
58.492880
 20
128.068148
 11
57.457604
 21
128.068148
  0
LINE
  8
2
 62
134
  6
CONTINUOUS
 10
57.975242
 20
129.517037
 11
58.234061
 21
128.551111
  0
LINE
  8
2
 62
134
  6
CONTINUOUS
 10
57.975242
 20
129.517037
 11
57.716423
 21
128.551111
  0
LINE
  8
2
 62
134
  6
CONTINUOUS
 10
58.234061
 20
128.551111
 11
57.716423
 21
128.551111
  0
TEXT
  8
2
 62
134
  6
CONTINUOUS
 10
57.975242
 20
120.500000
 40
4.000000
 41
1.000000
  1
15
  7
KANJI
 50
90.000000
 51
30.000000
  0
ENDBLK
  0
BLOCK
  8
2
 62
14
  6
CONTINUOUS
  2
*D15
 70
    65
 10
0.0
 20
0.0
  0
LINE
  8
2
 62
14
  6
CONTINUOUS
 10
30.321518
 20
179.468226
 11
114.821518
 21
179.468226
  0
LINE
  8
2
 62
14
  6
CONTINUOUS
 10
30.321518
 20
181.468226
 11
30.321518
 21
141.500032
  0
LINE
  8
2
 62
14
  6
CONTINUOUS
 10
114.821518
 20
181.468226
 11
114.821518
 21
146.700000
  0
LINE
  8
2
 62
14
  6
CONTINUOUS
 10
30.321518
 20
179.468226
 11
32.253370
 21
179.985864
  0
LINE
  8
2
 62
14
  6
CONTINUOUS
 10
30.321518
 20
179.468226
 11
32.253370
 21
178.950588
  0
LINE
  8
2
 62
14
  6
CONTINUOUS
 10
32.253370
 20
179.985864
 11
32.253370
 21
178.950588
  0
LINE
  8
2
 62
14
  6
CONTINUOUS
 10
30.804481
 20
179.468226
 11
31.770407
 21
179.727045
  0
LINE
  8
2
 62
14
  6
CONTINUOUS
 10
30.804481
 20
179.468226
 11
31.770407
 21
179.209407
  0
LINE
  8
2
 62
14
  6
CONTINUOUS
 10
31.770407
 20
179.727045
 11
31.770407
 21
179.209407
  0
LINE
  8
2
 62
14
  6
CONTINUOUS
 10
114.821518
 20
179.468226
 11
112.889666
 21
178.950588
  0
LINE
  8
2
 62
14
  6
CONTINUOUS
 10
114.821518
 20
179.468226
 11
112.889666
 21
179.985864
  0
LINE
  8
2
 62
14
  6
CONTINUOUS
 10
112.889666
 20
178.950588
 11
112.889666
 21
179.985864
  0
LINE
  8
2
 62
14
  6
CONTINUOUS
 10
114.338555
 20
179.468226
 11
113.372629
 21
179.209407
  0
LINE
  8
2
 62
14
  6
CONTINUOUS
 10
114.338555
 20
179.468226
 11
113.372629
 21
179.727045
  0
LINE
  8
2
 62
14
  6
CONTINUOUS
 10
113.372629
 20
179.209407
 11
113.372629
 21
179.727045
  0
TEXT
  8
2
 62
14
  6
CONTINUOUS
 10
68.571518
 20
179.468226
 40
4.000000
 41
1.000000
  1
84.5
  7
KANJI
 50
0.000000
 51
30.000000
  0
ENDBLK
  0
BLOCK
  8
2
 62
14
  6
CONTINUOUS
  2
*D16
 70
    65
 10
0.0
 20
0.0
  0
LINE
  8
2
 62
14
  6
CONTINUOUS
 10
30.321518
 20
160.000000
 11
66.320584
 21
160.000000
  0
LINE
  8
2
 62
14
  6
CONTINUOUS
 10
30.321518
 20
162.000000
 11
30.321518
 21
141.500032
  0
LINE
  8
2
 62
14
  6
CONTINUOUS
 10
66.320584
 20
162.000000
 11
66.320584
 21
141.500032
  0
LINE
  8
2
 62
14
  6
CONTINUOUS
 10
30.321518
 20
160.000000
 11
32.253370
 21
160.517638
  0
LINE
  8
2
 62
14
  6
CONTINUOUS
 10
30.321518
 20
160.000000
 11
32.253370
 21
159.482362
  0
LINE
  8
2
 62
14
  6
CONTINUOUS
 10
32.253370
 20
160.517638
 11
32.253370
 21
159.482362
  0
LINE
  8
2
 62
14
  6
CONTINUOUS
 10
30.804481
 20
160.000000
 11
31.770407
 21
160.258819
  0
LINE
  8
2
 62
14
  6
CONTINUOUS
 10
30.804481
 20
160.000000
 11
31.770407
 21
159.741181
  0
LINE
  8
2
 62
14
  6
CONTINUOUS
 10
31.770407
 20
160.258819
 11
31.770407
 21
159.741181
  0
LINE
  8
2
 62
14
  6
CONTINUOUS
 10
66.320584
 20
160.000000
 11
64.388732
 21
159.482362
  0
LINE
  8
2
 62
14
  6
CONTINUOUS
 10
66.320584
 20
160.000000
 11
64.388732
 21
160.517638
  0
LINE
  8
2
 62
14
  6
CONTINUOUS
 10
64.388732
 20
159.482362
 11
64.388732
 21
160.517638
  0
LINE
  8
2
 62
14
  6
CONTINUOUS
 10
65.837621
 20
160.000000
 11
64.871695
 21
159.741181
  0
LINE
  8
2
 62
14
  6
CONTINUOUS
 10
65.837621
 20
160.000000
 11
64.871695
 21
160.258819
  0
LINE
  8
2
 62
14
  6
CONTINUOUS
 10
64.871695
 20
159.741181
 11
64.871695
 21
160.258819
  0
TEXT
  8
2
 62
14
  6
CONTINUOUS
 10
46.321051
 20
160.000000
 40
4.000000
 41
1.000000
  1
36
  7
KANJI
 50
0.000000
 51
30.000000
  0
ENDBLK
  0
BLOCK
  8
2
 62
134
  6
CONTINUOUS
  2
*D17
 70
    65
 10
0.0
 20
0.0
  0
LINE
  8
2
 62
134
  6
CONTINUOUS
 10
17.191734
 20
120.000032
 11
17.191734
 21
140.000032
  0
LINE
  8
2
 62
134
  6
CONTINUOUS
 10
15.191734
 20
120.000032
 11
28.837192
 21
120.000032
  0
LINE
  8
2
 62
134
  6
CONTINUOUS
 10
15.191734
 20
140.000032
 11
28.837192
 21
140.000032
  0
LINE
  8
2
 62
134
  6
CONTINUOUS
 10
17.191734
 20
120.000032
 11
16.674096
 21
121.931883
  0
LINE
  8
2
 62
134
  6
CONTINUOUS
 10
17.191734
 20
120.000032
 11
17.709372
 21
121.931883
  0
LINE
  8
2
 62
134
  6
CONTINUOUS
 10
16.674096
 20
121.931883
 11
17.709372
 21
121.931883
  0
LINE
  8
2
 62
134
  6
CONTINUOUS
 10
17.191734
 20
120.482994
 11
16.932915
 21
121.448920
  0
LINE
  8
2
 62
134
  6
CONTINUOUS
 10
17.191734
 20
120.482994
 11
17.450553
 21
121.448920
  0
LINE
  8
2
 62
134
  6
CONTINUOUS
 10
16.932915
 20
121.448920
 11
17.450553
 21
121.448920
  0
LINE
  8
2
 62
134
  6
CONTINUOUS
 10
17.191734
 20
140.000032
 11
17.709372
 21
138.068180
  0
LINE
  8
2
 62
134
  6
CONTINUOUS
 10
17.191734
 20
140.000032
 11
16.674096
 21
138.068180
  0
LINE
  8
2
 62
134
  6
CONTINUOUS
 10
17.709372
 20
138.068180
 11
16.674096
 21
138.068180
  0
LINE
  8
2
 62
134
  6
CONTINUOUS
 10
17.191734
 20
139.517069
 11
17.450553
 21
138.551143
  0
LINE
  8
2
 62
134
  6
CONTINUOUS
 10
17.191734
 20
139.517069
 11
16.932915
 21
138.551143
  0
LINE
  8
2
 62
134
  6
CONTINUOUS
 10
17.450553
 20
138.551143
 11
16.932915
 21
138.551143
  0
TEXT
  8
2
 62
134
  6
CONTINUOUS
 10
17.191734
 20
126.000032
 40
4.000000
 41
1.000000
  1
φ20
  7
KANJI
 50
90.000000
 51
30.000000
  0
ENDBLK
  0
BLOCK
  8
2
 62
134
  6
CONTINUOUS
  2
*D18
 70
    65
 10
0.0
 20
0.0
  0
LINE
  8
2
 62
134
  6
CONTINUOUS
 10
239.767818
 20
99.620666
 11
255.767818
 21
99.620666
  0
LINE
  8
2
 62
134
  6
CONTINUOUS
 10
239.767818
 20
97.620666
 11
239.767818
 21
124.256406
  0
LINE
  8
2
 62
134
  6
CONTINUOUS
 10
255.767818
 20
97.620666
 11
255.767818
 21
124.256406
  0
LINE
  8
2
 62
134
  6
CONTINUOUS
 10
239.767818
 20
99.620666
 11
241.699670
 21
100.138304
  0
LINE
  8
2
 62
134
  6
CONTINUOUS
 10
239.767818
 20
99.620666
 11
241.699670
 21
99.103028
  0
LINE
  8
2
 62
134
  6
CONTINUOUS
 10
241.699670
 20
100.138304
 11
241.699670
 21
99.103028
  0
LINE
  8
2
 62
134
  6
CONTINUOUS
 10
240.250781
 20
99.620666
 11
241.216707
 21
99.879485
  0
LINE
  8
2
 62
134
  6
CONTINUOUS
 10
240.250781
 20
99.620666
 11
241.216707
 21
99.361847
  0
LINE
  8
2
 62
134
  6
CONTINUOUS
 10
241.216707
 20
99.879485
 11
241.216707
 21
99.361847
  0
LINE
  8
2
 62
134
  6
CONTINUOUS
 10
255.767818
 20
99.620666
 11
253.835967
 21
99.103028
  0
LINE
  8
2
 62
134
  6
CONTINUOUS
 10
255.767818
 20
99.620666
 11
253.835967
 21
100.138304
  0
LINE
  8
2
 62
134
  6
CONTINUOUS
 10
253.835967
 20
99.103028
 11
253.835967
 21
100.138304
  0
LINE
  8
2
 62
134
  6
CONTINUOUS
 10
255.284855
 20
99.620666
 11
254.318929
 21
99.361847
  0
LINE
  8
2
 62
134
  6
CONTINUOUS
 10
255.284855
 20
99.620666
 11
254.318929
 21
99.879485
  0
LINE
  8
2
 62
134
  6
CONTINUOUS
 10
254.318929
 20
99.361847
 11
254.318929
 21
99.879485
  0
TEXT
  8
2
 62
134
  6
CONTINUOUS
 10
245.767818
 20
99.620666
 40
4.000000
 41
1.000000
  1
16
  7
KANJI
 50
0.000000
 51
30.000000
  0
ENDBLK
  0
ENDSEC
  0
SECTION
  2
ENTITIES
  0
LINE
  8
5
 62
7
  6
CONTINUOUS
 10
285.000000
 20
195.000000
 11
10.000000
 21
195.000000
  0
LINE
  8
5
 62
7
  6
CONTINUOUS
 10
10.000000
 20
195.000000
 11
10.000000
 21
10.000000
  0
LINE
  8
5
 62
7
  6
CONTINUOUS
 10
10.000000
 20
10.000000
 11
285.000000
 21
10.000000
  0
LINE
  8
5
 62
7
  6
CONTINUOUS
 10
285.000000
 20
10.000000
 11
285.000000
 21
195.000000
  0
TEXT
  8
5
 62
7
  6
CONTINUOUS
 10
210.962748
 20
25.651490
 40
1.750000
 41
4.000000
  1
製図
  7
KANJI
 50
-90.000000
 51
0.000000
  0
TEXT
  8
5
 62
7
  6
CONTINUOUS
 10
230.795530
 20
25.487583
 40
1.750000
 41
4.000000
  1
図番
  7
KANJI
 50
-90.000000
 51
0.000000
  0
TEXT
  8
5
 62
7
  6
CONTINUOUS
 10
230.795530
 20
38.764073
 40
1.750000
 41
4.000000
  1
図　名
  7
KANJI
 50
-90.000000
 51
0.000000
  0
TEXT
  8
5
 62
7
  6
CONTINUOUS
 10
165.888245
 20
33.355132
 40
1.750000
 41
4.000000
  1
日付
  7
KANJI
 50
-90.000000
 51
0.000000
  0
TEXT
  8
5
 62
7
  6
CONTINUOUS
 10
200.964404
 20
33.519040
 40
1.750000
 41
4.000000
  1
図法
  7
KANJI
 50
-90.000000
 51
0.000000
  0
TEXT
  8
5
 62
7
  6
CONTINUOUS
 10
200.800497
 20
41.550497
 40
1.750000
 41
4.000000
  1
尺度
  7
KANJI
 50
-90.000000
 51
0.000000
  0
TEXT
  8
5
 62
7
  6
CONTINUOUS
 10
165.888245
 20
41.386589
 40
1.750000
 41
4.000000
  1
公差
  7
KANJI
 50
-90.000000
 51
0.000000
  0
TEXT
  8
5
 62
7
  6
CONTINUOUS
 10
165.888245
 20
25.487583
 40
1.750000
 41
4.000000
  1
承認
  7
KANJI
 50
-90.000000
 51
0.000000
  0
TEXT
  8
5
 62
7
  6
CONTINUOUS
 10
190.966060
 20
25.487583
 40
1.750000
 41
4.000000
  1
設計
  7
KANJI
 50
-90.000000
 51
0.000000
  0
TEXT
  8
5
 62
7
  6
CONTINUOUS
 10
184.409768
 20
11.555464
 40
4.500000
 41
1.888889
  1
ジャパンセンサー株式会社
  7
KANJI
 50
0.000000
 51
0.000000
  0
LINE
  8
5
 62
7
  6
CONTINUOUS
 10
165.000000
 20
42.000000
 11
285.000000
 21
42.000000
  0
LINE
  8
5
 62
7
  6
CONTINUOUS
 10
165.000000
 20
10.000000
 11
165.000000
 21
42.000000
  0
LINE
  8
5
 62
7
  6
CONTINUOUS
 10
285.000000
 20
18.000000
 11
165.000000
 21
18.000000
  0
LINE
  8
5
 62
7
  6
CONTINUOUS
 10
230.000000
 20
42.000000
 11
230.000000
 21
18.000000
  0
LINE
  8
5
 62
7
  6
CONTINUOUS
 10
285.000000
 20
26.000000
 11
165.000000
 21
26.000000
  0
LINE
  8
5
 62
7
  6
CONTINUOUS
 10
235.000000
 20
18.000000
 11
235.000000
 21
42.000000
  0
LINE
  8
5
 62
7
  6
CONTINUOUS
 10
205.000000
 20
42.000000
 11
205.000000
 21
26.000000
  0
LINE
  8
5
 62
7
  6
CONTINUOUS
 10
170.000000
 20
18.000000
 11
170.000000
 21
42.000000
  0
LINE
  8
5
 62
7
  6
CONTINUOUS
 10
165.000000
 20
34.000000
 11
230.000000
 21
34.000000
  0
LINE
  8
5
 62
7
  6
CONTINUOUS
 10
200.000000
 20
42.000000
 11
200.000000
 21
26.000000
  0
LINE
  8
5
 62
7
  6
CONTINUOUS
 10
190.000000
 20
18.000000
 11
190.000000
 21
26.000000
  0
LINE
  8
5
 62
7
  6
CONTINUOUS
 10
210.000000
 20
18.000000
 11
210.000000
 21
26.000000
  0
LINE
  8
5
 62
7
  6
CONTINUOUS
 10
195.000000
 20
26.000000
 11
195.000000
 21
18.000000
  0
LINE
  8
5
 62
7
  6
CONTINUOUS
 10
215.000000
 20
26.000000
 11
215.000000
 21
18.000000
  0
TEXT
  8
5
 62
7
  6
CONTINUOUS
 10
209.979305
 20
35.649834
 40
4.000000
 41
1.000000
  1
１／１
  7
KANJI
 50
0.000000
 51
0.000000
  0
TEXT
  8
5
 62
7
  6
CONTINUOUS
 10
208.995861
 20
27.290563
 40
4.000000
 41
1.000000
  1
三角法
  7
KANJI
 50
0.000000
 51
0.000000
  0
TEXT
  8
5
 62
7
  6
CONTINUOUS
 10
196.211093
 20
19.750828
 40
4.000000
 41
1.000000
  1
保田
  7
KANJI
 50
0.810149
 51
0.000000
  0
TEXT
  8
5
 62
7
  6
CONTINUOUS
 10
216.207781
 20
19.914735
 40
4.000000
 41
1.000000
  1
保田
  7
KANJI
 50
-0.112820
 51
0.000000
  0
LINE
  8
1
 62
4
  6
DASHDOT
 10
254.598093
 20
140.000000
 11
254.598093
 21
121.299488
  0
LINE
  8
1
 62
4
  6
DASHDOT
 10
247.227223
 20
130.000000
 11
262.573573
 21
130.000000
  0
LINE
  8
1
 62
4
  6
DASHDOT
 10
254.598093
 20
112.340948
 11
254.598093
 21
147.141228
  0
LINE
  8
1
 62
4
  6
DASHDOT
 10
268.014995
 20
130.000000
 11
240.117413
 21
130.000000
  0
LINE
  8
1
 62
7
  6
CONTINUOUS
 10
266.298093
 20
115.000000
 11
266.598093
 21
115.300000
  0
LINE
  8
1
 62
7
  6
CONTINUOUS
 10
266.598093
 20
144.700000
 11
266.598093
 21
115.300000
  0
LINE
  8
1
 62
7
  6
CONTINUOUS
 10
242.898093
 20
115.000000
 11
266.298093
 21
115.000000
  0
LINE
  8
1
 62
7
  6
CONTINUOUS
 10
242.598093
 20
115.300000
 11
242.898093
 21
115.000000
  0
LINE
  8
1
 62
7
  6
CONTINUOUS
 10
242.598093
 20
144.700000
 11
242.598093
 21
115.300000
  0
LINE
  8
1
 62
7
  6
CONTINUOUS
 10
242.898093
 20
145.000000
 11
242.598093
 21
144.700000
  0
LINE
  8
1
 62
7
  6
CONTINUOUS
 10
266.298093
 20
145.000000
 11
242.898093
 21
145.000000
  0
LINE
  8
1
 62
7
  6
CONTINUOUS
 10
266.298093
 20
145.000000
 11
266.598093
 21
144.700000
  0
CIRCLE
  8
1
 62
7
  6
CONTINUOUS
 10
264.098093
 20
117.500000
 40
2.100000
  0
CIRCLE
  8
1
 62
7
  6
CONTINUOUS
 10
264.098093
 20
117.500002
 40
1.100000
  0
LINE
  8
1
 62
214
  6
DASHDOT
 10
264.098093
 20
119.980090
 11
264.098093
 21
114.560034
  0
LINE
  8
1
 62
214
  6
DASHDOT
 10
266.927809
 20
117.500000
 11
261.537370
 21
117.500000
  0
LINE
  8
1
 62
214
  6
DASHDOT
 10
265.920768
 20
117.500002
 11
261.453906
 21
117.500002
  0
LINE
  8
1
 62
214
  6
DASHDOT
 10
264.098093
 20
119.283175
 11
264.098093
 21
115.727419
  0
CIRCLE
  8
1
 62
7
  6
CONTINUOUS
 10
245.098093
 20
142.500002
 40
2.100000
  0
CIRCLE
  8
1
 62
7
  6
CONTINUOUS
 10
245.098093
 20
142.500000
 40
1.100000
  0
LINE
  8
1
 62
214
  6
DASHDOT
 10
245.098093
 20
140.019911
 11
245.098093
 21
145.439968
  0
LINE
  8
1
 62
214
  6
DASHDOT
 10
242.268376
 20
142.500002
 11
247.658815
 21
142.500002
  0
LINE
  8
1
 62
214
  6
DASHDOT
 10
243.275417
 20
142.500000
 11
247.742279
 21
142.500000
  0
LINE
  8
1
 62
214
  6
DASHDOT
 10
245.098093
 20
140.716827
 11
245.098093
 21
144.272583
  0
DIMENSION
  8
2
 62
134
  6
CONTINUOUS
  2
*D1
 10
242.598093
 20
160.000000
 11
248.598093
 21
160.000000
 70
     0
  1
12
 13
242.598093
 23
146.700000
 14
254.598093
 24
149.141228
 50
0.000000
  0
DIMENSION
  8
2
 62
134
  6
CONTINUOUS
  2
*D2
 10
254.598093
 20
160.000000
 11
260.598093
 21
160.000000
 70
     0
  1
12
 13
254.598093
 23
160.000000
 14
266.598093
 24
146.700000
 50
0.000000
  0
DIMENSION
  8
2
 62
134
  6
CONTINUOUS
  2
*D3
 10
242.598093
 20
170.000000
 11
256.260391
 21
170.000000
 70
     0
  1
24
 13
242.598093
 23
146.700000
 14
266.598093
 24
146.700000
 50
0.000000
  0
LINE
  8
1
 62
96
  6
CONTINUOUS
 10
247.356045
 20
124.943594
 11
253.840140
 21
121.200000
  0
LINE
  8
1
 62
96
  6
CONTINUOUS
 10
246.598093
 20
133.743594
 11
246.598093
 21
126.256406
  0
LINE
  8
1
 62
96
  6
CONTINUOUS
 10
253.840140
 20
138.800000
 11
247.356045
 21
135.056406
  0
LINE
  8
1
 62
96
  6
CONTINUOUS
 10
261.840140
 20
135.056406
 11
255.356045
 21
138.800000
  0
LINE
  8
1
 62
96
  6
CONTINUOUS
 10
262.598093
 20
126.256406
 11
262.598093
 21
133.743594
  0
LINE
  8
1
 62
96
  6
CONTINUOUS
 10
255.356045
 20
121.200000
 11
261.840140
 21
124.943594
  0
LINE
  8
1
 62
96
  6
CONTINUOUS
 10
261.840140
 20
124.943594
 11
262.598093
 21
126.256406
  0
LINE
  8
1
 62
96
  6
CONTINUOUS
 10
262.598093
 20
133.743594
 11
261.840140
 21
135.056406
  0
LINE
  8
1
 62
96
  6
CONTINUOUS
 10
247.356045
 20
135.056406
 11
246.598093
 21
133.743594
  0
LINE
  8
1
 62
96
  6
CONTINUOUS
 10
246.598093
 20
126.256406
 11
247.356045
 21
124.943594
  0
LINE
  8
1
 62
96
  6
CONTINUOUS
 10
247.356045
 20
135.056406
 11
246.598093
 21
133.743594
  0
LINE
  8
1
 62
96
  6
CONTINUOUS
 10
246.598093
 20
126.256406
 11
247.356045
 21
124.943594
  0
LINE
  8
1
 62
96
  6
CONTINUOUS
 10
261.840140
 20
124.943594
 11
262.598093
 21
126.256406
  0
LINE
  8
1
 62
96
  6
CONTINUOUS
 10
262.598093
 20
133.743594
 11
261.840140
 21
135.056406
  0
LINE
  8
1
 62
96
  6
CONTINUOUS
 10
262.598093
 20
133.743594
 11
261.840140
 21
135.056406
  0
LINE
  8
1
 62
96
  6
CONTINUOUS
 10
262.598093
 20
133.743594
 11
261.840140
 21
135.056406
  0
LINE
  8
1
 62
96
  6
CONTINUOUS
 10
253.840140
 20
121.200000
 11
255.356045
 21
121.200000
  0
LINE
  8
1
 62
96
  6
CONTINUOUS
 10
261.840140
 20
124.943594
 11
262.598093
 21
126.256406
  0
LINE
  8
1
 62
96
  6
CONTINUOUS
 10
253.840140
 20
121.200000
 11
255.356045
 21
121.200000
  0
LINE
  8
1
 62
96
  6
CONTINUOUS
 10
253.840140
 20
138.800000
 11
255.356045
 21
138.800000
  0
CIRCLE
  8
1
 62
7
  6
CONTINUOUS
 10
254.598093
 20
130.000000
 40
3.500000
  0
CIRCLE
  8
1
 62
7
  6
CONTINUOUS
 10
254.598093
 20
130.000000
 40
8.000000
  0
DIMENSION
  8
2
 62
134
  6
CONTINUOUS
  2
*D4
 10
246.598093
 20
99.620666
 11
254.598093
 21
99.620666
 70
     0
  1
16
 13
246.598093
 23
124.256406
 14
262.598093
 24
124.256406
 50
0.000000
  0
TEXT
  8
2
 62
7
  6
CONTINUOUS
 10
196.356397
 20
103.824258
 40
3.999900
 41
1.000000
  1
e-CON コネクタ　8ピン
  7
KANJI
 50
0.000000
 51
0.000000
  0
DIMENSION
  8
2
 62
134
  6
CONTINUOUS
  2
*D5
 10
280.961644
 20
145.000000
 11
280.961644
 21
130.000000
 70
     0
  1
30
 13
268.298093
 23
145.000000
 14
268.298093
 24
115.000000
 50
-90.000000
  0
DIMENSION
  8
2
 62
134
  6
CONTINUOUS
  2
*D6
 10
274.284495
 20
138.800000
 11
274.284495
 21
130.000000
 70
     0
  1
17.6
 13
257.481962
 23
138.800000
 14
257.356045
 24
121.200000
 50
-90.000000
  0
TEXT
  8
5
 62
7
  6
CONTINUOUS
 10
239.646523
 20
27.426947
 40
4.000000
 41
1.000000
  1
ＨＸ－Ｃ２ｂ
  7
KANJI
 50
0.000000
 51
0.000000
  0
LINE
  8
1
 62
7
  6
CONTINUOUS
 10
232.045227
 20
123.370000
 11
231.645227
 21
123.370000
  0
LINE
  8
1
 62
7
  6
CONTINUOUS
 10
232.045227
 20
122.630000
 11
232.045227
 21
123.370000
  0
LINE
  8
1
 62
7
  6
CONTINUOUS
 10
231.645227
 20
122.630000
 11
232.045227
 21
122.630000
  0
LINE
  8
1
 62
7
  6
CONTINUOUS
 10
231.645227
 20
123.370000
 11
231.645227
 21
122.630000
  0
LINE
  8
1
 62
7
  6
CONTINUOUS
 10
232.045227
 20
125.370000
 11
231.645227
 21
125.370000
  0
LINE
  8
1
 62
7
  6
CONTINUOUS
 10
232.045227
 20
124.630000
 11
232.045227
 21
125.370000
  0
LINE
  8
1
 62
7
  6
CONTINUOUS
 10
231.645227
 20
124.630000
 11
232.045227
 21
124.630000
  0
LINE
  8
1
 62
7
  6
CONTINUOUS
 10
231.645227
 20
125.370000
 11
231.645227
 21
124.630000
  0
LINE
  8
1
 62
7
  6
CONTINUOUS
 10
232.045227
 20
127.370000
 11
231.645227
 21
127.370000
  0
LINE
  8
1
 62
7
  6
CONTINUOUS
 10
232.045227
 20
126.630000
 11
232.045227
 21
127.370000
  0
LINE
  8
1
 62
7
  6
CONTINUOUS
 10
231.645227
 20
126.630000
 11
232.045227
 21
126.630000
  0
LINE
  8
1
 62
7
  6
CONTINUOUS
 10
231.645227
 20
127.370000
 11
231.645227
 21
126.630000
  0
LINE
  8
1
 62
7
  6
CONTINUOUS
 10
232.045227
 20
129.370000
 11
231.645227
 21
129.370000
  0
LINE
  8
1
 62
7
  6
CONTINUOUS
 10
232.045227
 20
128.630000
 11
232.045227
 21
129.370000
  0
LINE
  8
1
 62
7
  6
CONTINUOUS
 10
231.645227
 20
128.630000
 11
232.045227
 21
128.630000
  0
LINE
  8
1
 62
7
  6
CONTINUOUS
 10
231.645227
 20
129.370000
 11
231.645227
 21
128.630000
  0
LINE
  8
1
 62
7
  6
CONTINUOUS
 10
232.045227
 20
131.370000
 11
231.645227
 21
131.370000
  0
LINE
  8
1
 62
7
  6
CONTINUOUS
 10
232.045227
 20
130.630000
 11
232.045227
 21
131.370000
  0
LINE
  8
1
 62
7
  6
CONTINUOUS
 10
231.645227
 20
130.630000
 11
232.045227
 21
130.630000
  0
LINE
  8
1
 62
7
  6
CONTINUOUS
 10
231.645227
 20
131.370000
 11
231.645227
 21
130.630000
  0
LINE
  8
1
 62
7
  6
CONTINUOUS
 10
232.045227
 20
133.370000
 11
231.645227
 21
133.370000
  0
LINE
  8
1
 62
7
  6
CONTINUOUS
 10
232.045227
 20
132.630000
 11
232.045227
 21
133.370000
  0
LINE
  8
1
 62
7
  6
CONTINUOUS
 10
231.645227
 20
132.630000
 11
232.045227
 21
132.630000
  0
LINE
  8
1
 62
7
  6
CONTINUOUS
 10
231.645227
 20
133.370000
 11
231.645227
 21
132.630000
  0
LINE
  8
1
 62
7
  6
CONTINUOUS
 10
232.045227
 20
135.370000
 11
231.645227
 21
135.370000
  0
LINE
  8
1
 62
7
  6
CONTINUOUS
 10
232.045227
 20
134.630000
 11
232.045227
 21
135.370000
  0
LINE
  8
1
 62
7
  6
CONTINUOUS
 10
231.645227
 20
134.630000
 11
232.045227
 21
134.630000
  0
LINE
  8
1
 62
7
  6
CONTINUOUS
 10
231.645227
 20
135.370000
 11
231.645227
 21
134.630000
  0
LINE
  8
1
 62
7
  6
CONTINUOUS
 10
232.045227
 20
137.370000
 11
231.645227
 21
137.370000
  0
LINE
  8
1
 62
7
  6
CONTINUOUS
 10
232.045227
 20
136.630000
 11
232.045227
 21
137.370000
  0
LINE
  8
1
 62
7
  6
CONTINUOUS
 10
231.645227
 20
136.630000
 11
232.045227
 21
136.630000
  0
LINE
  8
1
 62
7
  6
CONTINUOUS
 10
231.645227
 20
137.370000
 11
231.645227
 21
136.630000
  0
LINE
  8
1
 62
7
  6
CONTINUOUS
 10
230.145227
 20
138.600000
 11
233.545227
 21
138.600000
  0
LINE
  8
1
 62
7
  6
CONTINUOUS
 10
230.145227
 20
121.400000
 11
230.145227
 21
138.600000
  0
LINE
  8
1
 62
7
  6
CONTINUOUS
 10
233.545227
 20
121.400000
 11
230.145227
 21
121.400000
  0
LINE
  8
1
 62
7
  6
CONTINUOUS
 10
233.545227
 20
138.600000
 11
233.545227
 21
121.400000
  0
LINE
  8
1
 62
7
  6
CONTINUOUS
 10
233.545227
 20
144.523092
 11
230.145227
 21
144.523092
  0
LINE
  8
1
 62
7
  6
CONTINUOUS
 10
233.545227
 20
140.550000
 11
233.545227
 21
144.523092
  0
LINE
  8
1
 62
7
  6
CONTINUOUS
 10
230.145227
 20
140.550000
 11
230.145227
 21
144.523092
  0
LINE
  8
1
 62
7
  6
DASHDOT
 10
230.747967
 20
123.000000
 11
232.937597
 21
123.000000
  0
LINE
  8
1
 62
7
  6
DASHDOT
 10
230.747967
 20
125.000000
 11
232.937597
 21
125.000000
  0
LINE
  8
1
 62
7
  6
DASHDOT
 10
230.747967
 20
127.000000
 11
232.937597
 21
127.000000
  0
LINE
  8
1
 62
7
  6
DASHDOT
 10
230.747967
 20
129.000000
 11
232.937597
 21
129.000000
  0
LINE
  8
1
 62
7
  6
DASHDOT
 10
230.747967
 20
131.000000
 11
232.937597
 21
131.000000
  0
LINE
  8
1
 62
7
  6
DASHDOT
 10
230.747967
 20
133.000000
 11
232.937597
 21
133.000000
  0
LINE
  8
1
 62
7
  6
DASHDOT
 10
230.747967
 20
135.000000
 11
232.937597
 21
135.000000
  0
LINE
  8
1
 62
7
  6
DASHDOT
 10
230.747967
 20
137.000000
 11
232.937597
 21
137.000000
  0
LINE
  8
1
 62
7
  6
CONTINUOUS
 10
234.845227
 20
120.050000
 11
234.845227
 21
142.750000
  0
LINE
  8
1
 62
7
  6
CONTINUOUS
 10
228.845227
 20
142.750000
 11
228.845227
 21
120.050000
  0
LINE
  8
1
 62
7
  6
CONTINUOUS
 10
233.545227
 20
142.750000
 11
234.845227
 21
142.750000
  0
LINE
  8
1
 62
7
  6
CONTINUOUS
 10
230.145227
 20
142.750000
 11
228.845227
 21
142.750000
  0
LINE
  8
1
 62
7
  6
CONTINUOUS
 10
234.845227
 20
140.550000
 11
233.545227
 21
140.550000
  0
LINE
  8
1
 62
7
  6
CONTINUOUS
 10
228.845227
 20
140.550000
 11
230.145227
 21
140.550000
  0
LINE
  8
1
 62
7
  6
CONTINUOUS
 10
190.601874
 20
128.572504
 11
194.075659
 21
127.600000
  0
LINE
  8
1
 62
7
  6
CONTINUOUS
 10
190.650735
 20
127.355416
 11
194.051167
 21
126.400000
  0
LINE
  8
1
 62
7
  6
CONTINUOUS
 10
187.741530
 20
128.773224
 11
194.075659
 21
125.600000
  0
LINE
  8
1
 62
7
  6
CONTINUOUS
 10
190.337239
 20
126.267314
 11
194.051167
 21
124.400000
  0
LINE
  8
1
 62
7
  6
CONTINUOUS
 10
187.288858
 20
130.000000
 11
194.075659
 21
129.600000
  0
LINE
  8
1
 62
7
  6
CONTINUOUS
 10
187.288858
 20
128.800000
 11
194.051167
 21
128.400000
  0
LINE
  8
1
 62
7
  6
CONTINUOUS
 10
187.288858
 20
128.800000
 11
185.821205
 21
128.800000
  0
LINE
  8
1
 62
7
  6
CONTINUOUS
 10
190.601874
 20
131.427496
 11
194.075659
 21
132.400000
  0
LINE
  8
1
 62
7
  6
CONTINUOUS
 10
190.650735
 20
132.644584
 11
194.051167
 21
133.600000
  0
LINE
  8
1
 62
7
  6
CONTINUOUS
 10
187.741530
 20
131.226776
 11
194.075659
 21
134.400000
  0
LINE
  8
1
 62
7
  6
CONTINUOUS
 10
190.337239
 20
133.732686
 11
194.051167
 21
135.600000
  0
LINE
  8
1
 62
7
  6
CONTINUOUS
 10
187.288858
 20
130.000000
 11
194.075659
 21
130.400000
  0
LINE
  8
1
 62
7
  6
CONTINUOUS
 10
187.288858
 20
131.200000
 11
194.051167
 21
131.600000
  0
LINE
  8
1
 62
7
  6
CONTINUOUS
 10
187.288858
 20
131.200000
 11
185.821205
 21
131.200000
  0
LINE
  8
1
 62
7
  6
CONTINUOUS
 10
187.288858
 20
128.400000
 11
194.075659
 21
123.600000
  0
LINE
  8
1
 62
7
  6
CONTINUOUS
 10
187.288858
 20
127.200000
 11
194.051167
 21
122.400000
  0
LINE
  8
1
 62
7
  6
CONTINUOUS
 10
187.288858
 20
128.400000
 11
185.821205
 21
128.400000
  0
LINE
  8
1
 62
7
  6
CONTINUOUS
 10
187.288858
 20
127.200000
 11
185.821205
 21
127.200000
  0
LINE
  8
1
 62
7
  6
CONTINUOUS
 10
187.288858
 20
131.600000
 11
194.075659
 21
136.400000
  0
LINE
  8
1
 62
7
  6
CONTINUOUS
 10
187.288858
 20
132.800000
 11
194.051167
 21
137.600000
  0
LINE
  8
1
 62
7
  6
CONTINUOUS
 10
187.288858
 20
131.600000
 11
185.821205
 21
131.600000
  0
LINE
  8
1
 62
7
  6
CONTINUOUS
 10
187.288858
 20
132.800000
 11
185.821205
 21
132.800000
  0
LINE
  8
1
 62
7
  6
CONTINUOUS
 10
185.821205
 20
133.500000
 11
185.821205
 21
126.500000
  0
LINE
  8
1
 62
7
  6
DASHDOT
 10
226.197281
 20
130.000000
 11
237.191863
 21
130.000000
  0
LINE
  8
1
 62
7
  6
CONTINUOUS
 10
228.845227
 20
120.050000
 11
234.845227
 21
120.050000
  0
LINE
  8
1
 62
7
  6
DASHDOT
 10
231.845227
 20
149.230845
 11
231.845227
 21
116.203584
  0
LINE
  8
1
 62
7
  6
CONTINUOUS
 10
187.288858
 20
130.000000
 11
185.821205
 21
130.000000
  0
LINE
  8
1
 62
7
  6
CONTINUOUS
 10
154.272589
 20
133.500000
 11
131.821518
 21
133.500000
  0
LINE
  8
1
 62
7
  6
CONTINUOUS
 10
131.821518
 20
126.500000
 11
151.839256
 21
126.500000
  0
LINE
  8
1
 62
7
  6
CONTINUOUS
 10
185.821205
 20
126.500000
 11
153.956300
 21
126.500000
  0
LINE
  8
1
 62
7
  6
CONTINUOUS
 10
156.389634
 20
133.500000
 11
185.821205
 21
133.500000
  0
LINE
  8
1
 62
7
  6
DASHDOT
 10
155.172967
 20
130.000000
 11
219.133791
 21
130.000000
  0
LINE
  8
1
 62
7
  6
CONTINUOUS
 10
157.200890
 20
136.083769
 11
153.249073
 21
124.228318
  0
LINE
  8
1
 62
7
  6
CONTINUOUS
 10
155.083845
 20
136.083769
 11
151.132028
 21
124.228318
  0
DIMENSION
  8
2
 62
134
  6
CONTINUOUS
  2
*D7
 10
131.821518
 20
151.480847
 11
160.273699
 21
151.480847
 70
     0
  1
ｹｰﾌﾞﾙ長（標準2m）
 13
131.821518
 23
136.850000
 14
197.287376
 24
143.650000
 50
0.000000
  0
DIMENSION
  8
2
 62
134
  6
CONTINUOUS
  2
*D8
 10
177.482091
 20
126.500000
 11
177.482091
 21
139.712028
 70
     0
  1
φ7
 13
177.482091
 23
126.500000
 14
177.482091
 24
133.500000
 50
90.000000
  0
LINE
  8
2
 62
134
  6
CONTINUOUS
 10
138.684702
 20
126.350000
 11
145.991477
 21
115.571869
  0
LINE
  8
2
 62
134
  6
CONTINUOUS
 10
145.991477
 20
115.571869
 11
169.473886
 21
115.571869
  0
TEXT
  8
2
 62
134
  6
CONTINUOUS
 10
147.473886
 20
115.571869
 40
4.000000
 41
1.000000
  1
　接続ｹｰﾌﾞﾙ
  7
KANJI
 50
0.000000
 51
30.000000
  0
LINE
  8
2
 62
134
  6
CONTINUOUS
 10
138.684702
 20
126.350000
 11
140.197194
 21
125.041425
  0
LINE
  8
2
 62
134
  6
CONTINUOUS
 10
138.684702
 20
126.350000
 11
139.340271
 21
124.460495
  0
LINE
  8
2
 62
134
  6
CONTINUOUS
 10
140.197194
 20
125.041425
 11
139.340271
 21
124.460495
  0
LINE
  8
2
 62
134
  6
CONTINUOUS
 10
138.955710
 20
125.950240
 11
139.711956
 21
125.295953
  0
LINE
  8
2
 62
134
  6
CONTINUOUS
 10
138.955710
 20
125.950240
 11
139.283494
 21
125.005488
  0
LINE
  8
2
 62
134
  6
CONTINUOUS
 10
139.711956
 20
125.295953
 11
139.283494
 21
125.005488
  0
DIMENSION
  8
2
 62
134
  6
CONTINUOUS
  2
*D9
 10
228.845227
 20
151.459765
 11
231.845227
 21
151.459765
 70
     0
  1
6
 13
228.845227
 23
144.750000
 14
234.845227
 24
144.750000
 50
0.000000
  0
LINE
  8
1
 62
4
  6
CONTINUOUS
 10
114.821518
 20
136.350853
 11
114.821518
 21
123.649147
  0
LINE
  8
1
 62
7
  6
CONTINUOUS
 10
114.521518
 20
145.000000
 11
114.821518
 21
144.700000
  0
LINE
  8
1
 62
7
  6
CONTINUOUS
 10
114.821518
 20
115.300000
 11
114.821518
 21
144.700000
  0
LINE
  8
1
 62
7
  6
CONTINUOUS
 10
114.821518
 20
115.300000
 11
114.521518
 21
115.000000
  0
DIMENSION
  8
2
 62
134
  6
CONTINUOUS
  2
*D10
 10
114.821518
 20
160.000000
 11
123.321518
 21
160.000000
 70
     0
  1
17
 13
114.821518
 23
146.700000
 14
131.821518
 24
136.850000
 50
0.000000
  0
LINE
  8
1
 62
4
  6
DASHDOT
 10
93.165393
 20
130.000000
 11
135.260709
 21
130.000000
  0
LINE
  8
1
 62
7
  6
DASHDOT
 10
71.907806
 20
130.000000
 11
117.224224
 21
130.000000
  0
CIRCLE
  8
1
 62
7
  6
DASHDOT
 10
70.321518
 20
120.000000
 40
3.000000
  0
CIRCLE
  8
1
 62
7
  6
DASHDOT
 10
70.321518
 20
140.000000
 40
3.000000
  0
LINE
  8
1
 62
7
  6
CONTINUOUS
 10
75.821518
 20
145.000000
 11
75.821518
 21
115.000000
  0
LINE
  8
1
 62
7
  6
CONTINUOUS
 10
75.821518
 20
145.000000
 11
114.521518
 21
145.000000
  0
LINE
  8
1
 62
7
  6
CONTINUOUS
 10
75.821518
 20
115.000000
 11
114.521518
 21
115.000000
  0
CIRCLE
  8
1
 62
7
  6
CONTINUOUS
 10
70.321518
 20
140.000000
 40
1.750000
  0
CIRCLE
  8
1
 62
7
  6
CONTINUOUS
 10
70.321518
 20
120.000000
 40
1.750000
  0
CIRCLE
  8
1
 62
7
  6
CONTINUOUS
 10
70.321518
 20
140.000000
 40
1.750000
  0
LINE
  8
1
 62
7
  6
CONTINUOUS
 10
66.321518
 20
119.000000
 11
66.321518
 21
141.000000
  0
LINE
  8
1
 62
7
  6
CONTINUOUS
 10
75.821518
 20
115.000000
 11
70.321518
 21
115.000000
  0
ARC
  8
1
 62
7
  6
CONTINUOUS
 10
70.321518
 20
119.000000
 40
4.000000
 50
180.000000
 51
-90.000005
  0
LINE
  8
1
 62
7
  6
CONTINUOUS
 10
75.821518
 20
145.000000
 11
70.321518
 21
145.000000
  0
ARC
  8
1
 62
7
  6
CONTINUOUS
 10
70.321518
 20
141.000000
 40
4.000000
 50
90.000000
 51
180.000000
  0
LINE
  8
1
 62
214
  6
DASHDOT
 10
67.682279
 20
140.000000
 11
72.984555
 21
140.000000
  0
LINE
  8
1
 62
214
  6
DASHDOT
 10
70.321518
 20
137.763825
 11
70.321518
 21
142.720706
  0
LINE
  8
1
 62
214
  6
DASHDOT
 10
67.472242
 20
140.000000
 11
72.984555
 21
140.000000
  0
LINE
  8
1
 62
214
  6
DASHDOT
 10
67.752292
 20
120.000000
 11
73.241268
 21
120.000000
  0
LINE
  8
1
 62
214
  6
DASHDOT
 10
70.321518
 20
117.402292
 11
70.321518
 21
122.197724
  0
LINE
  8
1
 62
7
  6
CONTINUOUS
 10
75.821518
 20
143.401342
 11
75.821518
 21
145.000000
  0
LINE
  8
1
 62
7
  6
CONTINUOUS
 10
75.821518
 20
115.000000
 11
75.821518
 21
117.100000
  0
LINE
  8
1
 62
7
  6
CONTINUOUS
 10
75.821518
 20
117.100000
 11
75.821518
 21
140.500001
  0
LINE
  8
1
 62
7
  6
CONTINUOUS
 10
75.821518
 20
143.401342
 11
75.821518
 21
117.100000
  0
LINE
  8
1
 62
7
  6
CONTINUOUS
 10
75.820762
 20
133.200000
 11
75.820762
 21
133.500000
  0
LINE
  8
1
 62
7
  6
CONTINUOUS
 10
75.820762
 20
126.800000
 11
75.820762
 21
126.500000
  0
LINE
  8
1
 62
7
  6
CONTINUOUS
 10
75.820762
 20
126.800000
 11
75.820762
 21
130.000000
  0
LINE
  8
1
 62
11
  6
CONTINUOUS
 10
66.320693
 20
136.500000
 11
66.320584
 21
138.500000
  0
LINE
  8
1
 62
11
  6
CONTINUOUS
 10
66.321049
 20
130.000032
 11
66.320584
 21
121.500000
  0
TEXT
  8
2
 62
134
  6
CONTINUOUS
 10
91.554637
 20
96.000000
 40
4.000000
 41
1.000000
  1
2-φ3.5ザグリφ6深さ3
  7
KANJI
 50
0.000000
 51
30.000000
  0
DIMENSION
  8
2
 62
134
  6
CONTINUOUS
  2
*D11
 10
66.321518
 20
160.000000
 11
90.571518
 21
160.000000
 70
     0
  1
48.5
 13
66.321518
 23
142.719254
 14
114.821518
 24
146.700000
 50
0.000000
  0
DIMENSION
  8
2
 62
134
  6
CONTINUOUS
  2
*D12
 10
88.191734
 20
140.000000
 11
88.191734
 21
133.500000
 70
     0
  1
20
 13
74.984555
 23
140.000000
 14
75.241268
 24
120.000000
 50
-90.000000
  0
DIMENSION
  8
2
 62
134
  6
CONTINUOUS
  2
*D13
 10
66.321518
 20
150.283266
 11
68.253370
 21
150.283266
 70
     0
  1
4
 13
66.321518
 23
143.000000
 14
70.321518
 24
144.720706
 50
0.000000
  0
LINE
  8
2
 62
134
  6
CONTINUOUS
 10
72.482806
 20
117.919415
 11
89.554637
 21
100.000000
  0
LINE
  8
2
 62
134
  6
CONTINUOUS
 10
89.554637
 20
100.000000
 11
107.554637
 21
100.000000
  0
TEXT
  8
2
 62
134
  6
CONTINUOUS
 10
91.554637
 20
100.000000
 40
4.000000
 41
1.000000
  1
　取付穴
  7
KANJI
 50
0.000000
 51
30.000000
  0
LINE
  8
2
 62
134
  6
CONTINUOUS
 10
72.482806
 20
117.919415
 11
74.190133
 21
116.877765
  0
LINE
  8
2
 62
134
  6
CONTINUOUS
 10
72.482806
 20
117.919415
 11
73.440570
 21
116.163656
  0
LINE
  8
2
 62
134
  6
CONTINUOUS
 10
74.190133
 20
116.877765
 11
73.440570
 21
116.163656
  0
LINE
  8
2
 62
134
  6
CONTINUOUS
 10
72.815942
 20
117.569739
 11
73.669606
 21
117.048914
  0
LINE
  8
2
 62
134
  6
CONTINUOUS
 10
72.815942
 20
117.569739
 11
73.294824
 21
116.691859
  0
LINE
  8
2
 62
134
  6
CONTINUOUS
 10
73.669606
 20
117.048914
 11
73.294824
 21
116.691859
  0
LINE
  8
1
 62
7
  6
CONTINUOUS
 10
131.821518
 20
134.850000
 11
131.821518
 21
125.150000
  0
LINE
  8
1
 62
7
  6
CONTINUOUS
 10
117.821518
 20
136.350853
 11
117.821518
 21
123.649147
  0
LINE
  8
1
 62
7
  6
CONTINUOUS
 10
117.821518
 20
138.800000
 11
117.821518
 21
121.200000
  0
LINE
  8
1
 62
7
  6
CONTINUOUS
 10
122.821518
 20
138.800000
 11
122.821518
 21
121.200000
  0
LINE
  8
1
 62
7
  6
CONTINUOUS
 10
125.821518
 20
121.200000
 11
125.821518
 21
138.800000
  0
LINE
  8
1
 62
7
  6
CONTINUOUS
 10
117.821518
 20
136.000000
 11
119.821518
 21
136.000000
  0
LINE
  8
1
 62
7
  6
CONTINUOUS
 10
117.821518
 20
124.000000
 11
119.821518
 21
124.000000
  0
LINE
  8
1
 62
4
  6
CONTINUOUS
 10
117.821518
 20
138.800000
 11
114.821518
 21
138.800000
  0
LINE
  8
1
 62
4
  6
CONTINUOUS
 10
114.821518
 20
121.200000
 11
117.821518
 21
121.200000
  0
LINE
  8
1
 62
7
  6
CONTINUOUS
 10
122.821518
 20
135.056406
 11
125.821518
 21
135.056406
  0
LINE
  8
1
 62
7
  6
CONTINUOUS
 10
122.821518
 20
133.743594
 11
125.821518
 21
133.743594
  0
LINE
  8
1
 62
7
  6
CONTINUOUS
 10
122.821518
 20
126.256406
 11
125.821518
 21
126.256406
  0
LINE
  8
1
 62
7
  6
CONTINUOUS
 10
122.821518
 20
124.943594
 11
125.821518
 21
124.943594
  0
LINE
  8
1
 62
7
  6
CONTINUOUS
 10
114.821518
 20
135.056406
 11
117.821518
 21
135.056406
  0
LINE
  8
1
 62
7
  6
CONTINUOUS
 10
114.821518
 20
133.743594
 11
117.821518
 21
133.743594
  0
LINE
  8
1
 62
7
  6
CONTINUOUS
 10
114.821518
 20
126.256406
 11
117.821518
 21
126.256406
  0
LINE
  8
1
 62
7
  6
CONTINUOUS
 10
114.821518
 20
124.943594
 11
117.821518
 21
124.943594
  0
LINE
  8
1
 62
7
  6
CONTINUOUS
 10
122.821518
 20
138.800000
 11
125.821518
 21
138.800000
  0
LINE
  8
1
 62
7
  6
CONTINUOUS
 10
122.821518
 20
121.200000
 11
125.821518
 21
121.200000
  0
LINE
  8
1
 62
7
  6
CONTINUOUS
 10
119.821518
 20
138.000000
 11
119.821518
 21
122.000000
  0
LINE
  8
1
 62
4
  6
CONTINUOUS
 10
129.821518
 20
138.000000
 11
125.821518
 21
138.000000
  0
LINE
  8
1
 62
4
  6
CONTINUOUS
 10
122.821518
 20
138.000000
 11
119.821518
 21
138.000000
  0
LINE
  8
1
 62
4
  6
CONTINUOUS
 10
119.821518
 20
122.000000
 11
122.821518
 21
122.000000
  0
LINE
  8
1
 62
4
  6
CONTINUOUS
 10
125.821518
 20
122.000000
 11
129.821518
 21
122.000000
  0
ARC
  8
1
 62
4
  6
CONTINUOUS
 10
129.821518
 20
124.000000
 40
2.000000
 50
-90.000000
 51
0.000000
  0
LINE
  8
1
 62
4
  6
CONTINUOUS
 10
131.821518
 20
124.000000
 11
131.821518
 21
136.000000
  0
ARC
  8
1
 62
4
  6
CONTINUOUS
 10
129.821518
 20
136.000000
 40
2.000000
 50
0.000000
 51
90.000000
  0
LINE
  8
1
 62
214
  6
CONTINUOUS
 10
65.820556
 20
140.000032
 11
66.320584
 21
139.500032
  0
LINE
  8
1
 62
11
  6
CONTINUOUS
 10
66.320584
 20
120.500032
 11
65.820556
 21
120.000032
  0
LINE
  8
1
 62
134
  6
CONTINUOUS
 10
65.820556
 20
120.000032
 11
65.820556
 21
140.000032
  0
DIMENSION
  8
2
 62
134
  6
CONTINUOUS
  2
*D14
 10
57.975242
 20
115.000000
 11
57.975242
 21
122.500000
 70
     0
  1
15
 13
68.321518
 23
115.000000
 14
63.820556
 24
130.000000
 50
90.000000
  0
LINE
  8
1
 62
7
  6
DOT
 10
37.619500
 20
122.500032
 11
38.215552
 21
122.500032
  0
LINE
  8
1
 62
7
  6
DOT
 10
37.619500
 20
137.500032
 11
38.215552
 21
137.500032
  0
ARC
  8
1
 62
7
  6
DOT
 10
15.417526
 20
130.000032
 40
24.000000
 50
-18.209957
 51
18.209957
  0
ARC
  8
1
 62
7
  6
DOT
 10
60.417526
 20
130.000032
 40
24.000000
 50
161.790039
 51
-161.790039
  0
LINE
  8
1
 62
214
  6
CONTINUOUS
 10
30.321518
 20
139.500032
 11
30.821518
 21
140.000032
  0
LINE
  8
1
 62
214
  6
CONTINUOUS
 10
30.821518
 20
140.000032
 11
65.820556
 21
140.000032
  0
LINE
  8
1
 62
214
  6
CONTINUOUS
 10
30.321518
 20
120.500032
 11
30.821518
 21
120.000032
  0
LINE
  8
1
 62
214
  6
CONTINUOUS
 10
30.821518
 20
120.000032
 11
65.820556
 21
120.000032
  0
LINE
  8
1
 62
134
  6
CONTINUOUS
 10
30.837192
 20
120.000032
 11
30.837192
 21
140.000032
  0
LINE
  8
1
 62
214
  6
CONTINUOUS
 10
30.321518
 20
120.500032
 11
30.321518
 21
139.500032
  0
LINE
  8
2
 62
7
  6
CONTINUOUS
 10
38.215553
 20
122.500032
 11
53.672840
 21
95.886127
  0
LINE
  8
2
 62
7
  6
CONTINUOUS
 10
53.672840
 20
95.886127
 11
67.672840
 21
95.886127
  0
TEXT
  8
2
 62
7
  6
CONTINUOUS
 10
59.672840
 20
95.886127
 40
4.000000
 41
1.000000
  1
ﾚﾝｽﾞ
  7
KANJI
 50
360.000000
 51
30.000000
  0
LINE
  8
2
 62
7
  6
CONTINUOUS
 10
38.215553
 20
122.500032
 11
39.633412
 21
121.089474
  0
LINE
  8
2
 62
7
  6
CONTINUOUS
 10
38.215553
 20
122.500032
 11
38.738176
 21
120.569523
  0
LINE
  8
2
 62
7
  6
CONTINUOUS
 10
39.633412
 20
121.089474
 11
38.738176
 21
120.569523
  0
LINE
  8
2
 62
7
  6
CONTINUOUS
 10
38.458113
 20
122.082398
 11
39.167043
 21
121.377119
  0
LINE
  8
2
 62
7
  6
CONTINUOUS
 10
38.458113
 20
122.082398
 11
38.719425
 21
121.117144
  0
LINE
  8
2
 62
7
  6
CONTINUOUS
 10
39.167043
 20
121.377119
 11
38.719425
 21
121.117144
  0
LINE
  8
1
 62
7
  6
DASHDOT
 10
25.057178
 20
130.000000
 11
153.055922
 21
130.000000
  0
DIMENSION
  8
2
 62
14
  6
CONTINUOUS
  2
*D15
 10
30.321518
 20
179.468226
 11
72.571518
 21
179.468226
 70
     0
  1
84.5
 13
30.321518
 23
141.500032
 14
114.821518
 24
146.700000
 50
0.000000
  0
DIMENSION
  8
2
 62
14
  6
CONTINUOUS
  2
*D16
 10
30.321518
 20
160.000000
 11
48.321051
 21
160.000000
 70
     0
  1
36
 13
30.321518
 23
141.500032
 14
66.320584
 24
141.500032
 50
0.000000
  0
DIMENSION
  8
2
 62
134
  6
CONTINUOUS
  2
*D17
 10
17.191734
 20
120.000032
 11
17.191734
 21
130.000032
 70
     0
  1
φ20
 13
28.837192
 23
120.000032
 14
28.837192
 24
140.000032
 50
90.000000
  0
TEXT
  8
2
 62
7
  6
CONTINUOUS
 10
10.779642
 20
179.468226
 40
4.000000
 41
1.000000
  1
測定距離
  7
KANJI
 50
0.000000
 51
30.000000
  0
LINE
  8
2
 62
7
  6
CONTINUOUS
 10
30.321518
 20
179.468226
 11
28.389666
 21
178.950588
  0
LINE
  8
2
 62
7
  6
CONTINUOUS
 10
30.321518
 20
179.468226
 11
28.389666
 21
179.985864
  0
LINE
  8
2
 62
7
  6
CONTINUOUS
 10
28.389666
 20
178.950588
 11
28.389666
 21
179.985864
  0
LINE
  8
2
 62
7
  6
CONTINUOUS
 10
29.838555
 20
179.468226
 11
28.872629
 21
179.209407
  0
LINE
  8
2
 62
7
  6
CONTINUOUS
 10
29.838555
 20
179.468226
 11
28.872629
 21
179.727045
  0
LINE
  8
2
 62
7
  6
CONTINUOUS
 10
28.872629
 20
179.209407
 11
28.872629
 21
179.727045
  0
LINE
  8
2
 62
7
  6
CONTINUOUS
 10
30.321518
 20
179.468226
 11
10.432875
 21
179.468226
  0
TEXT
  8
5
 62
7
  6
CONTINUOUS
 10
172.772351
 20
27.782285
 40
4.000000
 41
1.000000
  1
2015/1/14
  7
KANJI
 50
0.000000
 51
0.000000
  0
TEXT
  8
5
 62
7
  6
CONTINUOUS
 10
235.690938
 20
20.406457
 40
4.000000
 41
1.000000
  1
００５－０６５－Ａ０１６
  7
KANJI
 50
0.000000
 51
0.000000
  0
LINE
  8
10
 62
7
  6
CONTINUOUS
 10
19.025227
 20
59.350601
 11
86.524538
 21
59.350601
  0
TEXT
  8
10
 62
7
  6
CONTINUOUS
 10
19.310498
 20
60.081450
 40
3.999900
 41
1.000000
  1
該当機種
  7
KANJI
 50
0.000000
 51
0.000000
  0
TEXT
  8
10
 62
7
  6
CONTINUOUS
 10
21.293582
 20
54.672117
 40
3.999900
 41
1.000000
  1
TMHX-CLE1350-0500B009
  7
KANJI
 50
0.000000
 51
0.000000
  0
LINE
  8
10
 62
7
  6
CONTINUOUS
 10
19.025227
 20
59.350601
 11
19.025227
 21
54.684051
  0
LINE
  8
10
 62
7
  6
CONTINUOUS
 10
19.025227
 20
54.684051
 11
86.524538
 21
54.684051
  0
LINE
  8
10
 62
134
  6
CONTINUOUS
 10
86.524538
 20
59.350601
 11
86.524538
 21
54.684051
  0
TEXT
  8
5
 62
7
  6
CONTINUOUS
 10
239.646523
 20
34.938808
 40
4.000000
 41
1.000000
  1
ＴＭＨＸ　外形図
  7
KANJI
 50
0.000000
 51
0.000000
  0
ARC
  8
1
 62
7
  6
CONTINUOUS
 10
213.587376
 20
140.450487
 40
0.200000
 50
49.347308
 51
86.000000
  0
ARC
  8
1
 62
7
  6
CONTINUOUS
 10
199.987376
 20
142.100000
 40
0.200000
 50
-90.000000
 51
0.000000
  0
ARC
  8
1
 62
7
  6
CONTINUOUS
 10
197.687376
 20
141.500000
 40
0.400000
 50
90.000000
 51
180.000000
  0
ARC
  8
1
 62
7
  6
CONTINUOUS
 10
198.885059
 20
143.600000
 40
0.500000
 50
90.000000
 51
162.817149
  0
ARC
  8
1
 62
7
  6
CONTINUOUS
 10
199.087376
 20
143.600000
 40
0.500000
 50
33.507719
 51
90.000000
  0
ARC
  8
1
 62
7
  6
CONTINUOUS
 10
200.187376
 20
143.750000
 40
0.500000
 50
-146.492281
 51
-90.000000
  0
ARC
  8
1
 62
7
  6
CONTINUOUS
 10
197.787376
 20
140.700000
 40
0.500000
 50
180.000000
 51
-109.144553
  0
ARC
  8
1
 62
7
  6
CONTINUOUS
 10
205.187376
 20
141.100000
 40
0.500000
 50
180.000000
 51
-90.000000
  0
ARC
  8
1
 62
7
  6
CONTINUOUS
 10
215.187376
 20
120.850000
 40
0.600000
 50
-90.000000
 51
0.000000
  0
ARC
  8
1
 62
7
  6
CONTINUOUS
 10
215.187376
 20
140.000000
 40
0.600000
 50
0.000000
 51
90.000000
  0
ARC
  8
1
 62
7
  6
CONTINUOUS
 10
201.087376
 20
142.350000
 40
0.900000
 50
90.000000
 51
180.000000
  0
ARC
  8
1
 62
7
  6
CONTINUOUS
 10
214.787376
 20
140.800000
 40
1.000000
 50
0.000000
 51
90.000000
  0
ARC
  8
1
 62
7
  6
CONTINUOUS
 10
203.687376
 20
142.250000
 40
1.000000
 50
0.000000
 51
90.000000
  0
ARC
  8
1
 62
7
  6
CONTINUOUS
 10
211.658645
 20
146.480000
 40
4.680000
 50
-109.747638
 51
-90.000000
  0
LINE
  8
1
 62
7
  6
CONTINUOUS
 10
201.587376
 20
120.050000
 11
200.187376
 21
120.050000
  0
LINE
  8
1
 62
7
  6
CONTINUOUS
 10
215.187376
 20
120.250000
 11
201.587376
 21
120.250000
  0
LINE
  8
1
 62
7
  6
CONTINUOUS
 10
215.787376
 20
120.950000
 11
200.187376
 21
120.950000
  0
LINE
  8
1
 62
7
  6
CONTINUOUS
 10
200.187376
 20
121.300000
 11
210.187376
 21
121.300000
  0
LINE
  8
1
 62
7
  6
CONTINUOUS
 10
197.287376
 20
140.700000
 11
197.287376
 21
141.500000
  0
LINE
  8
1
 62
7
  6
CONTINUOUS
 10
199.287376
 20
139.250000
 11
199.287376
 21
139.650000
  0
LINE
  8
1
 62
7
  6
CONTINUOUS
 10
200.187376
 20
138.750000
 11
200.187376
 21
120.050000
  0
LINE
  8
1
 62
7
  6
CONTINUOUS
 10
200.187376
 20
142.100000
 11
200.187376
 21
142.350000
  0
LINE
  8
1
 62
7
  6
CONTINUOUS
 10
201.587376
 20
120.250000
 11
201.587376
 21
120.050000
  0
LINE
  8
1
 62
7
  6
CONTINUOUS
 10
204.687376
 20
142.250000
 11
204.687376
 21
141.100000
  0
LINE
  8
1
 62
7
  6
CONTINUOUS
 10
199.504282
 20
143.876025
 11
199.770470
 21
143.473975
  0
LINE
  8
1
 62
7
  6
CONTINUOUS
 10
206.637376
 20
140.600000
 11
206.637376
 21
138.700000
  0
LINE
  8
1
 62
7
  6
CONTINUOUS
 10
207.617376
 20
142.321672
 11
207.617376
 21
142.771672
  0
LINE
  8
1
 62
7
  6
CONTINUOUS
 10
200.187376
 20
138.750000
 11
199.287376
 21
139.250000
  0
LINE
  8
1
 62
7
  6
CONTINUOUS
 10
210.187376
 20
122.560577
 11
210.187376
 21
121.300000
  0
LINE
  8
1
 62
7
  6
CONTINUOUS
 10
210.187376
 20
123.422115
 11
210.187376
 21
122.577885
  0
LINE
  8
1
 62
7
  6
CONTINUOUS
 10
210.187376
 20
124.560577
 11
210.187376
 21
123.439423
  0
LINE
  8
1
 62
7
  6
CONTINUOUS
 10
210.187376
 20
125.422115
 11
210.187376
 21
124.577885
  0
LINE
  8
1
 62
7
  6
CONTINUOUS
 10
210.187376
 20
126.560577
 11
210.187376
 21
125.439423
  0
LINE
  8
1
 62
7
  6
CONTINUOUS
 10
210.187376
 20
127.422115
 11
210.187376
 21
126.577885
  0
LINE
  8
1
 62
7
  6
CONTINUOUS
 10
210.187376
 20
128.560577
 11
210.187376
 21
127.439423
  0
LINE
  8
1
 62
7
  6
CONTINUOUS
 10
210.187376
 20
129.422115
 11
210.187376
 21
128.577885
  0
LINE
  8
1
 62
7
  6
CONTINUOUS
 10
210.187376
 20
130.560577
 11
210.187376
 21
129.439423
  0
LINE
  8
1
 62
7
  6
CONTINUOUS
 10
210.187376
 20
131.422115
 11
210.187376
 21
130.577885
  0
LINE
  8
1
 62
7
  6
CONTINUOUS
 10
210.187376
 20
132.560577
 11
210.187376
 21
131.439423
  0
LINE
  8
1
 62
7
  6
CONTINUOUS
 10
210.187376
 20
133.422115
 11
210.187376
 21
132.577885
  0
LINE
  8
1
 62
7
  6
CONTINUOUS
 10
210.187376
 20
134.560577
 11
210.187376
 21
133.439423
  0
LINE
  8
1
 62
7
  6
CONTINUOUS
 10
210.187376
 20
135.422115
 11
210.187376
 21
134.577885
  0
LINE
  8
1
 62
7
  6
CONTINUOUS
 10
210.187376
 20
136.560577
 11
210.187376
 21
135.439423
  0
LINE
  8
1
 62
7
  6
CONTINUOUS
 10
210.187376
 20
137.422115
 11
210.187376
 21
136.577885
  0
LINE
  8
1
 62
7
  6
CONTINUOUS
 10
210.187376
 20
138.700000
 11
210.187376
 21
137.439423
  0
LINE
  8
1
 62
7
  6
CONTINUOUS
 10
199.287376
 20
139.650000
 11
197.623400
 21
140.227653
  0
LINE
  8
1
 62
7
  6
CONTINUOUS
 10
200.187376
 20
138.700000
 11
210.187376
 21
138.700000
  0
LINE
  8
1
 62
7
  6
CONTINUOUS
 10
206.637376
 20
139.050000
 11
199.647376
 21
139.050000
  0
LINE
  8
1
 62
7
  6
CONTINUOUS
 10
215.787376
 20
139.300000
 11
206.637376
 21
139.300000
  0
LINE
  8
1
 62
7
  6
CONTINUOUS
 10
215.187376
 20
140.600000
 11
205.187376
 21
140.600000
  0
LINE
  8
1
 62
7
  6
CONTINUOUS
 10
204.633606
 20
142.556369
 11
205.287376
 21
142.321672
  0
LINE
  8
1
 62
7
  6
CONTINUOUS
 10
215.787376
 20
140.800000
 11
215.787376
 21
120.850000
  0
LINE
  8
1
 62
7
  6
CONTINUOUS
 10
211.658645
 20
141.800000
 11
214.787376
 21
141.800000
  0
LINE
  8
1
 62
7
  6
CONTINUOUS
 10
197.687376
 20
141.900000
 11
199.987376
 21
141.900000
  0
LINE
  8
1
 62
7
  6
CONTINUOUS
 10
213.601327
 20
140.650000
 11
204.687376
 21
141.273324
  0
LINE
  8
1
 62
7
  6
CONTINUOUS
 10
208.137376
 20
142.771672
 11
210.077376
 21
142.075231
  0
LINE
  8
1
 62
7
  6
CONTINUOUS
 10
205.287376
 20
142.321672
 11
207.617376
 21
142.321672
  0
LINE
  8
1
 62
7
  6
CONTINUOUS
 10
207.617376
 20
142.771672
 11
208.137376
 21
142.771672
  0
LINE
  8
1
 62
7
  6
CONTINUOUS
 10
197.836020
 20
141.900000
 11
198.407376
 21
143.747711
  0
LINE
  8
1
 62
7
  6
CONTINUOUS
 10
200.187376
 20
143.250000
 11
203.687376
 21
143.250000
  0
LINE
  8
1
 62
7
  6
CONTINUOUS
 10
198.885059
 20
144.100000
 11
199.087376
 21
144.100000
  0
LINE
  8
1
 62
7
  6
CONTINUOUS
 10
200.187376
 20
125.600000
 11
194.075659
 21
125.600000
  0
LINE
  8
1
 62
7
  6
CONTINUOUS
 10
200.187376
 20
124.400000
 11
194.051167
 21
124.400000
  0
LINE
  8
1
 62
7
  6
CONTINUOUS
 10
200.187376
 20
127.600000
 11
194.075659
 21
127.600000
  0
LINE
  8
1
 62
7
  6
CONTINUOUS
 10
200.187376
 20
126.400000
 11
194.051167
 21
126.400000
  0
LINE
  8
1
 62
7
  6
CONTINUOUS
 10
200.187376
 20
129.600000
 11
194.075659
 21
129.600000
  0
LINE
  8
1
 62
7
  6
CONTINUOUS
 10
200.187376
 20
128.400000
 11
194.051167
 21
128.400000
  0
LINE
  8
1
 62
7
  6
CONTINUOUS
 10
200.187376
 20
134.400000
 11
194.075659
 21
134.400000
  0
LINE
  8
1
 62
7
  6
CONTINUOUS
 10
200.187376
 20
135.600000
 11
194.051167
 21
135.600000
  0
LINE
  8
1
 62
7
  6
CONTINUOUS
 10
200.187376
 20
132.400000
 11
194.075659
 21
132.400000
  0
LINE
  8
1
 62
7
  6
CONTINUOUS
 10
200.187376
 20
133.600000
 11
194.051167
 21
133.600000
  0
LINE
  8
1
 62
7
  6
CONTINUOUS
 10
200.187376
 20
130.400000
 11
194.075659
 21
130.400000
  0
LINE
  8
1
 62
7
  6
CONTINUOUS
 10
200.187376
 20
131.600000
 11
194.051167
 21
131.600000
  0
LINE
  8
1
 62
7
  6
CONTINUOUS
 10
200.187376
 20
123.600000
 11
194.075659
 21
123.600000
  0
LINE
  8
1
 62
7
  6
CONTINUOUS
 10
200.187376
 20
122.400000
 11
194.051167
 21
122.400000
  0
LINE
  8
1
 62
7
  6
CONTINUOUS
 10
200.187376
 20
136.400000
 11
194.075659
 21
136.400000
  0
LINE
  8
1
 62
7
  6
CONTINUOUS
 10
200.187376
 20
137.600000
 11
194.051167
 21
137.600000
  0
LINE
  8
2
 62
134
  6
CONTINUOUS
 10
202.413161
 20
120.250000
 11
205.052304
 21
110.000000
  0
LINE
  8
2
 62
134
  6
CONTINUOUS
 10
205.052304
 20
110.000000
 11
225.390509
 21
110.000000
  0
TEXT
  8
2
 62
134
  6
CONTINUOUS
 10
205.390509
 20
110.000000
 40
4.000000
 41
1.000000
  1
　出力ｺﾈｸﾀ
  7
KANJI
 50
0.000000
 51
30.000000
  0
LINE
  8
2
 62
134
  6
CONTINUOUS
 10
202.413161
 20
120.250000
 11
203.396147
 21
118.508237
  0
LINE
  8
2
 62
134
  6
CONTINUOUS
 10
202.413161
 20
120.250000
 11
202.393570
 21
118.250096
  0
LINE
  8
2
 62
134
  6
CONTINUOUS
 10
203.396147
 20
118.508237
 11
202.393570
 21
118.250096
  0
LINE
  8
2
 62
134
  6
CONTINUOUS
 10
202.533585
 20
119.782292
 11
203.025078
 21
118.911410
  0
LINE
  8
2
 62
134
  6
CONTINUOUS
 10
202.533585
 20
119.782292
 11
202.523790
 21
118.782340
  0
LINE
  8
2
 62
134
  6
CONTINUOUS
 10
203.025078
 20
118.911410
 11
202.523790
 21
118.782340
  0
DIMENSION
  8
2
 62
134
  6
CONTINUOUS
  2
*D18
 10
239.767818
 20
99.620666
 11
247.767818
 21
99.620666
 70
     0
  1
16
 13
239.767818
 23
124.256406
 14
255.767818
 24
124.256406
 50
0.000000
  0
TEXT
  8
2
 62
7
  6
DOT
 10
183.621873
 20
42.952127
 40
5.000000
 41
1.000000
  1
1
  7
KANJI
 50
0.000000
 51
0.000000
  0
LINE
  8
2
 62
134
  6
CONTINUOUS
 10
184.822375
 20
47.737309
 11
182.426524
 21
43.587574
  0
LINE
  8
2
 62
134
  6
CONTINUOUS
 10
182.426524
 20
43.587574
 11
187.218226
 21
43.587574
  0
LINE
  8
2
 62
134
  6
CONTINUOUS
 10
187.218226
 20
43.587574
 11
184.822375
 21
47.737309
  0
TEXT
  8
2
 62
7
  6
DOT
 10
187.027021
 20
98.204203
 40
5.000000
 41
1.000000
  1
1
  7
KANJI
 50
0.000000
 51
0.000000
  0
LINE
  8
2
 62
134
  6
CONTINUOUS
 10
188.227523
 20
102.989386
 11
185.831672
 21
98.839650
  0
LINE
  8
2
 62
134
  6
CONTINUOUS
 10
185.831672
 20
98.839650
 11
190.623374
 21
98.839650
  0
LINE
  8
2
 62
134
  6
CONTINUOUS
 10
190.623374
 20
98.839650
 11
188.227523
 21
102.989386
  0
TEXT
  8
2
 62
134
  6
CONTINUOUS
 10
190.742135
 20
44.254931
 40
4.000000
 41
1.000000
  1
XN2A-1870（オムロン）表記削除　2021/7/7　保田
  7
KANJI
 50
0.000000
 51
30.000000
  0
ENDSEC
  0
EOF
