  0
SECTION
  2
HEADER
  9
$ACADVER
  1
AC1003
  9
$INSBASE
 10
0.000000
 20
0.000000
  9
$EXTMIN
 10
0.000000
 20
0.000000
  9
$EXTMAX
 10
210.000000
 20
297.000000
  9
$LIMMIN
 10
0.000000
 20
0.000000
  9
$LIMMAX
 10
210.000000
 20
297.000000
  9
$VIEWCTR
 10
105.000000
 20
148.500000
  9
$VIEWSIZE
 40
297.000000
  9
$PEXTMIN
 10
0.000000
 20
0.000000
 30
0.000000
  9
$PEXTMAX
 10
210.000000
 20
297.000000
 30
0.000000
  9
$SNAPMODE
 70
     0
  9
$SNAPUNIT
 10
1.000000
 20
1.000000
  9
$SNAPBASE
 10
0.000000
 20
0.000000
  9
$SNAPANG
 50
0.000000
  9
$SNAPISOPAIR
 70
     0
  9
$SNAPSTYLE
 70
     0
  9
$GRIDMODE
 70
     0
  9
$GRIDUNIT
 10
0.000000
 20
0.000000
  9
$ORTHOMODE
 70
     0
  9
$REGENMODE
 70
     1
  9
$FILLMODE
 70
     1
  9
$QTEXTMODE
 70
     0
  9
$DRAGMODE
 70
     2
  9
$LTSCALE
 40
0.250000
  9
$OSMODE
 70
     0
  9
$ATTMODE
 70
     1
  9
$TEXTSIZE
 40
0.200000
  9
$TRACEWID
 40
0.050000
  9
$TEXTSTYLE
  7
STANDARD
  9
$CLAYER
  8
0
  9
$CELTYPE
  6
BYLAYER
  9
$CECOLOR
 62
   256
  9
$DIMSCALE
 40
1.000000
  9
$DIMASZ
 40
1.000000
  9
$DIMEXO
 40
0.000000
  9
$DIMDLI
 40
0.500000
  9
$DIMRND
 40
0.000000
  9
$DIMDLE
 40
0.000000
  9
$DIMEXE
 40
0.000000
  9
$DIMTP
 40
0.000000
  9
$DIMTM
 40
0.000000
  9
$DIMTXT
 40
0.180000
  9
$DIMCEN
 40
0.000000
  9
$DIMTSZ
 40
0.000000
  9
$DIMTOL
 70
     0
  9
$DIMLIM
 70
     0
  9
$DIMTIH
 70
     1
  9
$DIMTOH
 70
     1
  9
$DIMSE1
 70
     0
  9
$DIMSE2
 70
     0
  9
$DIMTAD
 70
     0
  9
$DIMZIN
 70
     0
  9
$DIMBLK
  1

  9
$DIMASO
 70
     0
  9
$DIMSHO
 70
     0
  9
$DIMPOST
  1

  9
$DIMAPOST
  1

  9
$DIMALT
 70
     0
  9
$DIMALTD
 70
     0
  9
$DIMALTF
 40
25.400000
  9
$DIMLFAC
 40
1.000000
  9
$DIMTOFL
 70
     0
  9
$DIMTVP
 40
0.000000
  9
$DIMTIX
 70
     0
  9
$DIMSOXD
 70
     0
  9
$DIMSAH
 70
     0
  9
$DIMBLKL
  1

  9
$DIMBLKR
  1

  9
$LUNITS
 70
     2
  9
$LUPREC
 70
     2
  9
$AXISMODE
 70
     0
  9
$AXISUNIT
 10
1.000000
 20
1.000000
  9
$SKETCHINC
 40
0.000000
  9
$FILLETRAD
 40
0.000000
  9
$AUNITS
 70
     1
  9
$AUPREC
 70
     2
  9
$MENU
  1
ACAD
  9
$ELEVATION
 40
0.000000
  9
$THICKNESS
 40
0.000000
  9
$VIEWDIR
 10
0.000000
 20
0.000000
 30
1.000000
  9
$LIMCHECK
 70
     1
  9
$BLIPMODE
 70
     1
  9
$CHAMFERA
 40
0.000000
  9
$CHAMFERB
 40
0.000000
  9
$FASTZOOM
 70
     1
  9
$SKPOLY
 70
     0
  9
$TDCREATE
 40
0.000000
  9
$TDUPDATE
 40
0.000000
  9
$TDINDWG
 40
0.000000
  9
$TDUSRTIMER
 40
0.000000
  9
$USRTIMER
 70
     1
  9
$ANGBASE
 50
0.000000
  9
$ANGDIR
 70
     0
  9
$PDMODE
 70
     0
  9
$PDSIZE
 40
0.000000
  9
$PLINEWID
 40
0.000000
  9
$COORDS
 70
     2
  9
$USERI1
 70
     0
  9
$USERI2
 70
     0
  9
$USERI3
 70
     0
  9
$USERI4
 70
     0
  9
$USERI5
 70
     0
  9
$USERR1
 40
0.000000
  9
$USERR2
 40
0.000000
  9
$USERR3
 40
0.000000
  9
$USERR4
 40
0.000000
  9
$USERR5
 40
0.000000
  0
ENDSEC
  0
SECTION
  2
TABLES
  0
TABLE
  2
LTYPE
 70
     5
  0
LTYPE
  2
CONTINUOUS
 70
    64
  3
Solid line
 72
    65
 73
     0
 40
0.0
  0
LTYPE
  2
HIDDEN
 70
    64
  3
------------------------
 72
    65
 73
     2
 40
12.6
 49
8.4
 49
-4.2
  0
LTYPE
  2
DOT
 70
    64
  3
････････････････････････
 72
    65
 73
     2
 40
8.0
 49
6.0
 49
-2.0
  0
LTYPE
  2
DASHDOT
 70
    64
  3
--･--･--･--･--･--･--･--
 72
    65
 73
     4
 40
50.5
 49
30.0
 49
-9.0
 49
2.5
 49
-9.0
  0
LTYPE
  2
DIVIDE
 70
    64
  3
--･･--･･--･･--･･--･･--
 72
    65
 73
     6
 40
58.0
 49
30.0
 49
-9.0
 49
2.5
 49
-5.0
 49
2.5
 49
-9.0
  0
LTYPE
  2
ACAD_ISO06W100
 70
    64
  3
____ ... ____ ... ____
 72
    65
 73
     8
 40
37.5
 49
24.0
 49
-3.0
 49
0.5
 49
-3.0
 49
0.5
 49
-3.0
 49
0.5
 49
-3.0
  0
LTYPE
  2
ACAD_ISO14W100
 70
    64
  3
__ . . . __ . . . __ . . . 
 72
    65
 73
     8
 40
25.5
 49
12.0
 49
-3.0
 49
0.5
 49
-3.0
 49
0.5
 49
-3.0
 49
0.5
 49
-3.0
  0
ENDTAB
  0
TABLE
  2
LAYER
 70
5
  0
LAYER
  2
1
 70
64
 62
7
  6
CONTINUOUS
  0
LAYER
  2
2
 70
64
 62
134
  6
CONTINUOUS
  0
LAYER
  2
3
 70
64
 62
214
  6
CONTINUOUS
  0
LAYER
  2
4
 70
64
 62
54
  6
CONTINUOUS
  0
LAYER
  2
5
 70
64
 62
94
  6
CONTINUOUS
  0
ENDTAB
  0
TABLE
  2
STYLE
 70
     2
  0
STYLE
  2
STANDARD
 70
    64
 40
0.0
 41
1.0
 50
0.0
 71
     0
 42
0.2
  3
TXT
  4

  0
STYLE
  2
KANJI
 70
    64
 40
0.0
 41
1.0
 50
0.0
 71
     0
 42
0.2
  3
TXT
  4
BIGFONT
  0
ENDTAB
  0
TABLE
  2
VIEW
 70
     0
  0
ENDTAB
  0
ENDSEC
  0
SECTION
  2
BLOCKS
  0
BLOCK
  8
2
 62
134
  6
CONTINUOUS
  2
*D1
 70
    65
 10
0.0
 20
0.0
  0
LINE
  8
2
 62
134
  6
CONTINUOUS
 10
143.743615
 20
208.941351
 11
163.743615
 21
208.941351
  0
LINE
  8
2
 62
134
  6
CONTINUOUS
 10
143.743615
 20
206.941351
 11
143.743615
 21
220.737894
  0
LINE
  8
2
 62
134
  6
CONTINUOUS
 10
163.743615
 20
206.941351
 11
163.743615
 21
218.737894
  0
LINE
  8
2
 62
134
  6
CONTINUOUS
 10
143.743615
 20
208.941351
 11
145.675467
 21
209.458989
  0
LINE
  8
2
 62
134
  6
CONTINUOUS
 10
143.743615
 20
208.941351
 11
145.675467
 21
208.423713
  0
LINE
  8
2
 62
134
  6
CONTINUOUS
 10
145.675467
 20
209.458989
 11
145.675467
 21
208.423713
  0
LINE
  8
2
 62
134
  6
CONTINUOUS
 10
144.226578
 20
208.941351
 11
145.192504
 21
209.200170
  0
LINE
  8
2
 62
134
  6
CONTINUOUS
 10
144.226578
 20
208.941351
 11
145.192504
 21
208.682532
  0
LINE
  8
2
 62
134
  6
CONTINUOUS
 10
145.192504
 20
209.200170
 11
145.192504
 21
208.682532
  0
LINE
  8
2
 62
134
  6
CONTINUOUS
 10
163.743615
 20
208.941351
 11
161.811764
 21
208.423713
  0
LINE
  8
2
 62
134
  6
CONTINUOUS
 10
163.743615
 20
208.941351
 11
161.811764
 21
209.458989
  0
LINE
  8
2
 62
134
  6
CONTINUOUS
 10
161.811764
 20
208.423713
 11
161.811764
 21
209.458989
  0
LINE
  8
2
 62
134
  6
CONTINUOUS
 10
163.260652
 20
208.941351
 11
162.294727
 21
208.682532
  0
LINE
  8
2
 62
134
  6
CONTINUOUS
 10
163.260652
 20
208.941351
 11
162.294727
 21
209.200170
  0
LINE
  8
2
 62
134
  6
CONTINUOUS
 10
162.294727
 20
208.682532
 11
162.294727
 21
209.200170
  0
TEXT
  8
2
 62
134
  6
CONTINUOUS
 10
150.853792
 20
208.941351
 40
4.000000
 41
0.500000
  1
20
  7
KANJI
 50
0.000000
 51
30.000000
  0
ENDBLK
  0
BLOCK
  8
2
 62
134
  6
CONTINUOUS
  2
*D2
 70
    65
 10
0.0
 20
0.0
  0
LINE
  8
2
 62
134
  6
CONTINUOUS
 10
153.743615
 20
234.096579
 11
173.743615
 21
234.096579
  0
LINE
  8
2
 62
134
  6
CONTINUOUS
 10
161.743615
 20
236.096579
 11
161.743615
 21
228.686713
  0
LINE
  8
2
 62
134
  6
CONTINUOUS
 10
165.743615
 20
236.096579
 11
165.743615
 21
228.686713
  0
LINE
  8
2
 62
134
  6
CONTINUOUS
 10
161.743615
 20
234.096579
 11
159.811764
 21
233.578941
  0
LINE
  8
2
 62
134
  6
CONTINUOUS
 10
161.743615
 20
234.096579
 11
159.811764
 21
234.614217
  0
LINE
  8
2
 62
134
  6
CONTINUOUS
 10
159.811764
 20
233.578941
 11
159.811764
 21
234.614217
  0
LINE
  8
2
 62
134
  6
CONTINUOUS
 10
161.260652
 20
234.096579
 11
160.294727
 21
233.837760
  0
LINE
  8
2
 62
134
  6
CONTINUOUS
 10
161.260652
 20
234.096579
 11
160.294727
 21
234.355398
  0
LINE
  8
2
 62
134
  6
CONTINUOUS
 10
160.294727
 20
233.837760
 11
160.294727
 21
234.355398
  0
LINE
  8
2
 62
134
  6
CONTINUOUS
 10
165.743615
 20
234.096579
 11
167.675467
 21
234.614217
  0
LINE
  8
2
 62
134
  6
CONTINUOUS
 10
165.743615
 20
234.096579
 11
167.675467
 21
233.578941
  0
LINE
  8
2
 62
134
  6
CONTINUOUS
 10
167.675467
 20
234.614217
 11
167.675467
 21
233.578941
  0
LINE
  8
2
 62
134
  6
CONTINUOUS
 10
166.226578
 20
234.096579
 11
167.192504
 21
234.355398
  0
LINE
  8
2
 62
134
  6
CONTINUOUS
 10
166.226578
 20
234.096579
 11
167.192504
 21
233.837760
  0
LINE
  8
2
 62
134
  6
CONTINUOUS
 10
167.192504
 20
234.355398
 11
167.192504
 21
233.837760
  0
TEXT
  8
2
 62
134
  6
CONTINUOUS
 10
162.735548
 20
234.096579
 40
4.000000
 41
0.500000
  1
4
  7
KANJI
 50
0.000000
 51
30.000000
  0
ENDBLK
  0
BLOCK
  8
2
 62
134
  6
CONTINUOUS
  2
*D3
 70
    65
 10
0.0
 20
0.0
  0
LINE
  8
2
 62
134
  6
CONTINUOUS
 10
166.743615
 20
218.737894
 11
176.834993
 21
208.646516
  0
LINE
  8
2
 62
134
  6
CONTINUOUS
 10
166.743615
 20
218.737894
 11
168.475666
 21
217.737894
  0
LINE
  8
2
 62
134
  6
CONTINUOUS
 10
166.743615
 20
218.737894
 11
167.743615
 21
217.005843
  0
LINE
  8
2
 62
134
  6
CONTINUOUS
 10
168.475666
 20
217.737894
 11
167.743615
 21
217.005843
  0
LINE
  8
2
 62
134
  6
CONTINUOUS
 10
167.085122
 20
218.396387
 11
167.951147
 21
217.896387
  0
LINE
  8
2
 62
134
  6
CONTINUOUS
 10
167.085122
 20
218.396387
 11
167.585122
 21
217.530362
  0
LINE
  8
2
 62
134
  6
CONTINUOUS
 10
167.951147
 20
217.896387
 11
167.585122
 21
217.530362
  0
TEXT
  8
2
 62
134
  6
CONTINUOUS
 10
170.194075
 20
215.287434
 40
4.000000
 41
0.500000
  1
4-C2
  7
KANJI
 50
-45.000000
 51
30.000000
  0
ENDBLK
  0
BLOCK
  8
2
 62
134
  6
CONTINUOUS
  2
*D4
 70
    65
 10
0.0
 20
0.0
  0
LINE
  8
2
 62
134
  6
CONTINUOUS
 10
179.270953
 20
214.007427
 11
179.270953
 21
228.737894
  0
LINE
  8
2
 62
134
  6
CONTINUOUS
 10
181.270953
 20
217.737894
 11
165.743615
 21
217.737894
  0
LINE
  8
2
 62
134
  6
CONTINUOUS
 10
181.270953
 20
220.737894
 11
165.743615
 21
220.737894
  0
LINE
  8
2
 62
134
  6
CONTINUOUS
 10
179.270953
 20
217.737894
 11
179.788591
 21
215.806042
  0
LINE
  8
2
 62
134
  6
CONTINUOUS
 10
179.270953
 20
217.737894
 11
178.753315
 21
215.806042
  0
LINE
  8
2
 62
134
  6
CONTINUOUS
 10
179.788591
 20
215.806042
 11
178.753315
 21
215.806042
  0
LINE
  8
2
 62
134
  6
CONTINUOUS
 10
179.270953
 20
217.254931
 11
179.529772
 21
216.289005
  0
LINE
  8
2
 62
134
  6
CONTINUOUS
 10
179.270953
 20
217.254931
 11
179.012134
 21
216.289005
  0
LINE
  8
2
 62
134
  6
CONTINUOUS
 10
179.529772
 20
216.289005
 11
179.012134
 21
216.289005
  0
LINE
  8
2
 62
134
  6
CONTINUOUS
 10
179.270953
 20
220.737894
 11
178.753315
 21
222.669745
  0
LINE
  8
2
 62
134
  6
CONTINUOUS
 10
179.270953
 20
220.737894
 11
179.788591
 21
222.669745
  0
LINE
  8
2
 62
134
  6
CONTINUOUS
 10
178.753315
 20
222.669745
 11
179.788591
 21
222.669745
  0
LINE
  8
2
 62
134
  6
CONTINUOUS
 10
179.270953
 20
221.220857
 11
179.012134
 21
222.186782
  0
LINE
  8
2
 62
134
  6
CONTINUOUS
 10
179.270953
 20
221.220857
 11
179.529772
 21
222.186782
  0
LINE
  8
2
 62
134
  6
CONTINUOUS
 10
179.012134
 20
222.186782
 11
179.529772
 21
222.186782
  0
TEXT
  8
2
 62
134
  6
CONTINUOUS
 10
179.270953
 20
215.007427
 40
4.000000
 41
0.500000
  1
3
  7
KANJI
 50
90.000000
 51
30.000000
  0
ENDBLK
  0
BLOCK
  8
2
 62
134
  6
CONTINUOUS
  2
*D5
 70
    65
 10
0.0
 20
0.0
  0
LINE
  8
2
 62
134
  6
CONTINUOUS
 10
179.270953
 20
220.737894
 11
179.270953
 21
228.737894
  0
LINE
  8
2
 62
134
  6
CONTINUOUS
 10
181.270953
 20
220.737894
 11
165.743615
 21
220.737894
  0
LINE
  8
2
 62
134
  6
CONTINUOUS
 10
181.270953
 20
228.737894
 11
165.743615
 21
228.737894
  0
LINE
  8
2
 62
134
  6
CONTINUOUS
 10
179.270953
 20
220.737894
 11
178.753315
 21
222.669745
  0
LINE
  8
2
 62
134
  6
CONTINUOUS
 10
179.270953
 20
220.737894
 11
179.788591
 21
222.669745
  0
LINE
  8
2
 62
134
  6
CONTINUOUS
 10
178.753315
 20
222.669745
 11
179.788591
 21
222.669745
  0
LINE
  8
2
 62
134
  6
CONTINUOUS
 10
179.270953
 20
221.220857
 11
179.012134
 21
222.186782
  0
LINE
  8
2
 62
134
  6
CONTINUOUS
 10
179.270953
 20
221.220857
 11
179.529772
 21
222.186782
  0
LINE
  8
2
 62
134
  6
CONTINUOUS
 10
179.012134
 20
222.186782
 11
179.529772
 21
222.186782
  0
LINE
  8
2
 62
134
  6
CONTINUOUS
 10
179.270953
 20
228.737894
 11
179.788591
 21
226.806042
  0
LINE
  8
2
 62
134
  6
CONTINUOUS
 10
179.270953
 20
228.737894
 11
178.753315
 21
226.806042
  0
LINE
  8
2
 62
134
  6
CONTINUOUS
 10
179.788591
 20
226.806042
 11
178.753315
 21
226.806042
  0
LINE
  8
2
 62
134
  6
CONTINUOUS
 10
179.270953
 20
228.254931
 11
179.529772
 21
227.289005
  0
LINE
  8
2
 62
134
  6
CONTINUOUS
 10
179.270953
 20
228.254931
 11
179.012134
 21
227.289005
  0
LINE
  8
2
 62
134
  6
CONTINUOUS
 10
179.529772
 20
227.289005
 11
179.012134
 21
227.289005
  0
TEXT
  8
2
 62
134
  6
CONTINUOUS
 10
179.270953
 20
223.628038
 40
4.000000
 41
0.500000
  1
8
  7
KANJI
 50
90.000000
 51
30.000000
  0
ENDBLK
  0
BLOCK
  8
2
 62
134
  6
CONTINUOUS
  2
*D6
 70
    65
 10
0.0
 20
0.0
  0
LINE
  8
2
 62
134
  6
CONTINUOUS
 10
133.720852
 20
208.941351
 11
151.743615
 21
208.941351
  0
LINE
  8
2
 62
134
  6
CONTINUOUS
 10
139.743615
 20
206.941351
 11
139.743615
 21
217.737894
  0
LINE
  8
2
 62
134
  6
CONTINUOUS
 10
143.743615
 20
206.941351
 11
143.743615
 21
220.737894
  0
LINE
  8
2
 62
134
  6
CONTINUOUS
 10
139.743615
 20
208.941351
 11
137.811764
 21
208.423713
  0
LINE
  8
2
 62
134
  6
CONTINUOUS
 10
139.743615
 20
208.941351
 11
137.811764
 21
209.458989
  0
LINE
  8
2
 62
134
  6
CONTINUOUS
 10
137.811764
 20
208.423713
 11
137.811764
 21
209.458989
  0
LINE
  8
2
 62
134
  6
CONTINUOUS
 10
139.260652
 20
208.941351
 11
138.294727
 21
208.682532
  0
LINE
  8
2
 62
134
  6
CONTINUOUS
 10
139.260652
 20
208.941351
 11
138.294727
 21
209.200170
  0
LINE
  8
2
 62
134
  6
CONTINUOUS
 10
138.294727
 20
208.682532
 11
138.294727
 21
209.200170
  0
LINE
  8
2
 62
134
  6
CONTINUOUS
 10
143.743615
 20
208.941351
 11
145.675467
 21
209.458989
  0
LINE
  8
2
 62
134
  6
CONTINUOUS
 10
143.743615
 20
208.941351
 11
145.675467
 21
208.423713
  0
LINE
  8
2
 62
134
  6
CONTINUOUS
 10
145.675467
 20
209.458989
 11
145.675467
 21
208.423713
  0
LINE
  8
2
 62
134
  6
CONTINUOUS
 10
144.226578
 20
208.941351
 11
145.192504
 21
209.200170
  0
LINE
  8
2
 62
134
  6
CONTINUOUS
 10
144.226578
 20
208.941351
 11
145.192504
 21
208.682532
  0
LINE
  8
2
 62
134
  6
CONTINUOUS
 10
145.192504
 20
209.200170
 11
145.192504
 21
208.682532
  0
TEXT
  8
2
 62
134
  6
CONTINUOUS
 10
134.720852
 20
208.941351
 40
4.000000
 41
0.500000
  1
4
  7
KANJI
 50
0.000000
 51
30.000000
  0
ENDBLK
  0
BLOCK
  8
2
 62
134
  6
CONTINUOUS
  2
*D7
 70
    65
 10
0.0
 20
0.0
  0
LINE
  8
2
 62
134
  6
CONTINUOUS
 10
130.187814
 20
217.737894
 11
130.187814
 21
224.737894
  0
LINE
  8
2
 62
134
  6
CONTINUOUS
 10
128.187814
 20
217.737894
 11
139.743615
 21
217.737894
  0
LINE
  8
2
 62
134
  6
CONTINUOUS
 10
128.187814
 20
224.737894
 11
138.558821
 21
224.737894
  0
LINE
  8
2
 62
134
  6
CONTINUOUS
 10
130.187814
 20
217.737894
 11
129.670176
 21
219.669745
  0
LINE
  8
2
 62
134
  6
CONTINUOUS
 10
130.187814
 20
217.737894
 11
130.705452
 21
219.669745
  0
LINE
  8
2
 62
134
  6
CONTINUOUS
 10
129.670176
 20
219.669745
 11
130.705452
 21
219.669745
  0
LINE
  8
2
 62
134
  6
CONTINUOUS
 10
130.187814
 20
218.220857
 11
129.928995
 21
219.186782
  0
LINE
  8
2
 62
134
  6
CONTINUOUS
 10
130.187814
 20
218.220857
 11
130.446633
 21
219.186782
  0
LINE
  8
2
 62
134
  6
CONTINUOUS
 10
129.928995
 20
219.186782
 11
130.446633
 21
219.186782
  0
LINE
  8
2
 62
134
  6
CONTINUOUS
 10
130.187814
 20
224.737894
 11
130.705452
 21
222.806042
  0
LINE
  8
2
 62
134
  6
CONTINUOUS
 10
130.187814
 20
224.737894
 11
129.670176
 21
222.806042
  0
LINE
  8
2
 62
134
  6
CONTINUOUS
 10
130.705452
 20
222.806042
 11
129.670176
 21
222.806042
  0
LINE
  8
2
 62
134
  6
CONTINUOUS
 10
130.187814
 20
224.254931
 11
130.446633
 21
223.289005
  0
LINE
  8
2
 62
134
  6
CONTINUOUS
 10
130.187814
 20
224.254931
 11
129.928995
 21
223.289005
  0
LINE
  8
2
 62
134
  6
CONTINUOUS
 10
130.446633
 20
223.289005
 11
129.928995
 21
223.289005
  0
TEXT
  8
2
 62
134
  6
CONTINUOUS
 10
130.187814
 20
220.518965
 40
4.000000
 41
0.500000
  1
7
  7
KANJI
 50
90.000000
 51
30.000000
  0
ENDBLK
  0
BLOCK
  8
2
 62
134
  6
CONTINUOUS
  2
*D8
 70
    65
 10
0.0
 20
0.0
  0
LINE
  8
2
 62
134
  6
CONTINUOUS
 10
130.187814
 20
224.737894
 11
130.187814
 21
251.737894
  0
LINE
  8
2
 62
134
  6
CONTINUOUS
 10
128.187814
 20
224.737894
 11
137.743615
 21
224.737894
  0
LINE
  8
2
 62
134
  6
CONTINUOUS
 10
128.187814
 20
251.737894
 11
137.743615
 21
251.737894
  0
LINE
  8
2
 62
134
  6
CONTINUOUS
 10
130.187814
 20
224.737894
 11
129.670176
 21
226.669745
  0
LINE
  8
2
 62
134
  6
CONTINUOUS
 10
130.187814
 20
224.737894
 11
130.705452
 21
226.669745
  0
LINE
  8
2
 62
134
  6
CONTINUOUS
 10
129.670176
 20
226.669745
 11
130.705452
 21
226.669745
  0
LINE
  8
2
 62
134
  6
CONTINUOUS
 10
130.187814
 20
225.220857
 11
129.928995
 21
226.186782
  0
LINE
  8
2
 62
134
  6
CONTINUOUS
 10
130.187814
 20
225.220857
 11
130.446633
 21
226.186782
  0
LINE
  8
2
 62
134
  6
CONTINUOUS
 10
129.928995
 20
226.186782
 11
130.446633
 21
226.186782
  0
LINE
  8
2
 62
134
  6
CONTINUOUS
 10
130.187814
 20
251.737894
 11
130.705452
 21
249.806042
  0
LINE
  8
2
 62
134
  6
CONTINUOUS
 10
130.187814
 20
251.737894
 11
129.670176
 21
249.806042
  0
LINE
  8
2
 62
134
  6
CONTINUOUS
 10
130.705452
 20
249.806042
 11
129.670176
 21
249.806042
  0
LINE
  8
2
 62
134
  6
CONTINUOUS
 10
130.187814
 20
251.254931
 11
130.446633
 21
250.289005
  0
LINE
  8
2
 62
134
  6
CONTINUOUS
 10
130.187814
 20
251.254931
 11
129.928995
 21
250.289005
  0
LINE
  8
2
 62
134
  6
CONTINUOUS
 10
130.446633
 20
250.289005
 11
129.928995
 21
250.289005
  0
TEXT
  8
2
 62
134
  6
CONTINUOUS
 10
130.187814
 20
235.646136
 40
4.000000
 41
0.500000
  1
27
  7
KANJI
 50
90.000000
 51
30.000000
  0
ENDBLK
  0
BLOCK
  8
2
 62
134
  6
CONTINUOUS
  2
*D9
 70
    65
 10
0.0
 20
0.0
  0
LINE
  8
2
 62
134
  6
CONTINUOUS
 10
67.743615
 20
141.230647
 11
101.743615
 21
141.230647
  0
LINE
  8
2
 62
134
  6
CONTINUOUS
 10
67.743615
 20
139.230647
 11
67.743615
 21
154.500002
  0
LINE
  8
2
 62
134
  6
CONTINUOUS
 10
101.743615
 20
139.230647
 11
101.743615
 21
153.000002
  0
LINE
  8
2
 62
134
  6
CONTINUOUS
 10
67.743615
 20
141.230647
 11
69.675467
 21
141.748285
  0
LINE
  8
2
 62
134
  6
CONTINUOUS
 10
67.743615
 20
141.230647
 11
69.675467
 21
140.713009
  0
LINE
  8
2
 62
134
  6
CONTINUOUS
 10
69.675467
 20
141.748285
 11
69.675467
 21
140.713009
  0
LINE
  8
2
 62
134
  6
CONTINUOUS
 10
68.226578
 20
141.230647
 11
69.192504
 21
141.489466
  0
LINE
  8
2
 62
134
  6
CONTINUOUS
 10
68.226578
 20
141.230647
 11
69.192504
 21
140.971828
  0
LINE
  8
2
 62
134
  6
CONTINUOUS
 10
69.192504
 20
141.489466
 11
69.192504
 21
140.971828
  0
LINE
  8
2
 62
134
  6
CONTINUOUS
 10
101.743615
 20
141.230647
 11
99.811764
 21
140.713009
  0
LINE
  8
2
 62
134
  6
CONTINUOUS
 10
101.743615
 20
141.230647
 11
99.811764
 21
141.748285
  0
LINE
  8
2
 62
134
  6
CONTINUOUS
 10
99.811764
 20
140.713009
 11
99.811764
 21
141.748285
  0
LINE
  8
2
 62
134
  6
CONTINUOUS
 10
101.260652
 20
141.230647
 11
100.294727
 21
140.971828
  0
LINE
  8
2
 62
134
  6
CONTINUOUS
 10
101.260652
 20
141.230647
 11
100.294727
 21
141.489466
  0
LINE
  8
2
 62
134
  6
CONTINUOUS
 10
100.294727
 20
140.971828
 11
100.294727
 21
141.489466
  0
TEXT
  8
2
 62
134
  6
CONTINUOUS
 10
82.263701
 20
141.230647
 40
4.000000
 41
0.500000
  1
34
  7
KANJI
 50
0.000000
 51
30.000000
  0
ENDBLK
  0
BLOCK
  8
2
 62
134
  6
CONTINUOUS
  2
*D10
 70
    65
 10
0.0
 20
0.0
  0
LINE
  8
2
 62
134
  6
CONTINUOUS
 10
139.743615
 20
197.044321
 11
153.743615
 21
197.044321
  0
LINE
  8
2
 62
134
  6
CONTINUOUS
 10
139.743615
 20
199.044321
 11
139.743615
 21
188.000002
  0
LINE
  8
2
 62
134
  6
CONTINUOUS
 10
153.743615
 20
199.044321
 11
153.743615
 21
190.000002
  0
LINE
  8
2
 62
134
  6
CONTINUOUS
 10
139.743615
 20
197.044321
 11
141.675467
 21
197.561959
  0
LINE
  8
2
 62
134
  6
CONTINUOUS
 10
139.743615
 20
197.044321
 11
141.675467
 21
196.526683
  0
LINE
  8
2
 62
134
  6
CONTINUOUS
 10
141.675467
 20
197.561959
 11
141.675467
 21
196.526683
  0
LINE
  8
2
 62
134
  6
CONTINUOUS
 10
140.226578
 20
197.044321
 11
141.192504
 21
197.303140
  0
LINE
  8
2
 62
134
  6
CONTINUOUS
 10
140.226578
 20
197.044321
 11
141.192504
 21
196.785502
  0
LINE
  8
2
 62
134
  6
CONTINUOUS
 10
141.192504
 20
197.303140
 11
141.192504
 21
196.785502
  0
LINE
  8
2
 62
134
  6
CONTINUOUS
 10
153.743615
 20
197.044321
 11
151.811764
 21
196.526683
  0
LINE
  8
2
 62
134
  6
CONTINUOUS
 10
153.743615
 20
197.044321
 11
151.811764
 21
197.561959
  0
LINE
  8
2
 62
134
  6
CONTINUOUS
 10
151.811764
 20
196.526683
 11
151.811764
 21
197.561959
  0
LINE
  8
2
 62
134
  6
CONTINUOUS
 10
153.260652
 20
197.044321
 11
152.294727
 21
196.785502
  0
LINE
  8
2
 62
134
  6
CONTINUOUS
 10
153.260652
 20
197.044321
 11
152.294727
 21
197.303140
  0
LINE
  8
2
 62
134
  6
CONTINUOUS
 10
152.294727
 20
196.785502
 11
152.294727
 21
197.303140
  0
TEXT
  8
2
 62
134
  6
CONTINUOUS
 10
144.997071
 20
197.044321
 40
4.000000
 41
0.500000
  1
14
  7
KANJI
 50
0.000000
 51
30.000000
  0
ENDBLK
  0
BLOCK
  8
2
 62
134
  6
CONTINUOUS
  2
*D11
 70
    65
 10
0.0
 20
0.0
  0
LINE
  8
2
 62
134
  6
CONTINUOUS
 10
164.336943
 20
153.500000
 11
164.336943
 21
173.500000
  0
LINE
  8
2
 62
134
  6
CONTINUOUS
 10
166.336943
 20
161.500000
 11
157.692434
 21
161.500000
  0
LINE
  8
2
 62
134
  6
CONTINUOUS
 10
166.336943
 20
165.500000
 11
157.692434
 21
165.500000
  0
LINE
  8
2
 62
134
  6
CONTINUOUS
 10
164.336943
 20
161.500000
 11
164.854581
 21
159.568148
  0
LINE
  8
2
 62
134
  6
CONTINUOUS
 10
164.336943
 20
161.500000
 11
163.819305
 21
159.568148
  0
LINE
  8
2
 62
134
  6
CONTINUOUS
 10
164.854581
 20
159.568148
 11
163.819305
 21
159.568148
  0
LINE
  8
2
 62
134
  6
CONTINUOUS
 10
164.336943
 20
161.017037
 11
164.595762
 21
160.051111
  0
LINE
  8
2
 62
134
  6
CONTINUOUS
 10
164.336943
 20
161.017037
 11
164.078124
 21
160.051111
  0
LINE
  8
2
 62
134
  6
CONTINUOUS
 10
164.595762
 20
160.051111
 11
164.078124
 21
160.051111
  0
LINE
  8
2
 62
134
  6
CONTINUOUS
 10
164.336943
 20
165.500000
 11
163.819305
 21
167.431852
  0
LINE
  8
2
 62
134
  6
CONTINUOUS
 10
164.336943
 20
165.500000
 11
164.854581
 21
167.431852
  0
LINE
  8
2
 62
134
  6
CONTINUOUS
 10
163.819305
 20
167.431852
 11
164.854581
 21
167.431852
  0
LINE
  8
2
 62
134
  6
CONTINUOUS
 10
164.336943
 20
165.982963
 11
164.078124
 21
166.948889
  0
LINE
  8
2
 62
134
  6
CONTINUOUS
 10
164.336943
 20
165.982963
 11
164.595762
 21
166.948889
  0
LINE
  8
2
 62
134
  6
CONTINUOUS
 10
164.078124
 20
166.948889
 11
164.595762
 21
166.948889
  0
TEXT
  8
2
 62
134
  6
CONTINUOUS
 10
164.336943
 20
162.500000
 40
4.000000
 41
0.500000
  1
4
  7
KANJI
 50
90.000000
 51
30.000000
  0
ENDBLK
  0
BLOCK
  8
2
 62
134
  6
CONTINUOUS
  2
*D12
 70
    65
 10
0.0
 20
0.0
  0
LINE
  8
2
 62
134
  6
CONTINUOUS
 10
149.743615
 20
150.095382
 11
157.743615
 21
150.095382
  0
LINE
  8
2
 62
134
  6
CONTINUOUS
 10
149.743615
 20
148.095382
 11
149.743615
 21
161.500000
  0
LINE
  8
2
 62
134
  6
CONTINUOUS
 10
157.743615
 20
148.095382
 11
157.743615
 21
161.500000
  0
LINE
  8
2
 62
134
  6
CONTINUOUS
 10
149.743615
 20
150.095382
 11
151.675467
 21
150.613020
  0
LINE
  8
2
 62
134
  6
CONTINUOUS
 10
149.743615
 20
150.095382
 11
151.675467
 21
149.577744
  0
LINE
  8
2
 62
134
  6
CONTINUOUS
 10
151.675467
 20
150.613020
 11
151.675467
 21
149.577744
  0
LINE
  8
2
 62
134
  6
CONTINUOUS
 10
150.226578
 20
150.095382
 11
151.192504
 21
150.354201
  0
LINE
  8
2
 62
134
  6
CONTINUOUS
 10
150.226578
 20
150.095382
 11
151.192504
 21
149.836563
  0
LINE
  8
2
 62
134
  6
CONTINUOUS
 10
151.192504
 20
150.354201
 11
151.192504
 21
149.836563
  0
LINE
  8
2
 62
134
  6
CONTINUOUS
 10
157.743615
 20
150.095382
 11
155.811764
 21
149.577744
  0
LINE
  8
2
 62
134
  6
CONTINUOUS
 10
157.743615
 20
150.095382
 11
155.811764
 21
150.613020
  0
LINE
  8
2
 62
134
  6
CONTINUOUS
 10
155.811764
 20
149.577744
 11
155.811764
 21
150.613020
  0
LINE
  8
2
 62
134
  6
CONTINUOUS
 10
157.260652
 20
150.095382
 11
156.294727
 21
149.836563
  0
LINE
  8
2
 62
134
  6
CONTINUOUS
 10
157.260652
 20
150.095382
 11
156.294727
 21
150.354201
  0
LINE
  8
2
 62
134
  6
CONTINUOUS
 10
156.294727
 20
149.836563
 11
156.294727
 21
150.354201
  0
TEXT
  8
2
 62
134
  6
CONTINUOUS
 10
152.218585
 20
150.095382
 40
4.000000
 41
0.500000
  1
8
  7
KANJI
 50
0.000000
 51
30.000000
  0
ENDBLK
  0
BLOCK
  8
2
 62
134
  6
CONTINUOUS
  2
*D13
 70
    65
 10
0.0
 20
0.0
  0
LINE
  8
2
 62
134
  6
CONTINUOUS
 10
158.060135
 20
177.670087
 11
149.226452
 21
169.548138
  0
LINE
  8
2
 62
134
  6
CONTINUOUS
 10
158.060135
 20
177.670087
 11
159.131897
 21
179.358674
  0
LINE
  8
2
 62
134
  6
CONTINUOUS
 10
158.060135
 20
177.670087
 11
159.832602
 21
178.596566
  0
LINE
  8
2
 62
134
  6
CONTINUOUS
 10
159.131897
 20
179.358674
 11
159.832602
 21
178.596566
  0
LINE
  8
2
 62
134
  6
CONTINUOUS
 10
158.415664
 20
177.996970
 11
158.951545
 21
178.841264
  0
LINE
  8
2
 62
134
  6
CONTINUOUS
 10
158.415664
 20
177.996970
 11
159.301897
 21
178.460210
  0
LINE
  8
2
 62
134
  6
CONTINUOUS
 10
158.951545
 20
178.841264
 11
159.301897
 21
178.460210
  0
LINE
  8
2
 62
134
  6
CONTINUOUS
 10
149.226452
 20
169.548138
 11
148.154691
 21
167.859551
  0
LINE
  8
2
 62
134
  6
CONTINUOUS
 10
149.226452
 20
169.548138
 11
147.453986
 21
168.621659
  0
LINE
  8
2
 62
134
  6
CONTINUOUS
 10
148.154691
 20
167.859551
 11
147.453986
 21
168.621659
  0
LINE
  8
2
 62
134
  6
CONTINUOUS
 10
148.870924
 20
169.221255
 11
148.335043
 21
168.376961
  0
LINE
  8
2
 62
134
  6
CONTINUOUS
 10
148.870924
 20
169.221255
 11
147.984691
 21
168.758016
  0
LINE
  8
2
 62
134
  6
CONTINUOUS
 10
148.335043
 20
168.376961
 11
147.984691
 21
168.758016
  0
TEXT
  8
2
 62
134
  6
CONTINUOUS
 10
149.184132
 20
169.509228
 40
4.000000
 41
0.600000
  1
φ12ｱﾅ
  7
KANJI
 50
42.596346
 51
30.000000
  0
ENDBLK
  0
BLOCK
  8
2
 62
134
  6
CONTINUOUS
  2
*D14
 70
    65
 10
0.0
 20
0.0
  0
LINE
  8
2
 62
134
  6
CONTINUOUS
 10
129.484359
 20
155.000000
 11
129.484359
 21
163.500000
  0
LINE
  8
2
 62
134
  6
CONTINUOUS
 10
127.484359
 20
155.000000
 11
137.743615
 21
155.000000
  0
LINE
  8
2
 62
134
  6
CONTINUOUS
 10
127.484359
 20
163.500000
 11
147.743615
 21
163.500000
  0
LINE
  8
2
 62
134
  6
CONTINUOUS
 10
129.484359
 20
155.000000
 11
128.966721
 21
156.931852
  0
LINE
  8
2
 62
134
  6
CONTINUOUS
 10
129.484359
 20
155.000000
 11
130.001997
 21
156.931852
  0
LINE
  8
2
 62
134
  6
CONTINUOUS
 10
128.966721
 20
156.931852
 11
130.001997
 21
156.931852
  0
LINE
  8
2
 62
134
  6
CONTINUOUS
 10
129.484359
 20
155.482963
 11
129.225540
 21
156.448889
  0
LINE
  8
2
 62
134
  6
CONTINUOUS
 10
129.484359
 20
155.482963
 11
129.743178
 21
156.448889
  0
LINE
  8
2
 62
134
  6
CONTINUOUS
 10
129.225540
 20
156.448889
 11
129.743178
 21
156.448889
  0
LINE
  8
2
 62
134
  6
CONTINUOUS
 10
129.484359
 20
163.500000
 11
130.001997
 21
161.568148
  0
LINE
  8
2
 62
134
  6
CONTINUOUS
 10
129.484359
 20
163.500000
 11
128.966721
 21
161.568148
  0
LINE
  8
2
 62
134
  6
CONTINUOUS
 10
130.001997
 20
161.568148
 11
128.966721
 21
161.568148
  0
LINE
  8
2
 62
134
  6
CONTINUOUS
 10
129.484359
 20
163.017037
 11
129.743178
 21
162.051111
  0
LINE
  8
2
 62
134
  6
CONTINUOUS
 10
129.484359
 20
163.017037
 11
129.225540
 21
162.051111
  0
LINE
  8
2
 62
134
  6
CONTINUOUS
 10
129.743178
 20
162.051111
 11
129.225540
 21
162.051111
  0
TEXT
  8
2
 62
134
  6
CONTINUOUS
 10
129.484359
 20
156.569161
 40
4.000000
 41
0.500000
  1
8.5
  7
KANJI
 50
90.000000
 51
30.000000
  0
ENDBLK
  0
BLOCK
  8
2
 62
134
  6
CONTINUOUS
  2
*D15
 70
    65
 10
0.0
 20
0.0
  0
LINE
  8
2
 62
134
  6
CONTINUOUS
 10
129.484359
 20
163.500000
 11
129.484359
 21
183.500000
  0
LINE
  8
2
 62
134
  6
CONTINUOUS
 10
127.484359
 20
163.500000
 11
147.743615
 21
163.500000
  0
LINE
  8
2
 62
134
  6
CONTINUOUS
 10
127.484359
 20
183.500000
 11
149.743615
 21
183.500000
  0
LINE
  8
2
 62
134
  6
CONTINUOUS
 10
129.484359
 20
163.500000
 11
128.966721
 21
165.431852
  0
LINE
  8
2
 62
134
  6
CONTINUOUS
 10
129.484359
 20
163.500000
 11
130.001997
 21
165.431852
  0
LINE
  8
2
 62
134
  6
CONTINUOUS
 10
128.966721
 20
165.431852
 11
130.001997
 21
165.431852
  0
LINE
  8
2
 62
134
  6
CONTINUOUS
 10
129.484359
 20
163.982963
 11
129.225540
 21
164.948889
  0
LINE
  8
2
 62
134
  6
CONTINUOUS
 10
129.484359
 20
163.982963
 11
129.743178
 21
164.948889
  0
LINE
  8
2
 62
134
  6
CONTINUOUS
 10
129.225540
 20
164.948889
 11
129.743178
 21
164.948889
  0
LINE
  8
2
 62
134
  6
CONTINUOUS
 10
129.484359
 20
183.500000
 11
130.001997
 21
181.568148
  0
LINE
  8
2
 62
134
  6
CONTINUOUS
 10
129.484359
 20
183.500000
 11
128.966721
 21
181.568148
  0
LINE
  8
2
 62
134
  6
CONTINUOUS
 10
130.001997
 20
181.568148
 11
128.966721
 21
181.568148
  0
LINE
  8
2
 62
134
  6
CONTINUOUS
 10
129.484359
 20
183.017037
 11
129.743178
 21
182.051111
  0
LINE
  8
2
 62
134
  6
CONTINUOUS
 10
129.484359
 20
183.017037
 11
129.225540
 21
182.051111
  0
LINE
  8
2
 62
134
  6
CONTINUOUS
 10
129.743178
 20
182.051111
 11
129.225540
 21
182.051111
  0
TEXT
  8
2
 62
134
  6
CONTINUOUS
 10
129.484359
 20
171.023538
 40
4.000000
 41
0.500000
  1
20
  7
KANJI
 50
90.000000
 51
30.000000
  0
ENDBLK
  0
BLOCK
  8
2
 62
134
  6
CONTINUOUS
  2
*D16
 70
    65
 10
0.0
 20
0.0
  0
LINE
  8
2
 62
134
  6
CONTINUOUS
 10
178.574654
 20
155.000000
 11
178.574654
 21
173.500000
  0
LINE
  8
2
 62
134
  6
CONTINUOUS
 10
180.574654
 20
155.000000
 11
169.743615
 21
155.000000
  0
LINE
  8
2
 62
134
  6
CONTINUOUS
 10
180.574654
 20
173.500000
 11
166.336943
 21
173.500000
  0
LINE
  8
2
 62
134
  6
CONTINUOUS
 10
178.574654
 20
155.000000
 11
178.057016
 21
156.931852
  0
LINE
  8
2
 62
134
  6
CONTINUOUS
 10
178.574654
 20
155.000000
 11
179.092292
 21
156.931852
  0
LINE
  8
2
 62
134
  6
CONTINUOUS
 10
178.057016
 20
156.931852
 11
179.092292
 21
156.931852
  0
LINE
  8
2
 62
134
  6
CONTINUOUS
 10
178.574654
 20
155.482963
 11
178.315835
 21
156.448889
  0
LINE
  8
2
 62
134
  6
CONTINUOUS
 10
178.574654
 20
155.482963
 11
178.833473
 21
156.448889
  0
LINE
  8
2
 62
134
  6
CONTINUOUS
 10
178.315835
 20
156.448889
 11
178.833473
 21
156.448889
  0
LINE
  8
2
 62
134
  6
CONTINUOUS
 10
178.574654
 20
173.500000
 11
179.092292
 21
171.568148
  0
LINE
  8
2
 62
134
  6
CONTINUOUS
 10
178.574654
 20
173.500000
 11
178.057016
 21
171.568148
  0
LINE
  8
2
 62
134
  6
CONTINUOUS
 10
179.092292
 20
171.568148
 11
178.057016
 21
171.568148
  0
LINE
  8
2
 62
134
  6
CONTINUOUS
 10
178.574654
 20
173.017037
 11
178.833473
 21
172.051111
  0
LINE
  8
2
 62
134
  6
CONTINUOUS
 10
178.574654
 20
173.017037
 11
178.315835
 21
172.051111
  0
LINE
  8
2
 62
134
  6
CONTINUOUS
 10
178.833473
 20
172.051111
 11
178.315835
 21
172.051111
  0
TEXT
  8
2
 62
134
  6
CONTINUOUS
 10
178.574654
 20
160.114558
 40
4.000000
 41
0.500000
  1
18.5
  7
KANJI
 50
90.000000
 51
30.000000
  0
ENDBLK
  0
BLOCK
  8
2
 62
134
  6
CONTINUOUS
  2
*D17
 70
    65
 10
0.0
 20
0.0
  0
LINE
  8
2
 62
134
  6
CONTINUOUS
 10
57.576168
 20
155.000002
 11
57.576168
 21
188.000002
  0
LINE
  8
2
 62
134
  6
CONTINUOUS
 10
55.576168
 20
155.000002
 11
67.243615
 21
155.000002
  0
LINE
  8
2
 62
134
  6
CONTINUOUS
 10
55.576168
 20
188.000002
 11
65.743615
 21
188.000002
  0
LINE
  8
2
 62
134
  6
CONTINUOUS
 10
57.576168
 20
155.000002
 11
57.058530
 21
156.931853
  0
LINE
  8
2
 62
134
  6
CONTINUOUS
 10
57.576168
 20
155.000002
 11
58.093806
 21
156.931853
  0
LINE
  8
2
 62
134
  6
CONTINUOUS
 10
57.058530
 20
156.931853
 11
58.093806
 21
156.931853
  0
LINE
  8
2
 62
134
  6
CONTINUOUS
 10
57.576168
 20
155.482965
 11
57.317349
 21
156.448890
  0
LINE
  8
2
 62
134
  6
CONTINUOUS
 10
57.576168
 20
155.482965
 11
57.834987
 21
156.448890
  0
LINE
  8
2
 62
134
  6
CONTINUOUS
 10
57.317349
 20
156.448890
 11
57.834987
 21
156.448890
  0
LINE
  8
2
 62
134
  6
CONTINUOUS
 10
57.576168
 20
188.000002
 11
58.093806
 21
186.068150
  0
LINE
  8
2
 62
134
  6
CONTINUOUS
 10
57.576168
 20
188.000002
 11
57.058530
 21
186.068150
  0
LINE
  8
2
 62
134
  6
CONTINUOUS
 10
58.093806
 20
186.068150
 11
57.058530
 21
186.068150
  0
LINE
  8
2
 62
134
  6
CONTINUOUS
 10
57.576168
 20
187.517039
 11
57.834987
 21
186.551113
  0
LINE
  8
2
 62
134
  6
CONTINUOUS
 10
57.576168
 20
187.517039
 11
57.317349
 21
186.551113
  0
LINE
  8
2
 62
134
  6
CONTINUOUS
 10
57.834987
 20
186.551113
 11
57.317349
 21
186.551113
  0
TEXT
  8
2
 62
134
  6
CONTINUOUS
 10
57.576168
 20
169.114471
 40
4.000000
 41
0.500000
  1
33
  7
KANJI
 50
90.000000
 51
30.000000
  0
ENDBLK
  0
BLOCK
  8
2
 62
134
  6
CONTINUOUS
  2
*D18
 70
    65
 10
0.0
 20
0.0
  0
LINE
  8
2
 62
134
  6
CONTINUOUS
 10
139.743615
 20
143.506996
 11
167.743615
 21
143.506996
  0
LINE
  8
2
 62
134
  6
CONTINUOUS
 10
139.743615
 20
141.506996
 11
139.743615
 21
153.000000
  0
LINE
  8
2
 62
134
  6
CONTINUOUS
 10
167.743615
 20
141.506996
 11
167.743615
 21
154.500000
  0
LINE
  8
2
 62
134
  6
CONTINUOUS
 10
139.743615
 20
143.506996
 11
141.675467
 21
144.024634
  0
LINE
  8
2
 62
134
  6
CONTINUOUS
 10
139.743615
 20
143.506996
 11
141.675467
 21
142.989358
  0
LINE
  8
2
 62
134
  6
CONTINUOUS
 10
141.675467
 20
144.024634
 11
141.675467
 21
142.989358
  0
LINE
  8
2
 62
134
  6
CONTINUOUS
 10
140.226578
 20
143.506996
 11
141.192504
 21
143.765815
  0
LINE
  8
2
 62
134
  6
CONTINUOUS
 10
140.226578
 20
143.506996
 11
141.192504
 21
143.248177
  0
LINE
  8
2
 62
134
  6
CONTINUOUS
 10
141.192504
 20
143.765815
 11
141.192504
 21
143.248177
  0
LINE
  8
2
 62
134
  6
CONTINUOUS
 10
167.743615
 20
143.506996
 11
165.811764
 21
142.989358
  0
LINE
  8
2
 62
134
  6
CONTINUOUS
 10
167.743615
 20
143.506996
 11
165.811764
 21
144.024634
  0
LINE
  8
2
 62
134
  6
CONTINUOUS
 10
165.811764
 20
142.989358
 11
165.811764
 21
144.024634
  0
LINE
  8
2
 62
134
  6
CONTINUOUS
 10
167.260652
 20
143.506996
 11
166.294727
 21
143.248177
  0
LINE
  8
2
 62
134
  6
CONTINUOUS
 10
167.260652
 20
143.506996
 11
166.294727
 21
143.765815
  0
LINE
  8
2
 62
134
  6
CONTINUOUS
 10
166.294727
 20
143.248177
 11
166.294727
 21
143.765815
  0
TEXT
  8
2
 62
134
  6
CONTINUOUS
 10
151.834572
 20
143.506996
 40
4.000000
 41
0.500000
  1
28
  7
KANJI
 50
0.000000
 51
30.000000
  0
ENDBLK
  0
ENDSEC
  0
SECTION
  2
ENTITIES
  0
TEXT
  8
5
 62
94
  6
CONTINUOUS
 10
125.962748
 20
25.651490
 40
1.750000
 41
4.000000
  1
製図
  7
KANJI
 50
-90.000000
 51
0.000000
  0
TEXT
  8
5
 62
94
  6
CONTINUOUS
 10
145.795530
 20
25.487583
 40
1.750000
 41
4.000000
  1
図番
  7
KANJI
 50
-90.000000
 51
0.000000
  0
TEXT
  8
5
 62
94
  6
CONTINUOUS
 10
145.795530
 20
38.764073
 40
1.750000
 41
4.000000
  1
図　名
  7
KANJI
 50
-90.000000
 51
0.000000
  0
TEXT
  8
5
 62
94
  6
CONTINUOUS
 10
80.888245
 20
33.355132
 40
1.750000
 41
4.000000
  1
日付
  7
KANJI
 50
-90.000000
 51
0.000000
  0
TEXT
  8
5
 62
94
  6
CONTINUOUS
 10
115.964404
 20
33.519040
 40
1.750000
 41
4.000000
  1
図法
  7
KANJI
 50
-90.000000
 51
0.000000
  0
TEXT
  8
5
 62
94
  6
CONTINUOUS
 10
115.800497
 20
41.550497
 40
1.750000
 41
4.000000
  1
尺度
  7
KANJI
 50
-90.000000
 51
0.000000
  0
TEXT
  8
5
 62
94
  6
CONTINUOUS
 10
80.888245
 20
41.386589
 40
1.750000
 41
4.000000
  1
公差
  7
KANJI
 50
-90.000000
 51
0.000000
  0
TEXT
  8
5
 62
94
  6
CONTINUOUS
 10
80.888245
 20
25.487583
 40
1.750000
 41
4.000000
  1
承認
  7
KANJI
 50
-90.000000
 51
0.000000
  0
TEXT
  8
5
 62
94
  6
CONTINUOUS
 10
105.966060
 20
25.487583
 40
1.750000
 41
4.000000
  1
設計
  7
KANJI
 50
-90.000000
 51
0.000000
  0
TEXT
  8
5
 62
94
  6
CONTINUOUS
 10
99.409768
 20
11.555464
 40
4.500000
 41
1.888889
  1
ジャパンセンサー株式会社
  7
KANJI
 50
0.000000
 51
0.000000
  0
LINE
  8
5
 62
94
  6
CONTINUOUS
 10
200.000000
 20
10.000000
 11
200.000000
 21
285.000000
  0
LINE
  8
5
 62
94
  6
CONTINUOUS
 10
200.000000
 20
285.000000
 11
15.000000
 21
285.000000
  0
LINE
  8
5
 62
94
  6
CONTINUOUS
 10
15.000000
 20
285.000000
 11
15.000000
 21
10.000000
  0
LINE
  8
5
 62
94
  6
CONTINUOUS
 10
15.000000
 20
10.000000
 11
200.000000
 21
10.000000
  0
LINE
  8
5
 62
94
  6
CONTINUOUS
 10
80.000000
 20
42.000000
 11
200.000000
 21
42.000000
  0
LINE
  8
5
 62
94
  6
CONTINUOUS
 10
80.000000
 20
10.000000
 11
80.000000
 21
42.000000
  0
LINE
  8
5
 62
94
  6
CONTINUOUS
 10
200.000000
 20
18.000000
 11
80.000000
 21
18.000000
  0
LINE
  8
5
 62
94
  6
CONTINUOUS
 10
145.000000
 20
42.000000
 11
145.000000
 21
18.000000
  0
LINE
  8
5
 62
94
  6
CONTINUOUS
 10
200.000000
 20
26.000000
 11
80.000000
 21
26.000000
  0
LINE
  8
5
 62
94
  6
CONTINUOUS
 10
150.000000
 20
18.000000
 11
150.000000
 21
42.000000
  0
LINE
  8
5
 62
94
  6
CONTINUOUS
 10
120.000000
 20
42.000000
 11
120.000000
 21
26.000000
  0
LINE
  8
5
 62
94
  6
CONTINUOUS
 10
85.000000
 20
18.000000
 11
85.000000
 21
42.000000
  0
LINE
  8
5
 62
94
  6
CONTINUOUS
 10
80.000000
 20
34.000000
 11
145.000000
 21
34.000000
  0
LINE
  8
5
 62
94
  6
CONTINUOUS
 10
115.000000
 20
42.000000
 11
115.000000
 21
26.000000
  0
LINE
  8
5
 62
94
  6
CONTINUOUS
 10
105.000000
 20
18.000000
 11
105.000000
 21
26.000000
  0
LINE
  8
5
 62
94
  6
CONTINUOUS
 10
125.000000
 20
18.000000
 11
125.000000
 21
26.000000
  0
LINE
  8
5
 62
94
  6
CONTINUOUS
 10
110.000000
 20
26.000000
 11
110.000000
 21
18.000000
  0
LINE
  8
5
 62
94
  6
CONTINUOUS
 10
130.000000
 20
26.000000
 11
130.000000
 21
18.000000
  0
TEXT
  8
5
 62
94
  6
CONTINUOUS
 10
124.979305
 20
35.649834
 40
4.000000
 41
1.000000
  1
１／１
  7
KANJI
 50
0.000000
 51
0.000000
  0
TEXT
  8
5
 62
94
  6
CONTINUOUS
 10
123.995861
 20
27.290563
 40
4.000000
 41
1.000000
  1
三角法
  7
KANJI
 50
0.000000
 51
0.000000
  0
TEXT
  8
5
 62
94
  6
CONTINUOUS
 10
111.211093
 20
19.750828
 40
4.000000
 41
1.000000
  1
須藤
  7
KANJI
 50
0.810149
 51
0.000000
  0
TEXT
  8
5
 62
94
  6
CONTINUOUS
 10
131.207781
 20
19.914735
 40
4.000000
 41
1.000000
  1
須藤
  7
KANJI
 50
-0.112820
 51
0.000000
  0
TEXT
  8
5
 62
94
  6
CONTINUOUS
 10
155.332351
 20
29.863992
 40
4.000000
 41
1.000000
  1
ＦＴＸ９－３
  7
KANJI
 50
0.000000
 51
0.000000
  0
TEXT
  8
5
 62
94
  6
CONTINUOUS
 10
154.627881
 20
35.322020
 40
4.000000
 41
1.000000
  1
φ６丸ヘッド用取付金具
  7
KANJI
 50
0.000000
 51
0.000000
  0
TEXT
  8
5
 62
94
  6
CONTINUOUS
 10
152.187914
 20
20.406457
 40
4.000000
 41
1.000000
  1
０１５－８７７－Ａ１２３
  7
KANJI
 50
0.000000
 51
0.000000
  0
LINE
  8
1
 62
7
  6
DASHDOT
 10
153.743615
 20
255.740384
 11
153.743615
 21
245.305419
  0
CIRCLE
  8
1
 62
7
  6
CONTINUOUS
 10
143.743615
 20
224.737894
 40
2.000000
  0
LINE
  8
1
 62
7
  6
DASHDOT
 10
163.743615
 20
231.925394
 11
163.743615
 21
218.624705
  0
LINE
  8
1
 62
7
  6
DASHDOT
 10
143.743615
 20
229.312557
 11
143.743615
 21
221.259078
  0
LINE
  8
1
 62
7
  6
DASHDOT
 10
140.391869
 20
224.737894
 11
147.799951
 21
224.737894
  0
DIMENSION
  8
2
 62
134
  6
CONTINUOUS
  2
*D1
 10
143.743615
 20
208.941351
 11
152.853792
 21
208.941351
 70
     0
  1
20
 13
143.743615
 23
220.737894
 14
163.743615
 24
218.737894
 50
0.000000
  0
DIMENSION
  8
2
 62
134
  6
CONTINUOUS
  2
*D2
 10
161.743615
 20
234.096579
 11
163.735548
 21
234.096579
 70
     0
  1
4
 13
161.743615
 23
228.686713
 14
165.743615
 24
228.686713
 50
0.000000
  0
TEXT
  8
2
 62
134
  6
CONTINUOUS
 10
165.761824
 20
222.518825
 40
4.000000
 41
0.500000
  1
ｱﾅ
  7
KANJI
 50
90.000000
 51
0.000000
  0
ARC
  8
1
 62
7
  6
CONTINUOUS
 10
163.743615
 20
222.737894
 40
2.000000
 50
180.000000
 51
-90.000000
  0
LINE
  8
1
 62
7
  6
CONTINUOUS
 10
161.743615
 20
222.737894
 11
161.743615
 21
226.737894
  0
ARC
  8
1
 62
7
  6
CONTINUOUS
 10
163.743615
 20
226.737894
 40
2.000000
 50
90.000000
 51
180.000000
  0
ARC
  8
1
 62
7
  6
CONTINUOUS
 10
163.743615
 20
222.737894
 40
2.000000
 50
-90.000000
 51
0.000000
  0
LINE
  8
1
 62
7
  6
CONTINUOUS
 10
165.743615
 20
226.737894
 11
165.743615
 21
222.737894
  0
ARC
  8
1
 62
7
  6
CONTINUOUS
 10
163.743615
 20
226.737894
 40
2.000000
 50
0.000000
 51
90.000000
  0
LINE
  8
1
 62
7
  6
DASHDOT
 10
158.803347
 20
222.694094
 11
166.683828
 21
222.694094
  0
LINE
  8
1
 62
7
  6
DASHDOT
 10
158.675456
 20
226.686713
 11
166.571974
 21
226.686713
  0
LINE
  8
1
 62
7
  6
CONTINUOUS
 10
167.743615
 20
251.737894
 11
167.743615
 21
219.737894
  0
LINE
  8
1
 62
7
  6
CONTINUOUS
 10
165.743615
 20
217.737894
 11
167.743615
 21
219.737894
  0
DIMENSION
  8
2
 62
134
  6
CONTINUOUS
  2
*D3
 10
166.743615
 20
218.737894
 11
173.022502
 21
212.459007
 70
     4
  1
4-C2
 15
176.834993
 25
208.646516
  0
DIMENSION
  8
2
 62
134
  6
CONTINUOUS
  2
*D4
 10
179.270953
 20
217.737894
 11
179.270953
 21
216.007427
 70
     0
  1
3
 13
165.743615
 23
217.737894
 14
165.743615
 24
220.737894
 50
90.000000
  0
DIMENSION
  8
2
 62
134
  6
CONTINUOUS
  2
*D5
 10
179.270953
 20
220.737894
 11
179.270953
 21
224.628038
 70
     0
  1
8
 13
165.743615
 23
220.737894
 14
165.743615
 24
228.737894
 50
90.000000
  0
DIMENSION
  8
2
 62
134
  6
CONTINUOUS
  2
*D6
 10
139.743615
 20
208.941351
 11
135.720852
 21
208.941351
 70
     0
  1
4
 13
139.743615
 23
217.737894
 14
143.743615
 24
220.737894
 50
0.000000
  0
DIMENSION
  8
2
 62
134
  6
CONTINUOUS
  2
*D7
 10
130.187814
 20
217.737894
 11
130.187814
 21
221.518965
 70
     0
  1
7
 13
139.743615
 23
217.737894
 14
138.558821
 24
224.737894
 50
90.000000
  0
DIMENSION
  8
2
 62
134
  6
CONTINUOUS
  2
*D8
 10
130.187814
 20
224.737894
 11
130.187814
 21
237.646136
 70
     0
  1
27
 13
137.743615
 23
224.737894
 14
137.743615
 24
251.737894
 50
90.000000
  0
LINE
  8
1
 62
7
  6
CONTINUOUS
 10
139.743615
 20
251.737894
 11
139.743615
 21
219.737894
  0
LINE
  8
1
 62
7
  6
CONTINUOUS
 10
139.743615
 20
219.737894
 11
141.743615
 21
217.737894
  0
LINE
  8
1
 62
7
  6
CONTINUOUS
 10
167.743615
 20
251.737894
 11
139.743615
 21
251.737894
  0
LINE
  8
1
 62
7
  6
CONTINUOUS
 10
139.743615
 20
250.137894
 11
167.743615
 21
250.137894
  0
LINE
  8
1
 62
7
  6
CONTINUOUS
 10
141.743615
 20
217.737894
 11
165.743615
 21
217.737894
  0
LINE
  8
2
 62
134
  6
CONTINUOUS
 10
142.400458
 20
226.219760
 11
128.243615
 21
230.000000
  0
LINE
  8
2
 62
134
  6
CONTINUOUS
 10
128.243615
 20
230.000000
 11
116.061157
 21
230.000000
  0
TEXT
  8
2
 62
134
  6
CONTINUOUS
 10
116.061157
 20
230.000000
 40
4.000000
 41
0.625000
  1
φ4ｱﾅ
  7
KANJI
 50
0.000000
 51
30.000000
  0
LINE
  8
2
 62
134
  6
CONTINUOUS
 10
142.400458
 20
226.219760
 11
140.400458
 21
226.218036
  0
LINE
  8
2
 62
134
  6
CONTINUOUS
 10
142.400458
 20
226.219760
 11
140.667546
 21
227.218267
  0
LINE
  8
2
 62
134
  6
CONTINUOUS
 10
140.400458
 20
226.218036
 11
140.667546
 21
227.218267
  0
LINE
  8
2
 62
134
  6
CONTINUOUS
 10
141.933844
 20
226.344358
 11
140.933844
 21
226.343496
  0
LINE
  8
2
 62
134
  6
CONTINUOUS
 10
141.933844
 20
226.344358
 11
141.067388
 21
226.843611
  0
LINE
  8
2
 62
134
  6
CONTINUOUS
 10
140.933844
 20
226.343496
 11
141.067388
 21
226.843611
  0
LINE
  8
1
 62
7
  6
DASHDOT
 10
143.743615
 20
152.403963
 11
143.743615
 21
159.259630
  0
LINE
  8
1
 62
7
  6
DASHDOT
 10
163.743615
 20
152.318661
 11
163.743615
 21
159.313426
  0
ARC
  8
1
 62
7
  6
CONTINUOUS
 10
69.243615
 20
156.500002
 40
1.500000
 50
180.000000
 51
-90.000000
  0
LINE
  8
1
 62
7
  6
CONTINUOUS
 10
101.743615
 20
155.000002
 11
69.243615
 21
155.000002
  0
DIMENSION
  8
2
 62
134
  6
CONTINUOUS
  2
*D9
 10
67.743615
 20
141.230647
 11
84.263701
 21
141.230647
 70
     0
  1
34
 13
67.743615
 23
154.500002
 14
101.743615
 24
153.000002
 50
0.000000
  0
LINE
  8
1
 62
7
  6
CONTINUOUS
 10
101.743615
 20
156.600002
 11
101.743615
 21
155.000002
  0
LINE
  8
1
 62
7
  6
CONTINUOUS
 10
69.343615
 20
156.600002
 11
101.743615
 21
156.600002
  0
LINE
  8
1
 62
7
  6
CONTINUOUS
 10
139.743615
 20
156.600002
 11
167.743615
 21
156.600002
  0
LINE
  8
1
 62
7
  6
DASHDOT
 10
73.407117
 20
173.500000
 11
63.435718
 21
173.500000
  0
LINE
  8
3
 62
214
  6
DASHDOT
 10
70.960559
 20
173.500000
 11
60.702673
 21
173.500000
  0
LINE
  8
1
 62
7
  6
CONTINUOUS
 10
67.743615
 20
156.500002
 11
67.743615
 21
188.000002
  0
LINE
  8
1
 62
7
  6
CONTINUOUS
 10
67.743615
 20
188.000002
 11
69.343615
 21
188.000002
  0
LINE
  8
1
 62
7
  6
CONTINUOUS
 10
69.343615
 20
188.000002
 11
69.343615
 21
156.600002
  0
CIRCLE
  8
1
 62
7
  6
CONTINUOUS
 10
153.743615
 20
173.500000
 40
6.000000
  0
LINE
  8
3
 62
214
  6
DASHDOT
 10
153.743615
 20
187.603913
 11
153.743615
 21
159.737446
  0
CIRCLE
  8
1
 62
7
  6
CONTINUOUS
 10
153.743615
 20
183.500000
 40
2.000000
  0
LINE
  8
1
 62
7
  6
DASHDOT
 10
160.931115
 20
163.500000
 11
147.630426
 21
163.500000
  0
LINE
  8
1
 62
7
  6
DASHDOT
 10
158.318279
 20
183.500000
 11
150.264800
 21
183.500000
  0
LINE
  8
1
 62
7
  6
DASHDOT
 10
153.743615
 20
186.851746
 11
153.743615
 21
179.443664
  0
ARC
  8
1
 62
7
  6
CONTINUOUS
 10
151.743615
 20
163.500000
 40
2.000000
 50
90.000000
 51
180.000000
  0
LINE
  8
1
 62
7
  6
CONTINUOUS
 10
151.743615
 20
165.500000
 11
155.743615
 21
165.500000
  0
ARC
  8
1
 62
7
  6
CONTINUOUS
 10
155.743615
 20
163.500000
 40
2.000000
 50
0.000000
 51
90.000000
  0
ARC
  8
1
 62
7
  6
CONTINUOUS
 10
151.743615
 20
163.500000
 40
2.000000
 50
180.000000
 51
-90.000000
  0
LINE
  8
1
 62
7
  6
CONTINUOUS
 10
155.743615
 20
161.500000
 11
151.743615
 21
161.500000
  0
ARC
  8
1
 62
7
  6
CONTINUOUS
 10
155.743615
 20
163.500000
 40
2.000000
 50
-90.000000
 51
0.000000
  0
LINE
  8
1
 62
7
  6
DASHDOT
 10
63.720001
 20
163.500000
 11
73.433576
 21
163.500000
  0
LINE
  8
1
 62
7
  6
DASHDOT
 10
94.743615
 20
158.506639
 11
94.743615
 21
150.909446
  0
LINE
  8
1
 62
7
  6
DASHDOT
 10
136.222320
 20
173.500000
 11
168.887466
 21
173.500000
  0
LINE
  8
1
 62
7
  6
CONTINUOUS
 10
139.743615
 20
155.000000
 11
167.743615
 21
155.000000
  0
LINE
  8
1
 62
7
  6
CONTINUOUS
 10
139.743615
 20
155.000000
 11
139.743615
 21
186.000002
  0
LINE
  8
1
 62
7
  6
CONTINUOUS
 10
139.743615
 20
186.000002
 11
141.743615
 21
188.000002
  0
LINE
  8
1
 62
7
  6
CONTINUOUS
 10
141.743615
 20
188.000002
 11
165.743615
 21
188.000002
  0
LINE
  8
1
 62
7
  6
CONTINUOUS
 10
167.743615
 20
155.000000
 11
167.743615
 21
186.000002
  0
LINE
  8
1
 62
7
  6
CONTINUOUS
 10
165.743615
 20
188.000002
 11
167.743615
 21
186.000002
  0
DIMENSION
  8
2
 62
134
  6
CONTINUOUS
  2
*D10
 10
139.743615
 20
197.044321
 11
146.997071
 21
197.044321
 70
     0
  1
14
 13
139.743615
 23
188.000002
 14
153.743615
 24
190.000002
 50
0.000000
  0
DIMENSION
  8
2
 62
134
  6
CONTINUOUS
  2
*D11
 10
164.336943
 20
161.500000
 11
164.336943
 21
163.500000
 70
     0
  1
4
 13
157.692434
 23
161.500000
 14
157.692434
 24
165.500000
 50
90.000000
  0
DIMENSION
  8
2
 62
134
  6
CONTINUOUS
  2
*D12
 10
149.743615
 20
150.095382
 11
153.218585
 21
150.095382
 70
     0
  1
8
 13
149.743615
 23
161.500000
 14
157.743615
 24
161.500000
 50
0.000000
  0
LINE
  8
1
 62
7
  6
DASHDOT
 10
153.743615
 20
191.367778
 11
153.743615
 21
153.801501
  0
LINE
  8
1
 62
7
  6
DASHDOT
 10
151.699816
 20
166.458249
 11
151.699816
 21
160.374619
  0
LINE
  8
1
 62
7
  6
DASHDOT
 10
155.692434
 20
166.458249
 11
155.692434
 21
160.514472
  0
TEXT
  8
2
 62
134
  6
CONTINUOUS
 10
151.524547
 20
161.481791
 40
4.000000
 41
0.500000
  1
ｱﾅ
  7
KANJI
 50
0.000000
 51
0.000000
  0
LINE
  8
2
 62
134
  6
CONTINUOUS
 10
155.194348
 20
184.876726
 11
161.324870
 21
193.455100
  0
LINE
  8
2
 62
134
  6
CONTINUOUS
 10
161.324870
 20
193.455100
 11
171.688439
 21
193.455100
  0
TEXT
  8
2
 62
134
  6
CONTINUOUS
 10
161.688439
 20
193.409646
 40
4.000000
 41
0.625000
  1
φ4ｱﾅ
  7
KANJI
 50
0.000000
 51
30.000000
  0
LINE
  8
2
 62
134
  6
CONTINUOUS
 10
155.194348
 20
184.876726
 11
155.896444
 21
186.749441
  0
LINE
  8
2
 62
134
  6
CONTINUOUS
 10
155.194348
 20
184.876726
 11
156.738739
 21
186.147496
  0
LINE
  8
2
 62
134
  6
CONTINUOUS
 10
155.896444
 20
186.749441
 11
156.738739
 21
186.147496
  0
LINE
  8
2
 62
134
  6
CONTINUOUS
 10
155.475159
 20
185.269662
 11
155.826207
 21
186.206019
  0
LINE
  8
2
 62
134
  6
CONTINUOUS
 10
155.475159
 20
185.269662
 11
156.247354
 21
185.905047
  0
LINE
  8
2
 62
134
  6
CONTINUOUS
 10
155.826207
 20
186.206019
 11
156.247354
 21
185.905047
  0
DIMENSION
  8
2
 62
134
  6
CONTINUOUS
  2
*D13
 10
158.060135
 20
177.670087
 11
153.600974
 21
173.570202
 70
     3
  1
φ12ｱﾅ
 13
158.060135
 23
177.670087
 14
149.226452
 24
169.548138
 15
149.226452
 25
169.548138
  0
DIMENSION
  8
2
 62
134
  6
CONTINUOUS
  2
*D14
 10
129.484359
 20
155.000000
 11
129.484359
 21
159.569161
 70
     0
  1
8.5
 13
137.743615
 23
155.000000
 14
147.743615
 24
163.500000
 50
90.000000
  0
DIMENSION
  8
2
 62
134
  6
CONTINUOUS
  2
*D15
 10
129.484359
 20
163.500000
 11
129.484359
 21
173.023538
 70
     0
  1
20
 13
147.743615
 23
163.500000
 14
149.743615
 24
183.500000
 50
90.000000
  0
DIMENSION
  8
2
 62
134
  6
CONTINUOUS
  2
*D16
 10
178.574654
 20
155.000000
 11
178.574654
 21
164.114558
 70
     0
  1
18.5
 13
169.743615
 23
155.000000
 14
166.336943
 24
173.500000
 50
90.000000
  0
DIMENSION
  8
2
 62
134
  6
CONTINUOUS
  2
*D17
 10
57.576168
 20
155.000002
 11
57.576168
 21
171.114471
 70
     0
  1
33
 13
67.243615
 23
155.000002
 14
65.743615
 24
188.000002
 50
90.000000
  0
DIMENSION
  8
2
 62
134
  6
CONTINUOUS
  2
*D18
 10
139.743615
 20
143.506996
 11
153.834572
 21
143.506996
 70
     0
  1
28
 13
139.743615
 23
153.000000
 14
167.743615
 24
154.500000
 50
0.000000
  0
TEXT
  8
2
 62
134
  6
CONTINUOUS
 10
138.107857
 20
125.442369
 40
4.000000
 41
0.812500
  1
重量 ；約20g(取付金具のみ)
  7
KANJI
 50
0.000000
 51
0.000000
  0
TEXT
  8
2
 62
134
  6
CONTINUOUS
 10
151.447999
 20
120.228202
 40
4.000000
 41
0.555556
  1
約28g(ﾈｼﾞ)
  7
KANJI
 50
0.000000
 51
0.000000
  0
LINE
  8
3
 62
214
  6
CONTINUOUS
 10
181.243615
 20
105.000000
 11
181.243615
 21
80.000000
  0
LINE
  8
3
 62
214
  6
CONTINUOUS
 10
121.243615
 20
80.000000
 11
121.243615
 21
105.000000
  0
LINE
  8
3
 62
214
  6
CONTINUOUS
 10
109.243615
 20
80.000000
 11
109.243615
 21
105.000000
  0
LINE
  8
3
 62
214
  6
CONTINUOUS
 10
85.243615
 20
80.000000
 11
85.243615
 21
99.000000
  0
LINE
  8
3
 62
214
  6
CONTINUOUS
 10
43.243615
 20
80.000000
 11
43.243615
 21
105.000000
  0
TEXT
  8
3
 62
214
  6
CONTINUOUS
 10
115.692213
 20
80.000000
 40
4.000000
 41
0.500000
  1
2
  7
KANJI
 50
0.000000
 51
0.000000
  0
TEXT
  8
3
 62
214
  6
CONTINUOUS
 10
126.555265
 20
80.000000
 40
4.000000
 41
1.000000
  1
取付金具固定用
  7
KANJI
 50
0.000000
 51
0.000000
  0
TEXT
  8
3
 62
214
  6
CONTINUOUS
 10
89.621958
 20
80.000000
 40
4.000000
 41
0.500000
  1
M3L8
  7
KANJI
 50
0.000000
 51
0.000000
  0
TEXT
  8
3
 62
214
  6
CONTINUOUS
 10
46.525609
 20
80.000000
 40
4.000000
 41
0.533333
  1
ﾅﾍﾞﾈｼﾞ ｾﾑｽ3点 BS
  7
KANJI
 50
0.000000
 51
0.000000
  0
TEXT
  8
3
 62
214
  6
CONTINUOUS
 10
126.752775
 20
86.000000
 40
4.000000
 41
0.714286
  1
ﾍｯﾄﾞ固定用
  7
KANJI
 50
0.000000
 51
0.000000
  0
TEXT
  8
3
 62
214
  6
CONTINUOUS
 10
89.320585
 20
86.000000
 40
4.000000
 41
0.500000
  1
M12
  7
KANJI
 50
0.000000
 51
0.000000
  0
TEXT
  8
3
 62
214
  6
CONTINUOUS
 10
115.692213
 20
86.000000
 40
4.000000
 41
0.500000
  1
2
  7
KANJI
 50
0.000000
 51
0.000000
  0
TEXT
  8
3
 62
214
  6
CONTINUOUS
 10
46.224236
 20
86.000000
 40
4.000000
 41
0.500000
  1
ﾅｯﾄ BS
  7
KANJI
 50
0.000000
 51
0.000000
  0
TEXT
  8
3
 62
214
  6
CONTINUOUS
 10
127.345305
 20
92.000000
 40
4.000000
 41
0.714286
  1
ﾍｯﾄﾞ固定用
  7
KANJI
 50
0.000000
 51
0.000000
  0
TEXT
  8
3
 62
214
  6
CONTINUOUS
 10
115.692213
 20
92.000000
 40
4.000000
 41
0.500000
  1
1
  7
KANJI
 50
0.000000
 51
0.000000
  0
TEXT
  8
3
 62
214
  6
CONTINUOUS
 10
89.280725
 20
91.904131
 40
4.000000
 41
0.500000
  1
M12
  7
KANJI
 50
0.000000
 51
0.000000
  0
TEXT
  8
3
 62
214
  6
CONTINUOUS
 10
142.171091
 20
99.829769
 40
4.000000
 41
1.000000
  1
用途
  7
KANJI
 50
0.000000
 51
0.000000
  0
TEXT
  8
3
 62
214
  6
CONTINUOUS
 10
111.424926
 20
99.447829
 40
4.000000
 41
1.000000
  1
数量
  7
KANJI
 50
0.000000
 51
0.000000
  0
LINE
  8
3
 62
214
  6
CONTINUOUS
 10
43.243615
 20
99.000000
 11
181.243615
 21
99.000000
  0
LINE
  8
3
 62
214
  6
CONTINUOUS
 10
43.243615
 20
105.000000
 11
181.243615
 21
105.000000
  0
LINE
  8
3
 62
214
  6
CONTINUOUS
 10
43.243615
 20
80.000000
 11
181.243615
 21
80.000000
  0
LINE
  8
3
 62
214
  6
CONTINUOUS
 10
43.243615
 20
86.000000
 11
181.243615
 21
86.000000
  0
LINE
  8
3
 62
214
  6
CONTINUOUS
 10
43.243615
 20
92.000000
 11
181.243615
 21
92.000000
  0
LINE
  8
3
 62
214
  6
CONTINUOUS
 10
43.243615
 20
98.000000
 11
181.243615
 21
98.000000
  0
TEXT
  8
3
 62
214
  6
CONTINUOUS
 10
43.243615
 20
105.000000
 40
5.000000
 41
1.000000
  1
付属部品リスト
  7
KANJI
 50
0.000000
 51
0.000000
  0
TEXT
  8
3
 62
214
  6
CONTINUOUS
 10
67.612872
 20
100.020739
 40
4.000000
 41
1.000000
  1
品名
  7
KANJI
 50
0.000000
 51
0.000000
  0
TEXT
  8
3
 62
214
  6
CONTINUOUS
 10
46.224236
 20
92.000000
 40
4.000000
 41
0.531250
  1
ｽﾌﾟﾘﾝｸﾞﾜｯｼｬ　PbSW
  7
KANJI
 50
0.000000
 51
0.000000
  0
LINE
  8
2
 62
134
  6
CONTINUOUS
 10
88.243615
 20
185.000000
 11
99.059560
 21
185.000000
  0
TEXT
  8
2
 62
134
  6
CONTINUOUS
 10
87.658970
 20
186.169291
 40
4.000000
 41
0.625000
  1
ｔ1.6
  7
KANJI
 50
0.000000
 51
0.000000
  0
ARC
  8
1
 62
7
  6
CONTINUOUS
 10
69.343615
 20
209.157463
 40
1.500000
 50
180.000000
 51
-90.000000
  0
LINE
  8
1
 62
7
  6
CONTINUOUS
 10
101.843615
 20
207.657463
 11
69.343615
 21
207.657463
  0
LINE
  8
1
 62
7
  6
CONTINUOUS
 10
69.443615
 20
209.257463
 11
101.843615
 21
209.257463
  0
LINE
  8
1
 62
7
  6
DASHDOT
 10
73.507117
 20
226.157462
 11
63.535718
 21
226.157462
  0
LINE
  8
3
 62
214
  6
DASHDOT
 10
68.150985
 20
226.157462
 11
48.062625
 21
226.157462
  0
LINE
  8
3
 62
214
  6
DASHDOT
 10
71.060559
 20
226.157462
 11
60.802673
 21
226.157462
  0
LINE
  8
3
 62
214
  6
CONTINUOUS
 10
69.443615
 20
215.657462
 11
72.443615
 21
215.657462
  0
LINE
  8
3
 62
214
  6
CONTINUOUS
 10
72.443615
 20
215.657462
 11
72.443615
 21
236.657462
  0
LINE
  8
3
 62
214
  6
CONTINUOUS
 10
72.443615
 20
236.657462
 11
69.443615
 21
236.657462
  0
LINE
  8
3
 62
214
  6
CONTINUOUS
 10
69.443615
 20
236.657462
 11
69.443615
 21
215.657462
  0
LINE
  8
3
 62
214
  6
CONTINUOUS
 10
72.443615
 20
238.127462
 11
72.443615
 21
214.187462
  0
LINE
  8
3
 62
214
  6
CONTINUOUS
 10
72.443615
 20
214.187462
 11
79.451115
 21
214.187462
  0
ARC
  8
3
 62
214
  6
CONTINUOUS
 10
79.451115
 20
217.179962
 40
2.992500
 50
-90.000000
 51
-0.000000
  0
ARC
  8
3
 62
214
  6
CONTINUOUS
 10
79.451115
 20
217.179962
 40
2.992500
 50
-0.000000
 51
90.000000
  0
LINE
  8
3
 62
214
  6
CONTINUOUS
 10
72.443615
 20
220.172462
 11
79.451115
 21
220.172462
  0
ARC
  8
3
 62
214
  6
CONTINUOUS
 10
79.451115
 20
223.164962
 40
2.992500
 50
-90.000000
 51
-0.000000
  0
ARC
  8
3
 62
214
  6
CONTINUOUS
 10
79.451115
 20
229.149962
 40
2.992500
 50
-0.000000
 51
90.000000
  0
LINE
  8
3
 62
214
  6
CONTINUOUS
 10
72.443615
 20
232.142462
 11
79.451115
 21
232.142462
  0
ARC
  8
3
 62
214
  6
CONTINUOUS
 10
79.451115
 20
235.134962
 40
2.992500
 50
-90.000000
 51
-0.000000
  0
LINE
  8
3
 62
214
  6
CONTINUOUS
 10
82.443615
 20
217.179962
 11
82.443615
 21
235.134962
  0
LINE
  8
3
 62
214
  6
CONTINUOUS
 10
79.451115
 20
238.127462
 11
72.443615
 21
238.127462
  0
ARC
  8
3
 62
214
  6
CONTINUOUS
 10
79.451115
 20
235.134962
 40
2.992500
 50
-0.000000
 51
90.000000
  0
LINE
  8
3
 62
214
  6
CONTINUOUS
 10
67.843615
 20
214.187462
 11
67.843615
 21
238.127462
  0
LINE
  8
3
 62
214
  6
CONTINUOUS
 10
67.843615
 20
238.127462
 11
60.836115
 21
238.127462
  0
ARC
  8
3
 62
214
  6
CONTINUOUS
 10
60.836115
 20
235.134962
 40
2.992500
 50
90.000000
 51
180.000000
  0
ARC
  8
3
 62
214
  6
CONTINUOUS
 10
60.836115
 20
235.134962
 40
2.992500
 50
180.000000
 51
-90.000000
  0
LINE
  8
3
 62
214
  6
CONTINUOUS
 10
67.843615
 20
232.142462
 11
60.836115
 21
232.142462
  0
ARC
  8
3
 62
214
  6
CONTINUOUS
 10
60.836115
 20
229.149962
 40
2.992500
 50
90.000000
 51
180.000000
  0
ARC
  8
3
 62
214
  6
CONTINUOUS
 10
60.836115
 20
223.164962
 40
2.992500
 50
180.000000
 51
-90.000000
  0
LINE
  8
3
 62
214
  6
CONTINUOUS
 10
67.843615
 20
220.172462
 11
60.836115
 21
220.172462
  0
ARC
  8
3
 62
214
  6
CONTINUOUS
 10
60.836115
 20
217.179962
 40
2.992500
 50
90.000000
 51
180.000000
  0
LINE
  8
3
 62
214
  6
CONTINUOUS
 10
57.843615
 20
235.134962
 11
57.843615
 21
217.179962
  0
LINE
  8
3
 62
214
  6
CONTINUOUS
 10
60.836115
 20
214.187462
 11
67.843615
 21
214.187462
  0
ARC
  8
3
 62
214
  6
CONTINUOUS
 10
60.836115
 20
217.179962
 40
2.992500
 50
180.000000
 51
-90.000000
  0
LINE
  8
1
 62
7
  6
CONTINUOUS
 10
67.843615
 20
209.157463
 11
67.843615
 21
240.657463
  0
LINE
  8
1
 62
7
  6
CONTINUOUS
 10
67.843615
 20
240.657463
 11
69.443615
 21
240.657463
  0
LINE
  8
1
 62
7
  6
CONTINUOUS
 10
69.443615
 20
240.657463
 11
69.443615
 21
209.257463
  0
LINE
  8
1
 62
7
  6
DASHDOT
 10
63.343615
 20
236.157462
 11
74.458679
 21
236.157462
  0
LINE
  8
1
 62
7
  6
DASHDOT
 10
63.820001
 20
216.157462
 11
73.533576
 21
216.157462
  0
LINE
  8
1
 62
7
  6
DASHDOT
 10
94.843615
 20
211.164101
 11
94.843615
 21
203.566907
  0
LINE
  8
1
 62
7
  6
CONTINUOUS
 10
101.843615
 20
209.257463
 11
101.843615
 21
207.657463
  0
LINE
  8
2
 62
134
  6
CONTINUOUS
 10
89.995744
 20
231.157462
 11
92.851690
 21
235.706497
  0
LINE
  8
2
 62
134
  6
CONTINUOUS
 10
92.851690
 20
235.706497
 11
111.644355
 21
235.706497
  0
TEXT
  8
2
 62
134
  6
CONTINUOUS
 10
93.644355
 20
235.706497
 40
4.000000
 41
0.642857
  1
φ6丸ﾍｯﾄﾞ
  7
KANJI
 50
0.000000
 51
30.000000
  0
LINE
  8
2
 62
134
  6
CONTINUOUS
 10
89.995744
 20
231.157462
 11
90.584530
 21
233.068830
  0
LINE
  8
2
 62
134
  6
CONTINUOUS
 10
89.995744
 20
231.157462
 11
91.461332
 21
232.518362
  0
LINE
  8
2
 62
134
  6
CONTINUOUS
 10
90.584530
 20
233.068830
 11
91.461332
 21
232.518362
  0
LINE
  8
2
 62
134
  6
CONTINUOUS
 10
90.252540
 20
231.566495
 11
90.546934
 21
232.522180
  0
LINE
  8
2
 62
134
  6
CONTINUOUS
 10
90.252540
 20
231.566495
 11
90.985335
 21
232.246946
  0
LINE
  8
2
 62
134
  6
CONTINUOUS
 10
90.546934
 20
232.522180
 11
90.985335
 21
232.246946
  0
LINE
  8
2
 62
134
  6
CONTINUOUS
 10
70.886537
 20
236.657462
 11
74.053929
 21
241.645997
  0
LINE
  8
2
 62
134
  6
CONTINUOUS
 10
74.053929
 20
241.645997
 11
114.318927
 21
241.645997
  0
TEXT
  8
2
 62
134
  6
CONTINUOUS
 10
74.318927
 20
241.645997
 40
4.000000
 41
0.555556
  1
M12ｽﾌﾟﾘﾝｸﾞﾜｯｼｬ(付属)
  7
KANJI
 50
0.000000
 51
30.000000
  0
LINE
  8
2
 62
134
  6
CONTINUOUS
 10
70.886537
 20
236.657462
 11
71.485047
 21
238.565808
  0
LINE
  8
2
 62
134
  6
CONTINUOUS
 10
70.886537
 20
236.657462
 11
72.359035
 21
238.010883
  0
LINE
  8
2
 62
134
  6
CONTINUOUS
 10
71.485047
 20
238.565808
 11
72.359035
 21
238.010883
  0
LINE
  8
2
 62
134
  6
CONTINUOUS
 10
71.145413
 20
237.065183
 11
71.444668
 21
238.019356
  0
LINE
  8
2
 62
134
  6
CONTINUOUS
 10
71.145413
 20
237.065183
 11
71.881662
 21
237.741893
  0
LINE
  8
2
 62
134
  6
CONTINUOUS
 10
71.444668
 20
238.019356
 11
71.881662
 21
237.741893
  0
LINE
  8
2
 62
134
  6
CONTINUOUS
 10
63.863288
 20
238.127462
 11
69.928375
 21
247.733205
  0
LINE
  8
2
 62
134
  6
CONTINUOUS
 10
69.928375
 20
247.733205
 11
114.095503
 21
247.733205
  0
TEXT
  8
2
 62
134
  6
CONTINUOUS
 10
70.095503
 20
247.733205
 40
4.000000
 41
0.611111
  1
2-M12ﾅｯﾄ3種厚7mm(付属)
  7
KANJI
 50
0.000000
 51
30.000000
  0
LINE
  8
2
 62
134
  6
CONTINUOUS
 10
63.863288
 20
238.127462
 11
64.456985
 21
240.037311
  0
LINE
  8
2
 62
134
  6
CONTINUOUS
 10
63.863288
 20
238.127462
 11
65.332369
 21
239.484591
  0
LINE
  8
2
 62
134
  6
CONTINUOUS
 10
64.456985
 20
240.037311
 11
65.332369
 21
239.484591
  0
LINE
  8
2
 62
134
  6
CONTINUOUS
 10
64.121136
 20
238.535834
 11
64.417984
 21
239.490759
  0
LINE
  8
2
 62
134
  6
CONTINUOUS
 10
64.121136
 20
238.535834
 11
64.855676
 21
239.214399
  0
LINE
  8
2
 62
134
  6
CONTINUOUS
 10
64.417984
 20
239.490759
 11
64.855676
 21
239.214399
  0
LINE
  8
4
 62
54
  6
DASHDOT
 10
87.164408
 20
232.410390
 11
87.164408
 21
228.737476
  0
LINE
  8
4
 62
54
  6
DASHDOT
 10
94.664408
 20
232.410390
 11
94.664408
 21
228.737476
  0
LINE
  8
4
 62
54
  6
DASHDOT
 10
93.914408
 20
227.694550
 11
93.914408
 21
224.656460
  0
LINE
  8
4
 62
54
  6
DASHDOT
 10
87.164408
 20
225.299693
 11
87.164408
 21
222.324094
  0
LINE
  8
4
 62
54
  6
DASHDOT
 10
85.772177
 20
223.907462
 11
88.747775
 21
223.907462
  0
LINE
  8
4
 62
54
  6
CONTINUOUS
 10
88.163519
 20
223.921577
 11
88.162898
 21
223.997150
  0
LINE
  8
4
 62
54
  6
CONTINUOUS
 10
88.162898
 20
223.997150
 11
88.154678
 21
224.072468
  0
LINE
  8
4
 62
54
  6
CONTINUOUS
 10
88.154678
 20
224.072468
 11
88.138921
 21
224.146958
  0
LINE
  8
4
 62
54
  6
CONTINUOUS
 10
88.138921
 20
224.146958
 11
88.115748
 21
224.220054
  0
LINE
  8
4
 62
54
  6
CONTINUOUS
 10
88.115748
 20
224.220054
 11
88.085335
 21
224.291199
  0
LINE
  8
4
 62
54
  6
CONTINUOUS
 10
88.085335
 20
224.291199
 11
88.047912
 21
224.359852
  0
LINE
  8
4
 62
54
  6
CONTINUOUS
 10
88.047912
 20
224.359852
 11
88.003766
 21
224.425489
  0
LINE
  8
4
 62
54
  6
CONTINUOUS
 10
88.003766
 20
224.425489
 11
87.953231
 21
224.487613
  0
LINE
  8
4
 62
54
  6
CONTINUOUS
 10
87.953231
 20
224.487613
 11
87.896693
 21
224.545749
  0
LINE
  8
4
 62
54
  6
CONTINUOUS
 10
87.896693
 20
224.545749
 11
87.834582
 21
224.599456
  0
LINE
  8
4
 62
54
  6
CONTINUOUS
 10
87.834582
 20
224.599456
 11
87.767371
 21
224.648325
  0
LINE
  8
4
 62
54
  6
CONTINUOUS
 10
87.767371
 20
224.648325
 11
87.695571
 21
224.691983
  0
LINE
  8
4
 62
54
  6
CONTINUOUS
 10
87.695571
 20
224.691983
 11
87.619728
 21
224.730098
  0
LINE
  8
4
 62
54
  6
CONTINUOUS
 10
87.619728
 20
224.730098
 11
87.540420
 21
224.762381
  0
LINE
  8
4
 62
54
  6
CONTINUOUS
 10
87.540420
 20
224.762381
 11
87.458250
 21
224.788586
  0
LINE
  8
4
 62
54
  6
CONTINUOUS
 10
87.458250
 20
224.788586
 11
87.373844
 21
224.808513
  0
LINE
  8
4
 62
54
  6
CONTINUOUS
 10
87.373844
 20
224.808513
 11
87.287844
 21
224.822011
  0
LINE
  8
4
 62
54
  6
CONTINUOUS
 10
87.287844
 20
224.822011
 11
87.200905
 21
224.828977
  0
LINE
  8
4
 62
54
  6
CONTINUOUS
 10
87.200905
 20
224.828977
 11
87.113687
 21
224.829357
  0
LINE
  8
4
 62
54
  6
CONTINUOUS
 10
87.113687
 20
224.829357
 11
87.026856
 21
224.823150
  0
LINE
  8
4
 62
54
  6
CONTINUOUS
 10
87.026856
 20
224.823150
 11
86.941072
 21
224.810401
  0
LINE
  8
4
 62
54
  6
CONTINUOUS
 10
86.941072
 20
224.810401
 11
86.856987
 21
224.791209
  0
LINE
  8
4
 62
54
  6
CONTINUOUS
 10
86.856987
 20
224.791209
 11
86.775242
 21
224.765719
  0
LINE
  8
4
 62
54
  6
CONTINUOUS
 10
86.775242
 20
224.765719
 11
86.696459
 21
224.734126
  0
LINE
  8
4
 62
54
  6
CONTINUOUS
 10
86.696459
 20
224.734126
 11
86.621237
 21
224.696669
  0
LINE
  8
4
 62
54
  6
CONTINUOUS
 10
86.621237
 20
224.696669
 11
86.550149
 21
224.653634
  0
LINE
  8
4
 62
54
  6
CONTINUOUS
 10
86.550149
 20
224.653634
 11
86.483736
 21
224.605349
  0
LINE
  8
4
 62
54
  6
CONTINUOUS
 10
86.483736
 20
224.605349
 11
86.422504
 21
224.552180
  0
LINE
  8
4
 62
54
  6
CONTINUOUS
 10
86.422504
 20
224.552180
 11
86.366917
 21
224.494533
  0
LINE
  8
4
 62
54
  6
CONTINUOUS
 10
86.366917
 20
224.494533
 11
86.317400
 21
224.432846
  0
LINE
  8
4
 62
54
  6
CONTINUOUS
 10
86.317400
 20
224.432846
 11
86.274329
 21
224.367588
  0
LINE
  8
4
 62
54
  6
CONTINUOUS
 10
86.274329
 20
224.367588
 11
86.238033
 21
224.299257
  0
LINE
  8
4
 62
54
  6
CONTINUOUS
 10
86.238033
 20
224.299257
 11
86.208786
 21
224.228372
  0
LINE
  8
4
 62
54
  6
CONTINUOUS
 10
86.208786
 20
224.228372
 11
86.186812
 21
224.155474
  0
LINE
  8
4
 62
54
  6
CONTINUOUS
 10
86.186812
 20
224.155474
 11
86.172279
 21
224.081115
  0
LINE
  8
4
 62
54
  6
CONTINUOUS
 10
86.172279
 20
224.081115
 11
86.165296
 21
224.005864
  0
LINE
  8
4
 62
54
  6
CONTINUOUS
 10
86.165296
 20
224.005864
 11
86.165917
 21
223.930291
  0
LINE
  8
4
 62
54
  6
CONTINUOUS
 10
86.165917
 20
223.930291
 11
86.174137
 21
223.854973
  0
LINE
  8
4
 62
54
  6
CONTINUOUS
 10
86.174137
 20
223.854973
 11
86.189894
 21
223.780483
  0
LINE
  8
4
 62
54
  6
CONTINUOUS
 10
86.189894
 20
223.780483
 11
86.213067
 21
223.707387
  0
LINE
  8
4
 62
54
  6
CONTINUOUS
 10
86.213067
 20
223.707387
 11
86.243481
 21
223.636242
  0
LINE
  8
4
 62
54
  6
CONTINUOUS
 10
86.243481
 20
223.636242
 11
86.280903
 21
223.567590
  0
LINE
  8
4
 62
54
  6
CONTINUOUS
 10
86.280903
 20
223.567590
 11
86.325049
 21
223.501952
  0
LINE
  8
4
 62
54
  6
CONTINUOUS
 10
86.325049
 20
223.501952
 11
86.375584
 21
223.439828
  0
LINE
  8
4
 62
54
  6
CONTINUOUS
 10
86.375584
 20
223.439828
 11
86.432122
 21
223.381692
  0
LINE
  8
4
 62
54
  6
CONTINUOUS
 10
86.432122
 20
223.381692
 11
86.494233
 21
223.327985
  0
LINE
  8
4
 62
54
  6
CONTINUOUS
 10
86.494233
 20
223.327985
 11
86.561444
 21
223.279117
  0
LINE
  8
4
 62
54
  6
CONTINUOUS
 10
86.561444
 20
223.279117
 11
86.633244
 21
223.235458
  0
LINE
  8
4
 62
54
  6
CONTINUOUS
 10
86.633244
 20
223.235458
 11
86.709087
 21
223.197343
  0
LINE
  8
4
 62
54
  6
CONTINUOUS
 10
86.709087
 20
223.197343
 11
86.788395
 21
223.165060
  0
LINE
  8
4
 62
54
  6
CONTINUOUS
 10
86.788395
 20
223.165060
 11
86.870565
 21
223.138855
  0
LINE
  8
4
 62
54
  6
CONTINUOUS
 10
86.870565
 20
223.138855
 11
86.954971
 21
223.118928
  0
LINE
  8
4
 62
54
  6
CONTINUOUS
 10
86.954971
 20
223.118928
 11
87.040971
 21
223.105430
  0
LINE
  8
4
 62
54
  6
CONTINUOUS
 10
87.040971
 20
223.105430
 11
87.127911
 21
223.098465
  0
LINE
  8
4
 62
54
  6
CONTINUOUS
 10
87.127911
 20
223.098465
 11
87.215128
 21
223.098084
  0
LINE
  8
4
 62
54
  6
CONTINUOUS
 10
87.215128
 20
223.098084
 11
87.301959
 21
223.104292
  0
LINE
  8
4
 62
54
  6
CONTINUOUS
 10
87.301959
 20
223.104292
 11
87.387743
 21
223.117040
  0
LINE
  8
4
 62
54
  6
CONTINUOUS
 10
87.387743
 20
223.117040
 11
87.471828
 21
223.136232
  0
LINE
  8
4
 62
54
  6
CONTINUOUS
 10
87.471828
 20
223.136232
 11
87.553573
 21
223.161722
  0
LINE
  8
4
 62
54
  6
CONTINUOUS
 10
87.553573
 20
223.161722
 11
87.632356
 21
223.193315
  0
LINE
  8
4
 62
54
  6
CONTINUOUS
 10
87.632356
 20
223.193315
 11
87.707578
 21
223.230772
  0
LINE
  8
4
 62
54
  6
CONTINUOUS
 10
87.707578
 20
223.230772
 11
87.778666
 21
223.273807
  0
LINE
  8
4
 62
54
  6
CONTINUOUS
 10
87.778666
 20
223.273807
 11
87.845079
 21
223.322093
  0
LINE
  8
4
 62
54
  6
CONTINUOUS
 10
87.845079
 20
223.322093
 11
87.906312
 21
223.375261
  0
LINE
  8
4
 62
54
  6
CONTINUOUS
 10
87.906312
 20
223.375261
 11
87.961898
 21
223.432909
  0
LINE
  8
4
 62
54
  6
CONTINUOUS
 10
87.961898
 20
223.432909
 11
88.011415
 21
223.494596
  0
LINE
  8
4
 62
54
  6
CONTINUOUS
 10
88.011415
 20
223.494596
 11
88.054486
 21
223.559853
  0
LINE
  8
4
 62
54
  6
CONTINUOUS
 10
88.054486
 20
223.559853
 11
88.090783
 21
223.628184
  0
LINE
  8
4
 62
54
  6
CONTINUOUS
 10
88.090783
 20
223.628184
 11
88.120029
 21
223.699069
  0
LINE
  8
4
 62
54
  6
CONTINUOUS
 10
88.120029
 20
223.699069
 11
88.142003
 21
223.771968
  0
LINE
  8
4
 62
54
  6
CONTINUOUS
 10
88.142003
 20
223.771968
 11
88.156536
 21
223.846326
  0
LINE
  8
4
 62
54
  6
CONTINUOUS
 10
88.156536
 20
223.846326
 11
88.163519
 21
223.921577
  0
LINE
  8
4
 62
54
  6
CONTINUOUS
 10
87.963606
 20
223.907498
 11
87.963267
 21
223.967957
  0
LINE
  8
4
 62
54
  6
CONTINUOUS
 10
87.963267
 20
223.967957
 11
87.956849
 21
224.028228
  0
LINE
  8
4
 62
54
  6
CONTINUOUS
 10
87.956849
 20
224.028228
 11
87.944399
 21
224.087853
  0
LINE
  8
4
 62
54
  6
CONTINUOUS
 10
87.944399
 20
224.087853
 11
87.926014
 21
224.146378
  0
LINE
  8
4
 62
54
  6
CONTINUOUS
 10
87.926014
 20
224.146378
 11
87.901832
 21
224.203357
  0
LINE
  8
4
 62
54
  6
CONTINUOUS
 10
87.901832
 20
224.203357
 11
87.872038
 21
224.258358
  0
LINE
  8
4
 62
54
  6
CONTINUOUS
 10
87.872038
 20
224.258358
 11
87.836858
 21
224.310960
  0
LINE
  8
4
 62
54
  6
CONTINUOUS
 10
87.836858
 20
224.310960
 11
87.796561
 21
224.360764
  0
LINE
  8
4
 62
54
  6
CONTINUOUS
 10
87.796561
 20
224.360764
 11
87.751452
 21
224.407392
  0
LINE
  8
4
 62
54
  6
CONTINUOUS
 10
87.751452
 20
224.407392
 11
87.701876
 21
224.450487
  0
LINE
  8
4
 62
54
  6
CONTINUOUS
 10
87.701876
 20
224.450487
 11
87.648209
 21
224.489722
  0
LINE
  8
4
 62
54
  6
CONTINUOUS
 10
87.648209
 20
224.489722
 11
87.590861
 21
224.524799
  0
LINE
  8
4
 62
54
  6
CONTINUOUS
 10
87.590861
 20
224.524799
 11
87.530266
 21
224.555450
  0
LINE
  8
4
 62
54
  6
CONTINUOUS
 10
87.530266
 20
224.555450
 11
87.466888
 21
224.581442
  0
LINE
  8
4
 62
54
  6
CONTINUOUS
 10
87.466888
 20
224.581442
 11
87.401207
 21
224.602578
  0
LINE
  8
4
 62
54
  6
CONTINUOUS
 10
87.401207
 20
224.602578
 11
87.333724
 21
224.618696
  0
LINE
  8
4
 62
54
  6
CONTINUOUS
 10
87.333724
 20
224.618696
 11
87.264952
 21
224.629674
  0
LINE
  8
4
 62
54
  6
CONTINUOUS
 10
87.264952
 20
224.629674
 11
87.195416
 21
224.635429
  0
LINE
  8
4
 62
54
  6
CONTINUOUS
 10
87.195416
 20
224.635429
 11
87.125643
 21
224.635916
  0
LINE
  8
4
 62
54
  6
CONTINUOUS
 10
87.125643
 20
224.635916
 11
87.056165
 21
224.631131
  0
LINE
  8
4
 62
54
  6
CONTINUOUS
 10
87.056165
 20
224.631131
 11
86.987511
 21
224.621112
  0
LINE
  8
4
 62
54
  6
CONTINUOUS
 10
86.987511
 20
224.621112
 11
86.920204
 21
224.605935
  0
LINE
  8
4
 62
54
  6
CONTINUOUS
 10
86.920204
 20
224.605935
 11
86.854755
 21
224.585714
  0
LINE
  8
4
 62
54
  6
CONTINUOUS
 10
86.854755
 20
224.585714
 11
86.791662
 21
224.560604
  0
LINE
  8
4
 62
54
  6
CONTINUOUS
 10
86.791662
 20
224.560604
 11
86.731407
 21
224.530796
  0
LINE
  8
4
 62
54
  6
CONTINUOUS
 10
86.731407
 20
224.530796
 11
86.674446
 21
224.496517
  0
LINE
  8
4
 62
54
  6
CONTINUOUS
 10
86.674446
 20
224.496517
 11
86.621215
 21
224.458028
  0
LINE
  8
4
 62
54
  6
CONTINUOUS
 10
86.621215
 20
224.458028
 11
86.572118
 21
224.415621
  0
LINE
  8
4
 62
54
  6
CONTINUOUS
 10
86.572118
 20
224.415621
 11
86.527528
 21
224.369620
  0
LINE
  8
4
 62
54
  6
CONTINUOUS
 10
86.527528
 20
224.369620
 11
86.487786
 21
224.320374
  0
LINE
  8
4
 62
54
  6
CONTINUOUS
 10
86.487786
 20
224.320374
 11
86.453193
 21
224.268258
  0
LINE
  8
4
 62
54
  6
CONTINUOUS
 10
86.453193
 20
224.268258
 11
86.424012
 21
224.213670
  0
LINE
  8
4
 62
54
  6
CONTINUOUS
 10
86.424012
 20
224.213670
 11
86.400467
 21
224.157023
  0
LINE
  8
4
 62
54
  6
CONTINUOUS
 10
86.400467
 20
224.157023
 11
86.382735
 21
224.098750
  0
LINE
  8
4
 62
54
  6
CONTINUOUS
 10
86.382735
 20
224.098750
 11
86.370953
 21
224.039294
  0
LINE
  8
4
 62
54
  6
CONTINUOUS
 10
86.370953
 20
224.039294
 11
86.365209
 21
223.979108
  0
LINE
  8
4
 62
54
  6
CONTINUOUS
 10
86.365209
 20
223.979108
 11
86.365548
 21
223.918649
  0
LINE
  8
4
 62
54
  6
CONTINUOUS
 10
86.365548
 20
223.918649
 11
86.371966
 21
223.858377
  0
LINE
  8
4
 62
54
  6
CONTINUOUS
 10
86.371966
 20
223.858377
 11
86.384416
 21
223.798752
  0
LINE
  8
4
 62
54
  6
CONTINUOUS
 10
86.384416
 20
223.798752
 11
86.402801
 21
223.740227
  0
LINE
  8
4
 62
54
  6
CONTINUOUS
 10
86.402801
 20
223.740227
 11
86.426983
 21
223.683248
  0
LINE
  8
4
 62
54
  6
CONTINUOUS
 10
86.426983
 20
223.683248
 11
86.456777
 21
223.628248
  0
LINE
  8
4
 62
54
  6
CONTINUOUS
 10
86.456777
 20
223.628248
 11
86.491957
 21
223.575645
  0
LINE
  8
4
 62
54
  6
CONTINUOUS
 10
86.491957
 20
223.575645
 11
86.532255
 21
223.525841
  0
LINE
  8
4
 62
54
  6
CONTINUOUS
 10
86.532255
 20
223.525841
 11
86.577363
 21
223.479214
  0
LINE
  8
4
 62
54
  6
CONTINUOUS
 10
86.577363
 20
223.479214
 11
86.626939
 21
223.436118
  0
LINE
  8
4
 62
54
  6
CONTINUOUS
 10
86.626939
 20
223.436118
 11
86.680606
 21
223.396883
  0
LINE
  8
4
 62
54
  6
CONTINUOUS
 10
86.680606
 20
223.396883
 11
86.737955
 21
223.361807
  0
LINE
  8
4
 62
54
  6
CONTINUOUS
 10
86.737955
 20
223.361807
 11
86.798549
 21
223.331155
  0
LINE
  8
4
 62
54
  6
CONTINUOUS
 10
86.798549
 20
223.331155
 11
86.861928
 21
223.305163
  0
LINE
  8
4
 62
54
  6
CONTINUOUS
 10
86.861928
 20
223.305163
 11
86.927608
 21
223.284027
  0
LINE
  8
4
 62
54
  6
CONTINUOUS
 10
86.927608
 20
223.284027
 11
86.995091
 21
223.267909
  0
LINE
  8
4
 62
54
  6
CONTINUOUS
 10
86.995091
 20
223.267909
 11
87.063863
 21
223.256931
  0
LINE
  8
4
 62
54
  6
CONTINUOUS
 10
87.063863
 20
223.256931
 11
87.133399
 21
223.251177
  0
LINE
  8
4
 62
54
  6
CONTINUOUS
 10
87.133399
 20
223.251177
 11
87.203172
 21
223.250690
  0
LINE
  8
4
 62
54
  6
CONTINUOUS
 10
87.203172
 20
223.250690
 11
87.272650
 21
223.255474
  0
LINE
  8
4
 62
54
  6
CONTINUOUS
 10
87.272650
 20
223.255474
 11
87.341304
 21
223.265493
  0
LINE
  8
4
 62
54
  6
CONTINUOUS
 10
87.341304
 20
223.265493
 11
87.408611
 21
223.280671
  0
LINE
  8
4
 62
54
  6
CONTINUOUS
 10
87.408611
 20
223.280671
 11
87.474061
 21
223.300892
  0
LINE
  8
4
 62
54
  6
CONTINUOUS
 10
87.474061
 20
223.300892
 11
87.537153
 21
223.326001
  0
LINE
  8
4
 62
54
  6
CONTINUOUS
 10
87.537153
 20
223.326001
 11
87.597409
 21
223.355809
  0
LINE
  8
4
 62
54
  6
CONTINUOUS
 10
87.597409
 20
223.355809
 11
87.654369
 21
223.390088
  0
LINE
  8
4
 62
54
  6
CONTINUOUS
 10
87.654369
 20
223.390088
 11
87.707600
 21
223.428578
  0
LINE
  8
4
 62
54
  6
CONTINUOUS
 10
87.707600
 20
223.428578
 11
87.756697
 21
223.470984
  0
LINE
  8
4
 62
54
  6
CONTINUOUS
 10
87.756697
 20
223.470984
 11
87.801287
 21
223.516986
  0
LINE
  8
4
 62
54
  6
CONTINUOUS
 10
87.801287
 20
223.516986
 11
87.841030
 21
223.566232
  0
LINE
  8
4
 62
54
  6
CONTINUOUS
 10
87.841030
 20
223.566232
 11
87.875623
 21
223.618347
  0
LINE
  8
4
 62
54
  6
CONTINUOUS
 10
87.875623
 20
223.618347
 11
87.904803
 21
223.672936
  0
LINE
  8
4
 62
54
  6
CONTINUOUS
 10
87.904803
 20
223.672936
 11
87.928348
 21
223.729582
  0
LINE
  8
4
 62
54
  6
CONTINUOUS
 10
87.928348
 20
223.729582
 11
87.946080
 21
223.787855
  0
LINE
  8
4
 62
54
  6
CONTINUOUS
 10
87.946080
 20
223.787855
 11
87.957862
 21
223.847311
  0
LINE
  8
4
 62
54
  6
CONTINUOUS
 10
87.957862
 20
223.847311
 11
87.963606
 21
223.907498
  0
CIRCLE
  8
4
 62
54
  6
CONTINUOUS
 10
93.914408
 20
226.157462
 40
1.000000
  0
CIRCLE
  8
4
 62
54
  6
CONTINUOUS
 10
93.914408
 20
226.157462
 40
0.782631
  0
LINE
  8
4
 62
54
  6
DASHDOT
 10
94.664408
 20
232.410390
 11
94.664408
 21
228.737476
  0
LINE
  8
4
 62
54
  6
CONTINUOUS
 10
97.664408
 20
231.157462
 11
97.664408
 21
221.157462
  0
LINE
  8
4
 62
54
  6
CONTINUOUS
 10
83.664408
 20
221.407462
 11
83.664408
 21
221.197462
  0
LINE
  8
4
 62
54
  6
DASHDOT
 10
83.961750
 20
226.157462
 11
83.708281
 21
226.157462
  0
LINE
  8
4
 62
54
  6
CONTINUOUS
 10
82.664408
 20
232.157462
 11
83.664408
 21
231.157462
  0
LINE
  8
4
 62
54
  6
CONTINUOUS
 10
82.664408
 20
220.157462
 11
83.664408
 21
221.157462
  0
LINE
  8
4
 62
54
  6
CONTINUOUS
 10
83.664408
 20
231.157462
 11
97.664408
 21
231.157462
  0
LINE
  8
4
 62
54
  6
CONTINUOUS
 10
56.664408
 20
221.107462
 11
57.614408
 21
220.157462
  0
LINE
  8
4
 62
54
  6
CONTINUOUS
 10
35.664408
 20
221.407462
 11
56.664408
 21
221.407462
  0
LINE
  8
4
 62
54
  6
CONTINUOUS
 10
56.664408
 20
231.207462
 11
56.664408
 21
230.907462
  0
LINE
  8
4
 62
54
  6
CONTINUOUS
 10
56.664408
 20
231.207462
 11
57.614408
 21
232.157462
  0
LINE
  8
4
 62
54
  6
CONTINUOUS
 10
35.664408
 20
230.907462
 11
56.664408
 21
230.907462
  0
LINE
  8
4
 62
54
  6
CONTINUOUS
 10
56.664408
 20
221.107462
 11
83.664408
 21
221.107462
  0
LINE
  8
4
 62
54
  6
CONTINUOUS
 10
56.664408
 20
231.207462
 11
83.664408
 21
231.207462
  0
LINE
  8
4
 62
54
  6
CONTINUOUS
 10
57.614408
 20
232.157462
 11
82.664408
 21
232.157462
  0
LINE
  8
4
 62
54
  6
CONTINUOUS
 10
57.614408
 20
220.157462
 11
82.664408
 21
220.157462
  0
LINE
  8
4
 62
54
  6
CONTINUOUS
 10
56.664408
 20
221.107462
 11
56.664408
 21
230.907462
  0
LINE
  8
4
 62
54
  6
CONTINUOUS
 10
57.614408
 20
220.157462
 11
57.614408
 21
232.157462
  0
LINE
  8
4
 62
54
  6
CONTINUOUS
 10
97.664408
 20
221.157462
 11
83.664408
 21
221.157462
  0
LINE
  8
4
 62
54
  6
CONTINUOUS
 10
83.664408
 20
231.157462
 11
83.664408
 21
221.157462
  0
LINE
  8
4
 62
54
  6
CONTINUOUS
 10
82.664408
 20
220.157462
 11
82.664408
 21
232.157462
  0
LINE
  8
4
 62
54
  6
CONTINUOUS
 10
98.664408
 20
229.157462
 11
99.664408
 21
229.157462
  0
LINE
  8
4
 62
54
  6
CONTINUOUS
 10
100.664408
 20
229.157462
 11
101.664408
 21
229.157462
  0
LINE
  8
4
 62
54
  6
CONTINUOUS
 10
102.664408
 20
229.157462
 11
103.664408
 21
229.157462
  0
LINE
  8
4
 62
54
  6
CONTINUOUS
 10
104.664408
 20
229.157462
 11
105.664408
 21
229.157462
  0
LINE
  8
4
 62
54
  6
CONTINUOUS
 10
106.664408
 20
229.157462
 11
107.664408
 21
229.157462
  0
LINE
  8
4
 62
54
  6
CONTINUOUS
 10
108.664408
 20
229.157462
 11
109.664408
 21
229.157462
  0
LINE
  8
4
 62
54
  6
CONTINUOUS
 10
110.664408
 20
229.157462
 11
111.664408
 21
229.157462
  0
LINE
  8
4
 62
54
  6
CONTINUOUS
 10
112.664408
 20
229.157462
 11
113.664408
 21
229.157462
  0
LINE
  8
4
 62
54
  6
CONTINUOUS
 10
114.664408
 20
229.157462
 11
115.664408
 21
229.157462
  0
LINE
  8
4
 62
54
  6
CONTINUOUS
 10
116.664408
 20
228.657462
 11
116.664408
 21
229.157462
  0
LINE
  8
4
 62
54
  6
CONTINUOUS
 10
99.664408
 20
223.157462
 11
100.664408
 21
223.157462
  0
LINE
  8
4
 62
54
  6
CONTINUOUS
 10
101.664408
 20
223.157462
 11
102.664408
 21
223.157462
  0
LINE
  8
4
 62
54
  6
CONTINUOUS
 10
103.664408
 20
223.157462
 11
104.664408
 21
223.157462
  0
LINE
  8
4
 62
54
  6
CONTINUOUS
 10
107.664408
 20
223.157462
 11
108.664408
 21
223.157462
  0
LINE
  8
4
 62
54
  6
CONTINUOUS
 10
109.664408
 20
223.157462
 11
110.664408
 21
223.157462
  0
LINE
  8
4
 62
54
  6
CONTINUOUS
 10
111.664408
 20
223.157462
 11
112.664408
 21
223.157462
  0
LINE
  8
4
 62
54
  6
CONTINUOUS
 10
113.664408
 20
223.157462
 11
114.664408
 21
223.157462
  0
LINE
  8
4
 62
54
  6
CONTINUOUS
 10
115.664408
 20
223.157462
 11
116.664408
 21
223.157462
  0
LINE
  8
4
 62
54
  6
CONTINUOUS
 10
98.664408
 20
229.157462
 11
99.664408
 21
223.157462
  0
LINE
  8
4
 62
54
  6
CONTINUOUS
 10
99.664408
 20
229.157462
 11
100.664408
 21
223.157462
  0
LINE
  8
4
 62
54
  6
CONTINUOUS
 10
100.664408
 20
229.157462
 11
101.664408
 21
223.157462
  0
LINE
  8
4
 62
54
  6
CONTINUOUS
 10
101.664408
 20
229.157462
 11
102.664408
 21
223.157462
  0
LINE
  8
4
 62
54
  6
CONTINUOUS
 10
102.664408
 20
229.157462
 11
103.664408
 21
223.157462
  0
LINE
  8
4
 62
54
  6
CONTINUOUS
 10
103.664408
 20
229.157462
 11
104.664408
 21
223.157462
  0
LINE
  8
4
 62
54
  6
CONTINUOUS
 10
104.664408
 20
229.157462
 11
105.664408
 21
223.157462
  0
LINE
  8
4
 62
54
  6
CONTINUOUS
 10
105.664408
 20
229.157462
 11
106.664408
 21
223.157462
  0
LINE
  8
4
 62
54
  6
CONTINUOUS
 10
106.664408
 20
229.157462
 11
107.664408
 21
223.157462
  0
LINE
  8
4
 62
54
  6
CONTINUOUS
 10
107.664408
 20
229.157462
 11
108.664408
 21
223.157462
  0
LINE
  8
4
 62
54
  6
CONTINUOUS
 10
108.664408
 20
229.157462
 11
109.664408
 21
223.157462
  0
LINE
  8
4
 62
54
  6
CONTINUOUS
 10
109.664408
 20
229.157462
 11
110.664408
 21
223.157462
  0
LINE
  8
4
 62
54
  6
CONTINUOUS
 10
110.664408
 20
229.157462
 11
111.664408
 21
223.157462
  0
LINE
  8
4
 62
54
  6
CONTINUOUS
 10
111.664408
 20
229.157462
 11
112.664408
 21
223.157462
  0
LINE
  8
4
 62
54
  6
CONTINUOUS
 10
112.664408
 20
229.157462
 11
113.664408
 21
223.157462
  0
LINE
  8
4
 62
54
  6
CONTINUOUS
 10
113.664408
 20
229.157462
 11
114.664408
 21
223.157462
  0
LINE
  8
4
 62
54
  6
CONTINUOUS
 10
114.664408
 20
229.157462
 11
115.664408
 21
223.157462
  0
LINE
  8
4
 62
54
  6
CONTINUOUS
 10
115.664408
 20
229.157462
 11
116.664408
 21
223.157462
  0
LINE
  8
4
 62
54
  6
CONTINUOUS
 10
116.664408
 20
228.657462
 11
116.664408
 21
223.157462
  0
LINE
  8
4
 62
54
  6
CONTINUOUS
 10
97.664408
 20
228.657462
 11
98.747741
 21
228.657462
  0
LINE
  8
4
 62
54
  6
CONTINUOUS
 10
99.747741
 20
228.657462
 11
100.747741
 21
228.657462
  0
LINE
  8
4
 62
54
  6
CONTINUOUS
 10
101.747741
 20
228.657462
 11
102.747741
 21
228.657462
  0
LINE
  8
4
 62
54
  6
CONTINUOUS
 10
103.747741
 20
228.657462
 11
104.747741
 21
228.657462
  0
LINE
  8
4
 62
54
  6
CONTINUOUS
 10
105.747741
 20
228.657462
 11
106.747741
 21
228.657462
  0
LINE
  8
4
 62
54
  6
CONTINUOUS
 10
107.747741
 20
228.657462
 11
108.747741
 21
228.657462
  0
LINE
  8
4
 62
54
  6
CONTINUOUS
 10
109.747741
 20
228.657462
 11
110.747741
 21
228.657462
  0
LINE
  8
4
 62
54
  6
CONTINUOUS
 10
111.747741
 20
228.657462
 11
112.747741
 21
228.657462
  0
LINE
  8
4
 62
54
  6
CONTINUOUS
 10
113.747741
 20
228.657462
 11
114.747741
 21
228.657462
  0
LINE
  8
4
 62
54
  6
CONTINUOUS
 10
115.747741
 20
228.657462
 11
116.664408
 21
228.657462
  0
LINE
  8
4
 62
54
  6
CONTINUOUS
 10
114.581074
 20
223.657462
 11
115.581074
 21
223.657462
  0
LINE
  8
4
 62
54
  6
CONTINUOUS
 10
112.581074
 20
223.657462
 11
113.581074
 21
223.657462
  0
LINE
  8
4
 62
54
  6
CONTINUOUS
 10
110.680648
 20
223.657462
 11
111.581074
 21
223.657462
  0
LINE
  8
4
 62
54
  6
CONTINUOUS
 10
108.581074
 20
223.657462
 11
109.581074
 21
223.657462
  0
LINE
  8
4
 62
54
  6
CONTINUOUS
 10
106.581074
 20
223.657462
 11
107.581074
 21
223.657462
  0
LINE
  8
4
 62
54
  6
CONTINUOUS
 10
104.581074
 20
223.657462
 11
105.581074
 21
223.657462
  0
LINE
  8
4
 62
54
  6
CONTINUOUS
 10
102.581074
 20
223.657462
 11
103.581074
 21
223.657462
  0
LINE
  8
4
 62
54
  6
CONTINUOUS
 10
100.581074
 20
223.657462
 11
101.581074
 21
223.657462
  0
LINE
  8
4
 62
54
  6
CONTINUOUS
 10
98.680648
 20
223.657462
 11
99.581074
 21
223.657462
  0
LINE
  8
4
 62
54
  6
CONTINUOUS
 10
97.664408
 20
228.657462
 11
98.765195
 21
223.153525
  0
LINE
  8
4
 62
54
  6
CONTINUOUS
 10
97.751026
 20
223.157462
 11
98.764408
 21
223.157462
  0
LINE
  8
4
 62
54
  6
CONTINUOUS
 10
98.655672
 20
223.657462
 11
98.664408
 21
223.657462
  0
LINE
  8
4
 62
54
  6
CONTINUOUS
 10
105.664408
 20
223.157462
 11
106.664408
 21
223.157462
  0
LINE
  8
4
 62
54
  6
DASHDOT
 10
94.664408
 20
222.157483
 11
94.664408
 21
219.589222
  0
LINE
  8
4
 62
54
  6
DASHDOT
 10
28.711581
 20
226.157462
 11
78.950122
 21
226.157462
  0
LINE
  8
4
 62
54
  6
CONTINUOUS
 10
35.664408
 20
230.907462
 11
35.664408
 21
221.407462
  0
LINE
  8
4
 62
54
  6
DASHDOT
 10
67.243615
 20
226.157462
 11
119.490658
 21
226.157462
  0
TEXT
  8
2
 62
134
  6
CONTINUOUS
 10
97.313178
 20
211.173608
 40
4.000000
 41
0.666667
  1
(ﾍｯﾄﾞ取付図)
  7
KANJI
 50
0.000000
 51
0.000000
  0
TEXT
  8
5
 62
94
  6
CONTINUOUS
 10
87.772351
 20
27.782285
 40
4.000000
 41
0.500000
  1
2010/01/12
  7
KANJI
 50
0.160943
 51
0.000000
  0
ENDSEC
  0
EOF
