  0
SECTION
  2
HEADER
  9
$ACADVER
  1
AC1003
  9
$INSBASE
 10
0.000000
 20
0.000000
  9
$EXTMIN
 10
0.000000
 20
0.000000
  9
$EXTMAX
 10
210.000000
 20
297.000000
  9
$LIMMIN
 10
0.000000
 20
0.000000
  9
$LIMMAX
 10
210.000000
 20
297.000000
  9
$VIEWCTR
 10
105.000000
 20
148.500000
  9
$VIEWSIZE
 40
297.000000
  9
$PEXTMIN
 10
0.000000
 20
0.000000
 30
0.000000
  9
$PEXTMAX
 10
210.000000
 20
297.000000
 30
0.000000
  9
$SNAPMODE
 70
     0
  9
$SNAPUNIT
 10
1.000000
 20
1.000000
  9
$SNAPBASE
 10
0.000000
 20
0.000000
  9
$SNAPANG
 50
0.000000
  9
$SNAPISOPAIR
 70
     0
  9
$SNAPSTYLE
 70
     0
  9
$GRIDMODE
 70
     0
  9
$GRIDUNIT
 10
0.000000
 20
0.000000
  9
$ORTHOMODE
 70
     0
  9
$REGENMODE
 70
     1
  9
$FILLMODE
 70
     1
  9
$QTEXTMODE
 70
     0
  9
$DRAGMODE
 70
     2
  9
$LTSCALE
 40
0.250000
  9
$OSMODE
 70
     0
  9
$ATTMODE
 70
     1
  9
$TEXTSIZE
 40
0.200000
  9
$TRACEWID
 40
0.050000
  9
$TEXTSTYLE
  7
STANDARD
  9
$CLAYER
  8
0
  9
$CELTYPE
  6
BYLAYER
  9
$CECOLOR
 62
   256
  9
$DIMSCALE
 40
1.000000
  9
$DIMASZ
 40
1.000000
  9
$DIMEXO
 40
0.000000
  9
$DIMDLI
 40
0.500000
  9
$DIMRND
 40
0.000000
  9
$DIMDLE
 40
0.000000
  9
$DIMEXE
 40
0.000000
  9
$DIMTP
 40
0.000000
  9
$DIMTM
 40
0.000000
  9
$DIMTXT
 40
0.180000
  9
$DIMCEN
 40
0.000000
  9
$DIMTSZ
 40
0.000000
  9
$DIMTOL
 70
     0
  9
$DIMLIM
 70
     0
  9
$DIMTIH
 70
     1
  9
$DIMTOH
 70
     1
  9
$DIMSE1
 70
     0
  9
$DIMSE2
 70
     0
  9
$DIMTAD
 70
     0
  9
$DIMZIN
 70
     0
  9
$DIMBLK
  1

  9
$DIMASO
 70
     0
  9
$DIMSHO
 70
     0
  9
$DIMPOST
  1

  9
$DIMAPOST
  1

  9
$DIMALT
 70
     0
  9
$DIMALTD
 70
     0
  9
$DIMALTF
 40
25.400000
  9
$DIMLFAC
 40
1.000000
  9
$DIMTOFL
 70
     0
  9
$DIMTVP
 40
0.000000
  9
$DIMTIX
 70
     0
  9
$DIMSOXD
 70
     0
  9
$DIMSAH
 70
     0
  9
$DIMBLKL
  1

  9
$DIMBLKR
  1

  9
$LUNITS
 70
     2
  9
$LUPREC
 70
     2
  9
$AXISMODE
 70
     0
  9
$AXISUNIT
 10
1.000000
 20
1.000000
  9
$SKETCHINC
 40
0.000000
  9
$FILLETRAD
 40
0.000000
  9
$AUNITS
 70
     1
  9
$AUPREC
 70
     2
  9
$MENU
  1
ACAD
  9
$ELEVATION
 40
0.000000
  9
$THICKNESS
 40
0.000000
  9
$VIEWDIR
 10
0.000000
 20
0.000000
 30
1.000000
  9
$LIMCHECK
 70
     1
  9
$BLIPMODE
 70
     1
  9
$CHAMFERA
 40
0.000000
  9
$CHAMFERB
 40
0.000000
  9
$FASTZOOM
 70
     1
  9
$SKPOLY
 70
     0
  9
$TDCREATE
 40
0.000000
  9
$TDUPDATE
 40
0.000000
  9
$TDINDWG
 40
0.000000
  9
$TDUSRTIMER
 40
0.000000
  9
$USRTIMER
 70
     1
  9
$ANGBASE
 50
0.000000
  9
$ANGDIR
 70
     0
  9
$PDMODE
 70
     0
  9
$PDSIZE
 40
0.000000
  9
$PLINEWID
 40
0.000000
  9
$COORDS
 70
     2
  9
$USERI1
 70
     0
  9
$USERI2
 70
     0
  9
$USERI3
 70
     0
  9
$USERI4
 70
     0
  9
$USERI5
 70
     0
  9
$USERR1
 40
0.000000
  9
$USERR2
 40
0.000000
  9
$USERR3
 40
0.000000
  9
$USERR4
 40
0.000000
  9
$USERR5
 40
0.000000
  0
ENDSEC
  0
SECTION
  2
TABLES
  0
TABLE
  2
LTYPE
 70
     5
  0
LTYPE
  2
CONTINUOUS
 70
    64
  3
Solid line
 72
    65
 73
     0
 40
0.0
  0
LTYPE
  2
HIDDEN
 70
    64
  3
------------------------
 72
    65
 73
     2
 40
12.6
 49
8.4
 49
-4.2
  0
LTYPE
  2
DOT
 70
    64
  3
････････････････････････
 72
    65
 73
     2
 40
8.0
 49
6.0
 49
-2.0
  0
LTYPE
  2
DASHDOT
 70
    64
  3
--･--･--･--･--･--･--･--
 72
    65
 73
     4
 40
50.5
 49
30.0
 49
-9.0
 49
2.5
 49
-9.0
  0
LTYPE
  2
DIVIDE
 70
    64
  3
--･･--･･--･･--･･--･･--
 72
    65
 73
     6
 40
58.0
 49
30.0
 49
-9.0
 49
2.5
 49
-5.0
 49
2.5
 49
-9.0
  0
LTYPE
  2
ACAD_ISO06W100
 70
    64
  3
____ ... ____ ... ____
 72
    65
 73
     8
 40
37.5
 49
24.0
 49
-3.0
 49
0.5
 49
-3.0
 49
0.5
 49
-3.0
 49
0.5
 49
-3.0
  0
LTYPE
  2
ACAD_ISO14W100
 70
    64
  3
__ . . . __ . . . __ . . . 
 72
    65
 73
     8
 40
25.5
 49
12.0
 49
-3.0
 49
0.5
 49
-3.0
 49
0.5
 49
-3.0
 49
0.5
 49
-3.0
  0
ENDTAB
  0
TABLE
  2
LAYER
 70
3
  0
LAYER
  2
1
 70
64
 62
7
  6
CONTINUOUS
  0
LAYER
  2
2
 70
64
 62
134
  6
CONTINUOUS
  0
LAYER
  2
5
 70
64
 62
94
  6
CONTINUOUS
  0
ENDTAB
  0
TABLE
  2
STYLE
 70
     2
  0
STYLE
  2
STANDARD
 70
    64
 40
0.0
 41
1.0
 50
0.0
 71
     0
 42
0.2
  3
TXT
  4

  0
STYLE
  2
KANJI
 70
    64
 40
0.0
 41
1.0
 50
0.0
 71
     0
 42
0.2
  3
TXT
  4
BIGFONT
  0
ENDTAB
  0
TABLE
  2
VIEW
 70
     0
  0
ENDTAB
  0
ENDSEC
  0
SECTION
  2
BLOCKS
  0
BLOCK
  8
2
 62
134
  6
CONTINUOUS
  2
*D1
 70
    65
 10
0.0
 20
0.0
  0
LINE
  8
2
 62
134
  6
CONTINUOUS
 10
140.000000
 20
147.155791
 11
161.500000
 21
147.155791
  0
LINE
  8
2
 62
134
  6
CONTINUOUS
 10
140.000000
 20
147.155791
 11
141.931852
 21
147.673429
  0
LINE
  8
2
 62
134
  6
CONTINUOUS
 10
140.000000
 20
147.155791
 11
141.931852
 21
146.638153
  0
LINE
  8
2
 62
134
  6
CONTINUOUS
 10
141.931852
 20
147.673429
 11
141.931852
 21
146.638153
  0
LINE
  8
2
 62
134
  6
CONTINUOUS
 10
140.482963
 20
147.155791
 11
141.448889
 21
147.414610
  0
LINE
  8
2
 62
134
  6
CONTINUOUS
 10
140.482963
 20
147.155791
 11
141.448889
 21
146.896972
  0
LINE
  8
2
 62
134
  6
CONTINUOUS
 10
141.448889
 20
147.414610
 11
141.448889
 21
146.896972
  0
LINE
  8
2
 62
134
  6
CONTINUOUS
 10
161.500000
 20
147.155791
 11
159.568148
 21
146.638153
  0
LINE
  8
2
 62
134
  6
CONTINUOUS
 10
161.500000
 20
147.155791
 11
159.568148
 21
147.673429
  0
LINE
  8
2
 62
134
  6
CONTINUOUS
 10
159.568148
 20
146.638153
 11
159.568148
 21
147.673429
  0
LINE
  8
2
 62
134
  6
CONTINUOUS
 10
161.017037
 20
147.155791
 11
160.051111
 21
146.896972
  0
LINE
  8
2
 62
134
  6
CONTINUOUS
 10
161.017037
 20
147.155791
 11
160.051111
 21
147.414610
  0
LINE
  8
2
 62
134
  6
CONTINUOUS
 10
160.051111
 20
146.896972
 11
160.051111
 21
147.414610
  0
TEXT
  8
2
 62
134
  6
CONTINUOUS
 10
146.750000
 20
147.655791
 40
4.000000
 41
0.500000
  1
21.5
  7
KANJI
 50
0.000000
 51
30.000000
  0
ENDBLK
  0
BLOCK
  8
2
 62
134
  6
CONTINUOUS
  2
*D2
 70
    65
 10
0.0
 20
0.0
  0
LINE
  8
2
 62
134
  6
CONTINUOUS
 10
170.710322
 20
196.584678
 11
170.710322
 21
156.584678
  0
LINE
  8
2
 62
134
  6
CONTINUOUS
 10
170.710322
 20
196.584678
 11
171.227960
 21
194.652827
  0
LINE
  8
2
 62
134
  6
CONTINUOUS
 10
170.710322
 20
196.584678
 11
170.192684
 21
194.652827
  0
LINE
  8
2
 62
134
  6
CONTINUOUS
 10
171.227960
 20
194.652827
 11
170.192684
 21
194.652827
  0
LINE
  8
2
 62
134
  6
CONTINUOUS
 10
170.710322
 20
196.101716
 11
170.969141
 21
195.135790
  0
LINE
  8
2
 62
134
  6
CONTINUOUS
 10
170.710322
 20
196.101716
 11
170.451503
 21
195.135790
  0
LINE
  8
2
 62
134
  6
CONTINUOUS
 10
170.969141
 20
195.135790
 11
170.451503
 21
195.135790
  0
LINE
  8
2
 62
134
  6
CONTINUOUS
 10
170.710322
 20
156.584678
 11
170.192684
 21
158.516530
  0
LINE
  8
2
 62
134
  6
CONTINUOUS
 10
170.710322
 20
156.584678
 11
171.227960
 21
158.516530
  0
LINE
  8
2
 62
134
  6
CONTINUOUS
 10
170.192684
 20
158.516530
 11
171.227960
 21
158.516530
  0
LINE
  8
2
 62
134
  6
CONTINUOUS
 10
170.710322
 20
157.067641
 11
170.451503
 21
158.033567
  0
LINE
  8
2
 62
134
  6
CONTINUOUS
 10
170.710322
 20
157.067641
 11
170.969141
 21
158.033567
  0
LINE
  8
2
 62
134
  6
CONTINUOUS
 10
170.451503
 20
158.033567
 11
170.969141
 21
158.033567
  0
TEXT
  8
2
 62
134
  6
CONTINUOUS
 10
170.210322
 20
174.584678
 40
4.000000
 41
0.500000
  1
40
  7
KANJI
 50
90.000000
 51
30.000000
  0
ENDBLK
  0
BLOCK
  8
2
 62
134
  6
CONTINUOUS
  2
*D3
 70
    65
 10
0.0
 20
0.0
  0
LINE
  8
2
 62
134
  6
CONTINUOUS
 10
60.000000
 20
139.774639
 11
100.000000
 21
139.774639
  0
LINE
  8
2
 62
134
  6
CONTINUOUS
 10
60.000000
 20
139.774639
 11
61.931852
 21
140.292277
  0
LINE
  8
2
 62
134
  6
CONTINUOUS
 10
60.000000
 20
139.774639
 11
61.931852
 21
139.257001
  0
LINE
  8
2
 62
134
  6
CONTINUOUS
 10
61.931852
 20
140.292277
 11
61.931852
 21
139.257001
  0
LINE
  8
2
 62
134
  6
CONTINUOUS
 10
60.482963
 20
139.774639
 11
61.448889
 21
140.033458
  0
LINE
  8
2
 62
134
  6
CONTINUOUS
 10
60.482963
 20
139.774639
 11
61.448889
 21
139.515820
  0
LINE
  8
2
 62
134
  6
CONTINUOUS
 10
61.448889
 20
140.033458
 11
61.448889
 21
139.515820
  0
LINE
  8
2
 62
134
  6
CONTINUOUS
 10
100.000000
 20
139.774639
 11
98.068148
 21
139.257001
  0
LINE
  8
2
 62
134
  6
CONTINUOUS
 10
100.000000
 20
139.774639
 11
98.068148
 21
140.292277
  0
LINE
  8
2
 62
134
  6
CONTINUOUS
 10
98.068148
 20
139.257001
 11
98.068148
 21
140.292277
  0
LINE
  8
2
 62
134
  6
CONTINUOUS
 10
99.517037
 20
139.774639
 11
98.551111
 21
139.515820
  0
LINE
  8
2
 62
134
  6
CONTINUOUS
 10
99.517037
 20
139.774639
 11
98.551111
 21
140.033458
  0
LINE
  8
2
 62
134
  6
CONTINUOUS
 10
98.551111
 20
139.515820
 11
98.551111
 21
140.033458
  0
TEXT
  8
2
 62
134
  6
CONTINUOUS
 10
78.000000
 20
140.274639
 40
4.000000
 41
0.500000
  1
40
  7
KANJI
 50
0.000000
 51
30.000000
  0
ENDBLK
  0
BLOCK
  8
2
 62
134
  6
CONTINUOUS
  2
*D4
 70
    65
 10
0.0
 20
0.0
  0
LINE
  8
2
 62
134
  6
CONTINUOUS
 10
49.414616
 20
196.584678
 11
49.414616
 21
184.584678
  0
LINE
  8
2
 62
134
  6
CONTINUOUS
 10
49.414616
 20
196.584678
 11
49.932254
 21
194.652827
  0
LINE
  8
2
 62
134
  6
CONTINUOUS
 10
49.414616
 20
196.584678
 11
48.896978
 21
194.652827
  0
LINE
  8
2
 62
134
  6
CONTINUOUS
 10
49.932254
 20
194.652827
 11
48.896978
 21
194.652827
  0
LINE
  8
2
 62
134
  6
CONTINUOUS
 10
49.414616
 20
196.101716
 11
49.673435
 21
195.135790
  0
LINE
  8
2
 62
134
  6
CONTINUOUS
 10
49.414616
 20
196.101716
 11
49.155797
 21
195.135790
  0
LINE
  8
2
 62
134
  6
CONTINUOUS
 10
49.673435
 20
195.135790
 11
49.155797
 21
195.135790
  0
LINE
  8
2
 62
134
  6
CONTINUOUS
 10
49.414616
 20
184.584678
 11
48.896978
 21
186.516530
  0
LINE
  8
2
 62
134
  6
CONTINUOUS
 10
49.414616
 20
184.584678
 11
49.932254
 21
186.516530
  0
LINE
  8
2
 62
134
  6
CONTINUOUS
 10
48.896978
 20
186.516530
 11
49.932254
 21
186.516530
  0
LINE
  8
2
 62
134
  6
CONTINUOUS
 10
49.414616
 20
185.067641
 11
49.155797
 21
186.033567
  0
LINE
  8
2
 62
134
  6
CONTINUOUS
 10
49.414616
 20
185.067641
 11
49.673435
 21
186.033567
  0
LINE
  8
2
 62
134
  6
CONTINUOUS
 10
49.155797
 20
186.033567
 11
49.673435
 21
186.033567
  0
TEXT
  8
2
 62
134
  6
CONTINUOUS
 10
48.914616
 20
188.584678
 40
4.000000
 41
0.500000
  1
12
  7
KANJI
 50
90.000000
 51
30.000000
  0
ENDBLK
  0
BLOCK
  8
2
 62
134
  6
CONTINUOUS
  2
*D5
 70
    65
 10
0.0
 20
0.0
  0
LINE
  8
2
 62
134
  6
CONTINUOUS
 10
49.414616
 20
184.584678
 11
49.414616
 21
156.584678
  0
LINE
  8
2
 62
134
  6
CONTINUOUS
 10
49.414616
 20
184.584678
 11
49.932254
 21
182.652827
  0
LINE
  8
2
 62
134
  6
CONTINUOUS
 10
49.414616
 20
184.584678
 11
48.896978
 21
182.652827
  0
LINE
  8
2
 62
134
  6
CONTINUOUS
 10
49.932254
 20
182.652827
 11
48.896978
 21
182.652827
  0
LINE
  8
2
 62
134
  6
CONTINUOUS
 10
49.414616
 20
184.101716
 11
49.673435
 21
183.135790
  0
LINE
  8
2
 62
134
  6
CONTINUOUS
 10
49.414616
 20
184.101716
 11
49.155797
 21
183.135790
  0
LINE
  8
2
 62
134
  6
CONTINUOUS
 10
49.673435
 20
183.135790
 11
49.155797
 21
183.135790
  0
LINE
  8
2
 62
134
  6
CONTINUOUS
 10
49.414616
 20
156.584678
 11
48.896978
 21
158.516530
  0
LINE
  8
2
 62
134
  6
CONTINUOUS
 10
49.414616
 20
156.584678
 11
49.932254
 21
158.516530
  0
LINE
  8
2
 62
134
  6
CONTINUOUS
 10
48.896978
 20
158.516530
 11
49.932254
 21
158.516530
  0
LINE
  8
2
 62
134
  6
CONTINUOUS
 10
49.414616
 20
157.067641
 11
49.155797
 21
158.033567
  0
LINE
  8
2
 62
134
  6
CONTINUOUS
 10
49.414616
 20
157.067641
 11
49.673435
 21
158.033567
  0
LINE
  8
2
 62
134
  6
CONTINUOUS
 10
49.155797
 20
158.033567
 11
49.673435
 21
158.033567
  0
TEXT
  8
2
 62
134
  6
CONTINUOUS
 10
48.914616
 20
168.584678
 40
4.000000
 41
0.500000
  1
28
  7
KANJI
 50
90.000000
 51
30.000000
  0
ENDBLK
  0
BLOCK
  8
2
 62
134
  6
CONTINUOUS
  2
*D6
 70
    65
 10
0.0
 20
0.0
  0
LINE
  8
2
 62
134
  6
CONTINUOUS
 10
60.025591
 20
217.240190
 11
70.025591
 21
217.240190
  0
LINE
  8
2
 62
134
  6
CONTINUOUS
 10
60.025591
 20
217.240190
 11
61.957442
 21
217.757828
  0
LINE
  8
2
 62
134
  6
CONTINUOUS
 10
60.025591
 20
217.240190
 11
61.957442
 21
216.722552
  0
LINE
  8
2
 62
134
  6
CONTINUOUS
 10
61.957442
 20
217.757828
 11
61.957442
 21
216.722552
  0
LINE
  8
2
 62
134
  6
CONTINUOUS
 10
60.508553
 20
217.240190
 11
61.474479
 21
217.499009
  0
LINE
  8
2
 62
134
  6
CONTINUOUS
 10
60.508553
 20
217.240190
 11
61.474479
 21
216.981371
  0
LINE
  8
2
 62
134
  6
CONTINUOUS
 10
61.474479
 20
217.499009
 11
61.474479
 21
216.981371
  0
LINE
  8
2
 62
134
  6
CONTINUOUS
 10
70.025591
 20
217.240190
 11
68.093739
 21
216.722552
  0
LINE
  8
2
 62
134
  6
CONTINUOUS
 10
70.025591
 20
217.240190
 11
68.093739
 21
217.757828
  0
LINE
  8
2
 62
134
  6
CONTINUOUS
 10
68.093739
 20
216.722552
 11
68.093739
 21
217.757828
  0
LINE
  8
2
 62
134
  6
CONTINUOUS
 10
69.542628
 20
217.240190
 11
68.576702
 21
216.981371
  0
LINE
  8
2
 62
134
  6
CONTINUOUS
 10
69.542628
 20
217.240190
 11
68.576702
 21
217.499009
  0
LINE
  8
2
 62
134
  6
CONTINUOUS
 10
68.576702
 20
216.981371
 11
68.576702
 21
217.499009
  0
TEXT
  8
2
 62
134
  6
CONTINUOUS
 10
63.025591
 20
217.740190
 40
4.000000
 41
0.500000
  1
10
  7
KANJI
 50
0.000000
 51
30.000000
  0
ENDBLK
  0
BLOCK
  8
2
 62
134
  6
CONTINUOUS
  2
*D7
 70
    65
 10
0.0
 20
0.0
  0
LINE
  8
2
 62
134
  6
CONTINUOUS
 10
70.025591
 20
217.240190
 11
90.025591
 21
217.240190
  0
LINE
  8
2
 62
134
  6
CONTINUOUS
 10
70.025591
 20
217.240190
 11
71.957442
 21
217.757828
  0
LINE
  8
2
 62
134
  6
CONTINUOUS
 10
70.025591
 20
217.240190
 11
71.957442
 21
216.722552
  0
LINE
  8
2
 62
134
  6
CONTINUOUS
 10
71.957442
 20
217.757828
 11
71.957442
 21
216.722552
  0
LINE
  8
2
 62
134
  6
CONTINUOUS
 10
70.508553
 20
217.240190
 11
71.474479
 21
217.499009
  0
LINE
  8
2
 62
134
  6
CONTINUOUS
 10
70.508553
 20
217.240190
 11
71.474479
 21
216.981371
  0
LINE
  8
2
 62
134
  6
CONTINUOUS
 10
71.474479
 20
217.499009
 11
71.474479
 21
216.981371
  0
LINE
  8
2
 62
134
  6
CONTINUOUS
 10
90.025591
 20
217.240190
 11
88.093739
 21
216.722552
  0
LINE
  8
2
 62
134
  6
CONTINUOUS
 10
90.025591
 20
217.240190
 11
88.093739
 21
217.757828
  0
LINE
  8
2
 62
134
  6
CONTINUOUS
 10
88.093739
 20
216.722552
 11
88.093739
 21
217.757828
  0
LINE
  8
2
 62
134
  6
CONTINUOUS
 10
89.542628
 20
217.240190
 11
88.576702
 21
216.981371
  0
LINE
  8
2
 62
134
  6
CONTINUOUS
 10
89.542628
 20
217.240190
 11
88.576702
 21
217.499009
  0
LINE
  8
2
 62
134
  6
CONTINUOUS
 10
88.576702
 20
216.981371
 11
88.576702
 21
217.499009
  0
TEXT
  8
2
 62
134
  6
CONTINUOUS
 10
78.025591
 20
217.740190
 40
4.000000
 41
0.500000
  1
20
  7
KANJI
 50
0.000000
 51
30.000000
  0
ENDBLK
  0
BLOCK
  8
2
 62
134
  6
CONTINUOUS
  2
*D8
 70
    65
 10
0.0
 20
0.0
  0
LINE
  8
2
 62
134
  6
CONTINUOUS
 10
49.122293
 20
257.418832
 11
49.122293
 21
238.584678
  0
LINE
  8
2
 62
134
  6
CONTINUOUS
 10
49.122293
 20
248.084678
 11
48.604655
 21
250.016530
  0
LINE
  8
2
 62
134
  6
CONTINUOUS
 10
49.122293
 20
248.084678
 11
49.639931
 21
250.016530
  0
LINE
  8
2
 62
134
  6
CONTINUOUS
 10
48.604655
 20
250.016530
 11
49.639931
 21
250.016530
  0
LINE
  8
2
 62
134
  6
CONTINUOUS
 10
49.122293
 20
248.567641
 11
48.863474
 21
249.533567
  0
LINE
  8
2
 62
134
  6
CONTINUOUS
 10
49.122293
 20
248.567641
 11
49.381112
 21
249.533567
  0
LINE
  8
2
 62
134
  6
CONTINUOUS
 10
48.863474
 20
249.533567
 11
49.381112
 21
249.533567
  0
LINE
  8
2
 62
134
  6
CONTINUOUS
 10
49.122293
 20
246.584678
 11
49.639931
 21
244.652827
  0
LINE
  8
2
 62
134
  6
CONTINUOUS
 10
49.122293
 20
246.584678
 11
48.604655
 21
244.652827
  0
LINE
  8
2
 62
134
  6
CONTINUOUS
 10
49.639931
 20
244.652827
 11
48.604655
 21
244.652827
  0
LINE
  8
2
 62
134
  6
CONTINUOUS
 10
49.122293
 20
246.101716
 11
49.381112
 21
245.135790
  0
LINE
  8
2
 62
134
  6
CONTINUOUS
 10
49.122293
 20
246.101716
 11
48.863474
 21
245.135790
  0
LINE
  8
2
 62
134
  6
CONTINUOUS
 10
49.381112
 20
245.135790
 11
48.863474
 21
245.135790
  0
TEXT
  8
2
 62
134
  6
CONTINUOUS
 10
48.622293
 20
250.418832
 40
4.000000
 41
0.500000
  1
1.5
  7
KANJI
 50
90.000000
 51
30.000000
  0
ENDBLK
  0
BLOCK
  8
2
 62
134
  6
CONTINUOUS
  2
*D9
 70
    65
 10
0.0
 20
0.0
  0
LINE
  8
2
 62
134
  6
CONTINUOUS
 10
49.122293
 20
246.584678
 11
49.122293
 21
233.584678
  0
LINE
  8
2
 62
134
  6
CONTINUOUS
 10
49.122293
 20
246.584678
 11
49.639931
 21
244.652827
  0
LINE
  8
2
 62
134
  6
CONTINUOUS
 10
49.122293
 20
246.584678
 11
48.604655
 21
244.652827
  0
LINE
  8
2
 62
134
  6
CONTINUOUS
 10
49.639931
 20
244.652827
 11
48.604655
 21
244.652827
  0
LINE
  8
2
 62
134
  6
CONTINUOUS
 10
49.122293
 20
246.101716
 11
49.381112
 21
245.135790
  0
LINE
  8
2
 62
134
  6
CONTINUOUS
 10
49.122293
 20
246.101716
 11
48.863474
 21
245.135790
  0
LINE
  8
2
 62
134
  6
CONTINUOUS
 10
49.381112
 20
245.135790
 11
48.863474
 21
245.135790
  0
LINE
  8
2
 62
134
  6
CONTINUOUS
 10
49.122293
 20
233.584678
 11
48.604655
 21
235.516530
  0
LINE
  8
2
 62
134
  6
CONTINUOUS
 10
49.122293
 20
233.584678
 11
49.639931
 21
235.516530
  0
LINE
  8
2
 62
134
  6
CONTINUOUS
 10
48.604655
 20
235.516530
 11
49.639931
 21
235.516530
  0
LINE
  8
2
 62
134
  6
CONTINUOUS
 10
49.122293
 20
234.067641
 11
48.863474
 21
235.033567
  0
LINE
  8
2
 62
134
  6
CONTINUOUS
 10
49.122293
 20
234.067641
 11
49.381112
 21
235.033567
  0
LINE
  8
2
 62
134
  6
CONTINUOUS
 10
48.863474
 20
235.033567
 11
49.381112
 21
235.033567
  0
TEXT
  8
2
 62
134
  6
CONTINUOUS
 10
48.622293
 20
238.084678
 40
4.000000
 41
0.500000
  1
13
  7
KANJI
 50
90.000000
 51
30.000000
  0
ENDBLK
  0
BLOCK
  8
2
 62
134
  6
CONTINUOUS
  2
*D10
 70
    65
 10
0.0
 20
0.0
  0
LINE
  8
2
 62
134
  6
CONTINUOUS
 10
49.122293
 20
233.584678
 11
49.122293
 21
226.584678
  0
LINE
  8
2
 62
134
  6
CONTINUOUS
 10
49.122293
 20
233.584678
 11
49.639931
 21
231.652827
  0
LINE
  8
2
 62
134
  6
CONTINUOUS
 10
49.122293
 20
233.584678
 11
48.604655
 21
231.652827
  0
LINE
  8
2
 62
134
  6
CONTINUOUS
 10
49.639931
 20
231.652827
 11
48.604655
 21
231.652827
  0
LINE
  8
2
 62
134
  6
CONTINUOUS
 10
49.122293
 20
233.101716
 11
49.381112
 21
232.135790
  0
LINE
  8
2
 62
134
  6
CONTINUOUS
 10
49.122293
 20
233.101716
 11
48.863474
 21
232.135790
  0
LINE
  8
2
 62
134
  6
CONTINUOUS
 10
49.381112
 20
232.135790
 11
48.863474
 21
232.135790
  0
LINE
  8
2
 62
134
  6
CONTINUOUS
 10
49.122293
 20
226.584678
 11
48.604655
 21
228.516530
  0
LINE
  8
2
 62
134
  6
CONTINUOUS
 10
49.122293
 20
226.584678
 11
49.639931
 21
228.516530
  0
LINE
  8
2
 62
134
  6
CONTINUOUS
 10
48.604655
 20
228.516530
 11
49.639931
 21
228.516530
  0
LINE
  8
2
 62
134
  6
CONTINUOUS
 10
49.122293
 20
227.067641
 11
48.863474
 21
228.033567
  0
LINE
  8
2
 62
134
  6
CONTINUOUS
 10
49.122293
 20
227.067641
 11
49.381112
 21
228.033567
  0
LINE
  8
2
 62
134
  6
CONTINUOUS
 10
48.863474
 20
228.033567
 11
49.381112
 21
228.033567
  0
TEXT
  8
2
 62
134
  6
CONTINUOUS
 10
48.622293
 20
229.084678
 40
4.000000
 41
0.500000
  1
7
  7
KANJI
 50
90.000000
 51
30.000000
  0
ENDBLK
  0
BLOCK
  8
2
 62
134
  6
CONTINUOUS
  2
*D11
 70
    65
 10
0.0
 20
0.0
  0
LINE
  8
2
 62
134
  6
CONTINUOUS
 10
108.683071
 20
230.584678
 11
108.683071
 21
236.584678
  0
LINE
  8
2
 62
134
  6
CONTINUOUS
 10
110.683071
 20
230.584678
 11
95.485934
 21
230.584678
  0
LINE
  8
2
 62
134
  6
CONTINUOUS
 10
110.683071
 20
236.584678
 11
95.335595
 21
236.584678
  0
LINE
  8
2
 62
134
  6
CONTINUOUS
 10
108.683071
 20
230.584678
 11
108.165433
 21
232.516530
  0
LINE
  8
2
 62
134
  6
CONTINUOUS
 10
108.683071
 20
230.584678
 11
109.200709
 21
232.516530
  0
LINE
  8
2
 62
134
  6
CONTINUOUS
 10
108.165433
 20
232.516530
 11
109.200709
 21
232.516530
  0
LINE
  8
2
 62
134
  6
CONTINUOUS
 10
108.683071
 20
231.067641
 11
108.424252
 21
232.033567
  0
LINE
  8
2
 62
134
  6
CONTINUOUS
 10
108.683071
 20
231.067641
 11
108.941890
 21
232.033567
  0
LINE
  8
2
 62
134
  6
CONTINUOUS
 10
108.424252
 20
232.033567
 11
108.941890
 21
232.033567
  0
LINE
  8
2
 62
134
  6
CONTINUOUS
 10
108.683071
 20
236.584678
 11
109.200709
 21
234.652827
  0
LINE
  8
2
 62
134
  6
CONTINUOUS
 10
108.683071
 20
236.584678
 11
108.165433
 21
234.652827
  0
LINE
  8
2
 62
134
  6
CONTINUOUS
 10
109.200709
 20
234.652827
 11
108.165433
 21
234.652827
  0
LINE
  8
2
 62
134
  6
CONTINUOUS
 10
108.683071
 20
236.101716
 11
108.941890
 21
235.135790
  0
LINE
  8
2
 62
134
  6
CONTINUOUS
 10
108.683071
 20
236.101716
 11
108.424252
 21
235.135790
  0
LINE
  8
2
 62
134
  6
CONTINUOUS
 10
108.941890
 20
235.135790
 11
108.424252
 21
235.135790
  0
TEXT
  8
2
 62
134
  6
CONTINUOUS
 10
108.683071
 20
232.584678
 40
4.000000
 41
0.500000
  1
6
  7
KANJI
 50
90.000000
 51
30.000000
  0
ENDBLK
  0
BLOCK
  8
2
 62
134
  6
CONTINUOUS
  2
*D12
 70
    65
 10
0.0
 20
0.0
  0
LINE
  8
2
 62
134
  6
CONTINUOUS
 10
52.000000
 20
147.772420
 11
72.000000
 21
147.772420
  0
LINE
  8
2
 62
134
  6
CONTINUOUS
 10
60.000000
 20
145.772420
 11
60.000000
 21
154.584678
  0
LINE
  8
2
 62
134
  6
CONTINUOUS
 10
64.000000
 20
145.772420
 11
64.000000
 21
180.584678
  0
LINE
  8
2
 62
134
  6
CONTINUOUS
 10
60.000000
 20
147.772420
 11
58.068148
 21
147.254782
  0
LINE
  8
2
 62
134
  6
CONTINUOUS
 10
60.000000
 20
147.772420
 11
58.068148
 21
148.290058
  0
LINE
  8
2
 62
134
  6
CONTINUOUS
 10
58.068148
 20
147.254782
 11
58.068148
 21
148.290058
  0
LINE
  8
2
 62
134
  6
CONTINUOUS
 10
59.517037
 20
147.772420
 11
58.551111
 21
147.513601
  0
LINE
  8
2
 62
134
  6
CONTINUOUS
 10
59.517037
 20
147.772420
 11
58.551111
 21
148.031239
  0
LINE
  8
2
 62
134
  6
CONTINUOUS
 10
58.551111
 20
147.513601
 11
58.551111
 21
148.031239
  0
LINE
  8
2
 62
134
  6
CONTINUOUS
 10
64.000000
 20
147.772420
 11
65.931852
 21
148.290058
  0
LINE
  8
2
 62
134
  6
CONTINUOUS
 10
64.000000
 20
147.772420
 11
65.931852
 21
147.254782
  0
LINE
  8
2
 62
134
  6
CONTINUOUS
 10
65.931852
 20
148.290058
 11
65.931852
 21
147.254782
  0
LINE
  8
2
 62
134
  6
CONTINUOUS
 10
64.482963
 20
147.772420
 11
65.448889
 21
148.031239
  0
LINE
  8
2
 62
134
  6
CONTINUOUS
 10
64.482963
 20
147.772420
 11
65.448889
 21
147.513601
  0
LINE
  8
2
 62
134
  6
CONTINUOUS
 10
65.448889
 20
148.031239
 11
65.448889
 21
147.513601
  0
TEXT
  8
2
 62
134
  6
CONTINUOUS
 10
60.860796
 20
147.772420
 40
4.000000
 41
0.500000
  1
4
  7
KANJI
 50
0.000000
 51
30.000000
  0
ENDBLK
  0
BLOCK
  8
2
 62
134
  6
CONTINUOUS
  2
*D13
 70
    65
 10
0.0
 20
0.0
  0
LINE
  8
2
 62
134
  6
CONTINUOUS
 10
108.683071
 20
181.573114
 11
108.683071
 21
187.569423
  0
LINE
  8
2
 62
134
  6
CONTINUOUS
 10
110.683071
 20
181.573114
 11
89.646759
 21
181.573114
  0
LINE
  8
2
 62
134
  6
CONTINUOUS
 10
110.683071
 20
187.569423
 11
89.775662
 21
187.569423
  0
LINE
  8
2
 62
134
  6
CONTINUOUS
 10
108.683071
 20
181.573114
 11
108.165433
 21
183.504965
  0
LINE
  8
2
 62
134
  6
CONTINUOUS
 10
108.683071
 20
181.573114
 11
109.200709
 21
183.504965
  0
LINE
  8
2
 62
134
  6
CONTINUOUS
 10
108.165433
 20
183.504965
 11
109.200709
 21
183.504965
  0
LINE
  8
2
 62
134
  6
CONTINUOUS
 10
108.683071
 20
182.056076
 11
108.424252
 21
183.022002
  0
LINE
  8
2
 62
134
  6
CONTINUOUS
 10
108.683071
 20
182.056076
 11
108.941890
 21
183.022002
  0
LINE
  8
2
 62
134
  6
CONTINUOUS
 10
108.424252
 20
183.022002
 11
108.941890
 21
183.022002
  0
LINE
  8
2
 62
134
  6
CONTINUOUS
 10
108.683071
 20
187.569423
 11
109.200709
 21
185.637571
  0
LINE
  8
2
 62
134
  6
CONTINUOUS
 10
108.683071
 20
187.569423
 11
108.165433
 21
185.637571
  0
LINE
  8
2
 62
134
  6
CONTINUOUS
 10
109.200709
 20
185.637571
 11
108.165433
 21
185.637571
  0
LINE
  8
2
 62
134
  6
CONTINUOUS
 10
108.683071
 20
187.086460
 11
108.941890
 21
186.120534
  0
LINE
  8
2
 62
134
  6
CONTINUOUS
 10
108.683071
 20
187.086460
 11
108.424252
 21
186.120534
  0
LINE
  8
2
 62
134
  6
CONTINUOUS
 10
108.941890
 20
186.120534
 11
108.424252
 21
186.120534
  0
TEXT
  8
2
 62
134
  6
CONTINUOUS
 10
108.683071
 20
183.573114
 40
4.000000
 41
0.500000
  1
6
  7
KANJI
 50
90.000000
 51
30.000000
  0
ENDBLK
  0
BLOCK
  8
2
 62
134
  6
CONTINUOUS
  2
*D14
 70
    65
 10
0.0
 20
0.0
  0
LINE
  8
2
 62
134
  6
CONTINUOUS
 10
64.000000
 20
147.772420
 11
84.000000
 21
147.772420
  0
LINE
  8
2
 62
134
  6
CONTINUOUS
 10
64.000000
 20
145.772420
 11
64.000000
 21
180.584678
  0
LINE
  8
2
 62
134
  6
CONTINUOUS
 10
84.000000
 20
145.772420
 11
84.000000
 21
177.584761
  0
LINE
  8
2
 62
134
  6
CONTINUOUS
 10
64.000000
 20
147.772420
 11
65.931852
 21
148.290058
  0
LINE
  8
2
 62
134
  6
CONTINUOUS
 10
64.000000
 20
147.772420
 11
65.931852
 21
147.254782
  0
LINE
  8
2
 62
134
  6
CONTINUOUS
 10
65.931852
 20
148.290058
 11
65.931852
 21
147.254782
  0
LINE
  8
2
 62
134
  6
CONTINUOUS
 10
64.482963
 20
147.772420
 11
65.448889
 21
148.031239
  0
LINE
  8
2
 62
134
  6
CONTINUOUS
 10
64.482963
 20
147.772420
 11
65.448889
 21
147.513601
  0
LINE
  8
2
 62
134
  6
CONTINUOUS
 10
65.448889
 20
148.031239
 11
65.448889
 21
147.513601
  0
LINE
  8
2
 62
134
  6
CONTINUOUS
 10
84.000000
 20
147.772420
 11
82.068148
 21
147.254782
  0
LINE
  8
2
 62
134
  6
CONTINUOUS
 10
84.000000
 20
147.772420
 11
82.068148
 21
148.290058
  0
LINE
  8
2
 62
134
  6
CONTINUOUS
 10
82.068148
 20
147.254782
 11
82.068148
 21
148.290058
  0
LINE
  8
2
 62
134
  6
CONTINUOUS
 10
83.517037
 20
147.772420
 11
82.551111
 21
147.513601
  0
LINE
  8
2
 62
134
  6
CONTINUOUS
 10
83.517037
 20
147.772420
 11
82.551111
 21
148.031239
  0
LINE
  8
2
 62
134
  6
CONTINUOUS
 10
82.551111
 20
147.513601
 11
82.551111
 21
148.031239
  0
TEXT
  8
2
 62
134
  6
CONTINUOUS
 10
71.798869
 20
147.772420
 40
4.000000
 41
0.500000
  1
20
  7
KANJI
 50
0.000000
 51
30.000000
  0
ENDBLK
  0
ENDSEC
  0
SECTION
  2
ENTITIES
  0
TEXT
  8
5
 62
94
  6
CONTINUOUS
 10
124.208811
 20
25.651490
 40
1.750000
 41
4.000000
  1
製図
  7
KANJI
 50
-90.000000
 51
0.000000
  0
TEXT
  8
5
 62
94
  6
CONTINUOUS
 10
144.041593
 20
25.487583
 40
1.750000
 41
4.000000
  1
図番
  7
KANJI
 50
-90.000000
 51
0.000000
  0
TEXT
  8
5
 62
94
  6
CONTINUOUS
 10
144.041593
 20
38.764073
 40
1.750000
 41
4.000000
  1
図　名
  7
KANJI
 50
-90.000000
 51
0.000000
  0
TEXT
  8
5
 62
94
  6
CONTINUOUS
 10
79.134308
 20
33.355132
 40
1.750000
 41
4.000000
  1
日付
  7
KANJI
 50
-90.000000
 51
0.000000
  0
TEXT
  8
5
 62
94
  6
CONTINUOUS
 10
114.210467
 20
33.519040
 40
1.750000
 41
4.000000
  1
図法
  7
KANJI
 50
-90.000000
 51
0.000000
  0
TEXT
  8
5
 62
94
  6
CONTINUOUS
 10
114.046560
 20
41.550497
 40
1.750000
 41
4.000000
  1
尺度
  7
KANJI
 50
-90.000000
 51
0.000000
  0
TEXT
  8
5
 62
94
  6
CONTINUOUS
 10
79.134308
 20
41.386589
 40
1.750000
 41
4.000000
  1
公差
  7
KANJI
 50
-90.000000
 51
0.000000
  0
TEXT
  8
5
 62
94
  6
CONTINUOUS
 10
79.134308
 20
25.487583
 40
1.750000
 41
4.000000
  1
承認
  7
KANJI
 50
-90.000000
 51
0.000000
  0
TEXT
  8
5
 62
94
  6
CONTINUOUS
 10
104.212123
 20
25.487583
 40
1.750000
 41
4.000000
  1
設計
  7
KANJI
 50
-90.000000
 51
0.000000
  0
TEXT
  8
5
 62
94
  6
CONTINUOUS
 10
97.655831
 20
11.555464
 40
4.500000
 41
1.888889
  1
ジャパンセンサー株式会社
  7
KANJI
 50
0.000000
 51
0.000000
  0
LINE
  8
5
 62
94
  6
CONTINUOUS
 10
198.246063
 20
10.000000
 11
198.246063
 21
285.000000
  0
LINE
  8
5
 62
94
  6
CONTINUOUS
 10
198.246063
 20
285.000000
 11
13.246063
 21
285.000000
  0
LINE
  8
5
 62
94
  6
CONTINUOUS
 10
13.246063
 20
285.000000
 11
13.246063
 21
10.000000
  0
LINE
  8
5
 62
94
  6
CONTINUOUS
 10
13.246063
 20
10.000000
 11
198.246063
 21
10.000000
  0
LINE
  8
5
 62
94
  6
CONTINUOUS
 10
78.246063
 20
42.000000
 11
198.246063
 21
42.000000
  0
LINE
  8
5
 62
94
  6
CONTINUOUS
 10
78.246063
 20
10.000000
 11
78.246063
 21
42.000000
  0
LINE
  8
5
 62
94
  6
CONTINUOUS
 10
198.246063
 20
18.000000
 11
78.246063
 21
18.000000
  0
LINE
  8
5
 62
94
  6
CONTINUOUS
 10
143.246063
 20
42.000000
 11
143.246063
 21
18.000000
  0
LINE
  8
5
 62
94
  6
CONTINUOUS
 10
198.246063
 20
26.000000
 11
78.246063
 21
26.000000
  0
LINE
  8
5
 62
94
  6
CONTINUOUS
 10
148.246063
 20
18.000000
 11
148.246063
 21
42.000000
  0
LINE
  8
5
 62
94
  6
CONTINUOUS
 10
118.246063
 20
42.000000
 11
118.246063
 21
26.000000
  0
LINE
  8
5
 62
94
  6
CONTINUOUS
 10
83.246063
 20
18.000000
 11
83.246063
 21
42.000000
  0
LINE
  8
5
 62
94
  6
CONTINUOUS
 10
78.246063
 20
34.000000
 11
143.246063
 21
34.000000
  0
LINE
  8
5
 62
94
  6
CONTINUOUS
 10
113.246063
 20
42.000000
 11
113.246063
 21
26.000000
  0
LINE
  8
5
 62
94
  6
CONTINUOUS
 10
103.246063
 20
18.000000
 11
103.246063
 21
26.000000
  0
LINE
  8
5
 62
94
  6
CONTINUOUS
 10
123.246063
 20
18.000000
 11
123.246063
 21
26.000000
  0
LINE
  8
5
 62
94
  6
CONTINUOUS
 10
108.246063
 20
26.000000
 11
108.246063
 21
18.000000
  0
LINE
  8
5
 62
94
  6
CONTINUOUS
 10
128.246063
 20
26.000000
 11
128.246063
 21
18.000000
  0
TEXT
  8
5
 62
94
  6
CONTINUOUS
 10
123.225368
 20
35.649834
 40
4.000000
 41
1.000000
  1
１／１
  7
KANJI
 50
0.000000
 51
0.000000
  0
TEXT
  8
5
 62
94
  6
CONTINUOUS
 10
122.241924
 20
27.290563
 40
4.000000
 41
1.000000
  1
三角法
  7
KANJI
 50
0.000000
 51
0.000000
  0
CIRCLE
  8
1
 62
7
  6
CONTINUOUS
 10
70.000000
 20
233.584678
 40
2.000000
  0
ARC
  8
1
 62
7
  6
CONTINUOUS
 10
90.000000
 20
230.584678
 40
2.000000
 50
180.000000
 51
-90.000000
  0
LINE
  8
1
 62
7
  6
CONTINUOUS
 10
88.000000
 20
230.584678
 11
88.000000
 21
236.584678
  0
ARC
  8
1
 62
7
  6
CONTINUOUS
 10
90.000000
 20
236.584678
 40
2.000000
 50
90.000000
 51
180.000000
  0
ARC
  8
1
 62
7
  6
CONTINUOUS
 10
90.000000
 20
230.584678
 40
2.000000
 50
-90.000000
 51
0.000000
  0
LINE
  8
1
 62
7
  6
CONTINUOUS
 10
92.000000
 20
236.584678
 11
92.000000
 21
230.584678
  0
ARC
  8
1
 62
7
  6
CONTINUOUS
 10
90.000000
 20
236.584678
 40
2.000000
 50
0.000000
 51
90.000000
  0
LINE
  8
2
 62
134
  6
CONTINUOUS
 10
60.000000
 20
226.584678
 11
60.000000
 21
215.193930
  0
LINE
  8
2
 62
134
  6
CONTINUOUS
 10
90.000000
 20
226.584678
 11
90.000000
 21
215.047769
  0
LINE
  8
2
 62
134
  6
CONTINUOUS
 10
71.413159
 20
234.999945
 11
88.000000
 21
256.996096
  0
LINE
  8
2
 62
134
  6
CONTINUOUS
 10
88.000000
 20
256.996096
 11
94.000000
 21
256.996096
  0
TEXT
  8
2
 62
134
  6
CONTINUOUS
 10
88.000000
 20
257.434580
 40
4.000000
 41
0.750000
  1
φ4
  7
KANJI
 50
0.000000
 51
30.000000
  0
LINE
  8
2
 62
134
  6
CONTINUOUS
 10
71.413159
 20
234.999945
 11
72.162994
 21
236.854062
  0
LINE
  8
2
 62
134
  6
CONTINUOUS
 10
71.413159
 20
234.999945
 11
72.989593
 21
236.230740
  0
LINE
  8
2
 62
134
  6
CONTINUOUS
 10
72.162994
 20
236.854062
 11
72.989593
 21
236.230740
  0
LINE
  8
2
 62
134
  6
CONTINUOUS
 10
71.703943
 20
235.385559
 11
72.078860
 21
236.312618
  0
LINE
  8
2
 62
134
  6
CONTINUOUS
 10
71.703943
 20
235.385559
 11
72.492160
 21
236.000957
  0
LINE
  8
2
 62
134
  6
CONTINUOUS
 10
72.078860
 20
236.312618
 11
72.492160
 21
236.000957
  0
LINE
  8
2
 62
134
  6
CONTINUOUS
 10
91.353097
 20
238.057475
 11
103.713583
 21
256.996096
  0
LINE
  8
2
 62
134
  6
CONTINUOUS
 10
103.713583
 20
256.996096
 11
111.713583
 21
256.996096
  0
TEXT
  8
2
 62
134
  6
CONTINUOUS
 10
103.713583
 20
256.996096
 40
4.000000
 41
0.500000
  1
2-R2
  7
KANJI
 50
0.000000
 51
30.000000
  0
LINE
  8
2
 62
134
  6
CONTINUOUS
 10
91.353097
 20
238.057475
 11
91.975474
 21
239.958171
  0
LINE
  8
2
 62
134
  6
CONTINUOUS
 10
91.353097
 20
238.057475
 11
92.842440
 21
239.392337
  0
LINE
  8
2
 62
134
  6
CONTINUOUS
 10
91.975474
 20
239.958171
 11
92.842440
 21
239.392337
  0
LINE
  8
2
 62
134
  6
CONTINUOUS
 10
91.617062
 20
238.461920
 11
91.928251
 21
239.412268
  0
LINE
  8
2
 62
134
  6
CONTINUOUS
 10
91.617062
 20
238.461920
 11
92.361733
 21
239.129351
  0
LINE
  8
2
 62
134
  6
CONTINUOUS
 10
91.928251
 20
239.412268
 11
92.361733
 21
239.129351
  0
CIRCLE
  8
1
 62
7
  6
CONTINUOUS
 10
64.000000
 20
184.584678
 40
2.000000
  0
LINE
  8
1
 62
7
  6
CONTINUOUS
 10
60.000000
 20
156.584678
 11
100.000000
 21
156.584678
  0
LINE
  8
1
 62
7
  6
CONTINUOUS
 10
60.000000
 20
156.584678
 11
60.000000
 21
194.584678
  0
LINE
  8
1
 62
7
  6
CONTINUOUS
 10
60.000000
 20
194.584678
 11
62.000000
 21
196.584678
  0
LINE
  8
1
 62
7
  6
CONTINUOUS
 10
62.000000
 20
196.584678
 11
98.000000
 21
196.584678
  0
LINE
  8
1
 62
7
  6
CONTINUOUS
 10
100.000000
 20
156.584678
 11
100.000000
 21
194.584678
  0
LINE
  8
1
 62
7
  6
CONTINUOUS
 10
98.000000
 20
196.584678
 11
100.000000
 21
194.584678
  0
LINE
  8
2
 62
134
  6
CONTINUOUS
 10
100.000000
 20
156.584678
 11
100.000000
 21
137.947621
  0
LINE
  8
2
 62
134
  6
CONTINUOUS
 10
60.000000
 20
156.584678
 11
60.000000
 21
137.216814
  0
LINE
  8
2
 62
134
  6
CONTINUOUS
 10
65.200049
 20
182.965338
 11
74.262057
 21
173.903330
  0
LINE
  8
2
 62
134
  6
CONTINUOUS
 10
74.262057
 20
173.903330
 11
80.700541
 21
173.903330
  0
TEXT
  8
2
 62
134
  6
CONTINUOUS
 10
74.700541
 20
174.195653
 40
4.000000
 41
0.750000
  1
φ4
  7
KANJI
 50
0.000000
 51
30.000000
  0
LINE
  8
2
 62
134
  6
CONTINUOUS
 10
65.200049
 20
182.965338
 11
66.932100
 21
181.965338
  0
LINE
  8
2
 62
134
  6
CONTINUOUS
 10
65.200049
 20
182.965338
 11
66.200049
 21
181.233287
  0
LINE
  8
2
 62
134
  6
CONTINUOUS
 10
66.932100
 20
181.965338
 11
66.200049
 21
181.233287
  0
LINE
  8
2
 62
134
  6
CONTINUOUS
 10
65.541556
 20
182.623832
 11
66.407581
 21
182.123832
  0
LINE
  8
2
 62
134
  6
CONTINUOUS
 10
65.541556
 20
182.623832
 11
66.041556
 21
181.757806
  0
LINE
  8
2
 62
134
  6
CONTINUOUS
 10
66.407581
 20
182.123832
 11
66.041556
 21
181.757806
  0
LINE
  8
1
 62
7
  6
CONTINUOUS
 10
140.000000
 20
158.084678
 11
140.000000
 21
156.584678
  0
LINE
  8
1
 62
7
  6
CONTINUOUS
 10
161.500000
 20
196.584678
 11
160.000000
 21
196.584678
  0
LINE
  8
1
 62
7
  6
CONTINUOUS
 10
160.000000
 20
196.584678
 11
160.000000
 21
158.084678
  0
LINE
  8
1
 62
7
  6
CONTINUOUS
 10
160.000000
 20
158.084678
 11
140.000000
 21
158.084678
  0
LINE
  8
1
 62
7
  6
CONTINUOUS
 10
161.500000
 20
158.084678
 11
161.500000
 21
196.584678
  0
LINE
  8
1
 62
7
  6
CONTINUOUS
 10
140.000000
 20
156.584678
 11
160.000000
 21
156.584678
  0
ARC
  8
1
 62
7
  6
CONTINUOUS
 10
160.000000
 20
158.084678
 40
1.500000
 50
-90.000000
 51
0.000000
  0
DIMENSION
  8
2
 62
134
  6
CONTINUOUS
  2
*D1
 10
140.000000
 20
147.155791
 11
150.750000
 21
147.655791
 70
     0
  1
21.5
 13
140.000000
 23
147.155791
 14
161.500000
 24
147.155791
 50
0.000000
  0
DIMENSION
  8
2
 62
134
  6
CONTINUOUS
  2
*D2
 10
170.710322
 20
196.584678
 11
170.210322
 21
176.584678
 70
     0
  1
40
 13
170.710322
 23
196.584678
 14
170.710322
 24
156.584678
 50
-90.000000
  0
LINE
  8
1
 62
7
  6
CONTINUOUS
 10
100.000000
 20
248.084678
 11
60.000000
 21
248.084678
  0
LINE
  8
1
 62
7
  6
CONTINUOUS
 10
60.000000
 20
248.084678
 11
60.000000
 21
228.584678
  0
LINE
  8
1
 62
7
  6
CONTINUOUS
 10
62.000000
 20
226.584678
 11
98.000000
 21
226.584678
  0
LINE
  8
1
 62
7
  6
CONTINUOUS
 10
100.000000
 20
248.084678
 11
100.000000
 21
228.584678
  0
LINE
  8
1
 62
7
  6
CONTINUOUS
 10
60.000000
 20
228.584678
 11
62.000000
 21
226.584678
  0
LINE
  8
1
 62
7
  6
CONTINUOUS
 10
98.000000
 20
226.584678
 11
100.000000
 21
228.584678
  0
LINE
  8
1
 62
7
  6
CONTINUOUS
 10
60.000000
 20
246.584678
 11
100.000000
 21
246.584678
  0
LINE
  8
1
 62
7
  6
CONTINUOUS
 10
60.000000
 20
158.084678
 11
100.000000
 21
158.084678
  0
DIMENSION
  8
2
 62
134
  6
CONTINUOUS
  2
*D3
 10
60.000000
 20
139.774639
 11
80.000000
 21
140.274639
 70
     0
  1
40
 13
60.000000
 23
139.774639
 14
100.000000
 24
139.774639
 50
0.000000
  0
DIMENSION
  8
2
 62
134
  6
CONTINUOUS
  2
*D4
 10
49.414616
 20
196.584678
 11
48.914616
 21
190.584678
 70
     0
  1
12
 13
49.414616
 23
196.584678
 14
49.414616
 24
184.584678
 50
-90.000000
  0
DIMENSION
  8
2
 62
134
  6
CONTINUOUS
  2
*D5
 10
49.414616
 20
184.584678
 11
48.914616
 21
170.584678
 70
     0
  1
28
 13
49.414616
 23
184.584678
 14
49.414616
 24
156.584678
 50
-90.000000
  0
LINE
  8
2
 62
134
  6
CONTINUOUS
 10
60.000000
 20
184.584678
 11
46.856791
 21
184.584678
  0
LINE
  8
2
 62
134
  6
CONTINUOUS
 10
60.000000
 20
196.584678
 11
47.002953
 21
196.584678
  0
LINE
  8
2
 62
134
  6
CONTINUOUS
 10
60.000000
 20
156.584678
 11
46.856791
 21
156.584678
  0
DIMENSION
  8
2
 62
134
  6
CONTINUOUS
  2
*D6
 10
60.025591
 20
217.240190
 11
65.025591
 21
217.740190
 70
     0
  1
10
 13
60.025591
 23
217.240190
 14
70.025591
 24
217.240190
 50
0.000000
  0
DIMENSION
  8
2
 62
134
  6
CONTINUOUS
  2
*D7
 10
70.025591
 20
217.240190
 11
80.025591
 21
217.740190
 70
     0
  1
20
 13
70.025591
 23
217.240190
 14
90.025591
 24
217.240190
 50
0.000000
  0
LINE
  8
2
 62
134
  6
CONTINUOUS
 10
70.096457
 20
226.867159
 11
70.096457
 21
215.330249
  0
DIMENSION
  8
2
 62
134
  6
CONTINUOUS
  2
*D8
 10
49.122293
 20
248.084678
 11
48.622293
 21
253.418832
 70
     0
  1
1.5
 13
49.122293
 23
248.084678
 14
49.122293
 24
246.584678
 50
-90.000000
  0
DIMENSION
  8
2
 62
134
  6
CONTINUOUS
  2
*D9
 10
49.122293
 20
246.584678
 11
48.622293
 21
240.084678
 70
     0
  1
13
 13
49.122293
 23
246.584678
 14
49.122293
 24
233.584678
 50
-90.000000
  0
DIMENSION
  8
2
 62
134
  6
CONTINUOUS
  2
*D10
 10
49.122293
 20
233.584678
 11
48.622293
 21
230.084678
 70
     0
  1
7
 13
49.122293
 23
233.584678
 14
49.122293
 24
226.584678
 50
-90.000000
  0
LINE
  8
2
 62
134
  6
CONTINUOUS
 10
59.988681
 20
233.584678
 11
47.002953
 21
233.584678
  0
LINE
  8
2
 62
134
  6
CONTINUOUS
 10
60.000000
 20
226.584678
 11
47.149114
 21
226.584678
  0
LINE
  8
2
 62
134
  6
CONTINUOUS
 10
60.000000
 20
246.584678
 11
47.295276
 21
246.584678
  0
LINE
  8
2
 62
134
  6
CONTINUOUS
 10
60.000000
 20
248.084678
 11
47.149114
 21
248.084678
  0
LINE
  8
2
 62
134
  6
CONTINUOUS
 10
161.500000
 20
196.584678
 11
172.701772
 21
196.584678
  0
LINE
  8
2
 62
134
  6
CONTINUOUS
 10
161.500000
 20
156.584678
 11
172.555610
 21
156.584678
  0
LINE
  8
2
 62
134
  6
CONTINUOUS
 10
161.500000
 20
156.584678
 11
161.500000
 21
145.036450
  0
LINE
  8
2
 62
134
  6
CONTINUOUS
 10
140.000000
 20
156.584678
 11
140.000000
 21
145.036450
  0
LINE
  8
1
 62
7
  6
DASHDOT
 10
67.977116
 20
184.573114
 11
101.375000
 21
184.573114
  0
LINE
  8
1
 62
7
  6
DASHDOT
 10
64.000000
 20
189.584678
 11
64.000000
 21
179.584678
  0
LINE
  8
1
 62
7
  6
DASHDOT
 10
60.742126
 20
184.573114
 11
68.488681
 21
184.573114
  0
LINE
  8
1
 62
7
  6
DASHDOT
 10
90.000000
 20
240.772178
 11
90.000000
 21
227.471489
  0
LINE
  8
1
 62
7
  6
DASHDOT
 10
70.000000
 20
240.187533
 11
70.000000
 21
227.471489
  0
LINE
  8
1
 62
7
  6
DASHDOT
 10
60.522884
 20
233.584678
 11
98.963337
 21
233.584678
  0
LINE
  8
1
 62
7
  6
DASHDOT
 10
86.871035
 20
230.584678
 11
93.485934
 21
230.584678
  0
LINE
  8
1
 62
7
  6
DASHDOT
 10
87.096543
 20
236.584678
 11
93.335595
 21
236.584678
  0
DIMENSION
  8
2
 62
134
  6
CONTINUOUS
  2
*D11
 10
108.683071
 20
230.584678
 11
108.683071
 21
233.584678
 70
     0
  1
6
 13
95.485934
 23
230.584678
 14
95.335595
 24
236.584678
 50
90.000000
  0
DIMENSION
  8
2
 62
134
  6
CONTINUOUS
  2
*D12
 10
60.000000
 20
147.772420
 11
61.860796
 21
147.772420
 70
     0
  1
4
 13
60.000000
 23
154.584678
 14
64.000000
 24
180.584678
 50
0.000000
  0
ARC
  8
1
 62
7
  6
CONTINUOUS
 10
84.018209
 20
181.584678
 40
2.000000
 50
180.000000
 51
-90.000000
  0
LINE
  8
1
 62
7
  6
CONTINUOUS
 10
82.018209
 20
181.584678
 11
82.018209
 21
187.584678
  0
ARC
  8
1
 62
7
  6
CONTINUOUS
 10
84.018209
 20
187.584678
 40
2.000000
 50
90.000000
 51
180.000000
  0
ARC
  8
1
 62
7
  6
CONTINUOUS
 10
84.018209
 20
181.584678
 40
2.000000
 50
-90.000000
 51
0.000000
  0
LINE
  8
1
 62
7
  6
CONTINUOUS
 10
86.018209
 20
187.584678
 11
86.018209
 21
181.584678
  0
ARC
  8
1
 62
7
  6
CONTINUOUS
 10
84.018209
 20
187.584678
 40
2.000000
 50
0.000000
 51
90.000000
  0
LINE
  8
2
 62
134
  6
CONTINUOUS
 10
85.388533
 20
180.115190
 11
91.582185
 21
173.903330
  0
LINE
  8
2
 62
134
  6
CONTINUOUS
 10
91.582185
 20
173.903330
 11
99.362943
 21
173.903330
  0
TEXT
  8
2
 62
134
  6
CONTINUOUS
 10
91.362943
 20
174.049491
 40
4.000000
 41
0.500000
  1
2-R2
  7
KANJI
 50
0.000000
 51
30.000000
  0
LINE
  8
2
 62
134
  6
CONTINUOUS
 10
85.388533
 20
180.115190
 11
87.119115
 21
179.112649
  0
LINE
  8
2
 62
134
  6
CONTINUOUS
 10
85.388533
 20
180.115190
 11
86.385990
 21
178.381674
  0
LINE
  8
2
 62
134
  6
CONTINUOUS
 10
87.119115
 20
179.112649
 11
86.385990
 21
178.381674
  0
LINE
  8
2
 62
134
  6
CONTINUOUS
 10
85.729538
 20
179.773183
 11
86.594829
 21
179.271912
  0
LINE
  8
2
 62
134
  6
CONTINUOUS
 10
85.729538
 20
179.773183
 11
86.228267
 21
178.906425
  0
LINE
  8
2
 62
134
  6
CONTINUOUS
 10
86.594829
 20
179.271912
 11
86.228267
 21
178.906425
  0
LINE
  8
1
 62
7
  6
DASHDOT
 10
80.686014
 20
187.569423
 11
87.775662
 21
187.569423
  0
LINE
  8
1
 62
7
  6
DASHDOT
 10
84.000000
 20
191.274523
 11
84.000000
 21
177.481936
  0
LINE
  8
1
 62
7
  6
DASHDOT
 10
80.170404
 20
181.573114
 11
87.646759
 21
181.573114
  0
DIMENSION
  8
2
 62
134
  6
CONTINUOUS
  2
*D13
 10
108.683071
 20
181.573114
 11
108.683071
 21
184.573114
 70
     0
  1
6
 13
89.646759
 23
181.573114
 14
89.775662
 24
187.569423
 50
90.000000
  0
DIMENSION
  8
2
 62
134
  6
CONTINUOUS
  2
*D14
 10
64.000000
 20
147.772420
 11
73.798869
 21
147.772420
 70
     0
  1
20
 13
64.000000
 23
180.584678
 14
84.000000
 24
177.584761
 50
0.000000
  0
LINE
  8
1
 62
7
  6
DASHDOT
 10
155.061105
 20
184.584678
 11
165.430178
 21
184.584678
  0
TEXT
  8
5
 62
94
  6
CONTINUOUS
 10
111.667323
 20
19.877953
 40
4.000000
 41
1.000000
  1
須藤
  7
KANJI
 50
0.000000
 51
0.000000
  0
LINE
  8
1
 62
7
  6
DASHDOT
 10
147.000000
 20
162.505520
 11
147.000000
 21
150.000000
  0
LINE
  8
1
 62
7
  6
DASHDOT
 10
70.000000
 20
161.502831
 11
70.000000
 21
153.093609
  0
LINE
  8
1
 62
7
  6
DASHDOT
 10
90.000000
 20
161.129088
 11
90.000000
 21
153.654224
  0
TEXT
  8
5
 62
94
  6
CONTINUOUS
 10
88.281496
 20
28.062992
 40
4.000000
 41
0.500000
  1
2006/12/14
  7
KANJI
 50
0.000000
 51
0.000000
  0
TEXT
  8
5
 62
94
  6
CONTINUOUS
 10
131.667323
 20
19.877953
 40
4.000000
 41
1.000000
  1
須藤
  7
KANJI
 50
0.000000
 51
0.000000
  0
TEXT
  8
5
 62
94
  6
CONTINUOUS
 10
155.808071
 20
28.062992
 40
4.000000
 41
1.000000
  1
ＦＴＸ９－１
  7
KANJI
 50
0.000000
 51
0.000000
  0
TEXT
  8
5
 62
94
  6
CONTINUOUS
 10
154.961742
 20
35.597498
 40
4.000000
 41
1.000000
  1
角ヘッド取付金具
  7
KANJI
 50
0.000000
 51
0.000000
  0
TEXT
  8
2
 62
134
  6
CONTINUOUS
 10
125.930118
 20
125.236220
 40
4.000000
 41
1.000000
  1
重量：約３０ｇ
  7
KANJI
 50
0.000000
 51
0.000000
  0
TEXT
  8
5
 62
94
  6
CONTINUOUS
 10
148.792323
 20
19.877953
 40
4.000000
 41
1.000000
  1
０１５－８７７－Ａ１２１
  7
KANJI
 50
0.000000
 51
0.000000
  0
ENDSEC
  0
EOF
