  0
SECTION
  2
HEADER
  9
$ACADVER
  1
AC1003
  9
$INSBASE
 10
0.000000
 20
0.000000
  9
$EXTMIN
 10
0.000000
 20
0.000000
  9
$EXTMAX
 10
210.000000
 20
297.000000
  9
$LIMMIN
 10
0.000000
 20
0.000000
  9
$LIMMAX
 10
210.000000
 20
297.000000
  9
$VIEWCTR
 10
105.000000
 20
148.500000
  9
$VIEWSIZE
 40
297.000000
  9
$PEXTMIN
 10
0.000000
 20
0.000000
 30
0.000000
  9
$PEXTMAX
 10
210.000000
 20
297.000000
 30
0.000000
  9
$SNAPMODE
 70
     0
  9
$SNAPUNIT
 10
1.000000
 20
1.000000
  9
$SNAPBASE
 10
0.000000
 20
0.000000
  9
$SNAPANG
 50
0.000000
  9
$SNAPISOPAIR
 70
     0
  9
$SNAPSTYLE
 70
     0
  9
$GRIDMODE
 70
     0
  9
$GRIDUNIT
 10
0.000000
 20
0.000000
  9
$ORTHOMODE
 70
     0
  9
$REGENMODE
 70
     1
  9
$FILLMODE
 70
     1
  9
$QTEXTMODE
 70
     0
  9
$DRAGMODE
 70
     2
  9
$LTSCALE
 40
0.250000
  9
$OSMODE
 70
     0
  9
$ATTMODE
 70
     1
  9
$TEXTSIZE
 40
0.200000
  9
$TRACEWID
 40
0.050000
  9
$TEXTSTYLE
  7
STANDARD
  9
$CLAYER
  8
0
  9
$CELTYPE
  6
BYLAYER
  9
$CECOLOR
 62
   256
  9
$DIMSCALE
 40
1.000000
  9
$DIMASZ
 40
1.000000
  9
$DIMEXO
 40
0.000000
  9
$DIMDLI
 40
0.500000
  9
$DIMRND
 40
0.000000
  9
$DIMDLE
 40
0.000000
  9
$DIMEXE
 40
0.000000
  9
$DIMTP
 40
0.000000
  9
$DIMTM
 40
0.000000
  9
$DIMTXT
 40
0.180000
  9
$DIMCEN
 40
0.000000
  9
$DIMTSZ
 40
0.000000
  9
$DIMTOL
 70
     0
  9
$DIMLIM
 70
     0
  9
$DIMTIH
 70
     1
  9
$DIMTOH
 70
     1
  9
$DIMSE1
 70
     0
  9
$DIMSE2
 70
     0
  9
$DIMTAD
 70
     0
  9
$DIMZIN
 70
     0
  9
$DIMBLK
  1

  9
$DIMASO
 70
     0
  9
$DIMSHO
 70
     0
  9
$DIMPOST
  1

  9
$DIMAPOST
  1

  9
$DIMALT
 70
     0
  9
$DIMALTD
 70
     0
  9
$DIMALTF
 40
25.400000
  9
$DIMLFAC
 40
1.000000
  9
$DIMTOFL
 70
     0
  9
$DIMTVP
 40
0.000000
  9
$DIMTIX
 70
     0
  9
$DIMSOXD
 70
     0
  9
$DIMSAH
 70
     0
  9
$DIMBLKL
  1

  9
$DIMBLKR
  1

  9
$LUNITS
 70
     2
  9
$LUPREC
 70
     2
  9
$AXISMODE
 70
     0
  9
$AXISUNIT
 10
1.000000
 20
1.000000
  9
$SKETCHINC
 40
0.000000
  9
$FILLETRAD
 40
0.000000
  9
$AUNITS
 70
     1
  9
$AUPREC
 70
     2
  9
$MENU
  1
ACAD
  9
$ELEVATION
 40
0.000000
  9
$THICKNESS
 40
0.000000
  9
$VIEWDIR
 10
0.000000
 20
0.000000
 30
1.000000
  9
$LIMCHECK
 70
     1
  9
$BLIPMODE
 70
     1
  9
$CHAMFERA
 40
0.000000
  9
$CHAMFERB
 40
0.000000
  9
$FASTZOOM
 70
     1
  9
$SKPOLY
 70
     0
  9
$TDCREATE
 40
0.000000
  9
$TDUPDATE
 40
0.000000
  9
$TDINDWG
 40
0.000000
  9
$TDUSRTIMER
 40
0.000000
  9
$USRTIMER
 70
     1
  9
$ANGBASE
 50
0.000000
  9
$ANGDIR
 70
     0
  9
$PDMODE
 70
     0
  9
$PDSIZE
 40
0.000000
  9
$PLINEWID
 40
0.000000
  9
$COORDS
 70
     2
  9
$USERI1
 70
     0
  9
$USERI2
 70
     0
  9
$USERI3
 70
     0
  9
$USERI4
 70
     0
  9
$USERI5
 70
     0
  9
$USERR1
 40
0.000000
  9
$USERR2
 40
0.000000
  9
$USERR3
 40
0.000000
  9
$USERR4
 40
0.000000
  9
$USERR5
 40
0.000000
  0
ENDSEC
  0
SECTION
  2
TABLES
  0
TABLE
  2
LTYPE
 70
     5
  0
LTYPE
  2
CONTINUOUS
 70
    64
  3
Solid line
 72
    65
 73
     0
 40
0.0
  0
LTYPE
  2
HIDDEN
 70
    64
  3
------------------------
 72
    65
 73
     2
 40
12.6
 49
8.4
 49
-4.2
  0
LTYPE
  2
DOT
 70
    64
  3
････････････････････････
 72
    65
 73
     2
 40
8.0
 49
6.0
 49
-2.0
  0
LTYPE
  2
DASHDOT
 70
    64
  3
--･--･--･--･--･--･--･--
 72
    65
 73
     4
 40
50.5
 49
30.0
 49
-9.0
 49
2.5
 49
-9.0
  0
LTYPE
  2
DIVIDE
 70
    64
  3
--･･--･･--･･--･･--･･--
 72
    65
 73
     6
 40
58.0
 49
30.0
 49
-9.0
 49
2.5
 49
-5.0
 49
2.5
 49
-9.0
  0
LTYPE
  2
ACAD_ISO06W100
 70
    64
  3
____ ... ____ ... ____
 72
    65
 73
     8
 40
37.5
 49
24.0
 49
-3.0
 49
0.5
 49
-3.0
 49
0.5
 49
-3.0
 49
0.5
 49
-3.0
  0
LTYPE
  2
ACAD_ISO14W100
 70
    64
  3
__ . . . __ . . . __ . . . 
 72
    65
 73
     8
 40
25.5
 49
12.0
 49
-3.0
 49
0.5
 49
-3.0
 49
0.5
 49
-3.0
 49
0.5
 49
-3.0
  0
ENDTAB
  0
TABLE
  2
LAYER
 70
3
  0
LAYER
  2
1
 70
64
 62
7
  6
CONTINUOUS
  0
LAYER
  2
2
 70
64
 62
134
  6
CONTINUOUS
  0
LAYER
  2
5
 70
64
 62
94
  6
CONTINUOUS
  0
ENDTAB
  0
TABLE
  2
STYLE
 70
     2
  0
STYLE
  2
STANDARD
 70
    64
 40
0.0
 41
1.0
 50
0.0
 71
     0
 42
0.2
  3
TXT
  4

  0
STYLE
  2
KANJI
 70
    64
 40
0.0
 41
1.0
 50
0.0
 71
     0
 42
0.2
  3
TXT
  4
BIGFONT
  0
ENDTAB
  0
TABLE
  2
VIEW
 70
     0
  0
ENDTAB
  0
ENDSEC
  0
SECTION
  2
BLOCKS
  0
BLOCK
  8
2
 62
134
  6
CONTINUOUS
  2
*D1
 70
    65
 10
0.0
 20
0.0
  0
LINE
  8
2
 62
134
  6
CONTINUOUS
 10
25.032972
 20
262.541339
 11
25.032972
 21
212.541339
  0
LINE
  8
2
 62
134
  6
CONTINUOUS
 10
25.032972
 20
262.541339
 11
25.550611
 21
260.609487
  0
LINE
  8
2
 62
134
  6
CONTINUOUS
 10
25.032972
 20
262.541339
 11
24.515334
 21
260.609487
  0
LINE
  8
2
 62
134
  6
CONTINUOUS
 10
25.550611
 20
260.609487
 11
24.515334
 21
260.609487
  0
LINE
  8
2
 62
134
  6
CONTINUOUS
 10
25.032972
 20
262.058376
 11
25.291791
 21
261.092450
  0
LINE
  8
2
 62
134
  6
CONTINUOUS
 10
25.032972
 20
262.058376
 11
24.774153
 21
261.092450
  0
LINE
  8
2
 62
134
  6
CONTINUOUS
 10
25.291791
 20
261.092450
 11
24.774153
 21
261.092450
  0
LINE
  8
2
 62
134
  6
CONTINUOUS
 10
25.032972
 20
212.541339
 11
24.515334
 21
214.473190
  0
LINE
  8
2
 62
134
  6
CONTINUOUS
 10
25.032972
 20
212.541339
 11
25.550611
 21
214.473190
  0
LINE
  8
2
 62
134
  6
CONTINUOUS
 10
24.515334
 20
214.473190
 11
25.550611
 21
214.473190
  0
LINE
  8
2
 62
134
  6
CONTINUOUS
 10
25.032972
 20
213.024301
 11
24.774153
 21
213.990227
  0
LINE
  8
2
 62
134
  6
CONTINUOUS
 10
25.032972
 20
213.024301
 11
25.291791
 21
213.990227
  0
LINE
  8
2
 62
134
  6
CONTINUOUS
 10
24.774153
 20
213.990227
 11
25.291791
 21
213.990227
  0
TEXT
  8
2
 62
134
  6
CONTINUOUS
 10
24.532972
 20
235.541339
 40
4.000000
 41
0.500000
  1
50
  7
KANJI
 50
90.000000
 51
30.000000
  0
ENDBLK
  0
BLOCK
  8
2
 62
134
  6
CONTINUOUS
  2
*D2
 70
    65
 10
0.0
 20
0.0
  0
LINE
  8
2
 62
134
  6
CONTINUOUS
 10
36.287402
 20
257.541339
 11
36.287402
 21
247.541339
  0
LINE
  8
2
 62
134
  6
CONTINUOUS
 10
36.287402
 20
257.541339
 11
36.805040
 21
255.609487
  0
LINE
  8
2
 62
134
  6
CONTINUOUS
 10
36.287402
 20
257.541339
 11
35.769763
 21
255.609487
  0
LINE
  8
2
 62
134
  6
CONTINUOUS
 10
36.805040
 20
255.609487
 11
35.769763
 21
255.609487
  0
LINE
  8
2
 62
134
  6
CONTINUOUS
 10
36.287402
 20
257.058376
 11
36.546221
 21
256.092450
  0
LINE
  8
2
 62
134
  6
CONTINUOUS
 10
36.287402
 20
257.058376
 11
36.028583
 21
256.092450
  0
LINE
  8
2
 62
134
  6
CONTINUOUS
 10
36.546221
 20
256.092450
 11
36.028583
 21
256.092450
  0
LINE
  8
2
 62
134
  6
CONTINUOUS
 10
36.287402
 20
247.541339
 11
35.769763
 21
249.473190
  0
LINE
  8
2
 62
134
  6
CONTINUOUS
 10
36.287402
 20
247.541339
 11
36.805040
 21
249.473190
  0
LINE
  8
2
 62
134
  6
CONTINUOUS
 10
35.769763
 20
249.473190
 11
36.805040
 21
249.473190
  0
LINE
  8
2
 62
134
  6
CONTINUOUS
 10
36.287402
 20
248.024301
 11
36.028583
 21
248.990227
  0
LINE
  8
2
 62
134
  6
CONTINUOUS
 10
36.287402
 20
248.024301
 11
36.546221
 21
248.990227
  0
LINE
  8
2
 62
134
  6
CONTINUOUS
 10
36.028583
 20
248.990227
 11
36.546221
 21
248.990227
  0
TEXT
  8
2
 62
134
  6
CONTINUOUS
 10
35.787402
 20
250.541339
 40
4.000000
 41
0.500000
  1
10
  7
KANJI
 50
90.000000
 51
30.000000
  0
ENDBLK
  0
BLOCK
  8
2
 62
134
  6
CONTINUOUS
  2
*D3
 70
    65
 10
0.0
 20
0.0
  0
LINE
  8
2
 62
134
  6
CONTINUOUS
 10
36.287402
 20
247.541339
 11
36.287402
 21
237.541339
  0
LINE
  8
2
 62
134
  6
CONTINUOUS
 10
36.287402
 20
247.541339
 11
36.805040
 21
245.609487
  0
LINE
  8
2
 62
134
  6
CONTINUOUS
 10
36.287402
 20
247.541339
 11
35.769763
 21
245.609487
  0
LINE
  8
2
 62
134
  6
CONTINUOUS
 10
36.805040
 20
245.609487
 11
35.769763
 21
245.609487
  0
LINE
  8
2
 62
134
  6
CONTINUOUS
 10
36.287402
 20
247.058376
 11
36.546221
 21
246.092450
  0
LINE
  8
2
 62
134
  6
CONTINUOUS
 10
36.287402
 20
247.058376
 11
36.028583
 21
246.092450
  0
LINE
  8
2
 62
134
  6
CONTINUOUS
 10
36.546221
 20
246.092450
 11
36.028583
 21
246.092450
  0
LINE
  8
2
 62
134
  6
CONTINUOUS
 10
36.287402
 20
237.541339
 11
35.769763
 21
239.473190
  0
LINE
  8
2
 62
134
  6
CONTINUOUS
 10
36.287402
 20
237.541339
 11
36.805040
 21
239.473190
  0
LINE
  8
2
 62
134
  6
CONTINUOUS
 10
35.769763
 20
239.473190
 11
36.805040
 21
239.473190
  0
LINE
  8
2
 62
134
  6
CONTINUOUS
 10
36.287402
 20
238.024301
 11
36.028583
 21
238.990227
  0
LINE
  8
2
 62
134
  6
CONTINUOUS
 10
36.287402
 20
238.024301
 11
36.546221
 21
238.990227
  0
LINE
  8
2
 62
134
  6
CONTINUOUS
 10
36.028583
 20
238.990227
 11
36.546221
 21
238.990227
  0
TEXT
  8
2
 62
134
  6
CONTINUOUS
 10
35.787402
 20
240.541339
 40
4.000000
 41
0.500000
  1
10
  7
KANJI
 50
90.000000
 51
30.000000
  0
ENDBLK
  0
BLOCK
  8
2
 62
134
  6
CONTINUOUS
  2
*D4
 70
    65
 10
0.0
 20
0.0
  0
LINE
  8
2
 62
134
  6
CONTINUOUS
 10
36.287402
 20
237.591597
 11
36.287402
 21
227.591597
  0
LINE
  8
2
 62
134
  6
CONTINUOUS
 10
36.287402
 20
237.591597
 11
36.805040
 21
235.659745
  0
LINE
  8
2
 62
134
  6
CONTINUOUS
 10
36.287402
 20
237.591597
 11
35.769763
 21
235.659745
  0
LINE
  8
2
 62
134
  6
CONTINUOUS
 10
36.805040
 20
235.659745
 11
35.769763
 21
235.659745
  0
LINE
  8
2
 62
134
  6
CONTINUOUS
 10
36.287402
 20
237.108634
 11
36.546221
 21
236.142708
  0
LINE
  8
2
 62
134
  6
CONTINUOUS
 10
36.287402
 20
237.108634
 11
36.028583
 21
236.142708
  0
LINE
  8
2
 62
134
  6
CONTINUOUS
 10
36.546221
 20
236.142708
 11
36.028583
 21
236.142708
  0
LINE
  8
2
 62
134
  6
CONTINUOUS
 10
36.287402
 20
227.591597
 11
35.769763
 21
229.523449
  0
LINE
  8
2
 62
134
  6
CONTINUOUS
 10
36.287402
 20
227.591597
 11
36.805040
 21
229.523449
  0
LINE
  8
2
 62
134
  6
CONTINUOUS
 10
35.769763
 20
229.523449
 11
36.805040
 21
229.523449
  0
LINE
  8
2
 62
134
  6
CONTINUOUS
 10
36.287402
 20
228.074560
 11
36.028583
 21
229.040486
  0
LINE
  8
2
 62
134
  6
CONTINUOUS
 10
36.287402
 20
228.074560
 11
36.546221
 21
229.040486
  0
LINE
  8
2
 62
134
  6
CONTINUOUS
 10
36.028583
 20
229.040486
 11
36.546221
 21
229.040486
  0
TEXT
  8
2
 62
134
  6
CONTINUOUS
 10
35.787402
 20
230.591597
 40
4.000000
 41
0.500000
  1
10
  7
KANJI
 50
90.000000
 51
30.000000
  0
ENDBLK
  0
BLOCK
  8
2
 62
134
  6
CONTINUOUS
  2
*D5
 70
    65
 10
0.0
 20
0.0
  0
LINE
  8
2
 62
134
  6
CONTINUOUS
 10
36.287402
 20
227.541339
 11
36.287402
 21
217.541339
  0
LINE
  8
2
 62
134
  6
CONTINUOUS
 10
36.287402
 20
227.541339
 11
36.805040
 21
225.609487
  0
LINE
  8
2
 62
134
  6
CONTINUOUS
 10
36.287402
 20
227.541339
 11
35.769763
 21
225.609487
  0
LINE
  8
2
 62
134
  6
CONTINUOUS
 10
36.805040
 20
225.609487
 11
35.769763
 21
225.609487
  0
LINE
  8
2
 62
134
  6
CONTINUOUS
 10
36.287402
 20
227.058376
 11
36.546221
 21
226.092450
  0
LINE
  8
2
 62
134
  6
CONTINUOUS
 10
36.287402
 20
227.058376
 11
36.028583
 21
226.092450
  0
LINE
  8
2
 62
134
  6
CONTINUOUS
 10
36.546221
 20
226.092450
 11
36.028583
 21
226.092450
  0
LINE
  8
2
 62
134
  6
CONTINUOUS
 10
36.287402
 20
217.541339
 11
35.769763
 21
219.473190
  0
LINE
  8
2
 62
134
  6
CONTINUOUS
 10
36.287402
 20
217.541339
 11
36.805040
 21
219.473190
  0
LINE
  8
2
 62
134
  6
CONTINUOUS
 10
35.769763
 20
219.473190
 11
36.805040
 21
219.473190
  0
LINE
  8
2
 62
134
  6
CONTINUOUS
 10
36.287402
 20
218.024301
 11
36.028583
 21
218.990227
  0
LINE
  8
2
 62
134
  6
CONTINUOUS
 10
36.287402
 20
218.024301
 11
36.546221
 21
218.990227
  0
LINE
  8
2
 62
134
  6
CONTINUOUS
 10
36.028583
 20
218.990227
 11
36.546221
 21
218.990227
  0
TEXT
  8
2
 62
134
  6
CONTINUOUS
 10
35.787402
 20
220.541339
 40
4.000000
 41
0.500000
  1
10
  7
KANJI
 50
90.000000
 51
30.000000
  0
ENDBLK
  0
BLOCK
  8
2
 62
134
  6
CONTINUOUS
  2
*D6
 70
    65
 10
0.0
 20
0.0
  0
LINE
  8
2
 62
134
  6
CONTINUOUS
 10
36.287402
 20
262.541339
 11
36.287402
 21
257.541339
  0
LINE
  8
2
 62
134
  6
CONTINUOUS
 10
36.287402
 20
262.541339
 11
36.805040
 21
260.609487
  0
LINE
  8
2
 62
134
  6
CONTINUOUS
 10
36.287402
 20
262.541339
 11
35.769763
 21
260.609487
  0
LINE
  8
2
 62
134
  6
CONTINUOUS
 10
36.805040
 20
260.609487
 11
35.769763
 21
260.609487
  0
LINE
  8
2
 62
134
  6
CONTINUOUS
 10
36.287402
 20
262.058376
 11
36.546221
 21
261.092450
  0
LINE
  8
2
 62
134
  6
CONTINUOUS
 10
36.287402
 20
262.058376
 11
36.028583
 21
261.092450
  0
LINE
  8
2
 62
134
  6
CONTINUOUS
 10
36.546221
 20
261.092450
 11
36.028583
 21
261.092450
  0
LINE
  8
2
 62
134
  6
CONTINUOUS
 10
36.287402
 20
257.541339
 11
35.769763
 21
259.473190
  0
LINE
  8
2
 62
134
  6
CONTINUOUS
 10
36.287402
 20
257.541339
 11
36.805040
 21
259.473190
  0
LINE
  8
2
 62
134
  6
CONTINUOUS
 10
35.769763
 20
259.473190
 11
36.805040
 21
259.473190
  0
LINE
  8
2
 62
134
  6
CONTINUOUS
 10
36.287402
 20
258.024301
 11
36.028583
 21
258.990227
  0
LINE
  8
2
 62
134
  6
CONTINUOUS
 10
36.287402
 20
258.024301
 11
36.546221
 21
258.990227
  0
LINE
  8
2
 62
134
  6
CONTINUOUS
 10
36.028583
 20
258.990227
 11
36.546221
 21
258.990227
  0
TEXT
  8
2
 62
134
  6
CONTINUOUS
 10
35.787402
 20
259.041339
 40
4.000000
 41
0.500000
  1
5
  7
KANJI
 50
90.000000
 51
30.000000
  0
ENDBLK
  0
BLOCK
  8
2
 62
134
  6
CONTINUOUS
  2
*D7
 70
    65
 10
0.0
 20
0.0
  0
LINE
  8
2
 62
134
  6
CONTINUOUS
 10
36.287402
 20
217.541339
 11
36.287402
 21
212.541339
  0
LINE
  8
2
 62
134
  6
CONTINUOUS
 10
36.287402
 20
217.541339
 11
36.805040
 21
215.609487
  0
LINE
  8
2
 62
134
  6
CONTINUOUS
 10
36.287402
 20
217.541339
 11
35.769763
 21
215.609487
  0
LINE
  8
2
 62
134
  6
CONTINUOUS
 10
36.805040
 20
215.609487
 11
35.769763
 21
215.609487
  0
LINE
  8
2
 62
134
  6
CONTINUOUS
 10
36.287402
 20
217.058376
 11
36.546221
 21
216.092450
  0
LINE
  8
2
 62
134
  6
CONTINUOUS
 10
36.287402
 20
217.058376
 11
36.028583
 21
216.092450
  0
LINE
  8
2
 62
134
  6
CONTINUOUS
 10
36.546221
 20
216.092450
 11
36.028583
 21
216.092450
  0
LINE
  8
2
 62
134
  6
CONTINUOUS
 10
36.287402
 20
212.541339
 11
35.769763
 21
214.473190
  0
LINE
  8
2
 62
134
  6
CONTINUOUS
 10
36.287402
 20
212.541339
 11
36.805040
 21
214.473190
  0
LINE
  8
2
 62
134
  6
CONTINUOUS
 10
35.769763
 20
214.473190
 11
36.805040
 21
214.473190
  0
LINE
  8
2
 62
134
  6
CONTINUOUS
 10
36.287402
 20
213.024301
 11
36.028583
 21
213.990227
  0
LINE
  8
2
 62
134
  6
CONTINUOUS
 10
36.287402
 20
213.024301
 11
36.546221
 21
213.990227
  0
LINE
  8
2
 62
134
  6
CONTINUOUS
 10
36.028583
 20
213.990227
 11
36.546221
 21
213.990227
  0
TEXT
  8
2
 62
134
  6
CONTINUOUS
 10
35.787402
 20
214.041339
 40
4.000000
 41
0.500000
  1
5
  7
KANJI
 50
90.000000
 51
30.000000
  0
ENDBLK
  0
BLOCK
  8
2
 62
134
  6
CONTINUOUS
  2
*D8
 70
    65
 10
0.0
 20
0.0
  0
LINE
  8
2
 62
134
  6
CONTINUOUS
 10
47.687992
 20
277.286479
 11
72.681594
 21
277.286479
  0
LINE
  8
2
 62
134
  6
CONTINUOUS
 10
47.687992
 20
277.286479
 11
49.619844
 21
277.804117
  0
LINE
  8
2
 62
134
  6
CONTINUOUS
 10
47.687992
 20
277.286479
 11
49.619844
 21
276.768841
  0
LINE
  8
2
 62
134
  6
CONTINUOUS
 10
49.619844
 20
277.804117
 11
49.619844
 21
276.768841
  0
LINE
  8
2
 62
134
  6
CONTINUOUS
 10
48.170955
 20
277.286479
 11
49.136881
 21
277.545298
  0
LINE
  8
2
 62
134
  6
CONTINUOUS
 10
48.170955
 20
277.286479
 11
49.136881
 21
277.027660
  0
LINE
  8
2
 62
134
  6
CONTINUOUS
 10
49.136881
 20
277.545298
 11
49.136881
 21
277.027660
  0
LINE
  8
2
 62
134
  6
CONTINUOUS
 10
72.681594
 20
277.286479
 11
70.749743
 21
276.768841
  0
LINE
  8
2
 62
134
  6
CONTINUOUS
 10
72.681594
 20
277.286479
 11
70.749743
 21
277.804117
  0
LINE
  8
2
 62
134
  6
CONTINUOUS
 10
70.749743
 20
276.768841
 11
70.749743
 21
277.804117
  0
LINE
  8
2
 62
134
  6
CONTINUOUS
 10
72.198632
 20
277.286479
 11
71.232706
 21
277.027660
  0
LINE
  8
2
 62
134
  6
CONTINUOUS
 10
72.198632
 20
277.286479
 11
71.232706
 21
277.545298
  0
LINE
  8
2
 62
134
  6
CONTINUOUS
 10
71.232706
 20
277.027660
 11
71.232706
 21
277.545298
  0
TEXT
  8
2
 62
134
  6
CONTINUOUS
 10
58.184793
 20
277.786479
 40
4.000000
 41
0.500000
  1
25
  7
KANJI
 50
0.000000
 51
30.000000
  0
ENDBLK
  0
BLOCK
  8
2
 62
134
  6
CONTINUOUS
  2
*D9
 70
    65
 10
0.0
 20
0.0
  0
LINE
  8
2
 62
134
  6
CONTINUOUS
 10
50.172736
 20
270.416892
 11
60.111713
 21
270.416892
  0
LINE
  8
2
 62
134
  6
CONTINUOUS
 10
50.172736
 20
270.416892
 11
52.104588
 21
270.934530
  0
LINE
  8
2
 62
134
  6
CONTINUOUS
 10
50.172736
 20
270.416892
 11
52.104588
 21
269.899254
  0
LINE
  8
2
 62
134
  6
CONTINUOUS
 10
52.104588
 20
270.934530
 11
52.104588
 21
269.899254
  0
LINE
  8
2
 62
134
  6
CONTINUOUS
 10
50.655699
 20
270.416892
 11
51.621625
 21
270.675711
  0
LINE
  8
2
 62
134
  6
CONTINUOUS
 10
50.655699
 20
270.416892
 11
51.621625
 21
270.158073
  0
LINE
  8
2
 62
134
  6
CONTINUOUS
 10
51.621625
 20
270.675711
 11
51.621625
 21
270.158073
  0
LINE
  8
2
 62
134
  6
CONTINUOUS
 10
60.111713
 20
270.416892
 11
58.179861
 21
269.899254
  0
LINE
  8
2
 62
134
  6
CONTINUOUS
 10
60.111713
 20
270.416892
 11
58.179861
 21
270.934530
  0
LINE
  8
2
 62
134
  6
CONTINUOUS
 10
58.179861
 20
269.899254
 11
58.179861
 21
270.934530
  0
LINE
  8
2
 62
134
  6
CONTINUOUS
 10
59.628750
 20
270.416892
 11
58.662824
 21
270.158073
  0
LINE
  8
2
 62
134
  6
CONTINUOUS
 10
59.628750
 20
270.416892
 11
58.662824
 21
270.675711
  0
LINE
  8
2
 62
134
  6
CONTINUOUS
 10
58.662824
 20
270.158073
 11
58.662824
 21
270.675711
  0
TEXT
  8
2
 62
134
  6
CONTINUOUS
 10
53.142224
 20
270.916892
 40
4.000000
 41
0.500000
  1
10
  7
KANJI
 50
0.000000
 51
30.000000
  0
ENDBLK
  0
BLOCK
  8
2
 62
134
  6
CONTINUOUS
  2
*D10
 70
    65
 10
0.0
 20
0.0
  0
LINE
  8
2
 62
134
  6
CONTINUOUS
 10
60.111713
 20
270.416892
 11
70.050689
 21
270.416892
  0
LINE
  8
2
 62
134
  6
CONTINUOUS
 10
60.111713
 20
270.416892
 11
62.043564
 21
270.934530
  0
LINE
  8
2
 62
134
  6
CONTINUOUS
 10
60.111713
 20
270.416892
 11
62.043564
 21
269.899254
  0
LINE
  8
2
 62
134
  6
CONTINUOUS
 10
62.043564
 20
270.934530
 11
62.043564
 21
269.899254
  0
LINE
  8
2
 62
134
  6
CONTINUOUS
 10
60.594676
 20
270.416892
 11
61.560601
 21
270.675711
  0
LINE
  8
2
 62
134
  6
CONTINUOUS
 10
60.594676
 20
270.416892
 11
61.560601
 21
270.158073
  0
LINE
  8
2
 62
134
  6
CONTINUOUS
 10
61.560601
 20
270.675711
 11
61.560601
 21
270.158073
  0
LINE
  8
2
 62
134
  6
CONTINUOUS
 10
70.050689
 20
270.416892
 11
68.118837
 21
269.899254
  0
LINE
  8
2
 62
134
  6
CONTINUOUS
 10
70.050689
 20
270.416892
 11
68.118837
 21
270.934530
  0
LINE
  8
2
 62
134
  6
CONTINUOUS
 10
68.118837
 20
269.899254
 11
68.118837
 21
270.934530
  0
LINE
  8
2
 62
134
  6
CONTINUOUS
 10
69.567726
 20
270.416892
 11
68.601800
 21
270.158073
  0
LINE
  8
2
 62
134
  6
CONTINUOUS
 10
69.567726
 20
270.416892
 11
68.601800
 21
270.675711
  0
LINE
  8
2
 62
134
  6
CONTINUOUS
 10
68.601800
 20
270.158073
 11
68.601800
 21
270.675711
  0
TEXT
  8
2
 62
134
  6
CONTINUOUS
 10
63.081201
 20
270.916892
 40
4.000000
 41
0.500000
  1
10
  7
KANJI
 50
0.000000
 51
30.000000
  0
ENDBLK
  0
BLOCK
  8
2
 62
134
  6
CONTINUOUS
  2
*D11
 70
    65
 10
0.0
 20
0.0
  0
LINE
  8
2
 62
134
  6
CONTINUOUS
 10
106.405512
 20
262.524176
 11
106.405512
 21
149.541339
  0
LINE
  8
2
 62
134
  6
CONTINUOUS
 10
106.405512
 20
262.524176
 11
106.923150
 21
260.592324
  0
LINE
  8
2
 62
134
  6
CONTINUOUS
 10
106.405512
 20
262.524176
 11
105.887874
 21
260.592324
  0
LINE
  8
2
 62
134
  6
CONTINUOUS
 10
106.923150
 20
260.592324
 11
105.887874
 21
260.592324
  0
LINE
  8
2
 62
134
  6
CONTINUOUS
 10
106.405512
 20
262.041213
 11
106.664331
 21
261.075287
  0
LINE
  8
2
 62
134
  6
CONTINUOUS
 10
106.405512
 20
262.041213
 11
106.146693
 21
261.075287
  0
LINE
  8
2
 62
134
  6
CONTINUOUS
 10
106.664331
 20
261.075287
 11
106.146693
 21
261.075287
  0
LINE
  8
2
 62
134
  6
CONTINUOUS
 10
106.405512
 20
149.541339
 11
105.887874
 21
151.473190
  0
LINE
  8
2
 62
134
  6
CONTINUOUS
 10
106.405512
 20
149.541339
 11
106.923150
 21
151.473190
  0
LINE
  8
2
 62
134
  6
CONTINUOUS
 10
105.887874
 20
151.473190
 11
106.923150
 21
151.473190
  0
LINE
  8
2
 62
134
  6
CONTINUOUS
 10
106.405512
 20
150.024301
 11
106.146693
 21
150.990227
  0
LINE
  8
2
 62
134
  6
CONTINUOUS
 10
106.405512
 20
150.024301
 11
106.664331
 21
150.990227
  0
LINE
  8
2
 62
134
  6
CONTINUOUS
 10
106.146693
 20
150.990227
 11
106.664331
 21
150.990227
  0
TEXT
  8
2
 62
134
  6
CONTINUOUS
 10
105.905512
 20
203.032757
 40
4.000000
 41
0.500000
  1
113
  7
KANJI
 50
90.000000
 51
30.000000
  0
ENDBLK
  0
BLOCK
  8
2
 62
134
  6
CONTINUOUS
  2
*D12
 70
    65
 10
0.0
 20
0.0
  0
LINE
  8
2
 62
134
  6
CONTINUOUS
 10
122.611713
 20
197.847749
 11
135.111713
 21
197.847749
  0
LINE
  8
2
 62
134
  6
CONTINUOUS
 10
122.611713
 20
197.847749
 11
124.543564
 21
198.365387
  0
LINE
  8
2
 62
134
  6
CONTINUOUS
 10
122.611713
 20
197.847749
 11
124.543564
 21
197.330110
  0
LINE
  8
2
 62
134
  6
CONTINUOUS
 10
124.543564
 20
198.365387
 11
124.543564
 21
197.330110
  0
LINE
  8
2
 62
134
  6
CONTINUOUS
 10
123.094676
 20
197.847749
 11
124.060601
 21
198.106568
  0
LINE
  8
2
 62
134
  6
CONTINUOUS
 10
123.094676
 20
197.847749
 11
124.060601
 21
197.588929
  0
LINE
  8
2
 62
134
  6
CONTINUOUS
 10
124.060601
 20
198.106568
 11
124.060601
 21
197.588929
  0
LINE
  8
2
 62
134
  6
CONTINUOUS
 10
135.111713
 20
197.847749
 11
133.179861
 21
197.330110
  0
LINE
  8
2
 62
134
  6
CONTINUOUS
 10
135.111713
 20
197.847749
 11
133.179861
 21
198.365387
  0
LINE
  8
2
 62
134
  6
CONTINUOUS
 10
133.179861
 20
197.330110
 11
133.179861
 21
198.365387
  0
LINE
  8
2
 62
134
  6
CONTINUOUS
 10
134.628750
 20
197.847749
 11
133.662824
 21
197.588929
  0
LINE
  8
2
 62
134
  6
CONTINUOUS
 10
134.628750
 20
197.847749
 11
133.662824
 21
198.106568
  0
LINE
  8
2
 62
134
  6
CONTINUOUS
 10
133.662824
 20
197.588929
 11
133.662824
 21
198.106568
  0
TEXT
  8
2
 62
134
  6
CONTINUOUS
 10
124.861713
 20
198.347749
 40
4.000000
 41
0.500000
  1
12.5
  7
KANJI
 50
0.000000
 51
30.000000
  0
ENDBLK
  0
BLOCK
  8
2
 62
134
  6
CONTINUOUS
  2
*D13
 70
    65
 10
0.0
 20
0.0
  0
LINE
  8
2
 62
134
  6
CONTINUOUS
 10
114.444390
 20
237.676735
 11
114.444390
 21
149.541339
  0
LINE
  8
2
 62
134
  6
CONTINUOUS
 10
114.444390
 20
237.676735
 11
114.962028
 21
235.744883
  0
LINE
  8
2
 62
134
  6
CONTINUOUS
 10
114.444390
 20
237.676735
 11
113.926752
 21
235.744883
  0
LINE
  8
2
 62
134
  6
CONTINUOUS
 10
114.962028
 20
235.744883
 11
113.926752
 21
235.744883
  0
LINE
  8
2
 62
134
  6
CONTINUOUS
 10
114.444390
 20
237.193772
 11
114.703209
 21
236.227846
  0
LINE
  8
2
 62
134
  6
CONTINUOUS
 10
114.444390
 20
237.193772
 11
114.185571
 21
236.227846
  0
LINE
  8
2
 62
134
  6
CONTINUOUS
 10
114.703209
 20
236.227846
 11
114.185571
 21
236.227846
  0
LINE
  8
2
 62
134
  6
CONTINUOUS
 10
114.444390
 20
149.541339
 11
113.926752
 21
151.473190
  0
LINE
  8
2
 62
134
  6
CONTINUOUS
 10
114.444390
 20
149.541339
 11
114.962028
 21
151.473190
  0
LINE
  8
2
 62
134
  6
CONTINUOUS
 10
113.926752
 20
151.473190
 11
114.962028
 21
151.473190
  0
LINE
  8
2
 62
134
  6
CONTINUOUS
 10
114.444390
 20
150.024301
 11
114.185571
 21
150.990227
  0
LINE
  8
2
 62
134
  6
CONTINUOUS
 10
114.444390
 20
150.024301
 11
114.703209
 21
150.990227
  0
LINE
  8
2
 62
134
  6
CONTINUOUS
 10
114.185571
 20
150.990227
 11
114.703209
 21
150.990227
  0
TEXT
  8
2
 62
134
  6
CONTINUOUS
 10
113.944390
 20
191.609037
 40
4.000000
 41
0.500000
  1
88
  7
KANJI
 50
90.000000
 51
30.000000
  0
ENDBLK
  0
BLOCK
  8
2
 62
134
  6
CONTINUOUS
  2
*D14
 70
    65
 10
0.0
 20
0.0
  0
LINE
  8
2
 62
134
  6
CONTINUOUS
 10
35.122047
 20
140.369771
 11
60.072343
 21
140.369771
  0
LINE
  8
2
 62
134
  6
CONTINUOUS
 10
35.122047
 20
140.369771
 11
37.053899
 21
140.887409
  0
LINE
  8
2
 62
134
  6
CONTINUOUS
 10
35.122047
 20
140.369771
 11
37.053899
 21
139.852133
  0
LINE
  8
2
 62
134
  6
CONTINUOUS
 10
37.053899
 20
140.887409
 11
37.053899
 21
139.852133
  0
LINE
  8
2
 62
134
  6
CONTINUOUS
 10
35.605010
 20
140.369771
 11
36.570936
 21
140.628590
  0
LINE
  8
2
 62
134
  6
CONTINUOUS
 10
35.605010
 20
140.369771
 11
36.570936
 21
140.110952
  0
LINE
  8
2
 62
134
  6
CONTINUOUS
 10
36.570936
 20
140.628590
 11
36.570936
 21
140.110952
  0
LINE
  8
2
 62
134
  6
CONTINUOUS
 10
60.072343
 20
140.369771
 11
58.140491
 21
139.852133
  0
LINE
  8
2
 62
134
  6
CONTINUOUS
 10
60.072343
 20
140.369771
 11
58.140491
 21
140.887409
  0
LINE
  8
2
 62
134
  6
CONTINUOUS
 10
58.140491
 20
139.852133
 11
58.140491
 21
140.887409
  0
LINE
  8
2
 62
134
  6
CONTINUOUS
 10
59.589380
 20
140.369771
 11
58.623454
 21
140.110952
  0
LINE
  8
2
 62
134
  6
CONTINUOUS
 10
59.589380
 20
140.369771
 11
58.623454
 21
140.628590
  0
LINE
  8
2
 62
134
  6
CONTINUOUS
 10
58.623454
 20
140.110952
 11
58.623454
 21
140.628590
  0
TEXT
  8
2
 62
134
  6
CONTINUOUS
 10
45.597195
 20
140.869771
 40
4.000000
 41
0.500000
  1
25
  7
KANJI
 50
0.000000
 51
30.000000
  0
ENDBLK
  0
BLOCK
  8
2
 62
134
  6
CONTINUOUS
  2
*D15
 70
    65
 10
0.0
 20
0.0
  0
LINE
  8
2
 62
134
  6
CONTINUOUS
 10
60.072343
 20
140.369771
 11
92.622047
 21
140.369771
  0
LINE
  8
2
 62
134
  6
CONTINUOUS
 10
60.072343
 20
140.369771
 11
62.004194
 21
140.887409
  0
LINE
  8
2
 62
134
  6
CONTINUOUS
 10
60.072343
 20
140.369771
 11
62.004194
 21
139.852133
  0
LINE
  8
2
 62
134
  6
CONTINUOUS
 10
62.004194
 20
140.887409
 11
62.004194
 21
139.852133
  0
LINE
  8
2
 62
134
  6
CONTINUOUS
 10
60.555305
 20
140.369771
 11
61.521231
 21
140.628590
  0
LINE
  8
2
 62
134
  6
CONTINUOUS
 10
60.555305
 20
140.369771
 11
61.521231
 21
140.110952
  0
LINE
  8
2
 62
134
  6
CONTINUOUS
 10
61.521231
 20
140.628590
 11
61.521231
 21
140.110952
  0
LINE
  8
2
 62
134
  6
CONTINUOUS
 10
92.622047
 20
140.369771
 11
90.690196
 21
139.852133
  0
LINE
  8
2
 62
134
  6
CONTINUOUS
 10
92.622047
 20
140.369771
 11
90.690196
 21
140.887409
  0
LINE
  8
2
 62
134
  6
CONTINUOUS
 10
90.690196
 20
139.852133
 11
90.690196
 21
140.887409
  0
LINE
  8
2
 62
134
  6
CONTINUOUS
 10
92.139084
 20
140.369771
 11
91.173159
 21
140.110952
  0
LINE
  8
2
 62
134
  6
CONTINUOUS
 10
92.139084
 20
140.369771
 11
91.173159
 21
140.628590
  0
LINE
  8
2
 62
134
  6
CONTINUOUS
 10
91.173159
 20
140.110952
 11
91.173159
 21
140.628590
  0
TEXT
  8
2
 62
134
  6
CONTINUOUS
 10
72.347195
 20
140.869771
 40
4.000000
 41
0.500000
  1
32.5
  7
KANJI
 50
0.000000
 51
30.000000
  0
ENDBLK
  0
BLOCK
  8
2
 62
134
  6
CONTINUOUS
  2
*D16
 70
    65
 10
0.0
 20
0.0
  0
LINE
  8
2
 62
134
  6
CONTINUOUS
 10
122.611713
 20
140.369771
 11
172.611713
 21
140.369771
  0
LINE
  8
2
 62
134
  6
CONTINUOUS
 10
122.611713
 20
140.369771
 11
124.543564
 21
140.887409
  0
LINE
  8
2
 62
134
  6
CONTINUOUS
 10
122.611713
 20
140.369771
 11
124.543564
 21
139.852133
  0
LINE
  8
2
 62
134
  6
CONTINUOUS
 10
124.543564
 20
140.887409
 11
124.543564
 21
139.852133
  0
LINE
  8
2
 62
134
  6
CONTINUOUS
 10
123.094676
 20
140.369771
 11
124.060601
 21
140.628590
  0
LINE
  8
2
 62
134
  6
CONTINUOUS
 10
123.094676
 20
140.369771
 11
124.060601
 21
140.110952
  0
LINE
  8
2
 62
134
  6
CONTINUOUS
 10
124.060601
 20
140.628590
 11
124.060601
 21
140.110952
  0
LINE
  8
2
 62
134
  6
CONTINUOUS
 10
172.611713
 20
140.369771
 11
170.679861
 21
139.852133
  0
LINE
  8
2
 62
134
  6
CONTINUOUS
 10
172.611713
 20
140.369771
 11
170.679861
 21
140.887409
  0
LINE
  8
2
 62
134
  6
CONTINUOUS
 10
170.679861
 20
139.852133
 11
170.679861
 21
140.887409
  0
LINE
  8
2
 62
134
  6
CONTINUOUS
 10
172.128750
 20
140.369771
 11
171.162824
 21
140.110952
  0
LINE
  8
2
 62
134
  6
CONTINUOUS
 10
172.128750
 20
140.369771
 11
171.162824
 21
140.628590
  0
LINE
  8
2
 62
134
  6
CONTINUOUS
 10
171.162824
 20
140.110952
 11
171.162824
 21
140.628590
  0
TEXT
  8
2
 62
134
  6
CONTINUOUS
 10
145.611713
 20
140.869771
 40
4.000000
 41
0.500000
  1
50
  7
KANJI
 50
0.000000
 51
30.000000
  0
ENDBLK
  0
BLOCK
  8
2
 62
134
  6
CONTINUOUS
  2
*D17
 70
    65
 10
0.0
 20
0.0
  0
LINE
  8
2
 62
134
  6
CONTINUOUS
 10
172.611713
 20
140.369771
 11
190.611713
 21
140.369771
  0
LINE
  8
2
 62
134
  6
CONTINUOUS
 10
172.611713
 20
140.369771
 11
174.543564
 21
140.887409
  0
LINE
  8
2
 62
134
  6
CONTINUOUS
 10
172.611713
 20
140.369771
 11
174.543564
 21
139.852133
  0
LINE
  8
2
 62
134
  6
CONTINUOUS
 10
174.543564
 20
140.887409
 11
174.543564
 21
139.852133
  0
LINE
  8
2
 62
134
  6
CONTINUOUS
 10
173.094676
 20
140.369771
 11
174.060601
 21
140.628590
  0
LINE
  8
2
 62
134
  6
CONTINUOUS
 10
173.094676
 20
140.369771
 11
174.060601
 21
140.110952
  0
LINE
  8
2
 62
134
  6
CONTINUOUS
 10
174.060601
 20
140.628590
 11
174.060601
 21
140.110952
  0
LINE
  8
2
 62
134
  6
CONTINUOUS
 10
190.611713
 20
140.369771
 11
188.679861
 21
139.852133
  0
LINE
  8
2
 62
134
  6
CONTINUOUS
 10
190.611713
 20
140.369771
 11
188.679861
 21
140.887409
  0
LINE
  8
2
 62
134
  6
CONTINUOUS
 10
188.679861
 20
139.852133
 11
188.679861
 21
140.887409
  0
LINE
  8
2
 62
134
  6
CONTINUOUS
 10
190.128750
 20
140.369771
 11
189.162824
 21
140.110952
  0
LINE
  8
2
 62
134
  6
CONTINUOUS
 10
190.128750
 20
140.369771
 11
189.162824
 21
140.628590
  0
LINE
  8
2
 62
134
  6
CONTINUOUS
 10
189.162824
 20
140.110952
 11
189.162824
 21
140.628590
  0
TEXT
  8
2
 62
134
  6
CONTINUOUS
 10
177.611713
 20
140.869771
 40
4.000000
 41
0.500000
  1
17.5
  7
KANJI
 50
0.000000
 51
30.000000
  0
ENDBLK
  0
BLOCK
  8
2
 62
134
  6
CONTINUOUS
  2
*D18
 70
    65
 10
0.0
 20
0.0
  0
LINE
  8
2
 62
134
  6
CONTINUOUS
 10
127.476870
 20
76.518885
 11
167.476870
 21
76.518885
  0
LINE
  8
2
 62
134
  6
CONTINUOUS
 10
127.476870
 20
76.518885
 11
129.408722
 21
77.036523
  0
LINE
  8
2
 62
134
  6
CONTINUOUS
 10
127.476870
 20
76.518885
 11
129.408722
 21
76.001247
  0
LINE
  8
2
 62
134
  6
CONTINUOUS
 10
129.408722
 20
77.036523
 11
129.408722
 21
76.001247
  0
LINE
  8
2
 62
134
  6
CONTINUOUS
 10
127.959833
 20
76.518885
 11
128.925759
 21
76.777704
  0
LINE
  8
2
 62
134
  6
CONTINUOUS
 10
127.959833
 20
76.518885
 11
128.925759
 21
76.260066
  0
LINE
  8
2
 62
134
  6
CONTINUOUS
 10
128.925759
 20
76.777704
 11
128.925759
 21
76.260066
  0
LINE
  8
2
 62
134
  6
CONTINUOUS
 10
167.476870
 20
76.518885
 11
165.545018
 21
76.001247
  0
LINE
  8
2
 62
134
  6
CONTINUOUS
 10
167.476870
 20
76.518885
 11
165.545018
 21
77.036523
  0
LINE
  8
2
 62
134
  6
CONTINUOUS
 10
165.545018
 20
76.001247
 11
165.545018
 21
77.036523
  0
LINE
  8
2
 62
134
  6
CONTINUOUS
 10
166.993907
 20
76.518885
 11
166.027981
 21
76.260066
  0
LINE
  8
2
 62
134
  6
CONTINUOUS
 10
166.993907
 20
76.518885
 11
166.027981
 21
76.777704
  0
LINE
  8
2
 62
134
  6
CONTINUOUS
 10
166.027981
 20
76.260066
 11
166.027981
 21
76.777704
  0
TEXT
  8
2
 62
134
  6
CONTINUOUS
 10
145.476870
 20
77.018885
 40
4.000000
 41
0.500000
  1
40
  7
KANJI
 50
0.000000
 51
30.000000
  0
ENDBLK
  0
BLOCK
  8
2
 62
134
  6
CONTINUOUS
  2
*D19
 70
    65
 10
0.0
 20
0.0
  0
LINE
  8
2
 62
134
  6
CONTINUOUS
 10
181.970965
 20
124.021346
 11
181.970965
 21
88.942606
  0
LINE
  8
2
 62
134
  6
CONTINUOUS
 10
181.970965
 20
124.021346
 11
182.488603
 21
122.089494
  0
LINE
  8
2
 62
134
  6
CONTINUOUS
 10
181.970965
 20
124.021346
 11
181.453326
 21
122.089494
  0
LINE
  8
2
 62
134
  6
CONTINUOUS
 10
182.488603
 20
122.089494
 11
181.453326
 21
122.089494
  0
LINE
  8
2
 62
134
  6
CONTINUOUS
 10
181.970965
 20
123.538383
 11
182.229784
 21
122.572457
  0
LINE
  8
2
 62
134
  6
CONTINUOUS
 10
181.970965
 20
123.538383
 11
181.712146
 21
122.572457
  0
LINE
  8
2
 62
134
  6
CONTINUOUS
 10
182.229784
 20
122.572457
 11
181.712146
 21
122.572457
  0
LINE
  8
2
 62
134
  6
CONTINUOUS
 10
181.970965
 20
88.942606
 11
181.453326
 21
90.874457
  0
LINE
  8
2
 62
134
  6
CONTINUOUS
 10
181.970965
 20
88.942606
 11
182.488603
 21
90.874457
  0
LINE
  8
2
 62
134
  6
CONTINUOUS
 10
181.453326
 20
90.874457
 11
182.488603
 21
90.874457
  0
LINE
  8
2
 62
134
  6
CONTINUOUS
 10
181.970965
 20
89.425569
 11
181.712146
 21
90.391495
  0
LINE
  8
2
 62
134
  6
CONTINUOUS
 10
181.970965
 20
89.425569
 11
182.229784
 21
90.391495
  0
LINE
  8
2
 62
134
  6
CONTINUOUS
 10
181.712146
 20
90.391495
 11
182.229784
 21
90.391495
  0
TEXT
  8
2
 62
134
  6
CONTINUOUS
 10
181.470965
 20
104.481976
 40
4.000000
 41
0.500000
  1
35
  7
KANJI
 50
90.000000
 51
30.000000
  0
ENDBLK
  0
BLOCK
  8
2
 62
134
  6
CONTINUOUS
  2
*D20
 70
    65
 10
0.0
 20
0.0
  0
LINE
  8
2
 62
134
  6
CONTINUOUS
 10
134.906988
 20
88.969181
 11
147.476870
 21
88.969181
  0
LINE
  8
2
 62
134
  6
CONTINUOUS
 10
134.906988
 20
88.969181
 11
136.838840
 21
89.486819
  0
LINE
  8
2
 62
134
  6
CONTINUOUS
 10
134.906988
 20
88.969181
 11
136.838840
 21
88.451543
  0
LINE
  8
2
 62
134
  6
CONTINUOUS
 10
136.838840
 20
89.486819
 11
136.838840
 21
88.451543
  0
LINE
  8
2
 62
134
  6
CONTINUOUS
 10
135.389951
 20
88.969181
 11
136.355877
 21
89.228000
  0
LINE
  8
2
 62
134
  6
CONTINUOUS
 10
135.389951
 20
88.969181
 11
136.355877
 21
88.710362
  0
LINE
  8
2
 62
134
  6
CONTINUOUS
 10
136.355877
 20
89.228000
 11
136.355877
 21
88.710362
  0
LINE
  8
2
 62
134
  6
CONTINUOUS
 10
147.476870
 20
88.969181
 11
145.545018
 21
88.451543
  0
LINE
  8
2
 62
134
  6
CONTINUOUS
 10
147.476870
 20
88.969181
 11
145.545018
 21
89.486819
  0
LINE
  8
2
 62
134
  6
CONTINUOUS
 10
145.545018
 20
88.451543
 11
145.545018
 21
89.486819
  0
LINE
  8
2
 62
134
  6
CONTINUOUS
 10
146.993907
 20
88.969181
 11
146.027981
 21
88.710362
  0
LINE
  8
2
 62
134
  6
CONTINUOUS
 10
146.993907
 20
88.969181
 11
146.027981
 21
89.228000
  0
LINE
  8
2
 62
134
  6
CONTINUOUS
 10
146.027981
 20
88.710362
 11
146.027981
 21
89.228000
  0
TEXT
  8
2
 62
134
  6
CONTINUOUS
 10
137.191929
 20
89.469181
 40
4.000000
 41
0.500000
  1
12.5
  7
KANJI
 50
0.000000
 51
30.000000
  0
ENDBLK
  0
BLOCK
  8
2
 62
134
  6
CONTINUOUS
  2
*D21
 70
    65
 10
0.0
 20
0.0
  0
LINE
  8
2
 62
134
  6
CONTINUOUS
 10
147.476870
 20
88.969181
 11
160.046752
 21
88.969181
  0
LINE
  8
2
 62
134
  6
CONTINUOUS
 10
147.476870
 20
88.969181
 11
149.408722
 21
89.486819
  0
LINE
  8
2
 62
134
  6
CONTINUOUS
 10
147.476870
 20
88.969181
 11
149.408722
 21
88.451543
  0
LINE
  8
2
 62
134
  6
CONTINUOUS
 10
149.408722
 20
89.486819
 11
149.408722
 21
88.451543
  0
LINE
  8
2
 62
134
  6
CONTINUOUS
 10
147.959833
 20
88.969181
 11
148.925759
 21
89.228000
  0
LINE
  8
2
 62
134
  6
CONTINUOUS
 10
147.959833
 20
88.969181
 11
148.925759
 21
88.710362
  0
LINE
  8
2
 62
134
  6
CONTINUOUS
 10
148.925759
 20
89.228000
 11
148.925759
 21
88.710362
  0
LINE
  8
2
 62
134
  6
CONTINUOUS
 10
160.046752
 20
88.969181
 11
158.114900
 21
88.451543
  0
LINE
  8
2
 62
134
  6
CONTINUOUS
 10
160.046752
 20
88.969181
 11
158.114900
 21
89.486819
  0
LINE
  8
2
 62
134
  6
CONTINUOUS
 10
158.114900
 20
88.451543
 11
158.114900
 21
89.486819
  0
LINE
  8
2
 62
134
  6
CONTINUOUS
 10
159.563789
 20
88.969181
 11
158.597863
 21
88.710362
  0
LINE
  8
2
 62
134
  6
CONTINUOUS
 10
159.563789
 20
88.969181
 11
158.597863
 21
89.228000
  0
LINE
  8
2
 62
134
  6
CONTINUOUS
 10
158.597863
 20
88.710362
 11
158.597863
 21
89.228000
  0
TEXT
  8
2
 62
134
  6
CONTINUOUS
 10
149.761811
 20
89.469181
 40
4.000000
 41
0.500000
  1
12.5
  7
KANJI
 50
0.000000
 51
30.000000
  0
ENDBLK
  0
ENDSEC
  0
SECTION
  2
ENTITIES
  0
TEXT
  8
5
 62
94
  6
CONTINUOUS
 10
125.962748
 20
25.651490
 40
1.750000
 41
4.000000
  1
製図
  7
KANJI
 50
-90.000000
 51
0.000000
  0
TEXT
  8
5
 62
94
  6
CONTINUOUS
 10
145.795530
 20
25.487583
 40
1.750000
 41
4.000000
  1
図番
  7
KANJI
 50
-90.000000
 51
0.000000
  0
TEXT
  8
5
 62
94
  6
CONTINUOUS
 10
145.795530
 20
38.764073
 40
1.750000
 41
4.000000
  1
図　名
  7
KANJI
 50
-90.000000
 51
0.000000
  0
TEXT
  8
5
 62
94
  6
CONTINUOUS
 10
80.888245
 20
33.355132
 40
1.750000
 41
4.000000
  1
日付
  7
KANJI
 50
-90.000000
 51
0.000000
  0
TEXT
  8
5
 62
94
  6
CONTINUOUS
 10
115.964404
 20
33.519040
 40
1.750000
 41
4.000000
  1
図法
  7
KANJI
 50
-90.000000
 51
0.000000
  0
TEXT
  8
5
 62
94
  6
CONTINUOUS
 10
115.800497
 20
41.550497
 40
1.750000
 41
4.000000
  1
尺度
  7
KANJI
 50
-90.000000
 51
0.000000
  0
TEXT
  8
5
 62
94
  6
CONTINUOUS
 10
80.888245
 20
41.386589
 40
1.750000
 41
4.000000
  1
公差
  7
KANJI
 50
-90.000000
 51
0.000000
  0
TEXT
  8
5
 62
94
  6
CONTINUOUS
 10
80.888245
 20
25.487583
 40
1.750000
 41
4.000000
  1
承認
  7
KANJI
 50
-90.000000
 51
0.000000
  0
TEXT
  8
5
 62
94
  6
CONTINUOUS
 10
105.966060
 20
25.487583
 40
1.750000
 41
4.000000
  1
設計
  7
KANJI
 50
-90.000000
 51
0.000000
  0
TEXT
  8
5
 62
94
  6
CONTINUOUS
 10
99.409768
 20
11.555464
 40
4.500000
 41
1.888889
  1
ジャパンセンサー株式会社
  7
KANJI
 50
0.000000
 51
0.000000
  0
LINE
  8
5
 62
94
  6
CONTINUOUS
 10
200.000000
 20
10.000000
 11
200.000000
 21
285.000000
  0
LINE
  8
5
 62
94
  6
CONTINUOUS
 10
200.000000
 20
285.000000
 11
15.000000
 21
285.000000
  0
LINE
  8
5
 62
94
  6
CONTINUOUS
 10
15.000000
 20
285.000000
 11
15.000000
 21
10.000000
  0
LINE
  8
5
 62
94
  6
CONTINUOUS
 10
15.000000
 20
10.000000
 11
200.000000
 21
10.000000
  0
LINE
  8
5
 62
94
  6
CONTINUOUS
 10
80.000000
 20
42.000000
 11
200.000000
 21
42.000000
  0
LINE
  8
5
 62
94
  6
CONTINUOUS
 10
80.000000
 20
10.000000
 11
80.000000
 21
42.000000
  0
LINE
  8
5
 62
94
  6
CONTINUOUS
 10
200.000000
 20
18.000000
 11
80.000000
 21
18.000000
  0
LINE
  8
5
 62
94
  6
CONTINUOUS
 10
145.000000
 20
42.000000
 11
145.000000
 21
18.000000
  0
LINE
  8
5
 62
94
  6
CONTINUOUS
 10
200.000000
 20
26.000000
 11
80.000000
 21
26.000000
  0
LINE
  8
5
 62
94
  6
CONTINUOUS
 10
200.000000
 20
58.000000
 11
80.000000
 21
58.000000
  0
LINE
  8
5
 62
94
  6
CONTINUOUS
 10
200.000000
 20
50.000000
 11
80.000000
 21
50.000000
  0
LINE
  8
5
 62
94
  6
CONTINUOUS
 10
160.000000
 20
58.000000
 11
160.000000
 21
42.000000
  0
LINE
  8
5
 62
94
  6
CONTINUOUS
 10
80.000000
 20
58.000000
 11
80.000000
 21
42.000000
  0
LINE
  8
5
 62
94
  6
CONTINUOUS
 10
125.000000
 20
58.000000
 11
125.000000
 21
42.000000
  0
LINE
  8
5
 62
94
  6
CONTINUOUS
 10
135.000000
 20
58.000000
 11
135.000000
 21
42.000000
  0
LINE
  8
5
 62
94
  6
CONTINUOUS
 10
90.000000
 20
58.000000
 11
90.000000
 21
42.000000
  0
LINE
  8
5
 62
94
  6
CONTINUOUS
 10
150.000000
 20
18.000000
 11
150.000000
 21
42.000000
  0
LINE
  8
5
 62
94
  6
CONTINUOUS
 10
120.000000
 20
42.000000
 11
120.000000
 21
26.000000
  0
LINE
  8
5
 62
94
  6
CONTINUOUS
 10
85.000000
 20
18.000000
 11
85.000000
 21
42.000000
  0
LINE
  8
5
 62
94
  6
CONTINUOUS
 10
80.000000
 20
34.000000
 11
145.000000
 21
34.000000
  0
LINE
  8
5
 62
94
  6
CONTINUOUS
 10
115.000000
 20
42.000000
 11
115.000000
 21
26.000000
  0
LINE
  8
5
 62
94
  6
CONTINUOUS
 10
105.000000
 20
18.000000
 11
105.000000
 21
26.000000
  0
LINE
  8
5
 62
94
  6
CONTINUOUS
 10
125.000000
 20
18.000000
 11
125.000000
 21
26.000000
  0
LINE
  8
5
 62
94
  6
CONTINUOUS
 10
110.000000
 20
26.000000
 11
110.000000
 21
18.000000
  0
LINE
  8
5
 62
94
  6
CONTINUOUS
 10
130.000000
 20
26.000000
 11
130.000000
 21
18.000000
  0
TEXT
  8
5
 62
94
  6
CONTINUOUS
 10
168.906457
 20
44.173013
 40
4.000000
 41
1.000000
  1
備　　考
  7
KANJI
 50
-0.256930
 51
0.000000
  0
TEXT
  8
5
 62
94
  6
CONTINUOUS
 10
97.442881
 20
43.681291
 40
4.000000
 41
1.000000
  1
品　　名
  7
KANJI
 50
-0.144686
 51
0.000000
  0
TEXT
  8
5
 62
94
  6
CONTINUOUS
 10
126.126656
 20
43.681291
 40
4.000000
 41
1.000000
  1
個数
  7
KANJI
 50
0.176838
 51
0.000000
  0
TEXT
  8
5
 62
94
  6
CONTINUOUS
 10
80.888245
 20
43.681291
 40
4.000000
 41
1.000000
  1
符号
  7
KANJI
 50
-0.465809
 51
0.000000
  0
TEXT
  8
5
 62
94
  6
CONTINUOUS
 10
140.058775
 20
43.681291
 40
4.000000
 41
1.000000
  1
材　質
  7
KANJI
 50
0.000000
 51
0.000000
  0
TEXT
  8
5
 62
94
  6
CONTINUOUS
 10
124.979305
 20
35.649834
 40
4.000000
 41
1.000000
  1
１／１
  7
KANJI
 50
0.000000
 51
0.000000
  0
TEXT
  8
5
 62
94
  6
CONTINUOUS
 10
123.995861
 20
27.290563
 40
4.000000
 41
1.000000
  1
三角法
  7
KANJI
 50
0.000000
 51
0.000000
  0
LINE
  8
1
 62
7
  6
CONTINUOUS
 10
47.661417
 20
177.541339
 11
47.661417
 21
155.541339
  0
LINE
  8
1
 62
7
  6
CONTINUOUS
 10
47.661417
 20
155.541339
 11
72.661417
 21
155.541339
  0
LINE
  8
1
 62
7
  6
CONTINUOUS
 10
72.661417
 20
155.541339
 11
72.661417
 21
177.541339
  0
LINE
  8
1
 62
7
  6
CONTINUOUS
 10
72.661417
 20
177.541339
 11
47.661417
 21
177.541339
  0
LINE
  8
1
 62
7
  6
CONTINUOUS
 10
35.161417
 20
199.541339
 11
35.161417
 21
177.541339
  0
LINE
  8
1
 62
7
  6
CONTINUOUS
 10
35.161417
 20
177.541339
 11
85.161417
 21
177.541339
  0
LINE
  8
1
 62
7
  6
CONTINUOUS
 10
85.161417
 20
177.541339
 11
85.161417
 21
199.541339
  0
LINE
  8
1
 62
7
  6
CONTINUOUS
 10
85.161417
 20
199.541339
 11
35.161417
 21
199.541339
  0
LINE
  8
1
 62
7
  6
CONTINUOUS
 10
36.161417
 20
199.541339
 11
36.161417
 21
204.541339
  0
LINE
  8
1
 62
7
  6
CONTINUOUS
 10
84.161417
 20
204.541339
 11
84.161417
 21
199.541339
  0
LINE
  8
1
 62
7
  6
CONTINUOUS
 10
47.661417
 20
212.541339
 11
72.661417
 21
212.541339
  0
LINE
  8
1
 62
7
  6
CONTINUOUS
 10
72.661417
 20
212.541339
 11
72.661417
 21
208.541339
  0
LINE
  8
1
 62
7
  6
CONTINUOUS
 10
76.661417
 20
204.541339
 11
84.161417
 21
204.541339
  0
ARC
  8
1
 62
7
  6
CONTINUOUS
 10
76.661417
 20
208.541339
 40
4.000000
 50
180.000000
 51
-90.000000
  0
LINE
  8
1
 62
7
  6
CONTINUOUS
 10
47.661417
 20
208.541339
 11
47.661417
 21
212.541339
  0
LINE
  8
1
 62
7
  6
CONTINUOUS
 10
36.161417
 20
204.541339
 11
43.661417
 21
204.541339
  0
ARC
  8
1
 62
7
  6
CONTINUOUS
 10
43.661417
 20
208.541339
 40
4.000000
 50
-90.000000
 51
0.000000
  0
LINE
  8
1
 62
7
  6
CONTINUOUS
 10
47.661417
 20
262.541339
 11
47.661417
 21
212.541339
  0
LINE
  8
1
 62
7
  6
CONTINUOUS
 10
47.661417
 20
212.541339
 11
72.661417
 21
212.541339
  0
LINE
  8
1
 62
7
  6
CONTINUOUS
 10
72.661417
 20
212.541339
 11
72.661417
 21
262.541339
  0
LINE
  8
1
 62
7
  6
CONTINUOUS
 10
72.661417
 20
262.541339
 11
47.661417
 21
262.541339
  0
CIRCLE
  8
1
 62
7
  6
CONTINUOUS
 10
50.161417
 20
217.541339
 40
1.500000
  0
CIRCLE
  8
1
 62
7
  6
CONTINUOUS
 10
50.161417
 20
227.541339
 40
1.500000
  0
CIRCLE
  8
1
 62
7
  6
CONTINUOUS
 10
50.161417
 20
237.541339
 40
1.500000
  0
CIRCLE
  8
1
 62
7
  6
CONTINUOUS
 10
50.161417
 20
247.541339
 40
1.500000
  0
CIRCLE
  8
1
 62
7
  6
CONTINUOUS
 10
50.161417
 20
257.541339
 40
1.500000
  0
CIRCLE
  8
1
 62
7
  6
CONTINUOUS
 10
70.161417
 20
257.541339
 40
1.500000
  0
CIRCLE
  8
1
 62
7
  6
CONTINUOUS
 10
70.161417
 20
247.541339
 40
1.500000
  0
CIRCLE
  8
1
 62
7
  6
CONTINUOUS
 10
70.161417
 20
237.541339
 40
1.500000
  0
CIRCLE
  8
1
 62
7
  6
CONTINUOUS
 10
70.161417
 20
227.541339
 40
1.500000
  0
CIRCLE
  8
1
 62
7
  6
CONTINUOUS
 10
70.161417
 20
217.541339
 40
1.500000
  0
CIRCLE
  8
1
 62
7
  6
CONTINUOUS
 10
60.161417
 20
257.541339
 40
2.000000
  0
CIRCLE
  8
1
 62
7
  6
CONTINUOUS
 10
60.161417
 20
237.541339
 40
2.000000
  0
CIRCLE
  8
1
 62
7
  6
CONTINUOUS
 10
60.161417
 20
217.541339
 40
2.000000
  0
LINE
  8
1
 62
7
  6
CONTINUOUS
 10
72.661417
 20
165.541339
 11
79.661417
 21
165.541339
  0
LINE
  8
1
 62
7
  6
CONTINUOUS
 10
79.661417
 20
165.541339
 11
79.661417
 21
166.541339
  0
LINE
  8
1
 62
7
  6
CONTINUOUS
 10
79.661417
 20
166.541339
 11
80.661417
 21
166.541339
  0
LINE
  8
1
 62
7
  6
CONTINUOUS
 10
80.661417
 20
166.541339
 11
80.661417
 21
157.541339
  0
LINE
  8
1
 62
7
  6
CONTINUOUS
 10
80.661417
 20
157.541339
 11
79.661417
 21
157.541339
  0
LINE
  8
1
 62
7
  6
CONTINUOUS
 10
79.661417
 20
157.541339
 11
79.661417
 21
158.541339
  0
LINE
  8
1
 62
7
  6
CONTINUOUS
 10
79.661417
 20
158.541339
 11
72.661417
 21
158.541339
  0
LINE
  8
1
 62
7
  6
CONTINUOUS
 10
79.661417
 20
165.541339
 11
79.661417
 21
158.541339
  0
LINE
  8
1
 62
7
  6
CONTINUOUS
 10
80.661417
 20
166.541339
 11
80.661417
 21
167.291339
  0
LINE
  8
1
 62
7
  6
CONTINUOUS
 10
80.661417
 20
167.291339
 11
84.661417
 21
167.291339
  0
LINE
  8
1
 62
7
  6
CONTINUOUS
 10
84.661417
 20
167.291339
 11
84.661417
 21
156.791339
  0
LINE
  8
1
 62
7
  6
CONTINUOUS
 10
84.661417
 20
156.791339
 11
80.661417
 21
156.791339
  0
LINE
  8
1
 62
7
  6
CONTINUOUS
 10
80.661417
 20
156.791339
 11
80.661417
 21
157.541339
  0
LINE
  8
1
 62
7
  6
CONTINUOUS
 10
84.661417
 20
167.291339
 11
84.661417
 21
172.041339
  0
LINE
  8
1
 62
7
  6
CONTINUOUS
 10
84.661417
 20
172.041339
 11
92.661417
 21
172.041339
  0
LINE
  8
1
 62
7
  6
CONTINUOUS
 10
92.661417
 20
172.041339
 11
92.661417
 21
152.041339
  0
LINE
  8
1
 62
7
  6
CONTINUOUS
 10
92.661417
 20
152.041339
 11
84.661417
 21
152.041339
  0
LINE
  8
1
 62
7
  6
CONTINUOUS
 10
84.661417
 20
152.041339
 11
84.661417
 21
156.791339
  0
LINE
  8
1
 62
7
  6
CONTINUOUS
 10
84.661417
 20
171.228100
 11
92.661417
 21
171.228100
  0
LINE
  8
1
 62
7
  6
CONTINUOUS
 10
84.656004
 20
170.570374
 11
92.656004
 21
170.570374
  0
LINE
  8
1
 62
7
  6
CONTINUOUS
 10
84.656004
 20
169.912648
 11
92.656004
 21
169.912648
  0
LINE
  8
1
 62
7
  6
CONTINUOUS
 10
84.656004
 20
169.254921
 11
92.656004
 21
169.254921
  0
LINE
  8
1
 62
7
  6
CONTINUOUS
 10
84.656004
 20
168.524114
 11
92.656004
 21
168.524114
  0
LINE
  8
1
 62
7
  6
CONTINUOUS
 10
84.656004
 20
167.866388
 11
92.656004
 21
167.866388
  0
LINE
  8
1
 62
7
  6
CONTINUOUS
 10
84.656004
 20
167.208661
 11
92.656004
 21
167.208661
  0
LINE
  8
1
 62
7
  6
CONTINUOUS
 10
84.656004
 20
166.550935
 11
92.656004
 21
166.550935
  0
LINE
  8
1
 62
7
  6
CONTINUOUS
 10
84.656004
 20
165.893209
 11
92.656004
 21
165.893209
  0
LINE
  8
1
 62
7
  6
CONTINUOUS
 10
84.656004
 20
165.162402
 11
92.656004
 21
165.162402
  0
LINE
  8
1
 62
7
  6
CONTINUOUS
 10
84.656004
 20
164.504675
 11
92.656004
 21
164.504675
  0
LINE
  8
1
 62
7
  6
CONTINUOUS
 10
84.656004
 20
163.846949
 11
92.656004
 21
163.846949
  0
LINE
  8
1
 62
7
  6
CONTINUOUS
 10
84.656004
 20
163.262303
 11
92.656004
 21
163.262303
  0
LINE
  8
1
 62
7
  6
CONTINUOUS
 10
84.656004
 20
162.604577
 11
92.656004
 21
162.604577
  0
LINE
  8
1
 62
7
  6
CONTINUOUS
 10
84.656004
 20
162.019931
 11
92.656004
 21
162.019931
  0
LINE
  8
1
 62
7
  6
CONTINUOUS
 10
84.656004
 20
161.362205
 11
92.656004
 21
161.362205
  0
LINE
  8
1
 62
7
  6
CONTINUOUS
 10
84.656004
 20
160.704478
 11
92.656004
 21
160.704478
  0
LINE
  8
1
 62
7
  6
CONTINUOUS
 10
84.656004
 20
160.046752
 11
92.656004
 21
160.046752
  0
LINE
  8
1
 62
7
  6
CONTINUOUS
 10
84.656004
 20
159.389026
 11
92.656004
 21
159.389026
  0
LINE
  8
1
 62
7
  6
CONTINUOUS
 10
84.656004
 20
158.731299
 11
92.656004
 21
158.731299
  0
LINE
  8
1
 62
7
  6
CONTINUOUS
 10
84.656004
 20
158.146654
 11
92.656004
 21
158.146654
  0
LINE
  8
1
 62
7
  6
CONTINUOUS
 10
84.656004
 20
157.488927
 11
92.656004
 21
157.488927
  0
LINE
  8
1
 62
7
  6
CONTINUOUS
 10
84.656004
 20
156.904281
 11
92.656004
 21
156.904281
  0
LINE
  8
1
 62
7
  6
CONTINUOUS
 10
84.656004
 20
156.173474
 11
92.656004
 21
156.173474
  0
LINE
  8
1
 62
7
  6
CONTINUOUS
 10
84.656004
 20
155.515748
 11
92.656004
 21
155.515748
  0
LINE
  8
1
 62
7
  6
CONTINUOUS
 10
84.656004
 20
154.858022
 11
92.656004
 21
154.858022
  0
LINE
  8
1
 62
7
  6
CONTINUOUS
 10
84.656004
 20
154.200295
 11
92.656004
 21
154.200295
  0
LINE
  8
1
 62
7
  6
CONTINUOUS
 10
84.656004
 20
153.542569
 11
92.656004
 21
153.542569
  0
LINE
  8
1
 62
7
  6
CONTINUOUS
 10
84.656004
 20
152.957923
 11
92.656004
 21
152.957923
  0
LINE
  8
1
 62
7
  6
CONTINUOUS
 10
84.656004
 20
152.519439
 11
92.656004
 21
152.519439
  0
LINE
  8
1
 62
7
  6
CONTINUOUS
 10
72.661417
 20
240.960630
 11
79.661417
 21
240.960630
  0
LINE
  8
1
 62
7
  6
CONTINUOUS
 10
79.661417
 20
240.960630
 11
79.661417
 21
241.960630
  0
LINE
  8
1
 62
7
  6
CONTINUOUS
 10
79.661417
 20
241.960630
 11
80.661417
 21
241.960630
  0
LINE
  8
1
 62
7
  6
CONTINUOUS
 10
80.661417
 20
241.960630
 11
80.661417
 21
232.960630
  0
LINE
  8
1
 62
7
  6
CONTINUOUS
 10
80.661417
 20
232.960630
 11
79.661417
 21
232.960630
  0
LINE
  8
1
 62
7
  6
CONTINUOUS
 10
79.661417
 20
232.960630
 11
79.661417
 21
233.960630
  0
LINE
  8
1
 62
7
  6
CONTINUOUS
 10
79.661417
 20
233.960630
 11
72.661417
 21
233.960630
  0
LINE
  8
1
 62
7
  6
CONTINUOUS
 10
79.661417
 20
240.960630
 11
79.661417
 21
233.960630
  0
LINE
  8
1
 62
7
  6
CONTINUOUS
 10
80.661417
 20
241.960630
 11
80.661417
 21
242.710630
  0
LINE
  8
1
 62
7
  6
CONTINUOUS
 10
80.661417
 20
242.710630
 11
84.661417
 21
242.710630
  0
LINE
  8
1
 62
7
  6
CONTINUOUS
 10
84.661417
 20
242.710630
 11
84.661417
 21
232.210630
  0
LINE
  8
1
 62
7
  6
CONTINUOUS
 10
84.661417
 20
232.210630
 11
80.661417
 21
232.210630
  0
LINE
  8
1
 62
7
  6
CONTINUOUS
 10
80.661417
 20
232.210630
 11
80.661417
 21
232.960630
  0
LINE
  8
1
 62
7
  6
CONTINUOUS
 10
84.661417
 20
242.710630
 11
84.661417
 21
247.460630
  0
LINE
  8
1
 62
7
  6
CONTINUOUS
 10
84.661417
 20
247.460630
 11
92.661417
 21
247.460630
  0
LINE
  8
1
 62
7
  6
CONTINUOUS
 10
92.661417
 20
247.460630
 11
92.661417
 21
227.460630
  0
LINE
  8
1
 62
7
  6
CONTINUOUS
 10
92.661417
 20
227.460630
 11
84.661417
 21
227.460630
  0
LINE
  8
1
 62
7
  6
CONTINUOUS
 10
84.661417
 20
227.460630
 11
84.661417
 21
232.210630
  0
LINE
  8
1
 62
7
  6
CONTINUOUS
 10
84.661417
 20
246.647392
 11
92.661417
 21
246.647392
  0
LINE
  8
1
 62
7
  6
CONTINUOUS
 10
84.656004
 20
245.989665
 11
92.656004
 21
245.989665
  0
LINE
  8
1
 62
7
  6
CONTINUOUS
 10
84.656004
 20
245.331939
 11
92.656004
 21
245.331939
  0
LINE
  8
1
 62
7
  6
CONTINUOUS
 10
84.656004
 20
244.674213
 11
92.656004
 21
244.674213
  0
LINE
  8
1
 62
7
  6
CONTINUOUS
 10
84.656004
 20
243.943406
 11
92.656004
 21
243.943406
  0
LINE
  8
1
 62
7
  6
CONTINUOUS
 10
84.656004
 20
243.285679
 11
92.656004
 21
243.285679
  0
LINE
  8
1
 62
7
  6
CONTINUOUS
 10
84.656004
 20
242.627953
 11
92.656004
 21
242.627953
  0
LINE
  8
1
 62
7
  6
CONTINUOUS
 10
84.656004
 20
241.970226
 11
92.656004
 21
241.970226
  0
LINE
  8
1
 62
7
  6
CONTINUOUS
 10
84.656004
 20
241.312500
 11
92.656004
 21
241.312500
  0
LINE
  8
1
 62
7
  6
CONTINUOUS
 10
84.656004
 20
240.581693
 11
92.656004
 21
240.581693
  0
LINE
  8
1
 62
7
  6
CONTINUOUS
 10
84.656004
 20
239.923967
 11
92.656004
 21
239.923967
  0
LINE
  8
1
 62
7
  6
CONTINUOUS
 10
84.656004
 20
239.266240
 11
92.656004
 21
239.266240
  0
LINE
  8
1
 62
7
  6
CONTINUOUS
 10
84.656004
 20
238.681594
 11
92.656004
 21
238.681594
  0
LINE
  8
1
 62
7
  6
CONTINUOUS
 10
84.656004
 20
238.023868
 11
92.656004
 21
238.023868
  0
LINE
  8
1
 62
7
  6
CONTINUOUS
 10
84.656004
 20
237.439222
 11
92.656004
 21
237.439222
  0
LINE
  8
1
 62
7
  6
CONTINUOUS
 10
84.656004
 20
236.781496
 11
92.656004
 21
236.781496
  0
LINE
  8
1
 62
7
  6
CONTINUOUS
 10
84.656004
 20
236.123770
 11
92.656004
 21
236.123770
  0
LINE
  8
1
 62
7
  6
CONTINUOUS
 10
84.656004
 20
235.466043
 11
92.656004
 21
235.466043
  0
LINE
  8
1
 62
7
  6
CONTINUOUS
 10
84.656004
 20
234.808317
 11
92.656004
 21
234.808317
  0
LINE
  8
1
 62
7
  6
CONTINUOUS
 10
84.656004
 20
234.150591
 11
92.656004
 21
234.150591
  0
LINE
  8
1
 62
7
  6
CONTINUOUS
 10
84.656004
 20
233.565945
 11
92.656004
 21
233.565945
  0
LINE
  8
1
 62
7
  6
CONTINUOUS
 10
84.656004
 20
232.908219
 11
92.656004
 21
232.908219
  0
LINE
  8
1
 62
7
  6
CONTINUOUS
 10
84.656004
 20
232.323573
 11
92.656004
 21
232.323573
  0
LINE
  8
1
 62
7
  6
CONTINUOUS
 10
84.656004
 20
231.592766
 11
92.656004
 21
231.592766
  0
LINE
  8
1
 62
7
  6
CONTINUOUS
 10
84.656004
 20
230.935039
 11
92.656004
 21
230.935039
  0
LINE
  8
1
 62
7
  6
CONTINUOUS
 10
84.656004
 20
230.277313
 11
92.656004
 21
230.277313
  0
LINE
  8
1
 62
7
  6
CONTINUOUS
 10
84.656004
 20
229.619587
 11
92.656004
 21
229.619587
  0
LINE
  8
1
 62
7
  6
CONTINUOUS
 10
84.656004
 20
228.961860
 11
92.656004
 21
228.961860
  0
LINE
  8
1
 62
7
  6
CONTINUOUS
 10
84.656004
 20
228.377215
 11
92.656004
 21
228.377215
  0
LINE
  8
1
 62
7
  6
CONTINUOUS
 10
84.656004
 20
227.938730
 11
92.656004
 21
227.938730
  0
LINE
  8
1
 62
7
  6
CONTINUOUS
 10
37.611713
 20
155.541339
 11
37.611713
 21
149.541339
  0
LINE
  8
1
 62
7
  6
CONTINUOUS
 10
37.611713
 20
149.541339
 11
82.611713
 21
149.541339
  0
LINE
  8
1
 62
7
  6
CONTINUOUS
 10
82.611713
 20
149.541339
 11
82.611713
 21
155.541339
  0
LINE
  8
1
 62
7
  6
CONTINUOUS
 10
82.611713
 20
155.541339
 11
37.611713
 21
155.541339
  0
LINE
  8
1
 62
7
  6
DOT
 10
75.361713
 20
155.541339
 11
75.361713
 21
149.541339
  0
LINE
  8
1
 62
7
  6
DOT
 10
79.861713
 20
155.541339
 11
79.861713
 21
149.541339
  0
LINE
  8
1
 62
7
  6
DOT
 10
40.361713
 20
155.541339
 11
40.361713
 21
149.541339
  0
LINE
  8
1
 62
7
  6
DOT
 10
44.861713
 20
155.541339
 11
44.861713
 21
149.541339
  0
LINE
  8
2
 62
134
  6
DASHDOT
 10
60.111713
 20
149.541339
 11
60.111713
 21
266.817667
  0
LINE
  8
2
 62
134
  6
DASHDOT
 10
44.472441
 20
217.541339
 11
76.043307
 21
217.541339
  0
LINE
  8
2
 62
134
  6
DASHDOT
 10
44.618602
 20
227.541339
 11
76.627953
 21
227.541339
  0
LINE
  8
2
 62
134
  6
DASHDOT
 10
42.133858
 20
237.541339
 11
94.751969
 21
237.541339
  0
LINE
  8
2
 62
134
  6
DASHDOT
 10
50.111713
 20
265.447404
 11
50.111713
 21
213.121617
  0
LINE
  8
2
 62
134
  6
DASHDOT
 10
70.111713
 20
267.639825
 11
70.111713
 21
212.975455
  0
LINE
  8
2
 62
134
  6
CONTINUOUS
 10
47.834154
 20
212.541339
 11
22.840551
 21
212.541339
  0
LINE
  8
2
 62
134
  6
CONTINUOUS
 10
49.149606
 20
262.541339
 11
23.425197
 21
262.541339
  0
LINE
  8
2
 62
134
  6
CONTINUOUS
 10
47.687992
 20
257.541339
 11
34.094980
 21
257.541339
  0
DIMENSION
  8
2
 62
134
  6
CONTINUOUS
  2
*D1
 10
25.032972
 20
262.541339
 11
24.532972
 21
237.541339
 70
     0
  1
50
 13
25.032972
 23
262.541339
 14
25.032972
 24
212.541339
 50
-90.000000
  0
DIMENSION
  8
2
 62
134
  6
CONTINUOUS
  2
*D2
 10
36.287402
 20
257.541339
 11
35.787402
 21
252.541339
 70
     0
  1
10
 13
36.287402
 23
257.541339
 14
36.287402
 24
247.541339
 50
-90.000000
  0
DIMENSION
  8
2
 62
134
  6
CONTINUOUS
  2
*D3
 10
36.287402
 20
247.541339
 11
35.787402
 21
242.541339
 70
     0
  1
10
 13
36.287402
 23
247.541339
 14
36.287402
 24
237.541339
 50
-90.000000
  0
DIMENSION
  8
2
 62
134
  6
CONTINUOUS
  2
*D4
 10
36.287402
 20
237.591597
 11
35.787402
 21
232.591597
 70
     0
  1
10
 13
36.287402
 23
237.591597
 14
36.287402
 24
227.591597
 50
-90.000000
  0
DIMENSION
  8
2
 62
134
  6
CONTINUOUS
  2
*D5
 10
36.287402
 20
227.541339
 11
35.787402
 21
222.541339
 70
     0
  1
10
 13
36.287402
 23
227.541339
 14
36.287402
 24
217.541339
 50
-90.000000
  0
DIMENSION
  8
2
 62
134
  6
CONTINUOUS
  2
*D6
 10
36.287402
 20
262.541339
 11
35.787402
 21
260.041339
 70
     0
  1
5
 13
36.287402
 23
262.541339
 14
36.287402
 24
257.541339
 50
-90.000000
  0
DIMENSION
  8
2
 62
134
  6
CONTINUOUS
  2
*D7
 10
36.287402
 20
217.541339
 11
35.787402
 21
215.041339
 70
     0
  1
5
 13
36.287402
 23
217.541339
 14
36.287402
 24
212.541339
 50
-90.000000
  0
LINE
  8
2
 62
134
  6
CONTINUOUS
 10
47.661417
 20
262.541339
 11
47.661417
 21
278.601932
  0
LINE
  8
2
 62
134
  6
CONTINUOUS
 10
72.661417
 20
262.541339
 11
72.661417
 21
278.163447
  0
LINE
  8
2
 62
134
  6
CONTINUOUS
 10
50.111713
 20
262.541339
 11
50.111713
 21
271.878506
  0
LINE
  8
2
 62
134
  6
CONTINUOUS
 10
50.111713
 20
271.878506
 11
50.172736
 21
271.878506
  0
LINE
  8
2
 62
134
  6
CONTINUOUS
 10
70.111713
 20
262.541339
 11
70.111713
 21
272.609313
  0
DIMENSION
  8
2
 62
134
  6
CONTINUOUS
  2
*D8
 10
47.687992
 20
277.286479
 11
60.184793
 21
277.786479
 70
     0
  1
25
 13
47.687992
 23
277.286479
 14
72.681594
 24
277.286479
 50
0.000000
  0
LINE
  8
2
 62
134
  6
CONTINUOUS
 10
60.111713
 20
262.541339
 11
60.111713
 21
272.316991
  0
DIMENSION
  8
2
 62
134
  6
CONTINUOUS
  2
*D9
 10
50.172736
 20
270.416892
 11
55.142224
 21
270.916892
 70
     0
  1
10
 13
50.172736
 23
270.416892
 14
60.111713
 24
270.416892
 50
0.000000
  0
DIMENSION
  8
2
 62
134
  6
CONTINUOUS
  2
*D10
 10
60.111713
 20
270.416892
 11
65.081201
 21
270.916892
 70
     0
  1
10
 13
60.111713
 23
270.416892
 14
70.050689
 24
270.416892
 50
0.000000
  0
LINE
  8
2
 62
134
  6
CONTINUOUS
 10
71.233199
 20
258.590760
 11
84.666831
 21
277.286479
  0
LINE
  8
2
 62
134
  6
CONTINUOUS
 10
84.666831
 20
277.286479
 11
95.836122
 21
277.286479
  0
TEXT
  8
2
 62
134
  6
CONTINUOUS
 10
85.836122
 20
277.286479
 40
4.000000
 41
0.500000
  1
10-M3
  7
KANJI
 50
0.000000
 51
30.000000
  0
LINE
  8
2
 62
134
  6
CONTINUOUS
 10
71.233199
 20
258.590760
 11
71.940108
 21
260.461663
  0
LINE
  8
2
 62
134
  6
CONTINUOUS
 10
71.233199
 20
258.590760
 11
72.780852
 21
259.857555
  0
LINE
  8
2
 62
134
  6
CONTINUOUS
 10
71.940108
 20
260.461663
 11
72.780852
 21
259.857555
  0
LINE
  8
2
 62
134
  6
CONTINUOUS
 10
71.515019
 20
258.982972
 11
71.868474
 21
259.918424
  0
LINE
  8
2
 62
134
  6
CONTINUOUS
 10
71.515019
 20
258.982972
 11
72.288846
 21
259.616369
  0
LINE
  8
2
 62
134
  6
CONTINUOUS
 10
71.868474
 20
259.918424
 11
72.288846
 21
259.616369
  0
TEXT
  8
2
 62
134
  6
CONTINUOUS
 10
85.397638
 20
272.755475
 40
4.000000
 41
1.000000
  1
深さ５
  7
KANJI
 50
0.000000
 51
0.000000
  0
LINE
  8
2
 62
134
  6
CONTINUOUS
 10
94.459646
 20
277.286479
 11
97.382874
 21
277.286479
  0
LINE
  8
2
 62
134
  6
DOT
 10
77.611713
 20
148.810593
 11
77.611713
 21
158.541339
  0
LINE
  8
2
 62
134
  6
DOT
 10
42.611713
 20
148.664432
 11
42.611713
 21
158.603408
  0
LINE
  8
2
 62
134
  6
CONTINUOUS
 10
47.661417
 20
217.541339
 11
34.679626
 21
217.541339
  0
LINE
  8
2
 62
134
  6
CONTINUOUS
 10
47.661417
 20
227.591597
 11
34.533465
 21
227.591597
  0
LINE
  8
2
 62
134
  6
CONTINUOUS
 10
47.687992
 20
237.541339
 11
34.679626
 21
237.541339
  0
LINE
  8
2
 62
134
  6
CONTINUOUS
 10
47.541831
 20
247.541339
 11
34.679626
 21
247.541339
  0
LINE
  8
2
 62
134
  6
DASHDOT
 10
44.326280
 20
257.541339
 11
76.481791
 21
257.541339
  0
LINE
  8
2
 62
134
  6
DASHDOT
 10
43.887795
 20
247.541339
 11
75.897146
 21
247.541339
  0
LINE
  8
1
 62
7
  6
CONTINUOUS
 10
122.611713
 20
177.541339
 11
122.611713
 21
149.541339
  0
LINE
  8
1
 62
7
  6
CONTINUOUS
 10
122.611713
 20
149.541339
 11
172.611713
 21
149.541339
  0
LINE
  8
1
 62
7
  6
CONTINUOUS
 10
172.611713
 20
149.541339
 11
172.611713
 21
177.541339
  0
LINE
  8
1
 62
7
  6
CONTINUOUS
 10
172.611713
 20
177.541339
 11
122.611713
 21
177.541339
  0
LINE
  8
1
 62
7
  6
CONTINUOUS
 10
144.611713
 20
199.674766
 11
144.611713
 21
177.541339
  0
LINE
  8
1
 62
7
  6
CONTINUOUS
 10
144.611713
 20
177.541339
 11
170.611713
 21
177.541339
  0
LINE
  8
1
 62
7
  6
CONTINUOUS
 10
170.611713
 20
177.541339
 11
170.611713
 21
199.674766
  0
LINE
  8
1
 62
7
  6
CONTINUOUS
 10
170.611713
 20
199.674766
 11
144.611713
 21
199.674766
  0
LINE
  8
1
 62
7
  6
CONTINUOUS
 10
153.611713
 20
204.644254
 11
171.611713
 21
204.644254
  0
LINE
  8
1
 62
7
  6
CONTINUOUS
 10
171.611713
 20
204.644254
 11
171.611713
 21
199.674766
  0
LINE
  8
1
 62
7
  6
CONTINUOUS
 10
171.611713
 20
199.674766
 11
170.611713
 21
199.674766
  0
LINE
  8
1
 62
7
  6
CONTINUOUS
 10
135.111713
 20
262.524176
 11
135.111713
 21
212.536971
  0
LINE
  8
1
 62
7
  6
CONTINUOUS
 10
135.111713
 20
212.536971
 11
153.611713
 21
212.536971
  0
LINE
  8
1
 62
7
  6
CONTINUOUS
 10
161.111713
 20
262.524176
 11
161.111713
 21
212.536971
  0
LINE
  8
1
 62
7
  6
CONTINUOUS
 10
161.111713
 20
212.536971
 11
161.111713
 21
204.644254
  0
LINE
  8
1
 62
7
  6
CONTINUOUS
 10
157.111713
 20
212.536971
 11
153.611713
 21
212.536971
  0
LINE
  8
1
 62
7
  6
CONTINUOUS
 10
153.611713
 20
199.674766
 11
153.611713
 21
212.390810
  0
LINE
  8
1
 62
7
  6
CONTINUOUS
 10
135.111713
 20
262.524176
 11
162.429759
 21
262.524176
  0
LINE
  8
1
 62
7
  6
CONTINUOUS
 10
165.411018
 20
259.858976
 11
171.611713
 21
204.644254
  0
ARC
  8
1
 62
7
  6
CONTINUOUS
 10
162.429759
 20
259.524176
 40
3.000000
 50
6.407553
 51
90.000000
  0
CIRCLE
  8
1
 62
7
  6
CONTINUOUS
 10
149.111713
 20
237.676735
 40
10.000000
  0
CIRCLE
  8
1
 62
7
  6
CONTINUOUS
 10
149.111713
 20
237.676735
 40
8.000000
  0
LINE
  8
1
 62
7
  6
CONTINUOUS
 10
157.111713
 20
262.524176
 11
157.111713
 21
243.676735
  0
LINE
  8
1
 62
7
  6
CONTINUOUS
 10
141.111713
 20
262.524176
 11
141.111713
 21
243.676735
  0
LINE
  8
1
 62
7
  6
CONTINUOUS
 10
157.111713
 20
231.676735
 11
157.111713
 21
212.536971
  0
LINE
  8
1
 62
7
  6
CONTINUOUS
 10
141.111713
 20
231.676735
 11
141.111713
 21
212.536971
  0
CIRCLE
  8
1
 62
7
  6
CONTINUOUS
 10
147.611713
 20
162.041339
 40
10.000000
  0
CIRCLE
  8
1
 62
7
  6
CONTINUOUS
 10
147.611713
 20
162.041339
 40
8.000000
  0
LINE
  8
1
 62
7
  6
CONTINUOUS
 10
122.611713
 20
155.541339
 11
140.012371
 21
155.541339
  0
LINE
  8
1
 62
7
  6
CONTINUOUS
 10
155.211055
 20
155.541339
 11
172.611713
 21
155.541339
  0
LINE
  8
1
 62
7
  6
DASHDOT
 10
119.706201
 20
162.041339
 11
176.709154
 21
162.041339
  0
LINE
  8
1
 62
7
  6
DASHDOT
 10
147.611713
 20
179.577571
 11
147.611713
 21
147.422060
  0
LINE
  8
1
 62
7
  6
DASHDOT
 10
132.129921
 20
237.676735
 11
170.131890
 21
237.676735
  0
LINE
  8
1
 62
7
  6
DASHDOT
 10
149.111713
 20
255.143024
 11
149.111713
 21
222.110544
  0
LINE
  8
1
 62
7
  6
CONTINUOUS
 10
170.611713
 20
187.460630
 11
177.611713
 21
187.460630
  0
LINE
  8
1
 62
7
  6
CONTINUOUS
 10
177.611713
 20
187.460630
 11
177.611713
 21
188.460630
  0
LINE
  8
1
 62
7
  6
CONTINUOUS
 10
177.611713
 20
188.460630
 11
178.611713
 21
188.460630
  0
LINE
  8
1
 62
7
  6
CONTINUOUS
 10
178.611713
 20
188.460630
 11
178.611713
 21
179.460630
  0
LINE
  8
1
 62
7
  6
CONTINUOUS
 10
178.611713
 20
179.460630
 11
177.611713
 21
179.460630
  0
LINE
  8
1
 62
7
  6
CONTINUOUS
 10
177.611713
 20
179.460630
 11
177.611713
 21
180.460630
  0
LINE
  8
1
 62
7
  6
CONTINUOUS
 10
177.611713
 20
180.460630
 11
170.611713
 21
180.460630
  0
LINE
  8
1
 62
7
  6
CONTINUOUS
 10
177.611713
 20
187.460630
 11
177.611713
 21
180.460630
  0
LINE
  8
1
 62
7
  6
CONTINUOUS
 10
178.611713
 20
188.460630
 11
178.611713
 21
189.210630
  0
LINE
  8
1
 62
7
  6
CONTINUOUS
 10
178.611713
 20
189.210630
 11
182.611713
 21
189.210630
  0
LINE
  8
1
 62
7
  6
CONTINUOUS
 10
182.611713
 20
189.210630
 11
182.611713
 21
178.710630
  0
LINE
  8
1
 62
7
  6
CONTINUOUS
 10
182.611713
 20
178.710630
 11
178.611713
 21
178.710630
  0
LINE
  8
1
 62
7
  6
CONTINUOUS
 10
178.611713
 20
178.710630
 11
178.611713
 21
179.460630
  0
LINE
  8
1
 62
7
  6
CONTINUOUS
 10
182.611713
 20
189.210630
 11
182.611713
 21
193.960630
  0
LINE
  8
1
 62
7
  6
CONTINUOUS
 10
182.611713
 20
193.960630
 11
190.611713
 21
193.960630
  0
LINE
  8
1
 62
7
  6
CONTINUOUS
 10
190.611713
 20
193.960630
 11
190.611713
 21
173.960630
  0
LINE
  8
1
 62
7
  6
CONTINUOUS
 10
190.611713
 20
173.960630
 11
182.611713
 21
173.960630
  0
LINE
  8
1
 62
7
  6
CONTINUOUS
 10
182.611713
 20
173.960630
 11
182.611713
 21
178.710630
  0
LINE
  8
1
 62
7
  6
CONTINUOUS
 10
182.611713
 20
193.147392
 11
190.611713
 21
193.147392
  0
LINE
  8
1
 62
7
  6
CONTINUOUS
 10
182.606299
 20
192.489665
 11
190.606299
 21
192.489665
  0
LINE
  8
1
 62
7
  6
CONTINUOUS
 10
182.606299
 20
191.831939
 11
190.606299
 21
191.831939
  0
LINE
  8
1
 62
7
  6
CONTINUOUS
 10
182.606299
 20
191.174213
 11
190.606299
 21
191.174213
  0
LINE
  8
1
 62
7
  6
CONTINUOUS
 10
182.606299
 20
190.443406
 11
190.606299
 21
190.443406
  0
LINE
  8
1
 62
7
  6
CONTINUOUS
 10
182.606299
 20
189.785679
 11
190.606299
 21
189.785679
  0
LINE
  8
1
 62
7
  6
CONTINUOUS
 10
182.606299
 20
189.127953
 11
190.606299
 21
189.127953
  0
LINE
  8
1
 62
7
  6
CONTINUOUS
 10
182.606299
 20
188.470226
 11
190.606299
 21
188.470226
  0
LINE
  8
1
 62
7
  6
CONTINUOUS
 10
182.606299
 20
187.812500
 11
190.606299
 21
187.812500
  0
LINE
  8
1
 62
7
  6
CONTINUOUS
 10
182.606299
 20
187.081693
 11
190.606299
 21
187.081693
  0
LINE
  8
1
 62
7
  6
CONTINUOUS
 10
182.606299
 20
186.423967
 11
190.606299
 21
186.423967
  0
LINE
  8
1
 62
7
  6
CONTINUOUS
 10
182.606299
 20
185.766240
 11
190.606299
 21
185.766240
  0
LINE
  8
1
 62
7
  6
CONTINUOUS
 10
182.606299
 20
185.181594
 11
190.606299
 21
185.181594
  0
LINE
  8
1
 62
7
  6
CONTINUOUS
 10
182.606299
 20
184.523868
 11
190.606299
 21
184.523868
  0
LINE
  8
1
 62
7
  6
CONTINUOUS
 10
182.606299
 20
183.939222
 11
190.606299
 21
183.939222
  0
LINE
  8
1
 62
7
  6
CONTINUOUS
 10
182.606299
 20
183.281496
 11
190.606299
 21
183.281496
  0
LINE
  8
1
 62
7
  6
CONTINUOUS
 10
182.606299
 20
182.623770
 11
190.606299
 21
182.623770
  0
LINE
  8
1
 62
7
  6
CONTINUOUS
 10
182.606299
 20
181.966043
 11
190.606299
 21
181.966043
  0
LINE
  8
1
 62
7
  6
CONTINUOUS
 10
182.606299
 20
181.308317
 11
190.606299
 21
181.308317
  0
LINE
  8
1
 62
7
  6
CONTINUOUS
 10
182.606299
 20
180.650591
 11
190.606299
 21
180.650591
  0
LINE
  8
1
 62
7
  6
CONTINUOUS
 10
182.606299
 20
180.065945
 11
190.606299
 21
180.065945
  0
LINE
  8
1
 62
7
  6
CONTINUOUS
 10
182.606299
 20
179.408219
 11
190.606299
 21
179.408219
  0
LINE
  8
1
 62
7
  6
CONTINUOUS
 10
182.606299
 20
178.823573
 11
190.606299
 21
178.823573
  0
LINE
  8
1
 62
7
  6
CONTINUOUS
 10
182.606299
 20
178.092766
 11
190.606299
 21
178.092766
  0
LINE
  8
1
 62
7
  6
CONTINUOUS
 10
182.606299
 20
177.435039
 11
190.606299
 21
177.435039
  0
LINE
  8
1
 62
7
  6
CONTINUOUS
 10
182.606299
 20
176.777313
 11
190.606299
 21
176.777313
  0
LINE
  8
1
 62
7
  6
CONTINUOUS
 10
182.606299
 20
176.119587
 11
190.606299
 21
176.119587
  0
LINE
  8
1
 62
7
  6
CONTINUOUS
 10
182.606299
 20
175.461860
 11
190.606299
 21
175.461860
  0
LINE
  8
1
 62
7
  6
CONTINUOUS
 10
182.606299
 20
174.877215
 11
190.606299
 21
174.877215
  0
LINE
  8
1
 62
7
  6
CONTINUOUS
 10
182.606299
 20
174.438730
 11
190.606299
 21
174.438730
  0
LINE
  8
2
 62
134
  6
DASHDOT
 10
140.084154
 20
184.041339
 11
192.702264
 21
184.041339
  0
LINE
  8
2
 62
134
  6
CONTINUOUS
 10
135.111713
 20
262.524176
 11
104.066929
 21
262.524176
  0
LINE
  8
2
 62
134
  6
CONTINUOUS
 10
122.611713
 20
149.541339
 11
103.189961
 21
149.541339
  0
DIMENSION
  8
2
 62
134
  6
CONTINUOUS
  2
*D11
 10
106.405512
 20
262.524176
 11
105.905512
 21
206.032757
 70
     0
  1
113
 13
106.405512
 23
262.524176
 14
106.405512
 24
149.541339
 50
-90.000000
  0
DIMENSION
  8
2
 62
134
  6
CONTINUOUS
  2
*D12
 10
122.611713
 20
197.847749
 11
128.861713
 21
198.347749
 70
     0
  1
12.5
 13
122.611713
 23
197.847749
 14
135.111713
 24
197.847749
 50
0.000000
  0
DIMENSION
  8
2
 62
134
  6
CONTINUOUS
  2
*D13
 10
114.444390
 20
237.676735
 11
113.944390
 21
193.609037
 70
     0
  1
88
 13
114.444390
 23
237.676735
 14
114.444390
 24
149.541339
 50
-90.000000
  0
LINE
  8
2
 62
134
  6
CONTINUOUS
 10
122.611713
 20
177.541339
 11
122.611713
 21
199.747847
  0
LINE
  8
2
 62
134
  6
CONTINUOUS
 10
135.111713
 20
212.536971
 11
135.111713
 21
196.093812
  0
LINE
  8
1
 62
7
  6
DOT
 10
165.373031
 20
155.541339
 11
165.373031
 21
149.541339
  0
LINE
  8
1
 62
7
  6
DOT
 10
169.873031
 20
155.541339
 11
169.873031
 21
149.541339
  0
LINE
  8
2
 62
134
  6
DOT
 10
167.623031
 20
148.810593
 11
167.623031
 21
158.541339
  0
LINE
  8
1
 62
7
  6
DOT
 10
125.373031
 20
155.541339
 11
125.373031
 21
149.541339
  0
LINE
  8
1
 62
7
  6
DOT
 10
129.873031
 20
155.541339
 11
129.873031
 21
149.541339
  0
LINE
  8
2
 62
134
  6
DOT
 10
127.623031
 20
148.810593
 11
127.623031
 21
158.541339
  0
LINE
  8
2
 62
134
  6
DASHDOT
 10
147.623031
 20
149.541339
 11
147.623031
 21
174.644624
  0
LINE
  8
2
 62
134
  6
CONTINUOUS
 10
190.611713
 20
173.960630
 11
190.611713
 21
138.177350
  0
LINE
  8
2
 62
134
  6
CONTINUOUS
 10
172.611713
 20
149.541339
 11
172.611713
 21
138.469673
  0
LINE
  8
2
 62
134
  6
CONTINUOUS
 10
122.611713
 20
149.541339
 11
122.611713
 21
138.615834
  0
DIMENSION
  8
2
 62
134
  6
CONTINUOUS
  2
*D14
 10
35.122047
 20
140.369771
 11
47.597195
 21
140.869771
 70
     0
  1
25
 13
35.122047
 23
140.369771
 14
60.072343
 24
140.369771
 50
0.000000
  0
DIMENSION
  8
2
 62
134
  6
CONTINUOUS
  2
*D15
 10
60.072343
 20
140.369771
 11
76.347195
 21
140.869771
 70
     0
  1
32.5
 13
60.072343
 23
140.369771
 14
92.622047
 24
140.369771
 50
0.000000
  0
LINE
  8
2
 62
134
  6
DOT
 10
60.072343
 20
158.146654
 11
60.072343
 21
146.216228
  0
DIMENSION
  8
2
 62
134
  6
CONTINUOUS
  2
*D16
 10
122.611713
 20
140.369771
 11
147.611713
 21
140.869771
 70
     0
  1
50
 13
122.611713
 23
140.369771
 14
172.611713
 24
140.369771
 50
0.000000
  0
DIMENSION
  8
2
 62
134
  6
CONTINUOUS
  2
*D17
 10
172.611713
 20
140.369771
 11
181.611713
 21
140.869771
 70
     0
  1
17.5
 13
172.611713
 23
140.369771
 14
190.611713
 24
140.369771
 50
0.000000
  0
LINE
  8
2
 62
134
  6
CONTINUOUS
 10
77.611713
 20
149.541339
 11
96.905020
 21
140.369771
  0
LINE
  8
2
 62
134
  6
CONTINUOUS
 10
96.905020
 20
140.369771
 11
111.635827
 21
140.369771
  0
TEXT
  8
2
 62
134
  6
CONTINUOUS
 10
97.635827
 20
140.954417
 40
4.000000
 41
0.583333
  1
4-φ4.5
  7
KANJI
 50
0.000000
 51
30.000000
  0
LINE
  8
2
 62
134
  6
CONTINUOUS
 10
77.611713
 20
149.541339
 11
79.578696
 21
149.179433
  0
LINE
  8
2
 62
134
  6
CONTINUOUS
 10
77.611713
 20
149.541339
 11
79.134217
 21
148.244427
  0
LINE
  8
2
 62
134
  6
CONTINUOUS
 10
79.578696
 20
149.179433
 11
79.134217
 21
148.244427
  0
LINE
  8
2
 62
134
  6
CONTINUOUS
 10
78.047899
 20
149.333986
 11
79.031390
 21
149.153033
  0
LINE
  8
2
 62
134
  6
CONTINUOUS
 10
78.047899
 20
149.333986
 11
78.809151
 21
148.685531
  0
LINE
  8
2
 62
134
  6
CONTINUOUS
 10
79.031390
 20
149.153033
 11
78.809151
 21
148.685531
  0
TEXT
  8
2
 62
134
  6
DOT
 10
99.575295
 20
135.948388
 40
4.000000
 41
1.000000
  1
深さ６
  7
KANJI
 50
0.000000
 51
0.000000
  0
CIRCLE
  8
1
 62
7
  6
CONTINUOUS
 10
167.476870
 20
123.969181
 40
2.250000
  0
CIRCLE
  8
1
 62
7
  6
CONTINUOUS
 10
127.476870
 20
123.969181
 40
2.250000
  0
CIRCLE
  8
1
 62
7
  6
CONTINUOUS
 10
127.476870
 20
88.969181
 40
2.250000
  0
CIRCLE
  8
1
 62
7
  6
CONTINUOUS
 10
167.476870
 20
88.969181
 40
2.250000
  0
LINE
  8
2
 62
134
  6
DASHDOT
 10
142.945866
 20
123.969181
 11
153.199370
 21
123.969181
  0
LINE
  8
2
 62
134
  6
DASHDOT
 10
163.408465
 20
123.969181
 11
171.739665
 21
123.969181
  0
LINE
  8
2
 62
134
  6
DASHDOT
 10
167.476870
 20
128.260027
 11
167.476870
 21
118.759535
  0
LINE
  8
2
 62
134
  6
DASHDOT
 10
162.239173
 20
88.969181
 11
171.593504
 21
88.969181
  0
LINE
  8
2
 62
134
  6
DASHDOT
 10
127.476870
 20
93.181287
 11
127.476870
 21
84.557763
  0
LINE
  8
2
 62
134
  6
DASHDOT
 10
143.530512
 20
88.969181
 11
151.423228
 21
88.969181
  0
LINE
  8
1
 62
7
  6
CONTINUOUS
 10
123.476870
 20
128.969181
 11
122.476870
 21
127.969181
  0
LINE
  8
1
 62
7
  6
CONTINUOUS
 10
122.476870
 20
127.969181
 11
122.476870
 21
84.969181
  0
LINE
  8
1
 62
7
  6
CONTINUOUS
 10
122.476870
 20
84.969181
 11
123.476870
 21
83.969181
  0
LINE
  8
1
 62
7
  6
CONTINUOUS
 10
123.476870
 20
83.969181
 11
171.476870
 21
83.969181
  0
LINE
  8
1
 62
7
  6
CONTINUOUS
 10
171.476870
 20
83.969181
 11
172.476870
 21
84.969181
  0
LINE
  8
1
 62
7
  6
CONTINUOUS
 10
172.476870
 20
84.969181
 11
172.476870
 21
127.969181
  0
LINE
  8
1
 62
7
  6
CONTINUOUS
 10
123.476870
 20
128.969181
 11
171.476870
 21
128.969181
  0
LINE
  8
1
 62
7
  6
CONTINUOUS
 10
172.476870
 20
127.969181
 11
171.476870
 21
128.969181
  0
LINE
  8
2
 62
134
  6
DASHDOT
 10
167.476870
 20
127.529220
 11
167.476870
 21
84.850086
  0
LINE
  8
2
 62
134
  6
DASHDOT
 10
127.476870
 20
127.675381
 11
127.476870
 21
84.703925
  0
LINE
  8
2
 62
134
  6
DASHDOT
 10
123.506398
 20
88.969181
 11
171.739665
 21
88.969181
  0
LINE
  8
2
 62
134
  6
DASHDOT
 10
124.237205
 20
106.469181
 11
171.301181
 21
106.469181
  0
LINE
  8
2
 62
134
  6
DASHDOT
 10
123.798720
 20
123.969181
 11
171.593504
 21
123.969181
  0
LINE
  8
2
 62
134
  6
CONTINUOUS
 10
127.476870
 20
85.288570
 11
127.476870
 21
75.057271
  0
LINE
  8
2
 62
134
  6
CONTINUOUS
 10
167.476870
 20
85.580893
 11
167.476870
 21
75.203433
  0
LINE
  8
2
 62
134
  6
CONTINUOUS
 10
172.476870
 20
124.021346
 11
183.286417
 21
124.021346
  0
LINE
  8
2
 62
134
  6
CONTINUOUS
 10
172.476870
 20
88.942606
 11
183.432579
 21
88.942606
  0
DIMENSION
  8
2
 62
134
  6
CONTINUOUS
  2
*D18
 10
127.476870
 20
76.518885
 11
147.476870
 21
77.018885
 70
     0
  1
40
 13
127.476870
 23
76.518885
 14
167.476870
 24
76.518885
 50
0.000000
  0
DIMENSION
  8
2
 62
134
  6
CONTINUOUS
  2
*D19
 10
181.970965
 20
124.021346
 11
181.470965
 21
106.481976
 70
     0
  1
35
 13
181.970965
 23
124.021346
 14
181.970965
 24
88.942606
 50
-90.000000
  0
CIRCLE
  8
1
 62
7
  6
CONTINUOUS
 10
159.976870
 20
106.469181
 40
2.000000
  0
CIRCLE
  8
1
 62
7
  6
CONTINUOUS
 10
134.976870
 20
106.469181
 40
2.000000
  0
LINE
  8
2
 62
134
  6
DASHDOT
 10
134.906988
 20
112.474594
 11
134.906988
 21
86.311700
  0
LINE
  8
2
 62
134
  6
DASHDOT
 10
160.046752
 20
113.059240
 11
160.046752
 21
86.311700
  0
DIMENSION
  8
2
 62
134
  6
CONTINUOUS
  2
*D20
 10
134.906988
 20
88.969181
 11
141.191929
 21
89.469181
 70
     0
  1
12.5
 13
134.906988
 23
88.969181
 14
147.476870
 24
88.969181
 50
0.000000
  0
DIMENSION
  8
2
 62
134
  6
CONTINUOUS
  2
*D21
 10
147.476870
 20
88.969181
 11
153.761811
 21
89.469181
 70
     0
  1
12.5
 13
147.476870
 23
88.969181
 14
160.046752
 24
88.969181
 50
0.000000
  0
LINE
  8
2
 62
134
  6
CONTINUOUS
 10
169.108760
 20
87.334830
 11
182.555610
 21
76.811208
  0
LINE
  8
2
 62
134
  6
CONTINUOUS
 10
182.555610
 20
76.811208
 11
196.701772
 21
76.811208
  0
TEXT
  8
2
 62
134
  6
CONTINUOUS
 10
182.701772
 20
77.249692
 40
4.000000
 41
0.583333
  1
4-φ4.5
  7
KANJI
 50
0.000000
 51
30.000000
  0
LINE
  8
2
 62
134
  6
CONTINUOUS
 10
169.108760
 20
87.334830
 11
170.949127
 21
86.551857
  0
LINE
  8
2
 62
134
  6
CONTINUOUS
 10
169.108760
 20
87.334830
 11
170.311078
 21
85.736571
  0
LINE
  8
2
 62
134
  6
CONTINUOUS
 10
170.949127
 20
86.551857
 11
170.311078
 21
85.736571
  0
LINE
  8
2
 62
134
  6
CONTINUOUS
 10
169.489096
 20
87.037176
 11
170.409279
 21
86.645689
  0
LINE
  8
2
 62
134
  6
CONTINUOUS
 10
169.489096
 20
87.037176
 11
170.090255
 21
86.238047
  0
LINE
  8
2
 62
134
  6
CONTINUOUS
 10
170.409279
 20
86.645689
 11
170.090255
 21
86.238047
  0
LINE
  8
2
 62
134
  6
CONTINUOUS
 10
133.591535
 20
107.943590
 11
117.659941
 21
123.875185
  0
LINE
  8
2
 62
134
  6
CONTINUOUS
 10
117.659941
 20
123.875185
 11
108.013287
 21
123.875185
  0
TEXT
  8
2
 62
134
  6
CONTINUOUS
 10
108.013287
 20
124.459830
 40
4.000000
 41
0.500000
  1
2-M4
  7
KANJI
 50
0.000000
 51
30.000000
  0
LINE
  8
2
 62
134
  6
CONTINUOUS
 10
133.591535
 20
107.943590
 11
131.859485
 21
108.943590
  0
LINE
  8
2
 62
134
  6
CONTINUOUS
 10
133.591535
 20
107.943590
 11
132.591535
 21
109.675641
  0
LINE
  8
2
 62
134
  6
CONTINUOUS
 10
131.859485
 20
108.943590
 11
132.591535
 21
109.675641
  0
LINE
  8
2
 62
134
  6
CONTINUOUS
 10
133.250029
 20
108.285096
 11
132.384004
 21
108.785096
  0
LINE
  8
2
 62
134
  6
CONTINUOUS
 10
133.250029
 20
108.285096
 11
132.750029
 21
109.151122
  0
LINE
  8
2
 62
134
  6
CONTINUOUS
 10
132.384004
 20
108.785096
 11
132.750029
 21
109.151122
  0
LINE
  8
2
 62
134
  6
CONTINUOUS
 10
35.161417
 20
177.541339
 11
35.161417
 21
138.031188
  0
LINE
  8
2
 62
134
  6
CONTINUOUS
 10
92.661417
 20
152.041339
 11
92.661417
 21
138.323511
  0
LINE
  8
2
 62
134
  6
CONTINUOUS
 10
60.072343
 20
145.777744
 11
60.072343
 21
138.031188
  0
LINE
  8
2
 62
134
  6
CONTINUOUS
 10
135.111713
 20
237.676735
 11
111.813484
 21
237.676735
  0
LINE
  8
2
 62
134
  6
DASHDOT
 10
147.623031
 20
127.821543
 11
147.623031
 21
84.850086
  0
CIRCLE
  8
1
 62
7
  6
CONTINUOUS
 10
147.623031
 20
106.460322
 40
3.175000
  0
CIRCLE
  8
1
 62
7
  6
CONTINUOUS
 10
147.623031
 20
106.460322
 40
3.175000
  0
CIRCLE
  8
1
 62
7
  6
CONTINUOUS
 10
147.623031
 20
106.460322
 40
3.800197
  0
LINE
  8
2
 62
134
  6
CONTINUOUS
 10
144.669348
 20
104.090899
 11
112.075352
 21
86.113044
  0
LINE
  8
2
 62
134
  6
CONTINUOUS
 10
112.075352
 20
86.113044
 11
95.559112
 21
86.113044
  0
TEXT
  8
2
 62
134
  6
CONTINUOUS
 10
95.559112
 20
86.697690
 40
4.000000
 41
0.666667
  1
W1/4深６
  7
KANJI
 50
0.000000
 51
30.000000
  0
LINE
  8
2
 62
134
  6
CONTINUOUS
 10
144.669348
 20
104.090899
 11
143.227757
 21
102.704604
  0
LINE
  8
2
 62
134
  6
CONTINUOUS
 10
144.669348
 20
104.090899
 11
142.727746
 21
103.611128
  0
LINE
  8
2
 62
134
  6
CONTINUOUS
 10
143.227757
 20
102.704604
 11
142.727746
 21
103.611128
  0
LINE
  8
2
 62
134
  6
CONTINUOUS
 10
144.246449
 20
103.857640
 11
143.525653
 21
103.164493
  0
LINE
  8
2
 62
134
  6
CONTINUOUS
 10
144.246449
 20
103.857640
 11
143.275648
 21
103.617755
  0
LINE
  8
2
 62
134
  6
CONTINUOUS
 10
143.525653
 20
103.164493
 11
143.275648
 21
103.617755
  0
LINE
  8
1
 62
7
  6
DOT
 10
151.350148
 20
152.720411
 11
151.350148
 21
149.504798
  0
LINE
  8
1
 62
7
  6
DOT
 10
150.765502
 20
152.579598
 11
150.765502
 21
149.504798
  0
LINE
  8
1
 62
7
  6
DOT
 10
144.531437
 20
152.487219
 11
144.531437
 21
149.504860
  0
LINE
  8
1
 62
7
  6
DOT
 10
143.894679
 20
152.687596
 11
143.894679
 21
149.541339
  0
LINE
  8
1
 62
7
  6
DOT
 10
63.799459
 20
155.541339
 11
63.799459
 21
149.504798
  0
LINE
  8
1
 62
7
  6
DOT
 10
63.214813
 20
155.541339
 11
63.214813
 21
149.504798
  0
LINE
  8
1
 62
7
  6
DOT
 10
56.980748
 20
155.541339
 11
56.980748
 21
149.504860
  0
LINE
  8
1
 62
7
  6
DOT
 10
56.343990
 20
155.541339
 11
56.343990
 21
149.541339
  0
LINE
  8
1
 62
7
  6
DASHDOT
 10
69.280512
 20
162.041339
 11
95.589567
 21
162.041339
  0
TEXT
  8
2
 62
134
  6
CONTINUOUS
 10
43.790581
 20
79.492252
 40
4.000000
 41
0.777778
  1
耐荷重　1.5Kｇ
  7
KANJI
 50
0.000000
 51
0.000000
  0
TEXT
  8
2
 62
134
  6
CONTINUOUS
 10
43.673341
 20
84.064577
 40
4.000000
 41
0.800000
  1
移動量　各±10mm
  7
KANJI
 50
0.000000
 51
0.000000
  0
TEXT
  8
2
 62
134
  6
CONTINUOUS
 10
43.556102
 20
74.450972
 40
4.000000
 41
0.888889
  1
重量　  ７５０ｇ
  7
KANJI
 50
0.000000
 51
0.000000
  0
LINE
  8
2
 62
134
  6
CONTINUOUS
 10
128.465679
 20
284.884791
 11
126.733628
 21
281.884791
  0
LINE
  8
2
 62
134
  6
CONTINUOUS
 10
126.733628
 20
281.884791
 11
130.197730
 21
281.884791
  0
LINE
  8
2
 62
134
  6
CONTINUOUS
 10
130.197730
 20
281.884791
 11
128.465679
 21
284.884791
  0
TEXT
  8
2
 62
134
  6
CONTINUOUS
 10
127.536242
 20
281.275558
 40
4.000000
 41
0.500000
  1
1
  7
KANJI
 50
0.000000
 51
0.000000
  0
TEXT
  8
2
 62
134
  6
CONTINUOUS
 10
193.183294
 20
281.795739
 40
3.000000
 41
1.000000
  1
山本
  7
KANJI
 50
0.000000
 51
0.000000
  0
TEXT
  8
2
 62
134
  6
CONTINUOUS
 10
177.571483
 20
281.931494
 40
3.000000
 41
0.500000
  1
2008/04/14
  7
KANJI
 50
0.000000
 51
0.000000
  0
TEXT
  8
2
 62
134
  6
CONTINUOUS
 10
131.550580
 20
281.931494
 40
3.000000
 41
0.666667
  1
図名追加(FTT9-3)
  7
KANJI
 50
0.000000
 51
0.000000
  0
LINE
  8
5
 62
94
  6
CONTINUOUS
 10
197.700665
 20
41.069036
 11
195.968614
 21
38.069036
  0
LINE
  8
5
 62
94
  6
CONTINUOUS
 10
195.968614
 20
38.069036
 11
199.432716
 21
38.069036
  0
LINE
  8
5
 62
94
  6
CONTINUOUS
 10
199.432716
 20
38.069036
 11
197.700665
 21
41.069036
  0
TEXT
  8
5
 62
94
  6
CONTINUOUS
 10
196.771229
 20
37.459803
 40
4.000000
 41
0.500000
  1
1
  7
KANJI
 50
0.000000
 51
0.000000
  0
TEXT
  8
5
 62
94
  6
CONTINUOUS
 10
152.007410
 20
35.141756
 40
4.000000
 41
0.500000
  1
FTT2-3, FTT6-3, FTT9-3
  7
KANJI
 50
0.000000
 51
0.000000
  0
TEXT
  8
5
 62
94
  6
CONTINUOUS
 10
156.977362
 20
27.971641
 40
4.000000
 41
1.000000
  1
外形図
  7
KANJI
 50
0.000000
 51
0.000000
  0
TEXT
  8
5
 62
94
  6
DASHDOT
 10
150.838583
 20
19.932763
 40
4.000000
 41
1.000000
  1
０１５－８６８－Ａ１１５
  7
KANJI
 50
0.000000
 51
0.000000
  0
TEXT
  8
5
 62
94
  6
CONTINUOUS
 10
113.713583
 20
19.786602
 40
4.000000
 41
1.000000
  1
須藤
  7
KANJI
 50
0.000000
 51
0.000000
  0
TEXT
  8
5
 62
94
  6
CONTINUOUS
 10
89.450787
 20
27.971641
 40
4.000000
 41
0.500000
  1
1997/02/27
  7
KANJI
 50
0.000000
 51
0.000000
  0
LINE
  8
5
 62
94
  6
CONTINUOUS
 10
151.715551
 20
34.110421
 11
197.902559
 21
34.110421
  0
TEXT
  8
5
 62
94
  6
CONTINUOUS
 10
135.345472
 20
20.078925
 40
4.000000
 41
1.000000
  1
邵
  7
KANJI
 50
0.000000
 51
0.000000
  0
TEXT
  8
5
 62
94
  6
CONTINUOUS
 10
89.450787
 20
51.942114
 40
4.000000
 41
1.000000
  1
微動調整用ステ－ジ
  7
KANJI
 50
0.000000
 51
0.000000
  0
ENDSEC
  0
EOF
