  0
SECTION
  2
HEADER
  9
$ACADVER
  1
AC1003
  9
$INSBASE
 10
0.000000
 20
0.000000
  9
$EXTMIN
 10
0.000000
 20
0.000000
  9
$EXTMAX
 10
105.000000
 20
148.500000
  9
$LIMMIN
 10
0.000000
 20
0.000000
  9
$LIMMAX
 10
105.000000
 20
148.500000
  9
$VIEWCTR
 10
52.500000
 20
74.250000
  9
$VIEWSIZE
 40
148.500000
  9
$PEXTMIN
 10
0.000000
 20
0.000000
 30
0.000000
  9
$PEXTMAX
 10
210.000000
 20
297.000000
 30
0.000000
  9
$SNAPMODE
 70
     0
  9
$SNAPUNIT
 10
1.000000
 20
1.000000
  9
$SNAPBASE
 10
0.000000
 20
0.000000
  9
$SNAPANG
 50
0.000000
  9
$SNAPISOPAIR
 70
     0
  9
$SNAPSTYLE
 70
     0
  9
$GRIDMODE
 70
     0
  9
$GRIDUNIT
 10
0.000000
 20
0.000000
  9
$ORTHOMODE
 70
     0
  9
$REGENMODE
 70
     1
  9
$FILLMODE
 70
     1
  9
$QTEXTMODE
 70
     0
  9
$DRAGMODE
 70
     2
  9
$LTSCALE
 40
0.125000
  9
$OSMODE
 70
     0
  9
$ATTMODE
 70
     1
  9
$TEXTSIZE
 40
0.200000
  9
$TRACEWID
 40
0.050000
  9
$TEXTSTYLE
  7
STANDARD
  9
$CLAYER
  8
0
  9
$CELTYPE
  6
BYLAYER
  9
$CECOLOR
 62
   256
  9
$DIMSCALE
 40
1.000000
  9
$DIMASZ
 40
1.000000
  9
$DIMEXO
 40
0.000000
  9
$DIMDLI
 40
0.500000
  9
$DIMRND
 40
0.000000
  9
$DIMDLE
 40
0.000000
  9
$DIMEXE
 40
0.000000
  9
$DIMTP
 40
0.000000
  9
$DIMTM
 40
0.000000
  9
$DIMTXT
 40
0.180000
  9
$DIMCEN
 40
0.000000
  9
$DIMTSZ
 40
0.000000
  9
$DIMTOL
 70
     0
  9
$DIMLIM
 70
     0
  9
$DIMTIH
 70
     1
  9
$DIMTOH
 70
     1
  9
$DIMSE1
 70
     0
  9
$DIMSE2
 70
     0
  9
$DIMTAD
 70
     0
  9
$DIMZIN
 70
     0
  9
$DIMBLK
  1

  9
$DIMASO
 70
     0
  9
$DIMSHO
 70
     0
  9
$DIMPOST
  1

  9
$DIMAPOST
  1

  9
$DIMALT
 70
     0
  9
$DIMALTD
 70
     0
  9
$DIMALTF
 40
25.400000
  9
$DIMLFAC
 40
1.000000
  9
$DIMTOFL
 70
     0
  9
$DIMTVP
 40
0.000000
  9
$DIMTIX
 70
     0
  9
$DIMSOXD
 70
     0
  9
$DIMSAH
 70
     0
  9
$DIMBLKL
  1

  9
$DIMBLKR
  1

  9
$LUNITS
 70
     2
  9
$LUPREC
 70
     2
  9
$AXISMODE
 70
     0
  9
$AXISUNIT
 10
1.000000
 20
1.000000
  9
$SKETCHINC
 40
0.000000
  9
$FILLETRAD
 40
0.000000
  9
$AUNITS
 70
     1
  9
$AUPREC
 70
     2
  9
$MENU
  1
ACAD
  9
$ELEVATION
 40
0.000000
  9
$THICKNESS
 40
0.000000
  9
$VIEWDIR
 10
0.000000
 20
0.000000
 30
1.000000
  9
$LIMCHECK
 70
     1
  9
$BLIPMODE
 70
     1
  9
$CHAMFERA
 40
0.000000
  9
$CHAMFERB
 40
0.000000
  9
$FASTZOOM
 70
     1
  9
$SKPOLY
 70
     0
  9
$TDCREATE
 40
0.000000
  9
$TDUPDATE
 40
0.000000
  9
$TDINDWG
 40
0.000000
  9
$TDUSRTIMER
 40
0.000000
  9
$USRTIMER
 70
     1
  9
$ANGBASE
 50
0.000000
  9
$ANGDIR
 70
     0
  9
$PDMODE
 70
     0
  9
$PDSIZE
 40
0.000000
  9
$PLINEWID
 40
0.000000
  9
$COORDS
 70
     2
  9
$USERI1
 70
     0
  9
$USERI2
 70
     0
  9
$USERI3
 70
     0
  9
$USERI4
 70
     0
  9
$USERI5
 70
     0
  9
$USERR1
 40
0.000000
  9
$USERR2
 40
0.000000
  9
$USERR3
 40
0.000000
  9
$USERR4
 40
0.000000
  9
$USERR5
 40
0.000000
  0
ENDSEC
  0
SECTION
  2
TABLES
  0
TABLE
  2
LTYPE
 70
     5
  0
LTYPE
  2
CONTINUOUS
 70
    64
  3
Solid line
 72
    65
 73
     0
 40
0.0
  0
LTYPE
  2
HIDDEN
 70
    64
  3
------------------------
 72
    65
 73
     2
 40
12.6
 49
8.4
 49
-4.2
  0
LTYPE
  2
DOT
 70
    64
  3
････････････････････････
 72
    65
 73
     2
 40
8.0
 49
6.0
 49
-2.0
  0
LTYPE
  2
DASHDOT
 70
    64
  3
--･--･--･--･--･--･--･--
 72
    65
 73
     4
 40
50.5
 49
30.0
 49
-9.0
 49
2.5
 49
-9.0
  0
LTYPE
  2
DIVIDE
 70
    64
  3
--･･--･･--･･--･･--･･--
 72
    65
 73
     6
 40
58.0
 49
30.0
 49
-9.0
 49
2.5
 49
-5.0
 49
2.5
 49
-9.0
  0
LTYPE
  2
ACAD_ISO06W100
 70
    64
  3
____ ... ____ ... ____
 72
    65
 73
     8
 40
37.5
 49
24.0
 49
-3.0
 49
0.5
 49
-3.0
 49
0.5
 49
-3.0
 49
0.5
 49
-3.0
  0
LTYPE
  2
ACAD_ISO14W100
 70
    64
  3
__ . . . __ . . . __ . . . 
 72
    65
 73
     8
 40
25.5
 49
12.0
 49
-3.0
 49
0.5
 49
-3.0
 49
0.5
 49
-3.0
 49
0.5
 49
-3.0
  0
ENDTAB
  0
TABLE
  2
LAYER
 70
3
  0
LAYER
  2
1
 70
64
 62
7
  6
CONTINUOUS
  0
LAYER
  2
2
 70
64
 62
134
  6
CONTINUOUS
  0
LAYER
  2
5
 70
64
 62
94
  6
CONTINUOUS
  0
ENDTAB
  0
TABLE
  2
STYLE
 70
     2
  0
STYLE
  2
STANDARD
 70
    64
 40
0.0
 41
1.0
 50
0.0
 71
     0
 42
0.2
  3
TXT
  4

  0
STYLE
  2
KANJI
 70
    64
 40
0.0
 41
1.0
 50
0.0
 71
     0
 42
0.2
  3
TXT
  4
BIGFONT
  0
ENDTAB
  0
TABLE
  2
VIEW
 70
     0
  0
ENDTAB
  0
ENDSEC
  0
SECTION
  2
BLOCKS
  0
BLOCK
  8
2
 62
134
  6
CONTINUOUS
  2
*D1
 70
    65
 10
0.0
 20
0.0
  0
LINE
  8
2
 62
134
  6
CONTINUOUS
 10
40.000000
 20
98.147392
 11
52.000000
 21
98.147392
  0
LINE
  8
2
 62
134
  6
CONTINUOUS
 10
40.000000
 20
98.147392
 11
40.965926
 21
98.406211
  0
LINE
  8
2
 62
134
  6
CONTINUOUS
 10
40.000000
 20
98.147392
 11
40.965926
 21
97.888573
  0
LINE
  8
2
 62
134
  6
CONTINUOUS
 10
40.965926
 20
98.406211
 11
40.965926
 21
97.888573
  0
LINE
  8
2
 62
134
  6
CONTINUOUS
 10
40.241481
 20
98.147392
 11
40.724444
 21
98.276801
  0
LINE
  8
2
 62
134
  6
CONTINUOUS
 10
40.241481
 20
98.147392
 11
40.724444
 21
98.017982
  0
LINE
  8
2
 62
134
  6
CONTINUOUS
 10
40.724444
 20
98.276801
 11
40.724444
 21
98.017982
  0
LINE
  8
2
 62
134
  6
CONTINUOUS
 10
52.000000
 20
98.147392
 11
51.034074
 21
97.888573
  0
LINE
  8
2
 62
134
  6
CONTINUOUS
 10
52.000000
 20
98.147392
 11
51.034074
 21
98.406211
  0
LINE
  8
2
 62
134
  6
CONTINUOUS
 10
51.034074
 20
97.888573
 11
51.034074
 21
98.406211
  0
LINE
  8
2
 62
134
  6
CONTINUOUS
 10
51.758519
 20
98.147392
 11
51.275556
 21
98.017982
  0
LINE
  8
2
 62
134
  6
CONTINUOUS
 10
51.758519
 20
98.147392
 11
51.275556
 21
98.276801
  0
LINE
  8
2
 62
134
  6
CONTINUOUS
 10
51.275556
 20
98.017982
 11
51.275556
 21
98.276801
  0
TEXT
  8
2
 62
134
  6
CONTINUOUS
 10
45.500000
 20
98.397392
 40
2.000000
 41
0.500000
  1
B
  7
KANJI
 50
0.000000
 51
30.000000
  0
ENDBLK
  0
BLOCK
  8
2
 62
134
  6
CONTINUOUS
  2
*D2
 70
    65
 10
0.0
 20
0.0
  0
LINE
  8
2
 62
134
  6
CONTINUOUS
 10
52.000000
 20
98.147392
 11
57.000000
 21
98.147392
  0
LINE
  8
2
 62
134
  6
CONTINUOUS
 10
52.000000
 20
98.147392
 11
52.965926
 21
98.406211
  0
LINE
  8
2
 62
134
  6
CONTINUOUS
 10
52.000000
 20
98.147392
 11
52.965926
 21
97.888573
  0
LINE
  8
2
 62
134
  6
CONTINUOUS
 10
52.965926
 20
98.406211
 11
52.965926
 21
97.888573
  0
LINE
  8
2
 62
134
  6
CONTINUOUS
 10
52.241481
 20
98.147392
 11
52.724444
 21
98.276801
  0
LINE
  8
2
 62
134
  6
CONTINUOUS
 10
52.241481
 20
98.147392
 11
52.724444
 21
98.017982
  0
LINE
  8
2
 62
134
  6
CONTINUOUS
 10
52.724444
 20
98.276801
 11
52.724444
 21
98.017982
  0
LINE
  8
2
 62
134
  6
CONTINUOUS
 10
57.000000
 20
98.147392
 11
56.034074
 21
97.888573
  0
LINE
  8
2
 62
134
  6
CONTINUOUS
 10
57.000000
 20
98.147392
 11
56.034074
 21
98.406211
  0
LINE
  8
2
 62
134
  6
CONTINUOUS
 10
56.034074
 20
97.888573
 11
56.034074
 21
98.406211
  0
LINE
  8
2
 62
134
  6
CONTINUOUS
 10
56.758519
 20
98.147392
 11
56.275556
 21
98.017982
  0
LINE
  8
2
 62
134
  6
CONTINUOUS
 10
56.758519
 20
98.147392
 11
56.275556
 21
98.276801
  0
LINE
  8
2
 62
134
  6
CONTINUOUS
 10
56.275556
 20
98.017982
 11
56.275556
 21
98.276801
  0
TEXT
  8
2
 62
134
  6
CONTINUOUS
 10
54.000000
 20
98.397392
 40
2.000000
 41
0.500000
  1
5
  7
KANJI
 50
0.000000
 51
30.000000
  0
ENDBLK
  0
BLOCK
  8
2
 62
134
  6
CONTINUOUS
  2
*D3
 70
    65
 10
0.0
 20
0.0
  0
LINE
  8
2
 62
134
  6
CONTINUOUS
 10
60.949311
 20
94.000000
 11
60.949311
 21
86.000000
  0
LINE
  8
2
 62
134
  6
CONTINUOUS
 10
60.949311
 20
94.000000
 11
61.208130
 21
93.034074
  0
LINE
  8
2
 62
134
  6
CONTINUOUS
 10
60.949311
 20
94.000000
 11
60.690492
 21
93.034074
  0
LINE
  8
2
 62
134
  6
CONTINUOUS
 10
61.208130
 20
93.034074
 11
60.690492
 21
93.034074
  0
LINE
  8
2
 62
134
  6
CONTINUOUS
 10
60.949311
 20
93.758519
 11
61.078721
 21
93.275556
  0
LINE
  8
2
 62
134
  6
CONTINUOUS
 10
60.949311
 20
93.758519
 11
60.819902
 21
93.275556
  0
LINE
  8
2
 62
134
  6
CONTINUOUS
 10
61.078721
 20
93.275556
 11
60.819902
 21
93.275556
  0
LINE
  8
2
 62
134
  6
CONTINUOUS
 10
60.949311
 20
86.000000
 11
60.690492
 21
86.965926
  0
LINE
  8
2
 62
134
  6
CONTINUOUS
 10
60.949311
 20
86.000000
 11
61.208130
 21
86.965926
  0
LINE
  8
2
 62
134
  6
CONTINUOUS
 10
60.690492
 20
86.965926
 11
61.208130
 21
86.965926
  0
LINE
  8
2
 62
134
  6
CONTINUOUS
 10
60.949311
 20
86.241481
 11
60.819902
 21
86.724444
  0
LINE
  8
2
 62
134
  6
CONTINUOUS
 10
60.949311
 20
86.241481
 11
61.078721
 21
86.724444
  0
LINE
  8
2
 62
134
  6
CONTINUOUS
 10
60.819902
 20
86.724444
 11
61.078721
 21
86.724444
  0
TEXT
  8
2
 62
134
  6
CONTINUOUS
 10
60.699311
 20
89.500000
 40
2.000000
 41
0.500000
  1
C
  7
KANJI
 50
90.000000
 51
30.000000
  0
ENDBLK
  0
BLOCK
  8
2
 62
134
  6
CONTINUOUS
  2
*D4
 70
    65
 10
0.0
 20
0.0
  0
LINE
  8
2
 62
134
  6
CONTINUOUS
 10
36.028789
 20
94.750000
 11
36.028789
 21
85.250000
  0
LINE
  8
2
 62
134
  6
CONTINUOUS
 10
36.028789
 20
94.750000
 11
36.287608
 21
93.784074
  0
LINE
  8
2
 62
134
  6
CONTINUOUS
 10
36.028789
 20
94.750000
 11
35.769970
 21
93.784074
  0
LINE
  8
2
 62
134
  6
CONTINUOUS
 10
36.287608
 20
93.784074
 11
35.769970
 21
93.784074
  0
LINE
  8
2
 62
134
  6
CONTINUOUS
 10
36.028789
 20
94.508519
 11
36.158199
 21
94.025556
  0
LINE
  8
2
 62
134
  6
CONTINUOUS
 10
36.028789
 20
94.508519
 11
35.899380
 21
94.025556
  0
LINE
  8
2
 62
134
  6
CONTINUOUS
 10
36.158199
 20
94.025556
 11
35.899380
 21
94.025556
  0
LINE
  8
2
 62
134
  6
CONTINUOUS
 10
36.028789
 20
85.250000
 11
35.769970
 21
86.215926
  0
LINE
  8
2
 62
134
  6
CONTINUOUS
 10
36.028789
 20
85.250000
 11
36.287608
 21
86.215926
  0
LINE
  8
2
 62
134
  6
CONTINUOUS
 10
35.769970
 20
86.215926
 11
36.287608
 21
86.215926
  0
LINE
  8
2
 62
134
  6
CONTINUOUS
 10
36.028789
 20
85.491481
 11
35.899380
 21
85.974444
  0
LINE
  8
2
 62
134
  6
CONTINUOUS
 10
36.028789
 20
85.491481
 11
36.158199
 21
85.974444
  0
LINE
  8
2
 62
134
  6
CONTINUOUS
 10
35.899380
 20
85.974444
 11
36.158199
 21
85.974444
  0
TEXT
  8
2
 62
134
  6
CONTINUOUS
 10
35.778789
 20
89.500000
 40
2.000000
 41
0.500000
  1
A
  7
KANJI
 50
90.000000
 51
30.000000
  0
ENDBLK
  0
ENDSEC
  0
SECTION
  2
ENTITIES
  0
LINE
  8
1
 62
7
  6
CONTINUOUS
 10
52.000000
 20
93.500000
 11
53.000000
 21
93.500000
  0
LINE
  8
1
 62
7
  6
CONTINUOUS
 10
52.000000
 20
86.500000
 11
53.000000
 21
86.500000
  0
LINE
  8
1
 62
7
  6
CONTINUOUS
 10
53.330647
 20
93.594000
 11
56.655819
 21
93.594000
  0
LINE
  8
1
 62
7
  6
CONTINUOUS
 10
53.330647
 20
86.406000
 11
56.655819
 21
86.406000
  0
LINE
  8
1
 62
7
  6
CONTINUOUS
 10
40.500000
 20
94.750000
 11
40.000000
 21
94.250000
  0
LINE
  8
1
 62
7
  6
CONTINUOUS
 10
40.000000
 20
94.250000
 11
40.000000
 21
85.750000
  0
LINE
  8
1
 62
7
  6
CONTINUOUS
 10
40.000000
 20
85.750000
 11
40.500000
 21
85.250000
  0
LINE
  8
1
 62
7
  6
CONTINUOUS
 10
40.500000
 20
85.250000
 11
51.500000
 21
85.250000
  0
LINE
  8
1
 62
7
  6
CONTINUOUS
 10
52.000000
 20
90.000000
 11
52.000000
 21
85.750000
  0
LINE
  8
1
 62
7
  6
CONTINUOUS
 10
51.500000
 20
85.250000
 11
52.000000
 21
85.750000
  0
LINE
  8
1
 62
7
  6
CONTINUOUS
 10
40.500000
 20
94.750000
 11
51.500000
 21
94.750000
  0
LINE
  8
1
 62
7
  6
CONTINUOUS
 10
52.000000
 20
93.000000
 11
52.000000
 21
94.250000
  0
LINE
  8
1
 62
7
  6
CONTINUOUS
 10
51.500000
 20
94.750000
 11
52.000000
 21
94.250000
  0
LINE
  8
1
 62
7
  6
CONTINUOUS
 10
53.000000
 20
93.000000
 11
53.000000
 21
93.800000
  0
LINE
  8
1
 62
7
  6
CONTINUOUS
 10
53.000000
 20
93.800000
 11
53.200000
 21
94.000000
  0
LINE
  8
1
 62
7
  6
CONTINUOUS
 10
53.200000
 20
94.000000
 11
56.800000
 21
94.000000
  0
LINE
  8
1
 62
7
  6
CONTINUOUS
 10
56.800000
 20
94.000000
 11
57.000000
 21
93.800000
  0
LINE
  8
1
 62
7
  6
CONTINUOUS
 10
57.000000
 20
93.800000
 11
57.000000
 21
86.200000
  0
LINE
  8
1
 62
7
  6
CONTINUOUS
 10
57.000000
 20
86.200000
 11
56.800000
 21
86.000000
  0
LINE
  8
1
 62
7
  6
CONTINUOUS
 10
56.800000
 20
86.000000
 11
53.200000
 21
86.000000
  0
LINE
  8
1
 62
7
  6
CONTINUOUS
 10
53.000000
 20
90.000000
 11
53.000000
 21
86.200000
  0
LINE
  8
1
 62
7
  6
CONTINUOUS
 10
53.200000
 20
86.000000
 11
53.000000
 21
86.200000
  0
LINE
  8
1
 62
7
  6
CONTINUOUS
 10
40.504983
 20
85.250000
 11
40.504983
 21
90.000000
  0
LINE
  8
1
 62
7
  6
CONTINUOUS
 10
51.537678
 20
85.287678
 11
51.537678
 21
90.000000
  0
LINE
  8
1
 62
7
  6
CONTINUOUS
 10
40.504983
 20
89.414247
 11
51.537678
 21
89.414247
  0
LINE
  8
1
 62
7
  6
CONTINUOUS
 10
40.504983
 20
88.902682
 11
51.537678
 21
88.902682
  0
LINE
  8
1
 62
7
  6
CONTINUOUS
 10
40.504983
 20
88.537279
 11
51.537678
 21
88.537279
  0
LINE
  8
1
 62
7
  6
CONTINUOUS
 10
40.504983
 20
88.208415
 11
51.537678
 21
88.208415
  0
LINE
  8
1
 62
7
  6
CONTINUOUS
 10
40.504983
 20
87.916093
 11
51.537678
 21
87.916093
  0
LINE
  8
1
 62
7
  6
CONTINUOUS
 10
40.504983
 20
87.660310
 11
51.537678
 21
87.660310
  0
LINE
  8
1
 62
7
  6
CONTINUOUS
 10
40.504983
 20
87.404528
 11
51.537678
 21
87.404528
  0
LINE
  8
1
 62
7
  6
CONTINUOUS
 10
40.504983
 20
87.148745
 11
51.537678
 21
87.148745
  0
LINE
  8
1
 62
7
  6
CONTINUOUS
 10
40.504983
 20
86.929503
 11
51.537678
 21
86.929503
  0
LINE
  8
1
 62
7
  6
CONTINUOUS
 10
40.504983
 20
86.710261
 11
51.537678
 21
86.710261
  0
LINE
  8
1
 62
7
  6
CONTINUOUS
 10
40.504983
 20
86.527559
 11
51.537678
 21
86.527559
  0
LINE
  8
1
 62
7
  6
CONTINUOUS
 10
40.504983
 20
86.344857
 11
51.537678
 21
86.344857
  0
LINE
  8
1
 62
7
  6
CONTINUOUS
 10
40.504983
 20
86.162156
 11
51.537678
 21
86.162156
  0
LINE
  8
1
 62
7
  6
CONTINUOUS
 10
40.504983
 20
86.015994
 11
51.467089
 21
86.015994
  0
LINE
  8
1
 62
7
  6
CONTINUOUS
 10
40.504983
 20
85.869833
 11
51.537678
 21
85.869833
  0
LINE
  8
1
 62
7
  6
CONTINUOUS
 10
40.504983
 20
85.760212
 11
51.537678
 21
85.760212
  0
LINE
  8
1
 62
7
  6
CONTINUOUS
 10
40.504983
 20
85.650591
 11
51.537678
 21
85.650591
  0
LINE
  8
1
 62
7
  6
CONTINUOUS
 10
40.504983
 20
85.467889
 11
51.537678
 21
85.467889
  0
TEXT
  8
5
 62
94
  6
CONTINUOUS
 10
61.494169
 20
12.941395
 40
0.875000
 41
4.000000
  1
製図
  7
KANJI
 50
-90.000000
 51
0.000000
  0
TEXT
  8
5
 62
94
  6
CONTINUOUS
 10
71.410560
 20
12.859441
 40
0.875000
 41
4.000000
  1
図番
  7
KANJI
 50
-90.000000
 51
0.000000
  0
TEXT
  8
5
 62
94
  6
CONTINUOUS
 10
71.410560
 20
19.497686
 40
0.875000
 41
4.000000
  1
図　名
  7
KANJI
 50
-90.000000
 51
0.000000
  0
TEXT
  8
5
 62
94
  6
CONTINUOUS
 10
38.956918
 20
16.793216
 40
0.875000
 41
4.000000
  1
日付
  7
KANJI
 50
-90.000000
 51
0.000000
  0
TEXT
  8
5
 62
94
  6
CONTINUOUS
 10
56.494997
 20
16.875169
 40
0.875000
 41
4.000000
  1
図法
  7
KANJI
 50
-90.000000
 51
0.000000
  0
TEXT
  8
5
 62
94
  6
CONTINUOUS
 10
56.413044
 20
20.890898
 40
0.875000
 41
4.000000
  1
尺度
  7
KANJI
 50
-90.000000
 51
0.000000
  0
TEXT
  8
5
 62
94
  6
CONTINUOUS
 10
38.956918
 20
20.808944
 40
0.875000
 41
4.000000
  1
公差
  7
KANJI
 50
-90.000000
 51
0.000000
  0
TEXT
  8
5
 62
94
  6
CONTINUOUS
 10
38.956918
 20
12.859441
 40
0.875000
 41
4.000000
  1
承認
  7
KANJI
 50
-90.000000
 51
0.000000
  0
TEXT
  8
5
 62
94
  6
CONTINUOUS
 10
51.495825
 20
12.859441
 40
0.875000
 41
4.000000
  1
設計
  7
KANJI
 50
-90.000000
 51
0.000000
  0
TEXT
  8
5
 62
94
  6
CONTINUOUS
 10
48.217679
 20
5.893381
 40
2.250000
 41
1.888889
  1
ジャパンセンサー株式会社
  7
KANJI
 50
0.000000
 51
0.000000
  0
LINE
  8
5
 62
94
  6
CONTINUOUS
 10
98.512795
 20
5.115650
 11
98.512795
 21
142.615650
  0
LINE
  8
5
 62
94
  6
CONTINUOUS
 10
98.512795
 20
142.615650
 11
6.012795
 21
142.615650
  0
LINE
  8
5
 62
94
  6
CONTINUOUS
 10
6.012795
 20
142.615650
 11
6.012795
 21
5.115650
  0
LINE
  8
5
 62
94
  6
CONTINUOUS
 10
6.012795
 20
5.115650
 11
98.512795
 21
5.115650
  0
LINE
  8
5
 62
94
  6
CONTINUOUS
 10
38.512795
 20
21.115650
 11
98.512795
 21
21.115650
  0
LINE
  8
5
 62
94
  6
CONTINUOUS
 10
38.512795
 20
5.115650
 11
38.512795
 21
21.115650
  0
LINE
  8
5
 62
94
  6
CONTINUOUS
 10
98.512795
 20
9.115650
 11
38.512795
 21
9.115650
  0
LINE
  8
5
 62
94
  6
CONTINUOUS
 10
71.012795
 20
21.115650
 11
71.012795
 21
9.115650
  0
LINE
  8
5
 62
94
  6
CONTINUOUS
 10
98.512795
 20
13.115650
 11
38.512795
 21
13.115650
  0
LINE
  8
5
 62
94
  6
CONTINUOUS
 10
73.512795
 20
9.115650
 11
73.512795
 21
21.115650
  0
LINE
  8
5
 62
94
  6
CONTINUOUS
 10
58.512795
 20
21.115650
 11
58.512795
 21
13.115650
  0
LINE
  8
5
 62
94
  6
CONTINUOUS
 10
41.012795
 20
9.115650
 11
41.012795
 21
21.115650
  0
LINE
  8
5
 62
94
  6
CONTINUOUS
 10
38.512795
 20
17.115650
 11
71.012795
 21
17.115650
  0
LINE
  8
5
 62
94
  6
CONTINUOUS
 10
56.012795
 20
21.115650
 11
56.012795
 21
13.115650
  0
LINE
  8
5
 62
94
  6
CONTINUOUS
 10
51.012795
 20
9.115650
 11
51.012795
 21
13.115650
  0
LINE
  8
5
 62
94
  6
CONTINUOUS
 10
61.012795
 20
9.115650
 11
61.012795
 21
13.115650
  0
LINE
  8
5
 62
94
  6
CONTINUOUS
 10
53.512795
 20
13.115650
 11
53.512795
 21
9.115650
  0
LINE
  8
5
 62
94
  6
CONTINUOUS
 10
63.512795
 20
13.115650
 11
63.512795
 21
9.115650
  0
TEXT
  8
5
 62
94
  6
CONTINUOUS
 10
60.510726
 20
13.760931
 40
2.000000
 41
1.000000
  1
三角法
  7
KANJI
 50
0.000000
 51
0.000000
  0
LINE
  8
1
 62
7
  6
CONTINUOUS
 10
49.000000
 20
94.000000
 11
50.000000
 21
93.594000
  0
LINE
  8
1
 62
7
  6
CONTINUOUS
 10
40.000000
 20
93.594000
 11
50.000000
 21
93.594000
  0
LINE
  8
1
 62
7
  6
CONTINUOUS
 10
49.000000
 20
94.000000
 11
49.000000
 21
90.000000
  0
LINE
  8
1
 62
7
  6
CONTINUOUS
 10
50.000000
 20
93.594000
 11
50.000000
 21
90.000000
  0
LINE
  8
1
 62
7
  6
CONTINUOUS
 10
50.000000
 20
93.000000
 11
57.000000
 21
93.000000
  0
LINE
  8
1
 62
7
  6
CONTINUOUS
 10
40.000000
 20
94.000000
 11
49.000000
 21
94.000000
  0
DIMENSION
  8
2
 62
134
  6
CONTINUOUS
  2
*D1
 10
40.000000
 20
98.147392
 11
46.000000
 21
98.397392
 70
     0
  1
B
 13
40.000000
 23
98.147392
 14
52.000000
 24
98.147392
 50
0.000000
  0
DIMENSION
  8
2
 62
134
  6
CONTINUOUS
  2
*D2
 10
52.000000
 20
98.147392
 11
54.500000
 21
98.397392
 70
     0
  1
5
 13
52.000000
 23
98.147392
 14
57.000000
 24
98.147392
 50
0.000000
  0
LINE
  8
2
 62
134
  6
CONTINUOUS
 10
57.000000
 20
94.000000
 11
57.000000
 21
99.097441
  0
LINE
  8
2
 62
134
  6
CONTINUOUS
 10
52.000000
 20
94.164493
 11
52.000000
 21
99.024360
  0
LINE
  8
2
 62
134
  6
CONTINUOUS
 10
40.000000
 20
94.750000
 11
40.000000
 21
99.024360
  0
DIMENSION
  8
2
 62
134
  6
CONTINUOUS
  2
*D3
 10
60.949311
 20
94.000000
 11
60.699311
 21
90.000000
 70
     0
  1
C
 13
60.949311
 23
94.000000
 14
60.949311
 24
86.000000
 50
-90.000000
  0
DIMENSION
  8
2
 62
134
  6
CONTINUOUS
  2
*D4
 10
36.028789
 20
94.750000
 11
35.778789
 21
90.000000
 70
     0
  1
A
 13
36.028789
 23
94.750000
 14
36.028789
 24
85.250000
 50
-90.000000
  0
LINE
  8
2
 62
134
  6
CONTINUOUS
 10
57.000000
 20
94.000000
 11
61.899360
 21
94.000000
  0
LINE
  8
2
 62
134
  6
CONTINUOUS
 10
57.000000
 20
86.000000
 11
61.899360
 21
86.000000
  0
LINE
  8
2
 62
134
  6
CONTINUOUS
 10
40.500000
 20
94.750000
 11
34.932579
 21
94.750000
  0
LINE
  8
2
 62
134
  6
CONTINUOUS
 10
40.000000
 20
85.250000
 11
35.005659
 21
85.250000
  0
LINE
  8
2
 62
134
  6
CONTINUOUS
 10
49.621801
 20
91.643209
 11
59.268455
 21
98.147392
  0
LINE
  8
2
 62
134
  6
CONTINUOUS
 10
59.268455
 20
98.147392
 11
64.072343
 21
98.147392
  0
TEXT
  8
2
 62
134
  6
CONTINUOUS
 10
60.072343
 20
98.512795
 40
2.000000
 41
1.000000
  1
窓材
  7
KANJI
 50
0.000000
 51
30.000000
  0
LINE
  8
2
 62
134
  6
CONTINUOUS
 10
49.621801
 20
91.643209
 11
50.277998
 21
92.397798
  0
LINE
  8
2
 62
134
  6
CONTINUOUS
 10
49.621801
 20
91.643209
 11
50.567379
 21
91.968604
  0
LINE
  8
2
 62
134
  6
CONTINUOUS
 10
50.277998
 20
92.397798
 11
50.567379
 21
91.968604
  0
LINE
  8
2
 62
134
  6
CONTINUOUS
 10
49.822023
 20
91.778207
 11
50.150122
 21
92.155502
  0
LINE
  8
2
 62
134
  6
CONTINUOUS
 10
49.822023
 20
91.778207
 11
50.294812
 21
91.940904
  0
LINE
  8
2
 62
134
  6
CONTINUOUS
 10
50.150122
 20
92.155502
 11
50.294812
 21
91.940904
  0
TEXT
  8
5
 62
94
  6
CONTINUOUS
 10
55.249016
 20
9.938976
 40
2.000000
 41
1.000000
  1
須藤
  7
KANJI
 50
0.000000
 51
0.000000
  0
TEXT
  8
5
 62
94
  6
CONTINUOUS
 10
61.680118
 20
17.977854
 40
2.000000
 41
1.000000
  1
２／１
  7
KANJI
 50
0.000000
 51
0.000000
  0
TEXT
  8
5
 62
94
  6
CONTINUOUS
 10
73.957677
 20
10.149083
 40
2.000000
 41
1.000000
  1
０１５－８６８－Ａ１１２
  7
KANJI
 50
0.000000
 51
0.000000
  0
TEXT
  8
5
 62
94
  6
CONTINUOUS
 10
65.249016
 20
9.938976
 40
2.000000
 41
1.000000
  1
須藤
  7
KANJI
 50
0.000000
 51
0.000000
  0
LINE
  8
2
 62
134
  6
CONTINUOUS
 10
40.048228
 20
75.930856
 11
40.048228
 21
58.099163
  0
TEXT
  8
2
 62
134
  6
CONTINUOUS
 10
75.930856
 20
59.990127
 40
2.000000
 41
1.000000
  1
１０ｇ
  7
KANJI
 50
0.000000
 51
0.000000
  0
TEXT
  8
2
 62
134
  6
CONTINUOUS
 10
77.100148
 20
65.836583
 40
2.000000
 41
1.000000
  1
５ｇ
  7
KANJI
 50
0.000000
 51
0.000000
  0
TEXT
  8
2
 62
134
  6
CONTINUOUS
 10
77.027067
 20
71.975363
 40
2.000000
 41
1.000000
  1
重量
  7
KANJI
 50
0.000000
 51
0.000000
  0
LINE
  8
2
 62
134
  6
CONTINUOUS
 10
83.165846
 20
75.930856
 11
83.165846
 21
58.099163
  0
LINE
  8
2
 62
134
  6
CONTINUOUS
 10
30.255413
 20
75.930856
 11
30.255413
 21
58.099163
  0
LINE
  8
2
 62
134
  6
CONTINUOUS
 10
74.980807
 20
58.099163
 11
74.980807
 21
75.930856
  0
LINE
  8
2
 62
134
  6
CONTINUOUS
 10
83.165846
 20
75.930856
 11
30.255413
 21
75.930856
  0
LINE
  8
2
 62
134
  6
CONTINUOUS
 10
30.255413
 20
58.099163
 11
83.165846
 21
58.099163
  0
LINE
  8
2
 62
134
  6
CONTINUOUS
 10
30.255413
 20
63.945620
 11
83.165846
 21
63.945620
  0
LINE
  8
2
 62
134
  6
CONTINUOUS
 10
30.255413
 20
69.792077
 11
83.165846
 21
69.792077
  0
TEXT
  8
2
 62
134
  6
CONTINUOUS
 10
64.457185
 20
71.838337
 40
2.000000
 41
1.000000
  1
Ｃ
  7
KANJI
 50
0.000000
 51
0.000000
  0
TEXT
  8
2
 62
134
  6
CONTINUOUS
 10
52.325787
 20
71.838337
 40
2.000000
 41
1.000000
  1
Ｂ
  7
KANJI
 50
0.000000
 51
0.000000
  0
TEXT
  8
2
 62
134
  6
CONTINUOUS
 10
44.286909
 20
71.838337
 40
2.000000
 41
1.000000
  1
Ａ
  7
KANJI
 50
0.000000
 51
0.000000
  0
TEXT
  8
2
 62
134
  6
CONTINUOUS
 10
57.879921
 20
59.999262
 40
2.000000
 41
1.000000
  1
Ｍ１６Ｐ０．７５
  7
KANJI
 50
0.000000
 51
0.000000
  0
TEXT
  8
2
 62
134
  6
CONTINUOUS
 10
58.756890
 20
65.845719
 40
2.000000
 41
1.000000
  1
Ｍ８Ｐ０．７５
  7
KANJI
 50
0.000000
 51
0.000000
  0
TEXT
  8
2
 62
134
  6
CONTINUOUS
 10
51.594980
 20
59.999262
 40
2.000000
 41
1.000000
  1
１２
  7
KANJI
 50
0.000000
 51
0.000000
  0
TEXT
  8
2
 62
134
  6
CONTINUOUS
 10
51.448819
 20
65.845719
 40
2.000000
 41
1.000000
  1
１２
  7
KANJI
 50
0.000000
 51
0.000000
  0
TEXT
  8
2
 62
134
  6
CONTINUOUS
 10
42.386811
 20
59.999262
 40
2.000000
 41
1.000000
  1
φ２０
  7
KANJI
 50
0.000000
 51
0.000000
  0
TEXT
  8
2
 62
134
  6
CONTINUOUS
 10
41.363681
 20
65.845719
 40
2.000000
 41
1.000000
  1
φ９．５
  7
KANJI
 50
0.000000
 51
0.000000
  0
TEXT
  8
2
 62
134
  6
CONTINUOUS
 10
31.132382
 20
59.999262
 40
2.000000
 41
1.000000
  1
φ１５用
  7
KANJI
 50
0.000000
 51
0.000000
  0
TEXT
  8
2
 62
134
  6
CONTINUOUS
 10
32.155512
 20
65.991880
 40
2.000000
 41
1.000000
  1
φ６用
  7
KANJI
 50
0.000000
 51
0.000000
  0
LINE
  8
2
 62
134
  6
CONTINUOUS
 10
56.418307
 20
75.930856
 11
56.418307
 21
58.099163
  0
LINE
  8
2
 62
134
  6
CONTINUOUS
 10
50.571850
 20
75.930856
 11
50.571850
 21
58.245325
  0
LINE
  8
1
 62
7
  6
DASHDOT
 10
38.696235
 20
90.000000
 11
58.062623
 21
90.000000
  0
TEXT
  8
5
 62
94
  6
CONTINUOUS
 10
43.483022
 20
14.095442
 40
2.000000
 41
0.500000
  1
2009/11/14
  7
KANJI
 50
0.000000
 51
0.000000
  0
TEXT
  8
5
 62
94
  6
CONTINUOUS
 10
75.252031
 20
18.201688
 40
2.000000
 41
0.500000
  1
FTD9-6,FTD9-15
  7
KANJI
 50
0.000000
 51
0.000000
  0
TEXT
  8
5
 62
94
  6
CONTINUOUS
 10
75.252031
 20
16.099969
 40
2.000000
 41
0.500000
  1
FTD6-6,FTD6-15
  7
KANJI
 50
0.000000
 51
0.000000
  0
TEXT
  8
5
 62
94
  6
CONTINUOUS
 10
75.582909
 20
13.546265
 40
2.000000
 41
1.000000
  1
窓材外形図
  7
KANJI
 50
0.000000
 51
0.000000
  0
ENDSEC
  0
EOF
