  0
SECTION
  2
HEADER
  9
$ACADVER
  1
AC1003
  9
$INSBASE
 10
0.000000
 20
0.000000
  9
$EXTMIN
 10
0.000000
 20
0.000000
  9
$EXTMAX
 10
105.000000
 20
148.500000
  9
$LIMMIN
 10
0.000000
 20
0.000000
  9
$LIMMAX
 10
105.000000
 20
148.500000
  9
$VIEWCTR
 10
52.500000
 20
74.250000
  9
$VIEWSIZE
 40
148.500000
  9
$PEXTMIN
 10
0.000000
 20
0.000000
 30
0.000000
  9
$PEXTMAX
 10
210.000000
 20
297.000000
 30
0.000000
  9
$SNAPMODE
 70
     0
  9
$SNAPUNIT
 10
1.000000
 20
1.000000
  9
$SNAPBASE
 10
0.000000
 20
0.000000
  9
$SNAPANG
 50
0.000000
  9
$SNAPISOPAIR
 70
     0
  9
$SNAPSTYLE
 70
     0
  9
$GRIDMODE
 70
     0
  9
$GRIDUNIT
 10
0.000000
 20
0.000000
  9
$ORTHOMODE
 70
     0
  9
$REGENMODE
 70
     1
  9
$FILLMODE
 70
     1
  9
$QTEXTMODE
 70
     0
  9
$DRAGMODE
 70
     2
  9
$LTSCALE
 40
0.125000
  9
$OSMODE
 70
     0
  9
$ATTMODE
 70
     1
  9
$TEXTSIZE
 40
0.200000
  9
$TRACEWID
 40
0.050000
  9
$TEXTSTYLE
  7
STANDARD
  9
$CLAYER
  8
0
  9
$CELTYPE
  6
BYLAYER
  9
$CECOLOR
 62
   256
  9
$DIMSCALE
 40
1.000000
  9
$DIMASZ
 40
1.000000
  9
$DIMEXO
 40
0.000000
  9
$DIMDLI
 40
0.500000
  9
$DIMRND
 40
0.000000
  9
$DIMDLE
 40
0.000000
  9
$DIMEXE
 40
0.000000
  9
$DIMTP
 40
0.000000
  9
$DIMTM
 40
0.000000
  9
$DIMTXT
 40
0.180000
  9
$DIMCEN
 40
0.000000
  9
$DIMTSZ
 40
0.000000
  9
$DIMTOL
 70
     0
  9
$DIMLIM
 70
     0
  9
$DIMTIH
 70
     1
  9
$DIMTOH
 70
     1
  9
$DIMSE1
 70
     0
  9
$DIMSE2
 70
     0
  9
$DIMTAD
 70
     0
  9
$DIMZIN
 70
     0
  9
$DIMBLK
  1

  9
$DIMASO
 70
     0
  9
$DIMSHO
 70
     0
  9
$DIMPOST
  1

  9
$DIMAPOST
  1

  9
$DIMALT
 70
     0
  9
$DIMALTD
 70
     0
  9
$DIMALTF
 40
25.400000
  9
$DIMLFAC
 40
1.000000
  9
$DIMTOFL
 70
     0
  9
$DIMTVP
 40
0.000000
  9
$DIMTIX
 70
     0
  9
$DIMSOXD
 70
     0
  9
$DIMSAH
 70
     0
  9
$DIMBLKL
  1

  9
$DIMBLKR
  1

  9
$LUNITS
 70
     2
  9
$LUPREC
 70
     2
  9
$AXISMODE
 70
     0
  9
$AXISUNIT
 10
1.000000
 20
1.000000
  9
$SKETCHINC
 40
0.000000
  9
$FILLETRAD
 40
0.000000
  9
$AUNITS
 70
     1
  9
$AUPREC
 70
     2
  9
$MENU
  1
ACAD
  9
$ELEVATION
 40
0.000000
  9
$THICKNESS
 40
0.000000
  9
$VIEWDIR
 10
0.000000
 20
0.000000
 30
1.000000
  9
$LIMCHECK
 70
     1
  9
$BLIPMODE
 70
     1
  9
$CHAMFERA
 40
0.000000
  9
$CHAMFERB
 40
0.000000
  9
$FASTZOOM
 70
     1
  9
$SKPOLY
 70
     0
  9
$TDCREATE
 40
0.000000
  9
$TDUPDATE
 40
0.000000
  9
$TDINDWG
 40
0.000000
  9
$TDUSRTIMER
 40
0.000000
  9
$USRTIMER
 70
     1
  9
$ANGBASE
 50
0.000000
  9
$ANGDIR
 70
     0
  9
$PDMODE
 70
     0
  9
$PDSIZE
 40
0.000000
  9
$PLINEWID
 40
0.000000
  9
$COORDS
 70
     2
  9
$USERI1
 70
     0
  9
$USERI2
 70
     0
  9
$USERI3
 70
     0
  9
$USERI4
 70
     0
  9
$USERI5
 70
     0
  9
$USERR1
 40
0.000000
  9
$USERR2
 40
0.000000
  9
$USERR3
 40
0.000000
  9
$USERR4
 40
0.000000
  9
$USERR5
 40
0.000000
  0
ENDSEC
  0
SECTION
  2
TABLES
  0
TABLE
  2
LTYPE
 70
     5
  0
LTYPE
  2
CONTINUOUS
 70
    64
  3
Solid line
 72
    65
 73
     0
 40
0.0
  0
LTYPE
  2
HIDDEN
 70
    64
  3
------------------------
 72
    65
 73
     2
 40
12.6
 49
8.4
 49
-4.2
  0
LTYPE
  2
DOT
 70
    64
  3
････････････････････････
 72
    65
 73
     2
 40
8.0
 49
6.0
 49
-2.0
  0
LTYPE
  2
DASHDOT
 70
    64
  3
--･--･--･--･--･--･--･--
 72
    65
 73
     4
 40
50.5
 49
30.0
 49
-9.0
 49
2.5
 49
-9.0
  0
LTYPE
  2
DIVIDE
 70
    64
  3
--･･--･･--･･--･･--･･--
 72
    65
 73
     6
 40
58.0
 49
30.0
 49
-9.0
 49
2.5
 49
-5.0
 49
2.5
 49
-9.0
  0
LTYPE
  2
ACAD_ISO06W100
 70
    64
  3
____ ... ____ ... ____
 72
    65
 73
     8
 40
37.5
 49
24.0
 49
-3.0
 49
0.5
 49
-3.0
 49
0.5
 49
-3.0
 49
0.5
 49
-3.0
  0
LTYPE
  2
ACAD_ISO14W100
 70
    64
  3
__ . . . __ . . . __ . . . 
 72
    65
 73
     8
 40
25.5
 49
12.0
 49
-3.0
 49
0.5
 49
-3.0
 49
0.5
 49
-3.0
 49
0.5
 49
-3.0
  0
ENDTAB
  0
TABLE
  2
LAYER
 70
3
  0
LAYER
  2
1
 70
64
 62
7
  6
CONTINUOUS
  0
LAYER
  2
2
 70
64
 62
134
  6
CONTINUOUS
  0
LAYER
  2
5
 70
64
 62
94
  6
CONTINUOUS
  0
ENDTAB
  0
TABLE
  2
STYLE
 70
     2
  0
STYLE
  2
STANDARD
 70
    64
 40
0.0
 41
1.0
 50
0.0
 71
     0
 42
0.2
  3
TXT
  4

  0
STYLE
  2
KANJI
 70
    64
 40
0.0
 41
1.0
 50
0.0
 71
     0
 42
0.2
  3
TXT
  4
BIGFONT
  0
ENDTAB
  0
TABLE
  2
VIEW
 70
     0
  0
ENDTAB
  0
ENDSEC
  0
SECTION
  2
BLOCKS
  0
BLOCK
  8
2
 62
134
  6
CONTINUOUS
  2
*D1
 70
    65
 10
0.0
 20
0.0
  0
LINE
  8
2
 62
134
  6
CONTINUOUS
 10
25.995525
 20
116.490650
 11
75.995525
 21
116.490650
  0
LINE
  8
2
 62
134
  6
CONTINUOUS
 10
25.995525
 20
116.490650
 11
26.961451
 21
116.749469
  0
LINE
  8
2
 62
134
  6
CONTINUOUS
 10
25.995525
 20
116.490650
 11
26.961451
 21
116.231831
  0
LINE
  8
2
 62
134
  6
CONTINUOUS
 10
26.961451
 20
116.749469
 11
26.961451
 21
116.231831
  0
LINE
  8
2
 62
134
  6
CONTINUOUS
 10
26.237006
 20
116.490650
 11
26.719969
 21
116.620059
  0
LINE
  8
2
 62
134
  6
CONTINUOUS
 10
26.237006
 20
116.490650
 11
26.719969
 21
116.361240
  0
LINE
  8
2
 62
134
  6
CONTINUOUS
 10
26.719969
 20
116.620059
 11
26.719969
 21
116.361240
  0
LINE
  8
2
 62
134
  6
CONTINUOUS
 10
75.995525
 20
116.490650
 11
75.029599
 21
116.231831
  0
LINE
  8
2
 62
134
  6
CONTINUOUS
 10
75.995525
 20
116.490650
 11
75.029599
 21
116.749469
  0
LINE
  8
2
 62
134
  6
CONTINUOUS
 10
75.029599
 20
116.231831
 11
75.029599
 21
116.749469
  0
LINE
  8
2
 62
134
  6
CONTINUOUS
 10
75.754043
 20
116.490650
 11
75.271081
 21
116.361240
  0
LINE
  8
2
 62
134
  6
CONTINUOUS
 10
75.754043
 20
116.490650
 11
75.271081
 21
116.620059
  0
LINE
  8
2
 62
134
  6
CONTINUOUS
 10
75.271081
 20
116.361240
 11
75.271081
 21
116.620059
  0
TEXT
  8
2
 62
134
  6
CONTINUOUS
 10
50.495525
 20
116.740650
 40
2.000000
 41
0.500000
  1
B
  7
KANJI
 50
0.000000
 51
30.000000
  0
ENDBLK
  0
BLOCK
  8
2
 62
134
  6
CONTINUOUS
  2
*D2
 70
    65
 10
0.0
 20
0.0
  0
LINE
  8
2
 62
134
  6
CONTINUOUS
 10
18.416339
 20
110.035433
 11
18.416339
 21
90.035433
  0
LINE
  8
2
 62
134
  6
CONTINUOUS
 10
18.416339
 20
110.035433
 11
18.675158
 21
109.069507
  0
LINE
  8
2
 62
134
  6
CONTINUOUS
 10
18.416339
 20
110.035433
 11
18.157520
 21
109.069507
  0
LINE
  8
2
 62
134
  6
CONTINUOUS
 10
18.675158
 20
109.069507
 11
18.157520
 21
109.069507
  0
LINE
  8
2
 62
134
  6
CONTINUOUS
 10
18.416339
 20
109.793952
 11
18.545748
 21
109.310989
  0
LINE
  8
2
 62
134
  6
CONTINUOUS
 10
18.416339
 20
109.793952
 11
18.286929
 21
109.310989
  0
LINE
  8
2
 62
134
  6
CONTINUOUS
 10
18.545748
 20
109.310989
 11
18.286929
 21
109.310989
  0
LINE
  8
2
 62
134
  6
CONTINUOUS
 10
18.416339
 20
90.035433
 11
18.157520
 21
91.001359
  0
LINE
  8
2
 62
134
  6
CONTINUOUS
 10
18.416339
 20
90.035433
 11
18.675158
 21
91.001359
  0
LINE
  8
2
 62
134
  6
CONTINUOUS
 10
18.157520
 20
91.001359
 11
18.675158
 21
91.001359
  0
LINE
  8
2
 62
134
  6
CONTINUOUS
 10
18.416339
 20
90.276915
 11
18.286929
 21
90.759877
  0
LINE
  8
2
 62
134
  6
CONTINUOUS
 10
18.416339
 20
90.276915
 11
18.545748
 21
90.759877
  0
LINE
  8
2
 62
134
  6
CONTINUOUS
 10
18.286929
 20
90.759877
 11
18.545748
 21
90.759877
  0
TEXT
  8
2
 62
134
  6
CONTINUOUS
 10
18.166339
 20
99.535433
 40
2.000000
 41
0.500000
  1
A
  7
KANJI
 50
90.000000
 51
30.000000
  0
ENDBLK
  0
BLOCK
  8
2
 62
134
  6
CONTINUOUS
  2
*D3
 70
    65
 10
0.0
 20
0.0
  0
LINE
  8
2
 62
134
  6
CONTINUOUS
 10
87.843012
 20
108.035433
 11
87.843012
 21
92.035433
  0
LINE
  8
2
 62
134
  6
CONTINUOUS
 10
87.843012
 20
108.035433
 11
88.101831
 21
107.069507
  0
LINE
  8
2
 62
134
  6
CONTINUOUS
 10
87.843012
 20
108.035433
 11
87.584193
 21
107.069507
  0
LINE
  8
2
 62
134
  6
CONTINUOUS
 10
88.101831
 20
107.069507
 11
87.584193
 21
107.069507
  0
LINE
  8
2
 62
134
  6
CONTINUOUS
 10
87.843012
 20
107.793952
 11
87.972421
 21
107.310989
  0
LINE
  8
2
 62
134
  6
CONTINUOUS
 10
87.843012
 20
107.793952
 11
87.713602
 21
107.310989
  0
LINE
  8
2
 62
134
  6
CONTINUOUS
 10
87.972421
 20
107.310989
 11
87.713602
 21
107.310989
  0
LINE
  8
2
 62
134
  6
CONTINUOUS
 10
87.843012
 20
92.035433
 11
87.584193
 21
93.001359
  0
LINE
  8
2
 62
134
  6
CONTINUOUS
 10
87.843012
 20
92.035433
 11
88.101831
 21
93.001359
  0
LINE
  8
2
 62
134
  6
CONTINUOUS
 10
87.584193
 20
93.001359
 11
88.101831
 21
93.001359
  0
LINE
  8
2
 62
134
  6
CONTINUOUS
 10
87.843012
 20
92.276915
 11
87.713602
 21
92.759877
  0
LINE
  8
2
 62
134
  6
CONTINUOUS
 10
87.843012
 20
92.276915
 11
87.972421
 21
92.759877
  0
LINE
  8
2
 62
134
  6
CONTINUOUS
 10
87.713602
 20
92.759877
 11
87.972421
 21
92.759877
  0
TEXT
  8
2
 62
134
  6
CONTINUOUS
 10
87.593012
 20
99.535433
 40
2.000000
 41
0.500000
  1
C
  7
KANJI
 50
90.000000
 51
30.000000
  0
ENDBLK
  0
BLOCK
  8
2
 62
134
  6
CONTINUOUS
  2
*D4
 70
    65
 10
0.0
 20
0.0
  0
LINE
  8
2
 62
134
  6
CONTINUOUS
 10
75.995525
 20
116.490650
 11
80.995525
 21
116.490650
  0
LINE
  8
2
 62
134
  6
CONTINUOUS
 10
75.995525
 20
116.490650
 11
76.961451
 21
116.749469
  0
LINE
  8
2
 62
134
  6
CONTINUOUS
 10
75.995525
 20
116.490650
 11
76.961451
 21
116.231831
  0
LINE
  8
2
 62
134
  6
CONTINUOUS
 10
76.961451
 20
116.749469
 11
76.961451
 21
116.231831
  0
LINE
  8
2
 62
134
  6
CONTINUOUS
 10
76.237006
 20
116.490650
 11
76.719969
 21
116.620059
  0
LINE
  8
2
 62
134
  6
CONTINUOUS
 10
76.237006
 20
116.490650
 11
76.719969
 21
116.361240
  0
LINE
  8
2
 62
134
  6
CONTINUOUS
 10
76.719969
 20
116.620059
 11
76.719969
 21
116.361240
  0
LINE
  8
2
 62
134
  6
CONTINUOUS
 10
80.995525
 20
116.490650
 11
80.029599
 21
116.231831
  0
LINE
  8
2
 62
134
  6
CONTINUOUS
 10
80.995525
 20
116.490650
 11
80.029599
 21
116.749469
  0
LINE
  8
2
 62
134
  6
CONTINUOUS
 10
80.029599
 20
116.231831
 11
80.029599
 21
116.749469
  0
LINE
  8
2
 62
134
  6
CONTINUOUS
 10
80.754043
 20
116.490650
 11
80.271081
 21
116.361240
  0
LINE
  8
2
 62
134
  6
CONTINUOUS
 10
80.754043
 20
116.490650
 11
80.271081
 21
116.620059
  0
LINE
  8
2
 62
134
  6
CONTINUOUS
 10
80.271081
 20
116.361240
 11
80.271081
 21
116.620059
  0
TEXT
  8
2
 62
134
  6
CONTINUOUS
 10
77.995525
 20
116.740650
 40
2.000000
 41
0.500000
  1
5
  7
KANJI
 50
0.000000
 51
30.000000
  0
ENDBLK
  0
ENDSEC
  0
SECTION
  2
ENTITIES
  0
TEXT
  8
5
 62
94
  6
CONTINUOUS
 10
61.348008
 20
11.936535
 40
0.875000
 41
4.000000
  1
製図
  7
KANJI
 50
-90.000000
 51
0.000000
  0
TEXT
  8
5
 62
94
  6
CONTINUOUS
 10
71.264399
 20
11.854581
 40
0.875000
 41
4.000000
  1
図番
  7
KANJI
 50
-90.000000
 51
0.000000
  0
TEXT
  8
5
 62
94
  6
CONTINUOUS
 10
71.264399
 20
18.492826
 40
0.875000
 41
4.000000
  1
図　名
  7
KANJI
 50
-90.000000
 51
0.000000
  0
TEXT
  8
5
 62
94
  6
CONTINUOUS
 10
38.810756
 20
15.788356
 40
0.875000
 41
4.000000
  1
日付
  7
KANJI
 50
-90.000000
 51
0.000000
  0
TEXT
  8
5
 62
94
  6
CONTINUOUS
 10
56.348836
 20
15.870310
 40
0.875000
 41
4.000000
  1
図法
  7
KANJI
 50
-90.000000
 51
0.000000
  0
TEXT
  8
5
 62
94
  6
CONTINUOUS
 10
56.266882
 20
19.886038
 40
0.875000
 41
4.000000
  1
尺度
  7
KANJI
 50
-90.000000
 51
0.000000
  0
TEXT
  8
5
 62
94
  6
CONTINUOUS
 10
38.810756
 20
19.804085
 40
0.875000
 41
4.000000
  1
公差
  7
KANJI
 50
-90.000000
 51
0.000000
  0
TEXT
  8
5
 62
94
  6
CONTINUOUS
 10
38.810756
 20
11.854581
 40
0.875000
 41
4.000000
  1
承認
  7
KANJI
 50
-90.000000
 51
0.000000
  0
TEXT
  8
5
 62
94
  6
CONTINUOUS
 10
51.349664
 20
11.854581
 40
0.875000
 41
4.000000
  1
設計
  7
KANJI
 50
-90.000000
 51
0.000000
  0
TEXT
  8
5
 62
94
  6
CONTINUOUS
 10
48.071518
 20
4.888522
 40
2.250000
 41
1.888889
  1
ジャパンセンサー株式会社
  7
KANJI
 50
0.000000
 51
0.000000
  0
LINE
  8
5
 62
94
  6
CONTINUOUS
 10
98.366634
 20
4.110790
 11
98.366634
 21
141.610790
  0
LINE
  8
5
 62
94
  6
CONTINUOUS
 10
98.366634
 20
141.610790
 11
5.866634
 21
141.610790
  0
LINE
  8
5
 62
94
  6
CONTINUOUS
 10
5.866634
 20
141.610790
 11
5.866634
 21
4.110790
  0
LINE
  8
5
 62
94
  6
CONTINUOUS
 10
5.866634
 20
4.110790
 11
98.366634
 21
4.110790
  0
LINE
  8
5
 62
94
  6
CONTINUOUS
 10
38.366634
 20
20.110790
 11
98.366634
 21
20.110790
  0
LINE
  8
5
 62
94
  6
CONTINUOUS
 10
38.366634
 20
4.110790
 11
38.366634
 21
20.110790
  0
LINE
  8
5
 62
94
  6
CONTINUOUS
 10
98.366634
 20
8.110790
 11
38.366634
 21
8.110790
  0
LINE
  8
5
 62
94
  6
CONTINUOUS
 10
70.866634
 20
20.110790
 11
70.866634
 21
8.110790
  0
LINE
  8
5
 62
94
  6
CONTINUOUS
 10
98.366634
 20
12.110790
 11
38.366634
 21
12.110790
  0
LINE
  8
5
 62
94
  6
CONTINUOUS
 10
73.366634
 20
8.110790
 11
73.366634
 21
20.110790
  0
LINE
  8
5
 62
94
  6
CONTINUOUS
 10
58.366634
 20
20.110790
 11
58.366634
 21
12.110790
  0
LINE
  8
5
 62
94
  6
CONTINUOUS
 10
40.866634
 20
8.110790
 11
40.866634
 21
20.110790
  0
LINE
  8
5
 62
94
  6
CONTINUOUS
 10
38.366634
 20
16.110790
 11
70.866634
 21
16.110790
  0
LINE
  8
5
 62
94
  6
CONTINUOUS
 10
55.866634
 20
20.110790
 11
55.866634
 21
12.110790
  0
LINE
  8
5
 62
94
  6
CONTINUOUS
 10
50.866634
 20
8.110790
 11
50.866634
 21
12.110790
  0
LINE
  8
5
 62
94
  6
CONTINUOUS
 10
60.866634
 20
8.110790
 11
60.866634
 21
12.110790
  0
LINE
  8
5
 62
94
  6
CONTINUOUS
 10
53.366634
 20
12.110790
 11
53.366634
 21
8.110790
  0
LINE
  8
5
 62
94
  6
CONTINUOUS
 10
63.366634
 20
12.110790
 11
63.366634
 21
8.110790
  0
TEXT
  8
5
 62
94
  6
CONTINUOUS
 10
60.364564
 20
12.756071
 40
2.000000
 41
1.000000
  1
三角法
  7
KANJI
 50
0.000000
 51
0.000000
  0
LINE
  8
1
 62
7
  6
CONTINUOUS
 10
71.995525
 20
108.535433
 11
71.995525
 21
100.035433
  0
LINE
  8
1
 62
7
  6
CONTINUOUS
 10
80.995525
 20
107.535433
 11
80.995525
 21
92.535433
  0
LINE
  8
1
 62
7
  6
CONTINUOUS
 10
72.876430
 20
106.785433
 11
80.995525
 21
106.785433
  0
LINE
  8
1
 62
7
  6
CONTINUOUS
 10
72.876430
 20
106.785433
 11
72.876430
 21
100.035433
  0
LINE
  8
1
 62
7
  6
CONTINUOUS
 10
71.995525
 20
108.535433
 11
72.876430
 21
106.785433
  0
LINE
  8
1
 62
7
  6
CONTINUOUS
 10
75.995525
 20
90.035433
 11
26.495525
 21
90.035433
  0
LINE
  8
1
 62
7
  6
CONTINUOUS
 10
25.995525
 20
90.535433
 11
25.995525
 21
109.535433
  0
LINE
  8
1
 62
7
  6
CONTINUOUS
 10
75.995525
 20
110.035433
 11
26.495525
 21
110.035433
  0
LINE
  8
1
 62
7
  6
CONTINUOUS
 10
75.995525
 20
100.035433
 11
75.995525
 21
90.035433
  0
LINE
  8
1
 62
7
  6
CONTINUOUS
 10
75.995525
 20
110.035433
 11
75.995525
 21
107.535433
  0
LINE
  8
1
 62
7
  6
CONTINUOUS
 10
75.995525
 20
107.535433
 11
76.995525
 21
107.535433
  0
LINE
  8
1
 62
7
  6
CONTINUOUS
 10
80.495525
 20
92.035433
 11
77.495525
 21
92.035433
  0
LINE
  8
1
 62
7
  6
CONTINUOUS
 10
76.995525
 20
100.035433
 11
76.995525
 21
92.535433
  0
LINE
  8
1
 62
7
  6
CONTINUOUS
 10
80.495525
 20
108.035433
 11
77.495525
 21
108.035433
  0
LINE
  8
1
 62
7
  6
CONTINUOUS
 10
77.495525
 20
92.035433
 11
76.995525
 21
92.535433
  0
LINE
  8
1
 62
7
  6
CONTINUOUS
 10
80.495525
 20
108.035433
 11
80.995525
 21
107.535433
  0
LINE
  8
1
 62
7
  6
CONTINUOUS
 10
80.995525
 20
92.535433
 11
80.495525
 21
92.035433
  0
LINE
  8
1
 62
7
  6
CONTINUOUS
 10
77.495525
 20
108.035433
 11
76.995525
 21
107.535433
  0
LINE
  8
1
 62
7
  6
CONTINUOUS
 10
25.995525
 20
109.535433
 11
26.495525
 21
110.035433
  0
LINE
  8
1
 62
7
  6
CONTINUOUS
 10
25.995525
 20
90.535433
 11
26.495525
 21
90.035433
  0
LINE
  8
1
 62
7
  6
CONTINUOUS
 10
75.995525
 20
92.535433
 11
76.995525
 21
92.535433
  0
LINE
  8
1
 62
7
  6
CONTINUOUS
 10
25.995525
 20
108.535433
 11
71.995525
 21
108.535433
  0
LINE
  8
1
 62
7
  6
CONTINUOUS
 10
77.089525
 20
107.629433
 11
80.901525
 21
107.629433
  0
LINE
  8
1
 62
7
  6
CONTINUOUS
 10
77.089525
 20
92.441433
 11
80.901525
 21
92.441433
  0
LINE
  8
1
 62
7
  6
CONTINUOUS
 10
26.495525
 20
90.035433
 11
26.495525
 21
100.035433
  0
LINE
  8
2
 62
134
  6
CONTINUOUS
 10
16.954724
 20
110.035433
 11
26.495525
 21
110.035433
  0
LINE
  8
2
 62
134
  6
CONTINUOUS
 10
17.247047
 20
90.035433
 11
25.995525
 21
90.035433
  0
LINE
  8
2
 62
134
  6
CONTINUOUS
 10
79.892178
 20
108.035433
 11
89.596949
 21
108.035433
  0
LINE
  8
2
 62
134
  6
CONTINUOUS
 10
80.495525
 20
92.035433
 11
89.304626
 21
92.035433
  0
LINE
  8
2
 62
134
  6
CONTINUOUS
 10
80.995525
 20
117.659941
 11
80.995525
 21
106.785433
  0
LINE
  8
2
 62
134
  6
CONTINUOUS
 10
75.995525
 20
117.659941
 11
75.995525
 21
110.035433
  0
LINE
  8
2
 62
134
  6
CONTINUOUS
 10
25.995525
 20
118.098425
 11
25.995525
 21
109.535433
  0
DIMENSION
  8
2
 62
134
  6
CONTINUOUS
  2
*D1
 10
25.995525
 20
116.490650
 11
50.995525
 21
116.740650
 70
     0
  1
B
 13
25.995525
 23
116.490650
 14
75.995525
 24
116.490650
 50
0.000000
  0
DIMENSION
  8
2
 62
134
  6
CONTINUOUS
  2
*D2
 10
18.416339
 20
110.035433
 11
18.166339
 21
100.035433
 70
     0
  1
A
 13
18.416339
 23
110.035433
 14
18.416339
 24
90.035433
 50
-90.000000
  0
DIMENSION
  8
2
 62
134
  6
CONTINUOUS
  2
*D3
 10
87.843012
 20
108.035433
 11
87.593012
 21
100.035433
 70
     0
  1
C
 13
87.843012
 23
108.035433
 14
87.843012
 24
92.035433
 50
-90.000000
  0
TEXT
  8
5
 62
94
  6
CONTINUOUS
 10
73.811516
 20
9.062008
 40
2.000000
 41
1.000000
  1
０１５－８６８－Ａ１１０
  7
KANJI
 50
0.000000
 51
0.000000
  0
TEXT
  8
5
 62
94
  6
CONTINUOUS
 10
73.373031
 20
17.100886
 40
2.000000
 41
0.543478
  1
FTP9-6(φ6),FTP9-15(φ15)
  7
KANJI
 50
0.000000
 51
0.000000
  0
TEXT
  8
5
 62
94
  6
CONTINUOUS
 10
73.419034
 20
15.078552
 40
2.000000
 41
0.543478
  1
FTP6-6(φ6),FTP6-15(φ15)
  7
KANJI
 50
0.000000
 51
0.000000
  0
TEXT
  8
5
 62
94
  6
CONTINUOUS
 10
43.556102
 20
13.154528
 40
2.000000
 41
0.500000
  1
2009/11/13
  7
KANJI
 50
0.000000
 51
0.000000
  0
TEXT
  8
5
 62
94
  6
CONTINUOUS
 10
55.102854
 20
9.080278
 40
2.000000
 41
1.000000
  1
須藤
  7
KANJI
 50
0.000000
 51
0.000000
  0
TEXT
  8
5
 62
94
  6
CONTINUOUS
 10
61.533957
 20
16.972995
 40
2.000000
 41
1.000000
  1
２／１
  7
KANJI
 50
0.000000
 51
0.000000
  0
TEXT
  8
5
 62
94
  6
CONTINUOUS
 10
65.102854
 20
9.080278
 40
2.000000
 41
1.000000
  1
須藤
  7
KANJI
 50
0.000000
 51
0.000000
  0
LINE
  8
1
 62
7
  6
DASHDOT
 10
23.824311
 20
100.035433
 11
83.052919
 21
100.035433
  0
DIMENSION
  8
2
 62
134
  6
CONTINUOUS
  2
*D4
 10
75.995525
 20
116.490650
 11
78.495525
 21
116.740650
 70
     0
  1
5
 13
75.995525
 23
116.490650
 14
80.995525
 24
116.490650
 50
0.000000
  0
LINE
  8
2
 62
134
  6
CONTINUOUS
 10
23.824311
 20
80.827264
 11
23.824311
 21
60.218504
  0
LINE
  8
2
 62
134
  6
CONTINUOUS
 10
23.824311
 20
60.218504
 11
76.734744
 21
60.218504
  0
LINE
  8
2
 62
134
  6
CONTINUOUS
 10
76.734744
 20
60.218504
 11
76.734744
 21
80.827264
  0
LINE
  8
2
 62
134
  6
CONTINUOUS
 10
76.734744
 20
80.827264
 11
23.824311
 21
80.827264
  0
LINE
  8
2
 62
134
  6
CONTINUOUS
 10
23.824311
 20
74.103839
 11
76.734744
 21
74.103839
  0
LINE
  8
2
 62
134
  6
CONTINUOUS
 10
23.824311
 20
67.234252
 11
76.588583
 21
67.234252
  0
LINE
  8
2
 62
134
  6
CONTINUOUS
 10
33.324803
 20
80.827264
 11
33.324803
 21
60.218504
  0
LINE
  8
2
 62
134
  6
CONTINUOUS
 10
43.263780
 20
80.827264
 11
43.263780
 21
60.364665
  0
LINE
  8
2
 62
134
  6
CONTINUOUS
 10
51.010335
 20
80.827264
 11
51.010335
 21
60.072343
  0
LINE
  8
2
 62
134
  6
CONTINUOUS
 10
68.111220
 20
80.827264
 11
68.111220
 21
60.510827
  0
TEXT
  8
2
 62
134
  6
CONTINUOUS
 10
25.432087
 20
69.718996
 40
2.000000
 41
1.000000
  1
φ６用
  7
KANJI
 50
0.000000
 51
0.000000
  0
TEXT
  8
2
 62
134
  6
CONTINUOUS
 10
24.555118
 20
62.703248
 40
2.000000
 41
1.000000
  1
φ１５用
  7
KANJI
 50
0.000000
 51
0.000000
  0
TEXT
  8
2
 62
134
  6
CONTINUOUS
 10
34.201772
 20
69.718996
 40
2.000000
 41
1.000000
  1
φ９．５
  7
KANJI
 50
0.000000
 51
0.000000
  0
TEXT
  8
2
 62
134
  6
CONTINUOUS
 10
35.224902
 20
62.703248
 40
2.000000
 41
1.000000
  1
φ２０
  7
KANJI
 50
0.000000
 51
0.000000
  0
TEXT
  8
2
 62
134
  6
CONTINUOUS
 10
45.163878
 20
62.703248
 40
2.000000
 41
1.000000
  1
５０
  7
KANJI
 50
0.000000
 51
0.000000
  0
TEXT
  8
2
 62
134
  6
CONTINUOUS
 10
45.310039
 20
69.572835
 40
2.000000
 41
1.000000
  1
２５
  7
KANJI
 50
0.000000
 51
0.000000
  0
TEXT
  8
2
 62
134
  6
CONTINUOUS
 10
52.471949
 20
69.718996
 40
2.000000
 41
1.000000
  1
Ｍ８Ｐ０．７５
  7
KANJI
 50
0.000000
 51
0.000000
  0
TEXT
  8
2
 62
134
  6
CONTINUOUS
 10
51.594980
 20
62.703248
 40
2.000000
 41
1.000000
  1
Ｍ１６Ｐ０．７５
  7
KANJI
 50
0.000000
 51
0.000000
  0
TEXT
  8
2
 62
134
  6
CONTINUOUS
 10
70.449803
 20
69.718996
 40
2.000000
 41
1.000000
  1
５ｇ
  7
KANJI
 50
0.000000
 51
0.000000
  0
TEXT
  8
2
 62
134
  6
CONTINUOUS
 10
69.426673
 20
62.703248
 40
2.000000
 41
1.000000
  1
１５ｇ
  7
KANJI
 50
0.000000
 51
0.000000
  0
TEXT
  8
2
 62
134
  6
CONTINUOUS
 10
46.040846
 20
76.588583
 40
2.000000
 41
1.000000
  1
Ｂ
  7
KANJI
 50
0.000000
 51
0.000000
  0
TEXT
  8
2
 62
134
  6
CONTINUOUS
 10
37.271161
 20
76.442421
 40
2.000000
 41
1.000000
  1
Ａ
  7
KANJI
 50
0.000000
 51
0.000000
  0
TEXT
  8
2
 62
134
  6
CONTINUOUS
 10
58.464567
 20
76.588583
 40
2.000000
 41
1.000000
  1
Ｃ
  7
KANJI
 50
0.000000
 51
0.000000
  0
TEXT
  8
2
 62
134
  6
CONTINUOUS
 10
70.595965
 20
76.588583
 40
2.000000
 41
1.000000
  1
重量
  7
KANJI
 50
0.000000
 51
0.000000
  0
TEXT
  8
5
 62
94
  6
CONTINUOUS
 10
74.983123
 20
12.870428
 40
2.000000
 41
0.600000
  1
ｴｱﾊﾟｰｼﾞﾌｰﾄﾞ 外形図
  7
KANJI
 50
0.000000
 51
0.000000
  0
ENDSEC
  0
EOF
