  0
SECTION
  2
HEADER
  9
$ACADVER
  1
AC1009
  9
$INSBASE
 10
0.000000
 20
0.000000
  9
$EXTMIN
 10
0.000000
 20
0.000000
  9
$EXTMAX
 10
210.000000
 20
297.000000
  9
$LIMMIN
 10
0.000000
 20
0.000000
  9
$LIMMAX
 10
210.000000
 20
297.000000
  9
$VIEWCTR
 10
105.000000
 20
148.500000
  9
$VIEWSIZE
 40
297.000000
  9
$PEXTMIN
 10
0.000000
 20
0.000000
 30
0.000000
  9
$PEXTMAX
 10
210.000000
 20
297.000000
 30
0.000000
  9
$SNAPMODE
 70
     0
  9
$SNAPUNIT
 10
1.000000
 20
1.000000
  9
$SNAPBASE
 10
0.000000
 20
0.000000
  9
$SNAPANG
 50
0.000000
  9
$SNAPISOPAIR
 70
     0
  9
$SNAPSTYLE
 70
     0
  9
$GRIDMODE
 70
     0
  9
$GRIDUNIT
 10
0.000000
 20
0.000000
  9
$ORTHOMODE
 70
     0
  9
$REGENMODE
 70
     1
  9
$FILLMODE
 70
     1
  9
$QTEXTMODE
 70
     0
  9
$DRAGMODE
 70
     2
  9
$LTSCALE
 40
0.250000
  9
$OSMODE
 70
     0
  9
$ATTMODE
 70
     1
  9
$TEXTSIZE
 40
4.000000
  9
$TRACEWID
 40
0.050000
  9
$TEXTSTYLE
  7
STANDARD
  9
$CLAYER
  8
0
  9
$CELTYPE
  6
BYLAYER
  9
$CECOLOR
 62
   256
  9
$DIMSCALE
 40
1.000000
  9
$DIMASZ
 40
1.000000
  9
$DIMEXO
 40
0.000000
  9
$DIMDLI
 40
0.500000
  9
$DIMRND
 40
0.000000
  9
$DIMDLE
 40
0.000000
  9
$DIMEXE
 40
0.000000
  9
$DIMTP
 40
0.000000
  9
$DIMTM
 40
0.000000
  9
$DIMTXT
 40
4.000000
  9
$DIMCEN
 40
0.000000
  9
$DIMTSZ
 40
0.000000
  9
$DIMTOL
 70
     0
  9
$DIMLIM
 70
     0
  9
$DIMTIH
 70
     1
  9
$DIMTOH
 70
     1
  9
$DIMSE1
 70
     0
  9
$DIMSE2
 70
     0
  9
$DIMTAD
 70
     0
  9
$DIMZIN
 70
     0
  9
$DIMBLK
  1

  9
$DIMASO
 70
     0
  9
$DIMSHO
 70
     0
  9
$DIMPOST
  1

  9
$DIMAPOST
  1

  9
$DIMALT
 70
     0
  9
$DIMALTD
 70
     0
  9
$DIMALTF
 40
25.400000
  9
$DIMLFAC
 40
1.000000
  9
$DIMTOFL
 70
     0
  9
$DIMTVP
 40
0.000000
  9
$DIMTIX
 70
     0
  9
$DIMSOXD
 70
     0
  9
$DIMSAH
 70
     0
  9
$DIMBLKL
  1

  9
$DIMBLKR
  1

  9
$LUNITS
 70
     2
  9
$LUPREC
 70
     2
  9
$AXISMODE
 70
     0
  9
$AXISUNIT
 10
1.000000
 20
1.000000
  9
$SKETCHINC
 40
0.000000
  9
$FILLETRAD
 40
0.000000
  9
$AUNITS
 70
     1
  9
$AUPREC
 70
     2
  9
$MENU
  1
ACAD
  9
$ELEVATION
 40
0.000000
  9
$THICKNESS
 40
0.000000
  9
$VIEWDIR
 10
0.000000
 20
0.000000
 30
1.000000
  9
$LIMCHECK
 70
     1
  9
$BLIPMODE
 70
     1
  9
$CHAMFERA
 40
0.000000
  9
$CHAMFERB
 40
0.000000
  9
$FASTZOOM
 70
     1
  9
$SKPOLY
 70
     0
  9
$TDCREATE
 40
0.000000
  9
$TDUPDATE
 40
0.000000
  9
$TDINDWG
 40
0.000000
  9
$TDUSRTIMER
 40
0.000000
  9
$USRTIMER
 70
     1
  9
$ANGBASE
 50
0.000000
  9
$ANGDIR
 70
     0
  9
$PDMODE
 70
     0
  9
$PDSIZE
 40
0.000000
  9
$PLINEWID
 40
0.000000
  9
$COORDS
 70
     2
  9
$USERI1
 70
     0
  9
$USERI2
 70
     0
  9
$USERI3
 70
     0
  9
$USERI4
 70
     0
  9
$USERI5
 70
     0
  9
$USERR1
 40
0.000000
  9
$USERR2
 40
0.000000
  9
$USERR3
 40
0.000000
  9
$USERR4
 40
0.000000
  9
$USERR5
 40
0.000000
  0
ENDSEC
  0
SECTION
  2
TABLES
  0
TABLE
  2
LTYPE
 70
     5
  0
LTYPE
  2
CONTINUOUS
 70
    64
  3
Solid line
 72
    65
 73
     0
 40
0.0
  0
LTYPE
  2
HIDDEN
 70
    64
  3
------------------------
 72
    65
 73
     2
 40
12.6
 49
8.4
 49
-4.2
  0
LTYPE
  2
DOT
 70
    64
  3
････････････････････････
 72
    65
 73
     2
 40
8.0
 49
6.0
 49
-2.0
  0
LTYPE
  2
DASHDOT
 70
    64
  3
--･--･--･--･--･--･--･--
 72
    65
 73
     4
 40
50.5
 49
30.0
 49
-9.0
 49
2.5
 49
-9.0
  0
LTYPE
  2
DIVIDE
 70
    64
  3
--･･--･･--･･--･･--･･--
 72
    65
 73
     6
 40
58.0
 49
30.0
 49
-9.0
 49
2.5
 49
-5.0
 49
2.5
 49
-9.0
  0
LTYPE
  2
ACAD_ISO06W100
 70
    64
  3
____ ... ____ ... ____
 72
    65
 73
     8
 40
37.5
 49
24.0
 49
-3.0
 49
0.5
 49
-3.0
 49
0.5
 49
-3.0
 49
0.5
 49
-3.0
  0
LTYPE
  2
ACAD_ISO14W100
 70
    64
  3
__ . . . __ . . . __ . . . 
 72
    65
 73
     8
 40
25.5
 49
12.0
 49
-3.0
 49
0.5
 49
-3.0
 49
0.5
 49
-3.0
 49
0.5
 49
-3.0
  0
ENDTAB
  0
TABLE
  2
LAYER
 70
3
  0
LAYER
  2
1
 70
64
 62
7
  6
CONTINUOUS
  0
LAYER
  2
2
 70
64
 62
134
  6
CONTINUOUS
  0
LAYER
  2
5
 70
64
 62
94
  6
CONTINUOUS
  0
ENDTAB
  0
TABLE
  2
STYLE
 70
     2
  0
STYLE
  2
STANDARD
 70
    64
 40
0.0
 41
1.0
 50
0.0
 71
     0
 42
0.2
  3
TXT
  4

  0
STYLE
  2
KANJI
 70
    64
 40
0.0
 41
1.0
 50
0.0
 71
     0
 42
0.2
  3
TXT
  4
BIGFONT
  0
ENDTAB
  0
TABLE
  2
VIEW
 70
     0
  0
ENDTAB
  0
ENDSEC
  0
SECTION
  2
BLOCKS
  0
BLOCK
  8
2
 62
134
  6
CONTINUOUS
  2
*D1
 70
    65
 10
0.0
 20
0.0
  0
LINE
  8
2
 62
134
  6
CONTINUOUS
 10
109.667442
 20
124.907331
 11
139.667442
 21
124.907331
  0
LINE
  8
2
 62
134
  6
CONTINUOUS
 10
109.667442
 20
122.907331
 11
109.667442
 21
138.058676
  0
LINE
  8
2
 62
134
  6
CONTINUOUS
 10
139.667442
 20
122.907331
 11
139.667442
 21
134.560918
  0
LINE
  8
2
 62
134
  6
CONTINUOUS
 10
109.667442
 20
124.907331
 11
111.599294
 21
125.424969
  0
LINE
  8
2
 62
134
  6
CONTINUOUS
 10
109.667442
 20
124.907331
 11
111.599294
 21
124.389693
  0
LINE
  8
2
 62
134
  6
CONTINUOUS
 10
111.599294
 20
125.424969
 11
111.599294
 21
124.389693
  0
LINE
  8
2
 62
134
  6
CONTINUOUS
 10
110.150405
 20
124.907331
 11
111.116331
 21
125.166150
  0
LINE
  8
2
 62
134
  6
CONTINUOUS
 10
110.150405
 20
124.907331
 11
111.116331
 21
124.648512
  0
LINE
  8
2
 62
134
  6
CONTINUOUS
 10
111.116331
 20
125.166150
 11
111.116331
 21
124.648512
  0
LINE
  8
2
 62
134
  6
CONTINUOUS
 10
139.667442
 20
124.907331
 11
137.735590
 21
124.389693
  0
LINE
  8
2
 62
134
  6
CONTINUOUS
 10
139.667442
 20
124.907331
 11
137.735590
 21
125.424969
  0
LINE
  8
2
 62
134
  6
CONTINUOUS
 10
137.735590
 20
124.389693
 11
137.735590
 21
125.424969
  0
LINE
  8
2
 62
134
  6
CONTINUOUS
 10
139.184479
 20
124.907331
 11
138.218553
 21
124.648512
  0
LINE
  8
2
 62
134
  6
CONTINUOUS
 10
139.184479
 20
124.907331
 11
138.218553
 21
125.166150
  0
LINE
  8
2
 62
134
  6
CONTINUOUS
 10
138.218553
 20
124.648512
 11
138.218553
 21
125.166150
  0
TEXT
  8
2
 62
134
  6
CONTINUOUS
 10
122.667442
 20
125.407331
 40
4.000000
 41
1.000000
  1
30
  7
KANJI
 50
0.000000
 51
30.000000
  0
ENDBLK
  0
BLOCK
  8
2
 62
134
  6
CONTINUOUS
  2
*D2
 70
    65
 10
0.0
 20
0.0
  0
LINE
  8
2
 62
134
  6
CONTINUOUS
 10
109.667442
 20
116.250380
 11
179.667442
 21
116.250380
  0
LINE
  8
2
 62
134
  6
CONTINUOUS
 10
109.667442
 20
114.250380
 11
109.667442
 21
138.058676
  0
LINE
  8
2
 62
134
  6
CONTINUOUS
 10
179.667442
 20
114.250380
 11
179.667442
 21
138.058676
  0
LINE
  8
2
 62
134
  6
CONTINUOUS
 10
109.667442
 20
116.250380
 11
111.599294
 21
116.768018
  0
LINE
  8
2
 62
134
  6
CONTINUOUS
 10
109.667442
 20
116.250380
 11
111.599294
 21
115.732742
  0
LINE
  8
2
 62
134
  6
CONTINUOUS
 10
111.599294
 20
116.768018
 11
111.599294
 21
115.732742
  0
LINE
  8
2
 62
134
  6
CONTINUOUS
 10
110.150405
 20
116.250380
 11
111.116331
 21
116.509199
  0
LINE
  8
2
 62
134
  6
CONTINUOUS
 10
110.150405
 20
116.250380
 11
111.116331
 21
115.991561
  0
LINE
  8
2
 62
134
  6
CONTINUOUS
 10
111.116331
 20
116.509199
 11
111.116331
 21
115.991561
  0
LINE
  8
2
 62
134
  6
CONTINUOUS
 10
179.667442
 20
116.250380
 11
177.735590
 21
115.732742
  0
LINE
  8
2
 62
134
  6
CONTINUOUS
 10
179.667442
 20
116.250380
 11
177.735590
 21
116.768018
  0
LINE
  8
2
 62
134
  6
CONTINUOUS
 10
177.735590
 20
115.732742
 11
177.735590
 21
116.768018
  0
LINE
  8
2
 62
134
  6
CONTINUOUS
 10
179.184479
 20
116.250380
 11
178.218553
 21
115.991561
  0
LINE
  8
2
 62
134
  6
CONTINUOUS
 10
179.184479
 20
116.250380
 11
178.218553
 21
116.509199
  0
LINE
  8
2
 62
134
  6
CONTINUOUS
 10
178.218553
 20
115.991561
 11
178.218553
 21
116.509199
  0
TEXT
  8
2
 62
134
  6
CONTINUOUS
 10
142.667442
 20
116.750380
 40
4.000000
 41
1.000000
  1
70
  7
KANJI
 50
0.000000
 51
30.000000
  0
ENDBLK
  0
BLOCK
  8
2
 62
134
  6
CONTINUOUS
  2
*D3
 70
    65
 10
0.0
 20
0.0
  0
LINE
  8
2
 62
134
  6
CONTINUOUS
 10
102.219011
 20
140.058676
 11
102.219011
 21
155.058676
  0
LINE
  8
2
 62
134
  6
CONTINUOUS
 10
100.219011
 20
140.058676
 11
107.667442
 21
140.058676
  0
LINE
  8
2
 62
134
  6
CONTINUOUS
 10
100.219011
 20
155.058676
 11
120.196590
 21
155.058676
  0
LINE
  8
2
 62
134
  6
CONTINUOUS
 10
102.219011
 20
140.058676
 11
101.701373
 21
141.990528
  0
LINE
  8
2
 62
134
  6
CONTINUOUS
 10
102.219011
 20
140.058676
 11
102.736649
 21
141.990528
  0
LINE
  8
2
 62
134
  6
CONTINUOUS
 10
101.701373
 20
141.990528
 11
102.736649
 21
141.990528
  0
LINE
  8
2
 62
134
  6
CONTINUOUS
 10
102.219011
 20
140.541639
 11
101.960192
 21
141.507565
  0
LINE
  8
2
 62
134
  6
CONTINUOUS
 10
102.219011
 20
140.541639
 11
102.477830
 21
141.507565
  0
LINE
  8
2
 62
134
  6
CONTINUOUS
 10
101.960192
 20
141.507565
 11
102.477830
 21
141.507565
  0
LINE
  8
2
 62
134
  6
CONTINUOUS
 10
102.219011
 20
155.058676
 11
102.736649
 21
153.126825
  0
LINE
  8
2
 62
134
  6
CONTINUOUS
 10
102.219011
 20
155.058676
 11
101.701373
 21
153.126825
  0
LINE
  8
2
 62
134
  6
CONTINUOUS
 10
102.736649
 20
153.126825
 11
101.701373
 21
153.126825
  0
LINE
  8
2
 62
134
  6
CONTINUOUS
 10
102.219011
 20
154.575713
 11
102.477830
 21
153.609788
  0
LINE
  8
2
 62
134
  6
CONTINUOUS
 10
102.219011
 20
154.575713
 11
101.960192
 21
153.609788
  0
LINE
  8
2
 62
134
  6
CONTINUOUS
 10
102.477830
 20
153.609788
 11
101.960192
 21
153.609788
  0
TEXT
  8
2
 62
134
  6
CONTINUOUS
 10
101.719011
 20
145.558676
 40
4.000000
 41
1.000000
  1
15
  7
KANJI
 50
90.000000
 51
30.000000
  0
ENDBLK
  0
BLOCK
  8
2
 62
134
  6
CONTINUOUS
  2
*D4
 70
    65
 10
0.0
 20
0.0
  0
LINE
  8
2
 62
134
  6
CONTINUOUS
 10
96.225738
 20
140.058676
 11
96.225738
 21
180.058676
  0
LINE
  8
2
 62
134
  6
CONTINUOUS
 10
94.225738
 20
140.058676
 11
107.667442
 21
140.058676
  0
LINE
  8
2
 62
134
  6
CONTINUOUS
 10
94.225738
 20
180.058676
 11
109.667442
 21
180.058676
  0
LINE
  8
2
 62
134
  6
CONTINUOUS
 10
96.225738
 20
140.058676
 11
95.708100
 21
141.990528
  0
LINE
  8
2
 62
134
  6
CONTINUOUS
 10
96.225738
 20
140.058676
 11
96.743376
 21
141.990528
  0
LINE
  8
2
 62
134
  6
CONTINUOUS
 10
95.708100
 20
141.990528
 11
96.743376
 21
141.990528
  0
LINE
  8
2
 62
134
  6
CONTINUOUS
 10
96.225738
 20
140.541639
 11
95.966919
 21
141.507565
  0
LINE
  8
2
 62
134
  6
CONTINUOUS
 10
96.225738
 20
140.541639
 11
96.484557
 21
141.507565
  0
LINE
  8
2
 62
134
  6
CONTINUOUS
 10
95.966919
 20
141.507565
 11
96.484557
 21
141.507565
  0
LINE
  8
2
 62
134
  6
CONTINUOUS
 10
96.225738
 20
180.058676
 11
96.743376
 21
178.126825
  0
LINE
  8
2
 62
134
  6
CONTINUOUS
 10
96.225738
 20
180.058676
 11
95.708100
 21
178.126825
  0
LINE
  8
2
 62
134
  6
CONTINUOUS
 10
96.743376
 20
178.126825
 11
95.708100
 21
178.126825
  0
LINE
  8
2
 62
134
  6
CONTINUOUS
 10
96.225738
 20
179.575713
 11
96.484557
 21
178.609788
  0
LINE
  8
2
 62
134
  6
CONTINUOUS
 10
96.225738
 20
179.575713
 11
95.966919
 21
178.609788
  0
LINE
  8
2
 62
134
  6
CONTINUOUS
 10
96.484557
 20
178.609788
 11
95.966919
 21
178.609788
  0
TEXT
  8
2
 62
134
  6
CONTINUOUS
 10
95.725738
 20
158.058676
 40
4.000000
 41
1.000000
  1
40
  7
KANJI
 50
90.000000
 51
30.000000
  0
ENDBLK
  0
BLOCK
  8
2
 62
134
  6
CONTINUOUS
  2
*D5
 70
    65
 10
0.0
 20
0.0
  0
LINE
  8
2
 62
134
  6
CONTINUOUS
 10
29.667442
 20
125.573250
 11
64.667442
 21
125.573250
  0
LINE
  8
2
 62
134
  6
CONTINUOUS
 10
29.667442
 20
123.573250
 11
29.667442
 21
138.058676
  0
LINE
  8
2
 62
134
  6
CONTINUOUS
 10
64.667442
 20
123.573250
 11
64.667442
 21
138.058676
  0
LINE
  8
2
 62
134
  6
CONTINUOUS
 10
29.667442
 20
125.573250
 11
31.599294
 21
126.090888
  0
LINE
  8
2
 62
134
  6
CONTINUOUS
 10
29.667442
 20
125.573250
 11
31.599294
 21
125.055612
  0
LINE
  8
2
 62
134
  6
CONTINUOUS
 10
31.599294
 20
126.090888
 11
31.599294
 21
125.055612
  0
LINE
  8
2
 62
134
  6
CONTINUOUS
 10
30.150405
 20
125.573250
 11
31.116331
 21
125.832069
  0
LINE
  8
2
 62
134
  6
CONTINUOUS
 10
30.150405
 20
125.573250
 11
31.116331
 21
125.314431
  0
LINE
  8
2
 62
134
  6
CONTINUOUS
 10
31.116331
 20
125.832069
 11
31.116331
 21
125.314431
  0
LINE
  8
2
 62
134
  6
CONTINUOUS
 10
64.667442
 20
125.573250
 11
62.735590
 21
125.055612
  0
LINE
  8
2
 62
134
  6
CONTINUOUS
 10
64.667442
 20
125.573250
 11
62.735590
 21
126.090888
  0
LINE
  8
2
 62
134
  6
CONTINUOUS
 10
62.735590
 20
125.055612
 11
62.735590
 21
126.090888
  0
LINE
  8
2
 62
134
  6
CONTINUOUS
 10
64.184479
 20
125.573250
 11
63.218553
 21
125.314431
  0
LINE
  8
2
 62
134
  6
CONTINUOUS
 10
64.184479
 20
125.573250
 11
63.218553
 21
125.832069
  0
LINE
  8
2
 62
134
  6
CONTINUOUS
 10
63.218553
 20
125.314431
 11
63.218553
 21
125.832069
  0
TEXT
  8
2
 62
134
  6
CONTINUOUS
 10
45.167442
 20
126.073250
 40
4.000000
 41
1.000000
  1
35
  7
KANJI
 50
0.000000
 51
30.000000
  0
ENDBLK
  0
BLOCK
  8
2
 62
134
  6
CONTINUOUS
  2
*D6
 70
    65
 10
0.0
 20
0.0
  0
LINE
  8
2
 62
134
  6
CONTINUOUS
 10
29.667442
 20
115.917421
 11
89.667442
 21
115.917421
  0
LINE
  8
2
 62
134
  6
CONTINUOUS
 10
29.667442
 20
113.917421
 11
29.667442
 21
138.058676
  0
LINE
  8
2
 62
134
  6
CONTINUOUS
 10
89.667442
 20
113.917421
 11
89.667442
 21
138.058676
  0
LINE
  8
2
 62
134
  6
CONTINUOUS
 10
29.667442
 20
115.917421
 11
31.599294
 21
116.435059
  0
LINE
  8
2
 62
134
  6
CONTINUOUS
 10
29.667442
 20
115.917421
 11
31.599294
 21
115.399783
  0
LINE
  8
2
 62
134
  6
CONTINUOUS
 10
31.599294
 20
116.435059
 11
31.599294
 21
115.399783
  0
LINE
  8
2
 62
134
  6
CONTINUOUS
 10
30.150405
 20
115.917421
 11
31.116331
 21
116.176240
  0
LINE
  8
2
 62
134
  6
CONTINUOUS
 10
30.150405
 20
115.917421
 11
31.116331
 21
115.658602
  0
LINE
  8
2
 62
134
  6
CONTINUOUS
 10
31.116331
 20
116.176240
 11
31.116331
 21
115.658602
  0
LINE
  8
2
 62
134
  6
CONTINUOUS
 10
89.667442
 20
115.917421
 11
87.735590
 21
115.399783
  0
LINE
  8
2
 62
134
  6
CONTINUOUS
 10
89.667442
 20
115.917421
 11
87.735590
 21
116.435059
  0
LINE
  8
2
 62
134
  6
CONTINUOUS
 10
87.735590
 20
115.399783
 11
87.735590
 21
116.435059
  0
LINE
  8
2
 62
134
  6
CONTINUOUS
 10
89.184479
 20
115.917421
 11
88.218553
 21
115.658602
  0
LINE
  8
2
 62
134
  6
CONTINUOUS
 10
89.184479
 20
115.917421
 11
88.218553
 21
116.176240
  0
LINE
  8
2
 62
134
  6
CONTINUOUS
 10
88.218553
 20
115.658602
 11
88.218553
 21
116.176240
  0
TEXT
  8
2
 62
134
  6
CONTINUOUS
 10
57.667442
 20
116.417421
 40
4.000000
 41
1.000000
  1
60
  7
KANJI
 50
0.000000
 51
30.000000
  0
ENDBLK
  0
BLOCK
  8
2
 62
134
  6
CONTINUOUS
  2
*D7
 70
    65
 10
0.0
 20
0.0
  0
LINE
  8
2
 62
134
  6
CONTINUOUS
 10
109.667442
 20
190.129104
 11
129.667442
 21
190.129104
  0
LINE
  8
2
 62
134
  6
CONTINUOUS
 10
109.667442
 20
192.129104
 11
109.667442
 21
180.058676
  0
LINE
  8
2
 62
134
  6
CONTINUOUS
 10
129.667442
 20
192.129104
 11
129.667442
 21
166.358196
  0
LINE
  8
2
 62
134
  6
CONTINUOUS
 10
109.667442
 20
190.129104
 11
111.599294
 21
190.646743
  0
LINE
  8
2
 62
134
  6
CONTINUOUS
 10
109.667442
 20
190.129104
 11
111.599294
 21
189.611466
  0
LINE
  8
2
 62
134
  6
CONTINUOUS
 10
111.599294
 20
190.646743
 11
111.599294
 21
189.611466
  0
LINE
  8
2
 62
134
  6
CONTINUOUS
 10
110.150405
 20
190.129104
 11
111.116331
 21
190.387923
  0
LINE
  8
2
 62
134
  6
CONTINUOUS
 10
110.150405
 20
190.129104
 11
111.116331
 21
189.870285
  0
LINE
  8
2
 62
134
  6
CONTINUOUS
 10
111.116331
 20
190.387923
 11
111.116331
 21
189.870285
  0
LINE
  8
2
 62
134
  6
CONTINUOUS
 10
129.667442
 20
190.129104
 11
127.735590
 21
189.611466
  0
LINE
  8
2
 62
134
  6
CONTINUOUS
 10
129.667442
 20
190.129104
 11
127.735590
 21
190.646743
  0
LINE
  8
2
 62
134
  6
CONTINUOUS
 10
127.735590
 20
189.611466
 11
127.735590
 21
190.646743
  0
LINE
  8
2
 62
134
  6
CONTINUOUS
 10
129.184479
 20
190.129104
 11
128.218553
 21
189.870285
  0
LINE
  8
2
 62
134
  6
CONTINUOUS
 10
129.184479
 20
190.129104
 11
128.218553
 21
190.387923
  0
LINE
  8
2
 62
134
  6
CONTINUOUS
 10
128.218553
 20
189.870285
 11
128.218553
 21
190.387923
  0
TEXT
  8
2
 62
134
  6
CONTINUOUS
 10
117.667442
 20
190.129104
 40
4.000000
 41
1.000000
  1
20
  7
KANJI
 50
0.000000
 51
30.000000
  0
ENDBLK
  0
BLOCK
  8
2
 62
134
  6
CONTINUOUS
  2
*D8
 70
    65
 10
0.0
 20
0.0
  0
LINE
  8
2
 62
134
  6
CONTINUOUS
 10
129.667442
 20
190.129104
 11
149.667442
 21
190.129104
  0
LINE
  8
2
 62
134
  6
CONTINUOUS
 10
149.667442
 20
192.129104
 11
149.667442
 21
166.358196
  0
LINE
  8
2
 62
134
  6
CONTINUOUS
 10
129.667442
 20
190.129104
 11
131.599294
 21
190.646743
  0
LINE
  8
2
 62
134
  6
CONTINUOUS
 10
129.667442
 20
190.129104
 11
131.599294
 21
189.611466
  0
LINE
  8
2
 62
134
  6
CONTINUOUS
 10
131.599294
 20
190.646743
 11
131.599294
 21
189.611466
  0
LINE
  8
2
 62
134
  6
CONTINUOUS
 10
130.150405
 20
190.129104
 11
131.116331
 21
190.387923
  0
LINE
  8
2
 62
134
  6
CONTINUOUS
 10
130.150405
 20
190.129104
 11
131.116331
 21
189.870285
  0
LINE
  8
2
 62
134
  6
CONTINUOUS
 10
131.116331
 20
190.387923
 11
131.116331
 21
189.870285
  0
LINE
  8
2
 62
134
  6
CONTINUOUS
 10
149.667442
 20
190.129104
 11
147.735590
 21
189.611466
  0
LINE
  8
2
 62
134
  6
CONTINUOUS
 10
149.667442
 20
190.129104
 11
147.735590
 21
190.646743
  0
LINE
  8
2
 62
134
  6
CONTINUOUS
 10
147.735590
 20
189.611466
 11
147.735590
 21
190.646743
  0
LINE
  8
2
 62
134
  6
CONTINUOUS
 10
149.184479
 20
190.129104
 11
148.218553
 21
189.870285
  0
LINE
  8
2
 62
134
  6
CONTINUOUS
 10
149.184479
 20
190.129104
 11
148.218553
 21
190.387923
  0
LINE
  8
2
 62
134
  6
CONTINUOUS
 10
148.218553
 20
189.870285
 11
148.218553
 21
190.387923
  0
TEXT
  8
2
 62
134
  6
CONTINUOUS
 10
137.667442
 20
190.129104
 40
4.000000
 41
1.000000
  1
20
  7
KANJI
 50
0.000000
 51
30.000000
  0
ENDBLK
  0
BLOCK
  8
2
 62
134
  6
CONTINUOUS
  2
*D9
 70
    65
 10
0.0
 20
0.0
  0
LINE
  8
2
 62
134
  6
CONTINUOUS
 10
149.667442
 20
190.129104
 11
169.667442
 21
190.129104
  0
LINE
  8
2
 62
134
  6
CONTINUOUS
 10
169.667442
 20
192.129104
 11
169.667442
 21
180.683236
  0
LINE
  8
2
 62
134
  6
CONTINUOUS
 10
149.667442
 20
190.129104
 11
151.599294
 21
190.646743
  0
LINE
  8
2
 62
134
  6
CONTINUOUS
 10
149.667442
 20
190.129104
 11
151.599294
 21
189.611466
  0
LINE
  8
2
 62
134
  6
CONTINUOUS
 10
151.599294
 20
190.646743
 11
151.599294
 21
189.611466
  0
LINE
  8
2
 62
134
  6
CONTINUOUS
 10
150.150405
 20
190.129104
 11
151.116331
 21
190.387923
  0
LINE
  8
2
 62
134
  6
CONTINUOUS
 10
150.150405
 20
190.129104
 11
151.116331
 21
189.870285
  0
LINE
  8
2
 62
134
  6
CONTINUOUS
 10
151.116331
 20
190.387923
 11
151.116331
 21
189.870285
  0
LINE
  8
2
 62
134
  6
CONTINUOUS
 10
169.667442
 20
190.129104
 11
167.735590
 21
189.611466
  0
LINE
  8
2
 62
134
  6
CONTINUOUS
 10
169.667442
 20
190.129104
 11
167.735590
 21
190.646743
  0
LINE
  8
2
 62
134
  6
CONTINUOUS
 10
167.735590
 20
189.611466
 11
167.735590
 21
190.646743
  0
LINE
  8
2
 62
134
  6
CONTINUOUS
 10
169.184479
 20
190.129104
 11
168.218553
 21
189.870285
  0
LINE
  8
2
 62
134
  6
CONTINUOUS
 10
169.184479
 20
190.129104
 11
168.218553
 21
190.387923
  0
LINE
  8
2
 62
134
  6
CONTINUOUS
 10
168.218553
 20
189.870285
 11
168.218553
 21
190.387923
  0
TEXT
  8
2
 62
134
  6
CONTINUOUS
 10
157.667442
 20
190.129104
 40
4.000000
 41
1.000000
  1
20
  7
KANJI
 50
0.000000
 51
30.000000
  0
ENDBLK
  0
BLOCK
  8
2
 62
134
  6
CONTINUOUS
  2
*D10
 70
    65
 10
0.0
 20
0.0
  0
LINE
  8
2
 62
134
  6
CONTINUOUS
 10
191.408064
 20
175.058676
 11
191.408064
 21
155.058676
  0
LINE
  8
2
 62
134
  6
CONTINUOUS
 10
193.408064
 20
175.058676
 11
176.303204
 21
175.058676
  0
LINE
  8
2
 62
134
  6
CONTINUOUS
 10
193.408064
 20
155.058676
 11
181.104568
 21
155.058676
  0
LINE
  8
2
 62
134
  6
CONTINUOUS
 10
191.408064
 20
175.058676
 11
191.925702
 21
173.126825
  0
LINE
  8
2
 62
134
  6
CONTINUOUS
 10
191.408064
 20
175.058676
 11
190.890426
 21
173.126825
  0
LINE
  8
2
 62
134
  6
CONTINUOUS
 10
191.925702
 20
173.126825
 11
190.890426
 21
173.126825
  0
LINE
  8
2
 62
134
  6
CONTINUOUS
 10
191.408064
 20
174.575713
 11
191.666883
 21
173.609788
  0
LINE
  8
2
 62
134
  6
CONTINUOUS
 10
191.408064
 20
174.575713
 11
191.149245
 21
173.609788
  0
LINE
  8
2
 62
134
  6
CONTINUOUS
 10
191.666883
 20
173.609788
 11
191.149245
 21
173.609788
  0
LINE
  8
2
 62
134
  6
CONTINUOUS
 10
191.408064
 20
155.058676
 11
190.890426
 21
156.990528
  0
LINE
  8
2
 62
134
  6
CONTINUOUS
 10
191.408064
 20
155.058676
 11
191.925702
 21
156.990528
  0
LINE
  8
2
 62
134
  6
CONTINUOUS
 10
190.890426
 20
156.990528
 11
191.925702
 21
156.990528
  0
LINE
  8
2
 62
134
  6
CONTINUOUS
 10
191.408064
 20
155.541639
 11
191.149245
 21
156.507565
  0
LINE
  8
2
 62
134
  6
CONTINUOUS
 10
191.408064
 20
155.541639
 11
191.666883
 21
156.507565
  0
LINE
  8
2
 62
134
  6
CONTINUOUS
 10
191.149245
 20
156.507565
 11
191.666883
 21
156.507565
  0
TEXT
  8
2
 62
134
  6
CONTINUOUS
 10
191.408064
 20
163.469952
 40
4.000000
 41
0.875000
  1
20
  7
KANJI
 50
90.000000
 51
0.000000
  0
ENDBLK
  0
ENDSEC
  0
SECTION
  2
ENTITIES
  0
TEXT
  8
5
 62
7
  6
CONTINUOUS
 10
125.962748
 20
25.651490
 40
1.750000
 41
4.000000
  1
製図
  7
KANJI
 50
-90.000000
 51
0.000000
  0
TEXT
  8
5
 62
7
  6
CONTINUOUS
 10
145.795530
 20
25.487583
 40
1.750000
 41
4.000000
  1
図番
  7
KANJI
 50
-90.000000
 51
0.000000
  0
TEXT
  8
5
 62
7
  6
CONTINUOUS
 10
145.795530
 20
38.764073
 40
1.750000
 41
4.000000
  1
図　名
  7
KANJI
 50
-90.000000
 51
0.000000
  0
TEXT
  8
5
 62
7
  6
CONTINUOUS
 10
80.888245
 20
33.355132
 40
1.750000
 41
4.000000
  1
日付
  7
KANJI
 50
-90.000000
 51
0.000000
  0
TEXT
  8
5
 62
7
  6
CONTINUOUS
 10
115.964404
 20
33.519040
 40
1.750000
 41
4.000000
  1
図法
  7
KANJI
 50
-90.000000
 51
0.000000
  0
TEXT
  8
5
 62
7
  6
CONTINUOUS
 10
115.800497
 20
41.550497
 40
1.750000
 41
4.000000
  1
尺度
  7
KANJI
 50
-90.000000
 51
0.000000
  0
TEXT
  8
5
 62
7
  6
CONTINUOUS
 10
80.888245
 20
41.386589
 40
1.750000
 41
4.000000
  1
公差
  7
KANJI
 50
-90.000000
 51
0.000000
  0
TEXT
  8
5
 62
7
  6
CONTINUOUS
 10
80.888245
 20
25.487583
 40
1.750000
 41
4.000000
  1
承認
  7
KANJI
 50
-90.000000
 51
0.000000
  0
TEXT
  8
5
 62
7
  6
CONTINUOUS
 10
105.966060
 20
25.487583
 40
1.750000
 41
4.000000
  1
設計
  7
KANJI
 50
-90.000000
 51
0.000000
  0
TEXT
  8
5
 62
7
  6
CONTINUOUS
 10
89.739238
 20
35.649834
 40
4.000000
 41
1.000000
  1
標準±0.2
  7
KANJI
 50
0.000000
 51
0.000000
  0
TEXT
  8
5
 62
7
  6
CONTINUOUS
 10
99.409768
 20
11.555464
 40
4.500000
 41
1.888889
  1
ジャパンセンサー株式会社
  7
KANJI
 50
0.000000
 51
0.000000
  0
LINE
  8
5
 62
7
  6
CONTINUOUS
 10
200.000000
 20
10.000000
 11
200.000000
 21
285.000000
  0
LINE
  8
5
 62
7
  6
CONTINUOUS
 10
200.000000
 20
285.000000
 11
15.000000
 21
285.000000
  0
LINE
  8
5
 62
7
  6
CONTINUOUS
 10
15.000000
 20
285.000000
 11
15.000000
 21
10.000000
  0
LINE
  8
5
 62
7
  6
CONTINUOUS
 10
15.000000
 20
10.000000
 11
200.000000
 21
10.000000
  0
LINE
  8
5
 62
7
  6
CONTINUOUS
 10
80.000000
 20
42.000000
 11
200.000000
 21
42.000000
  0
LINE
  8
5
 62
7
  6
CONTINUOUS
 10
80.000000
 20
10.000000
 11
80.000000
 21
42.000000
  0
LINE
  8
5
 62
7
  6
CONTINUOUS
 10
200.000000
 20
18.000000
 11
80.000000
 21
18.000000
  0
LINE
  8
5
 62
7
  6
CONTINUOUS
 10
145.000000
 20
42.000000
 11
145.000000
 21
18.000000
  0
LINE
  8
5
 62
7
  6
CONTINUOUS
 10
200.000000
 20
26.000000
 11
80.000000
 21
26.000000
  0
LINE
  8
5
 62
7
  6
CONTINUOUS
 10
150.000000
 20
18.000000
 11
150.000000
 21
42.000000
  0
LINE
  8
5
 62
7
  6
CONTINUOUS
 10
120.000000
 20
42.000000
 11
120.000000
 21
26.000000
  0
LINE
  8
5
 62
7
  6
CONTINUOUS
 10
85.000000
 20
18.000000
 11
85.000000
 21
42.000000
  0
LINE
  8
5
 62
7
  6
CONTINUOUS
 10
80.000000
 20
34.000000
 11
145.000000
 21
34.000000
  0
LINE
  8
5
 62
7
  6
CONTINUOUS
 10
115.000000
 20
42.000000
 11
115.000000
 21
26.000000
  0
LINE
  8
5
 62
7
  6
CONTINUOUS
 10
105.000000
 20
18.000000
 11
105.000000
 21
26.000000
  0
LINE
  8
5
 62
7
  6
CONTINUOUS
 10
125.000000
 20
18.000000
 11
125.000000
 21
26.000000
  0
LINE
  8
5
 62
7
  6
CONTINUOUS
 10
110.000000
 20
26.000000
 11
110.000000
 21
18.000000
  0
LINE
  8
5
 62
7
  6
CONTINUOUS
 10
130.000000
 20
26.000000
 11
130.000000
 21
18.000000
  0
TEXT
  8
5
 62
7
  6
CONTINUOUS
 10
124.979305
 20
35.649834
 40
4.000000
 41
1.000000
  1
１／１
  7
KANJI
 50
0.000000
 51
0.000000
  0
TEXT
  8
5
 62
7
  6
CONTINUOUS
 10
123.995861
 20
27.290563
 40
4.000000
 41
1.000000
  1
三角法
  7
KANJI
 50
0.000000
 51
0.000000
  0
TEXT
  8
5
 62
7
  6
CONTINUOUS
 10
87.772351
 20
27.782285
 40
4.000000
 41
1.000000
  1
2023/6/15
  7
KANJI
 50
0.160943
 51
0.000000
  0
TEXT
  8
5
 62
7
  6
CONTINUOUS
 10
111.211093
 20
19.750828
 40
4.000000
 41
1.000000
  1
保田
  7
KANJI
 50
0.810149
 51
0.000000
  0
TEXT
  8
5
 62
7
  6
CONTINUOUS
 10
131.207781
 20
19.914735
 40
4.000000
 41
1.000000
  1
保田
  7
KANJI
 50
-0.112820
 51
0.000000
  0
TEXT
  8
5
 62
7
  6
CONTINUOUS
 10
162.647862
 20
20.406457
 40
4.000000
 41
1.000000
  1
005-065-A104
  7
KANJI
 50
0.000000
 51
0.000000
  0
LINE
  8
1
 62
7
  6
DASHDOT
 10
122.196590
 20
155.058676
 11
179.667442
 21
155.058676
  0
LINE
  8
1
 62
7
  6
DASHDOT
 10
149.667442
 20
164.358196
 11
149.667442
 21
146.549708
  0
LINE
  8
1
 62
7
  6
DASHDOT
 10
129.667442
 20
164.358196
 11
129.667442
 21
145.550829
  0
LINE
  8
1
 62
7
  6
DASHDOT
 10
64.667442
 20
149.879304
 11
64.667442
 21
134.230201
  0
LINE
  8
1
 62
7
  6
CONTINUOUS
 10
109.667442
 20
140.058676
 11
179.667442
 21
140.058676
  0
LINE
  8
1
 62
7
  6
CONTINUOUS
 10
177.667442
 20
180.058676
 11
111.667442
 21
180.058676
  0
LINE
  8
1
 62
7
  6
CONTINUOUS
 10
109.667442
 20
140.058676
 11
109.667442
 21
178.058676
  0
LINE
  8
1
 62
134
  6
CONTINUOUS
 10
111.667442
 20
180.058676
 11
109.667442
 21
178.058676
  0
CIRCLE
  8
1
 62
214
  6
CONTINUOUS
 10
149.667442
 20
155.058676
 40
2.000000
  0
ARC
  8
1
 62
214
  6
CONTINUOUS
 10
129.667442
 20
152.058676
 40
2.000000
 50
180.000000
 51
-90.000000
  0
LINE
  8
1
 62
214
  6
CONTINUOUS
 10
127.667442
 20
152.058676
 11
127.667442
 21
158.058676
  0
ARC
  8
1
 62
214
  6
CONTINUOUS
 10
129.667442
 20
158.058676
 40
2.000000
 50
90.000000
 51
180.000000
  0
ARC
  8
1
 62
214
  6
CONTINUOUS
 10
129.667442
 20
152.058676
 40
2.000000
 50
-90.000000
 51
0.000000
  0
LINE
  8
1
 62
214
  6
CONTINUOUS
 10
131.667442
 20
158.058676
 11
131.667442
 21
152.058676
  0
ARC
  8
1
 62
214
  6
CONTINUOUS
 10
129.667442
 20
158.058676
 40
2.000000
 50
0.000000
 51
90.000000
  0
LINE
  8
1
 62
7
  6
CONTINUOUS
 10
132.218869
 20
140.065074
 11
135.434420
 21
140.065074
  0
LINE
  8
1
 62
7
  6
CONTINUOUS
 10
179.667442
 20
140.058676
 11
179.667442
 21
178.058676
  0
LINE
  8
1
 62
134
  6
CONTINUOUS
 10
177.667442
 20
180.058676
 11
179.667442
 21
178.058676
  0
LINE
  8
1
 62
7
  6
DASHDOT
 10
139.667442
 20
150.826208
 11
139.667442
 21
133.049326
  0
LINE
  8
1
 62
7
  6
CONTINUOUS
 10
29.667442
 20
140.058676
 11
89.667442
 21
140.058676
  0
LINE
  8
1
 62
7
  6
CONTINUOUS
 10
29.667442
 20
180.058676
 11
29.667442
 21
140.058676
  0
DIMENSION
  8
2
 62
134
  6
CONTINUOUS
  2
*D1
 10
109.667442
 20
124.907331
 11
124.667442
 21
125.407331
 70
     0
  1
30
 13
109.667442
 23
138.058676
 14
139.667442
 24
134.560918
 50
0.000000
  0
DIMENSION
  8
2
 62
134
  6
CONTINUOUS
  2
*D2
 10
109.667442
 20
116.250380
 11
144.667442
 21
116.750380
 70
     0
  1
70
 13
109.667442
 23
138.058676
 14
179.667442
 24
138.058676
 50
0.000000
  0
DIMENSION
  8
2
 62
134
  6
CONTINUOUS
  2
*D3
 10
102.219011
 20
140.058676
 11
101.719011
 21
147.558676
 70
     0
  1
15
 13
107.667442
 23
140.058676
 14
120.196590
 24
155.058676
 50
90.000000
  0
DIMENSION
  8
2
 62
134
  6
CONTINUOUS
  2
*D4
 10
96.225738
 20
140.058676
 11
95.725738
 21
160.058676
 70
     0
  1
40
 13
107.667442
 23
140.058676
 14
109.667442
 24
180.058676
 50
90.000000
  0
DIMENSION
  8
2
 62
134
  6
CONTINUOUS
  2
*D5
 10
29.667442
 20
125.573250
 11
47.167442
 21
126.073250
 70
     0
  1
35
 13
29.667442
 23
138.058676
 14
64.667442
 24
138.058676
 50
0.000000
  0
DIMENSION
  8
2
 62
134
  6
CONTINUOUS
  2
*D6
 10
29.667442
 20
115.917421
 11
59.667442
 21
116.417421
 70
     0
  1
60
 13
29.667442
 23
138.058676
 14
89.667442
 24
138.058676
 50
0.000000
  0
LINE
  8
1
 62
7
  6
CONTINUOUS
 10
179.667442
 20
270.058676
 11
109.667442
 21
270.058676
  0
LINE
  8
1
 62
7
  6
CONTINUOUS
 10
109.667442
 20
270.058676
 11
109.667442
 21
212.058676
  0
LINE
  8
1
 62
7
  6
CONTINUOUS
 10
109.667442
 20
212.058676
 11
111.667442
 21
210.058676
  0
LINE
  8
1
 62
7
  6
CONTINUOUS
 10
111.667442
 20
210.058676
 11
177.667442
 21
210.058676
  0
LINE
  8
1
 62
7
  6
CONTINUOUS
 10
179.667442
 20
270.058676
 11
179.667442
 21
212.058676
  0
LINE
  8
1
 62
7
  6
CONTINUOUS
 10
177.667442
 20
210.058676
 11
179.667442
 21
212.058676
  0
CIRCLE
  8
1
 62
7
  6
CONTINUOUS
 10
139.667442
 20
234.985596
 40
4.677736
  0
CIRCLE
  8
1
 62
7
  6
CONTINUOUS
 10
139.667442
 20
234.985596
 40
4.677736
  0
CIRCLE
  8
1
 62
7
  6
CONTINUOUS
 10
139.667442
 20
234.985596
 40
6.431518
  0
CIRCLE
  8
1
 62
7
  6
CONTINUOUS
 10
139.667442
 20
235.058676
 40
3.912378
  0
LINE
  8
1
 62
7
  6
DASHDOT
 10
129.667442
 20
235.058676
 11
149.667442
 21
235.058676
  0
LINE
  8
1
 62
7
  6
DASHDOT
 10
139.667442
 20
245.655379
 11
139.667442
 21
220.058676
  0
CIRCLE
  8
1
 62
214
  6
CONTINUOUS
 10
169.667442
 20
175.058676
 40
2.000000
  0
LINE
  8
1
 62
251
  6
DASHDOT
 10
164.851668
 20
175.058676
 11
174.829502
 21
175.058676
  0
LINE
  8
1
 62
7
  6
DASHDOT
 10
169.667442
 20
178.683236
 11
169.667442
 21
144.551950
  0
DIMENSION
  8
2
 62
134
  6
CONTINUOUS
  2
*D7
 10
109.667442
 20
190.129104
 11
119.667442
 21
190.129104
 70
     0
  1
20
 13
109.667442
 23
180.058676
 14
129.667442
 24
166.358196
 50
0.000000
  0
DIMENSION
  8
2
 62
134
  6
CONTINUOUS
  2
*D8
 10
129.667442
 20
190.129104
 11
139.667442
 21
190.129104
 70
     0
  1
20
 13
129.667442
 23
190.129104
 14
149.667442
 24
166.358196
 50
0.000000
  0
DIMENSION
  8
2
 62
134
  6
CONTINUOUS
  2
*D9
 10
149.667442
 20
190.129104
 11
159.667442
 21
190.129104
 70
     0
  1
20
 13
149.667442
 23
190.129104
 14
169.667442
 24
180.683236
 50
0.000000
  0
ARC
  8
1
 62
214
  6
CONTINUOUS
 10
172.667442
 20
155.058676
 40
2.000000
 50
-90.000000
 51
0.000000
  0
LINE
  8
1
 62
214
  6
CONTINUOUS
 10
172.667442
 20
153.058676
 11
166.667442
 21
153.058676
  0
ARC
  8
1
 62
214
  6
CONTINUOUS
 10
166.667442
 20
155.058676
 40
2.000000
 50
180.000000
 51
-90.000000
  0
ARC
  8
1
 62
214
  6
CONTINUOUS
 10
172.667442
 20
155.058676
 40
2.000000
 50
0.000000
 51
90.000000
  0
LINE
  8
1
 62
214
  6
CONTINUOUS
 10
166.667442
 20
157.058676
 11
172.667442
 21
157.058676
  0
ARC
  8
1
 62
214
  6
CONTINUOUS
 10
166.667442
 20
155.058676
 40
2.000000
 50
90.000000
 51
180.000000
  0
LINE
  8
2
 62
134
  6
CONTINUOUS
 10
170.539009
 20
176.981046
 11
182.181033
 21
189.152254
  0
LINE
  8
2
 62
134
  6
CONTINUOUS
 10
182.181033
 20
189.152254
 11
194.320675
 21
189.152254
  0
TEXT
  8
2
 62
134
  6
CONTINUOUS
 10
184.320675
 20
189.152254
 40
4.000000
 41
1.000000
  1
2-φ4
  7
KANJI
 50
0.000000
 51
30.000000
  0
LINE
  8
2
 62
134
  6
CONTINUOUS
 10
170.539009
 20
176.981046
 11
171.500281
 21
178.734886
  0
LINE
  8
2
 62
134
  6
CONTINUOUS
 10
170.539009
 20
176.981046
 11
172.248415
 21
178.019280
  0
LINE
  8
2
 62
134
  6
CONTINUOUS
 10
171.500281
 20
178.734886
 11
172.248415
 21
178.019280
  0
LINE
  8
2
 62
134
  6
CONTINUOUS
 10
170.872843
 20
177.330055
 11
171.353480
 21
178.206975
  0
LINE
  8
2
 62
134
  6
CONTINUOUS
 10
170.872843
 20
177.330055
 11
171.727547
 21
177.849172
  0
LINE
  8
2
 62
134
  6
CONTINUOUS
 10
171.353480
 20
178.206975
 11
171.727547
 21
177.849172
  0
DIMENSION
  8
2
 62
134
  6
CONTINUOUS
  2
*D10
 10
191.408064
 20
175.058676
 11
191.408064
 21
165.219952
 70
     0
  1
20
 13
176.303204
 23
175.058676
 14
181.104568
 24
155.058676
 50
-90.000000
  0
LINE
  8
1
 62
7
  6
DASHDOT
 10
27.160775
 20
155.058676
 11
34.342997
 21
155.058676
  0
LINE
  8
1
 62
7
  6
CONTINUOUS
 10
31.267442
 20
180.058676
 11
29.667442
 21
180.058676
  0
LINE
  8
1
 62
7
  6
CONTINUOUS
 10
89.667442
 20
140.058676
 11
89.667442
 21
141.658676
  0
LINE
  8
1
 62
7
  6
CONTINUOUS
 10
71.098544
 20
145.280724
 11
70.362078
 21
145.280724
  0
LINE
  8
1
 62
7
  6
CONTINUOUS
 10
70.727481
 20
145.280724
 11
58.236339
 21
145.280724
  0
LINE
  8
1
 62
7
  6
CONTINUOUS
 10
68.754302
 20
145.280724
 11
71.098544
 21
145.280724
  0
LINE
  8
1
 62
7
  6
CONTINUOUS
 10
71.098544
 20
145.280724
 11
71.098544
 21
141.658676
  0
LINE
  8
1
 62
7
  6
CONTINUOUS
 10
58.236339
 20
145.280724
 11
58.236339
 21
141.658676
  0
LINE
  8
1
 62
7
  6
CONTINUOUS
 10
89.667442
 20
141.658676
 11
31.267442
 21
141.658676
  0
LINE
  8
1
 62
7
  6
CONTINUOUS
 10
31.267442
 20
141.658676
 11
31.267442
 21
180.058676
  0
LINE
  8
1
 62
7
  6
CONTINUOUS
 10
109.667442
 20
268.458676
 11
179.667442
 21
268.458676
  0
LINE
  8
1
 62
7
  6
CONTINUOUS
 10
109.667442
 20
141.658676
 11
134.667442
 21
141.658676
  0
LINE
  8
1
 62
7
  6
CONTINUOUS
 10
143.579820
 20
145.280724
 11
143.579820
 21
140.058676
  0
LINE
  8
1
 62
7
  6
CONTINUOUS
 10
135.755064
 20
145.280724
 11
135.755064
 21
140.058676
  0
LINE
  8
1
 62
7
  6
CONTINUOUS
 10
133.236339
 20
145.280724
 11
133.972806
 21
145.280724
  0
LINE
  8
1
 62
7
  6
CONTINUOUS
 10
133.607402
 20
145.280724
 11
146.098544
 21
145.280724
  0
LINE
  8
1
 62
7
  6
CONTINUOUS
 10
144.344607
 20
145.280724
 11
144.344607
 21
140.058676
  0
LINE
  8
1
 62
7
  6
CONTINUOUS
 10
134.990277
 20
145.280724
 11
134.990277
 21
140.058676
  0
LINE
  8
1
 62
7
  6
CONTINUOUS
 10
134.990277
 20
145.280724
 11
134.990277
 21
140.058676
  0
LINE
  8
1
 62
7
  6
CONTINUOUS
 10
135.580582
 20
145.280724
 11
133.236339
 21
145.280724
  0
LINE
  8
1
 62
7
  6
CONTINUOUS
 10
133.236339
 20
145.280724
 11
133.236339
 21
141.658676
  0
LINE
  8
1
 62
7
  6
CONTINUOUS
 10
134.667442
 20
141.658676
 11
134.667442
 21
140.065074
  0
LINE
  8
1
 62
7
  6
CONTINUOUS
 10
146.098544
 20
145.280724
 11
146.098544
 21
141.658676
  0
LINE
  8
1
 62
7
  6
CONTINUOUS
 10
144.667442
 20
140.058676
 11
144.667442
 21
141.658676
  0
LINE
  8
1
 62
7
  6
CONTINUOUS
 10
144.667442
 20
141.658676
 11
179.667442
 21
141.658676
  0
LINE
  8
2
 62
7
  6
CONTINUOUS
 10
141.819150
 20
140.058676
 11
149.341554
 21
130.373891
  0
LINE
  8
2
 62
7
  6
CONTINUOUS
 10
149.341554
 20
130.373891
 11
168.533285
 21
130.373891
  0
TEXT
  8
2
 62
7
  6
CONTINUOUS
 10
150.533285
 20
130.841164
 40
4.000000
 41
1.000000
  1
1/4-20UNC
  7
KANJI
 50
0.000000
 51
30.000000
  0
LINE
  8
2
 62
7
  6
CONTINUOUS
 10
141.819150
 20
140.058676
 11
143.412998
 21
138.850516
  0
LINE
  8
2
 62
7
  6
CONTINUOUS
 10
141.819150
 20
140.058676
 11
142.595383
 21
138.215455
  0
LINE
  8
2
 62
7
  6
CONTINUOUS
 10
143.412998
 20
138.850516
 11
142.595383
 21
138.215455
  0
LINE
  8
2
 62
7
  6
CONTINUOUS
 10
142.115410
 20
139.677254
 11
142.912334
 21
139.073174
  0
LINE
  8
2
 62
7
  6
CONTINUOUS
 10
142.115410
 20
139.677254
 11
142.503526
 21
138.755643
  0
LINE
  8
2
 62
7
  6
CONTINUOUS
 10
142.912334
 20
139.073174
 11
142.503526
 21
138.755643
  0
TEXT
  8
2
 62
134
  6
DASHDOT
 10
148.993698
 20
125.974952
 40
4.000000
 41
0.875000
  1
三脚取付用ネジ穴
  7
KANJI
 50
0.000000
 51
0.000000
  0
LINE
  8
1
 62
7
  6
DASHDOT
 10
129.667442
 20
274.959937
 11
129.667442
 21
262.498955
  0
LINE
  8
1
 62
7
  6
DASHDOT
 10
149.667442
 20
275.778542
 11
149.667442
 21
263.408516
  0
LINE
  8
1
 62
7
  6
DASHDOT
 10
169.667442
 20
275.778542
 11
169.667442
 21
263.681384
  0
LINE
  8
2
 62
134
  6
CONTINUOUS
 10
127.616352
 20
159.722650
 11
101.057179
 21
188.684278
  0
LINE
  8
2
 62
134
  6
CONTINUOUS
 10
101.057179
 20
188.684278
 11
77.556465
 21
188.684278
  0
TEXT
  8
2
 62
134
  6
CONTINUOUS
 10
77.556465
 20
188.860672
 40
4.000000
 41
1.000000
  1
2-4×10長穴
  7
KANJI
 50
0.000000
 51
30.000000
  0
LINE
  8
2
 62
134
  6
CONTINUOUS
 10
127.616352
 20
159.722650
 11
125.929152
 21
160.796593
  0
LINE
  8
2
 62
134
  6
CONTINUOUS
 10
127.616352
 20
159.722650
 11
126.692165
 21
161.496313
  0
LINE
  8
2
 62
134
  6
CONTINUOUS
 10
125.929152
 20
160.796593
 11
126.692165
 21
161.496313
  0
LINE
  8
2
 62
134
  6
CONTINUOUS
 10
127.289929
 20
160.078601
 11
126.446329
 21
160.615572
  0
LINE
  8
2
 62
134
  6
CONTINUOUS
 10
127.289929
 20
160.078601
 11
126.827835
 21
160.965432
  0
LINE
  8
2
 62
134
  6
CONTINUOUS
 10
126.446329
 20
160.615572
 11
126.827835
 21
160.965432
  0
LINE
  8
2
 62
7
  6
CONTINUOUS
 10
54.593159
 20
165.656320
 11
73.009498
 21
165.656320
  0
TEXT
  8
2
 62
7
  6
CONTINUOUS
 10
54.885482
 20
167.410257
 40
4.000000
 41
1.000000
  1
ｔ１．６
  7
KANJI
 50
0.000000
 51
0.000000
  0
LINE
  8
1
 62
2
  6
CONTINUOUS
 10
43.317633
 20
228.508494
 11
43.317633
 21
226.157235
  0
LINE
  8
1
 62
2
  6
CONTINUOUS
 10
53.067633
 20
228.508494
 11
53.067633
 21
226.157235
  0
LINE
  8
1
 62
2
  6
CONTINUOUS
 10
22.003695
 20
231.587521
 11
21.454656
 21
230.563002
  0
LINE
  8
1
 62
2
  6
CONTINUOUS
 10
21.454656
 20
230.563002
 11
21.454656
 21
229.523771
  0
LINE
  8
1
 62
2
  6
CONTINUOUS
 10
46.204656
 20
209.128873
 11
48.253695
 21
208.854354
  0
LINE
  8
1
 62
2
  6
CONTINUOUS
 10
46.204656
 20
208.089642
 11
48.253695
 21
207.815123
  0
LINE
  8
1
 62
2
  6
CONTINUOUS
 10
48.253695
 20
208.854354
 11
48.253695
 21
207.815123
  0
LINE
  8
1
 62
2
  6
CONTINUOUS
 10
46.204656
 20
209.128873
 11
46.204656
 21
208.089642
  0
LINE
  8
1
 62
2
  6
CONTINUOUS
 10
84.886569
 20
243.071847
 11
84.136569
 21
245.020404
  0
LINE
  8
1
 62
2
  6
CONTINUOUS
 10
85.925800
 20
243.371847
 11
85.175800
 21
245.320404
  0
LINE
  8
1
 62
2
  6
CONTINUOUS
 10
84.136569
 20
245.020404
 11
85.175800
 21
245.320404
  0
LINE
  8
1
 62
2
  6
CONTINUOUS
 10
84.886569
 20
243.071847
 11
85.925800
 21
243.371847
  0
LINE
  8
1
 62
2
  6
CONTINUOUS
 10
59.386569
 20
266.454533
 11
58.636569
 21
265.805014
  0
LINE
  8
1
 62
2
  6
CONTINUOUS
 10
60.425800
 20
266.754533
 11
59.386569
 21
266.454533
  0
LINE
  8
1
 62
2
  6
CONTINUOUS
 10
49.383258
 20
227.477382
 11
49.642246
 21
227.563907
  0
LINE
  8
1
 62
2
  6
CONTINUOUS
 10
49.642246
 20
227.563907
 11
49.876431
 21
227.666595
  0
LINE
  8
1
 62
2
  6
CONTINUOUS
 10
49.876431
 20
227.666595
 11
50.081805
 21
227.783687
  0
LINE
  8
1
 62
2
  6
CONTINUOUS
 10
50.081805
 20
227.783687
 11
50.254856
 21
227.913181
  0
LINE
  8
1
 62
2
  6
CONTINUOUS
 10
50.254856
 20
227.913181
 11
50.392621
 21
228.052861
  0
LINE
  8
1
 62
2
  6
CONTINUOUS
 10
50.392621
 20
228.052861
 11
50.492744
 21
228.200337
  0
LINE
  8
1
 62
2
  6
CONTINUOUS
 10
50.492744
 20
228.200337
 11
50.553511
 21
228.353086
  0
LINE
  8
1
 62
2
  6
CONTINUOUS
 10
50.553511
 20
228.353086
 11
50.573883
 21
228.508494
  0
LINE
  8
1
 62
2
  6
CONTINUOUS
 10
50.573883
 20
228.508494
 11
50.553511
 21
228.663902
  0
LINE
  8
1
 62
2
  6
CONTINUOUS
 10
50.553511
 20
228.663902
 11
50.492744
 21
228.816650
  0
LINE
  8
1
 62
2
  6
CONTINUOUS
 10
50.492744
 20
228.816650
 11
50.392621
 21
228.964126
  0
LINE
  8
1
 62
2
  6
CONTINUOUS
 10
50.392621
 20
228.964126
 11
50.254856
 21
229.103806
  0
LINE
  8
1
 62
2
  6
CONTINUOUS
 10
50.254856
 20
229.103806
 11
50.081805
 21
229.233300
  0
LINE
  8
1
 62
2
  6
CONTINUOUS
 10
50.081805
 20
229.233300
 11
49.876431
 21
229.350393
  0
LINE
  8
1
 62
2
  6
CONTINUOUS
 10
49.876431
 20
229.350393
 11
49.642246
 21
229.453080
  0
LINE
  8
1
 62
2
  6
CONTINUOUS
 10
49.642246
 20
229.453080
 11
49.383258
 21
229.539605
  0
LINE
  8
1
 62
2
  6
CONTINUOUS
 10
49.383258
 20
229.539605
 11
49.103898
 21
229.608488
  0
LINE
  8
1
 62
2
  6
CONTINUOUS
 10
49.103898
 20
229.608488
 11
48.808946
 21
229.658549
  0
LINE
  8
1
 62
2
  6
CONTINUOUS
 10
48.808946
 20
229.658549
 11
48.503448
 21
229.688933
  0
LINE
  8
1
 62
2
  6
CONTINUOUS
 10
48.503448
 20
229.688933
 11
48.192633
 21
229.699119
  0
LINE
  8
1
 62
2
  6
CONTINUOUS
 10
48.192633
 20
229.699119
 11
47.881817
 21
229.688933
  0
LINE
  8
1
 62
2
  6
CONTINUOUS
 10
47.881817
 20
229.688933
 11
47.576320
 21
229.658549
  0
LINE
  8
1
 62
2
  6
CONTINUOUS
 10
47.576320
 20
229.658549
 11
47.281368
 21
229.608488
  0
LINE
  8
1
 62
2
  6
CONTINUOUS
 10
47.281368
 20
229.608488
 11
47.002008
 21
229.539605
  0
LINE
  8
1
 62
2
  6
CONTINUOUS
 10
47.002008
 20
229.539605
 11
46.743020
 21
229.453080
  0
LINE
  8
1
 62
2
  6
CONTINUOUS
 10
46.743020
 20
229.453080
 11
46.508835
 21
229.350393
  0
LINE
  8
1
 62
2
  6
CONTINUOUS
 10
46.508835
 20
229.350393
 11
46.303460
 21
229.233300
  0
LINE
  8
1
 62
2
  6
CONTINUOUS
 10
46.303460
 20
229.233300
 11
46.130410
 21
229.103806
  0
LINE
  8
1
 62
2
  6
CONTINUOUS
 10
46.130410
 20
229.103806
 11
45.992645
 21
228.964126
  0
LINE
  8
1
 62
2
  6
CONTINUOUS
 10
45.992645
 20
228.964126
 11
45.892522
 21
228.816650
  0
LINE
  8
1
 62
2
  6
CONTINUOUS
 10
45.892522
 20
228.816650
 11
45.831755
 21
228.663902
  0
LINE
  8
1
 62
2
  6
CONTINUOUS
 10
45.831755
 20
228.663902
 11
45.811383
 21
228.508494
  0
LINE
  8
1
 62
2
  6
CONTINUOUS
 10
45.811383
 20
228.508494
 11
45.831755
 21
228.353086
  0
LINE
  8
1
 62
2
  6
CONTINUOUS
 10
45.831755
 20
228.353086
 11
45.892522
 21
228.200337
  0
LINE
  8
1
 62
2
  6
CONTINUOUS
 10
45.892522
 20
228.200337
 11
45.992645
 21
228.052861
  0
LINE
  8
1
 62
2
  6
CONTINUOUS
 10
45.992645
 20
228.052861
 11
46.130410
 21
227.913181
  0
LINE
  8
1
 62
2
  6
CONTINUOUS
 10
46.130410
 20
227.913181
 11
46.303460
 21
227.783687
  0
LINE
  8
1
 62
2
  6
CONTINUOUS
 10
46.303460
 20
227.783687
 11
46.508835
 21
227.666595
  0
LINE
  8
1
 62
2
  6
CONTINUOUS
 10
46.508835
 20
227.666595
 11
46.743020
 21
227.563907
  0
LINE
  8
1
 62
2
  6
CONTINUOUS
 10
46.743020
 20
227.563907
 11
47.002008
 21
227.477382
  0
LINE
  8
1
 62
2
  6
CONTINUOUS
 10
47.002008
 20
227.477382
 11
47.281368
 21
227.408500
  0
LINE
  8
1
 62
2
  6
CONTINUOUS
 10
47.281368
 20
227.408500
 11
47.576320
 21
227.358438
  0
LINE
  8
1
 62
2
  6
CONTINUOUS
 10
47.576320
 20
227.358438
 11
47.881817
 21
227.328055
  0
LINE
  8
1
 62
2
  6
CONTINUOUS
 10
47.881817
 20
227.328055
 11
48.192633
 21
227.317869
  0
LINE
  8
1
 62
2
  6
CONTINUOUS
 10
48.192633
 20
227.317869
 11
48.503448
 21
227.328055
  0
LINE
  8
1
 62
2
  6
CONTINUOUS
 10
48.503448
 20
227.328055
 11
48.808946
 21
227.358438
  0
LINE
  8
1
 62
2
  6
CONTINUOUS
 10
48.808946
 20
227.358438
 11
49.103898
 21
227.408500
  0
LINE
  8
1
 62
2
  6
CONTINUOUS
 10
49.103898
 20
227.408500
 11
49.383258
 21
227.477382
  0
LINE
  8
1
 62
2
  6
CONTINUOUS
 10
21.454656
 20
229.523771
 11
46.204656
 21
208.089642
  0
LINE
  8
1
 62
2
  6
CONTINUOUS
 10
48.253695
 20
207.815123
 11
85.925800
 21
218.690123
  0
LINE
  8
1
 62
2
  6
CONTINUOUS
 10
48.253695
 20
208.854354
 11
84.886569
 21
219.429354
  0
LINE
  8
1
 62
2
  6
CONTINUOUS
 10
48.973112
 20
239.372921
 11
22.003695
 21
231.587521
  0
LINE
  8
1
 62
2
  6
CONTINUOUS
 10
21.454656
 20
230.563002
 11
46.204656
 21
209.128873
  0
LINE
  8
1
 62
2
  6
CONTINUOUS
 10
84.136569
 20
245.020404
 11
59.386569
 21
266.454533
  0
LINE
  8
1
 62
2
  6
CONTINUOUS
 10
58.636569
 20
265.805014
 11
58.636569
 21
260.262452
  0
LINE
  8
1
 62
2
  6
CONTINUOUS
 10
84.886569
 20
235.549537
 11
84.886569
 21
243.071847
  0
LINE
  8
1
 62
2
  6
CONTINUOUS
 10
84.886569
 20
219.429354
 11
84.886569
 21
220.676376
  0
LINE
  8
1
 62
2
  6
CONTINUOUS
 10
85.175800
 20
245.320404
 11
60.425800
 21
266.754533
  0
LINE
  8
1
 62
2
  6
CONTINUOUS
 10
85.925800
 20
221.274770
 11
85.925800
 21
218.690123
  0
LINE
  8
1
 62
2
  6
CONTINUOUS
 10
85.925800
 20
243.371847
 11
85.925800
 21
234.649537
  0
LINE
  8
1
 62
2
  6
CONTINUOUS
 10
83.899203
 20
220.284438
 11
84.886569
 21
219.429354
  0
LINE
  8
1
 62
2
  6
CONTINUOUS
 10
53.067633
 20
226.157235
 11
53.025926
 21
225.839077
  0
LINE
  8
1
 62
2
  6
CONTINUOUS
 10
53.025926
 20
225.839077
 11
52.901521
 21
225.526363
  0
LINE
  8
1
 62
2
  6
CONTINUOUS
 10
52.901521
 20
225.526363
 11
52.696546
 21
225.224444
  0
LINE
  8
1
 62
2
  6
CONTINUOUS
 10
52.696546
 20
225.224444
 11
52.414507
 21
224.938485
  0
LINE
  8
1
 62
2
  6
CONTINUOUS
 10
52.414507
 20
224.938485
 11
52.060230
 21
224.673379
  0
LINE
  8
1
 62
2
  6
CONTINUOUS
 10
52.060230
 20
224.673379
 11
51.639778
 21
224.433662
  0
LINE
  8
1
 62
2
  6
CONTINUOUS
 10
51.639778
 20
224.433662
 11
51.160345
 21
224.223436
  0
LINE
  8
1
 62
2
  6
CONTINUOUS
 10
51.160345
 20
224.223436
 11
50.630133
 21
224.046298
  0
LINE
  8
1
 62
2
  6
CONTINUOUS
 10
50.630133
 20
224.046298
 11
50.058215
 21
223.905278
  0
LINE
  8
1
 62
2
  6
CONTINUOUS
 10
50.058215
 20
223.905278
 11
49.454376
 21
223.802791
  0
LINE
  8
1
 62
2
  6
CONTINUOUS
 10
49.454376
 20
223.802791
 11
48.828948
 21
223.740588
  0
LINE
  8
1
 62
2
  6
CONTINUOUS
 10
48.828948
 20
223.740588
 11
48.192633
 21
223.719735
  0
LINE
  8
1
 62
2
  6
CONTINUOUS
 10
48.192633
 20
223.719735
 11
47.556318
 21
223.740588
  0
LINE
  8
1
 62
2
  6
CONTINUOUS
 10
47.556318
 20
223.740588
 11
46.930890
 21
223.802791
  0
LINE
  8
1
 62
2
  6
CONTINUOUS
 10
46.930890
 20
223.802791
 11
46.327051
 21
223.905278
  0
LINE
  8
1
 62
2
  6
CONTINUOUS
 10
46.327051
 20
223.905278
 11
45.755133
 21
224.046298
  0
LINE
  8
1
 62
2
  6
CONTINUOUS
 10
45.755133
 20
224.046298
 11
45.224921
 21
224.223436
  0
LINE
  8
1
 62
2
  6
CONTINUOUS
 10
45.224921
 20
224.223436
 11
44.745487
 21
224.433662
  0
LINE
  8
1
 62
2
  6
CONTINUOUS
 10
44.745487
 20
224.433662
 11
44.325035
 21
224.673379
  0
LINE
  8
1
 62
2
  6
CONTINUOUS
 10
44.325035
 20
224.673379
 11
43.970759
 21
224.938485
  0
LINE
  8
1
 62
2
  6
CONTINUOUS
 10
43.970759
 20
224.938485
 11
43.688720
 21
225.224444
  0
LINE
  8
1
 62
2
  6
CONTINUOUS
 10
43.688720
 20
225.224444
 11
43.483744
 21
225.526363
  0
LINE
  8
1
 62
2
  6
CONTINUOUS
 10
43.483744
 20
225.526363
 11
43.359339
 21
225.839077
  0
LINE
  8
1
 62
2
  6
CONTINUOUS
 10
43.359339
 20
225.839077
 11
43.317633
 21
226.157235
  0
LINE
  8
1
 62
2
  6
CONTINUOUS
 10
45.755133
 20
230.619431
 11
45.224921
 21
230.442293
  0
LINE
  8
1
 62
2
  6
CONTINUOUS
 10
45.224921
 20
230.442293
 11
44.745487
 21
230.232067
  0
LINE
  8
1
 62
2
  6
CONTINUOUS
 10
44.745487
 20
230.232067
 11
44.325035
 21
229.992350
  0
LINE
  8
1
 62
2
  6
CONTINUOUS
 10
44.325035
 20
229.992350
 11
43.970759
 21
229.727244
  0
LINE
  8
1
 62
2
  6
CONTINUOUS
 10
43.970759
 20
229.727244
 11
43.688720
 21
229.441285
  0
LINE
  8
1
 62
2
  6
CONTINUOUS
 10
43.688720
 20
229.441285
 11
43.483744
 21
229.139365
  0
LINE
  8
1
 62
2
  6
CONTINUOUS
 10
43.483744
 20
229.139365
 11
43.359339
 21
228.826651
  0
LINE
  8
1
 62
2
  6
CONTINUOUS
 10
43.359339
 20
228.826651
 11
43.317633
 21
228.508494
  0
LINE
  8
1
 62
2
  6
CONTINUOUS
 10
43.317633
 20
228.508494
 11
43.359339
 21
228.190336
  0
LINE
  8
1
 62
2
  6
CONTINUOUS
 10
43.359339
 20
228.190336
 11
43.483744
 21
227.877622
  0
LINE
  8
1
 62
2
  6
CONTINUOUS
 10
43.483744
 20
227.877622
 11
43.688720
 21
227.575703
  0
LINE
  8
1
 62
2
  6
CONTINUOUS
 10
43.688720
 20
227.575703
 11
43.970759
 21
227.289744
  0
LINE
  8
1
 62
2
  6
CONTINUOUS
 10
43.970759
 20
227.289744
 11
44.325035
 21
227.024638
  0
LINE
  8
1
 62
2
  6
CONTINUOUS
 10
44.325035
 20
227.024638
 11
44.745487
 21
226.784921
  0
LINE
  8
1
 62
2
  6
CONTINUOUS
 10
44.745487
 20
226.784921
 11
45.224921
 21
226.574695
  0
LINE
  8
1
 62
2
  6
CONTINUOUS
 10
45.224921
 20
226.574695
 11
45.755133
 21
226.397557
  0
LINE
  8
1
 62
2
  6
CONTINUOUS
 10
45.755133
 20
226.397557
 11
46.327051
 21
226.256537
  0
LINE
  8
1
 62
2
  6
CONTINUOUS
 10
46.327051
 20
226.256537
 11
46.930890
 21
226.154050
  0
LINE
  8
1
 62
2
  6
CONTINUOUS
 10
46.930890
 20
226.154050
 11
47.556318
 21
226.091847
  0
LINE
  8
1
 62
2
  6
CONTINUOUS
 10
47.556318
 20
226.091847
 11
48.192633
 21
226.070994
  0
LINE
  8
1
 62
2
  6
CONTINUOUS
 10
48.192633
 20
226.070994
 11
48.828948
 21
226.091847
  0
LINE
  8
1
 62
2
  6
CONTINUOUS
 10
48.828948
 20
226.091847
 11
49.454376
 21
226.154050
  0
LINE
  8
1
 62
2
  6
CONTINUOUS
 10
49.454376
 20
226.154050
 11
50.058215
 21
226.256537
  0
LINE
  8
1
 62
2
  6
CONTINUOUS
 10
50.058215
 20
226.256537
 11
50.630133
 21
226.397557
  0
LINE
  8
1
 62
2
  6
CONTINUOUS
 10
50.630133
 20
226.397557
 11
51.160345
 21
226.574695
  0
LINE
  8
1
 62
2
  6
CONTINUOUS
 10
51.160345
 20
226.574695
 11
51.639778
 21
226.784921
  0
LINE
  8
1
 62
2
  6
CONTINUOUS
 10
51.639778
 20
226.784921
 11
52.060230
 21
227.024638
  0
LINE
  8
1
 62
2
  6
CONTINUOUS
 10
52.060230
 20
227.024638
 11
52.414507
 21
227.289744
  0
LINE
  8
1
 62
2
  6
CONTINUOUS
 10
52.414507
 20
227.289744
 11
52.696546
 21
227.575703
  0
LINE
  8
1
 62
2
  6
CONTINUOUS
 10
52.696546
 20
227.575703
 11
52.901521
 21
227.877622
  0
LINE
  8
1
 62
2
  6
CONTINUOUS
 10
52.901521
 20
227.877622
 11
53.025926
 21
228.190336
  0
LINE
  8
1
 62
2
  6
CONTINUOUS
 10
53.025926
 20
228.190336
 11
53.067633
 21
228.508494
  0
LINE
  8
1
 62
2
  6
CONTINUOUS
 10
53.067633
 20
228.508494
 11
53.025926
 21
228.826651
  0
LINE
  8
1
 62
2
  6
CONTINUOUS
 10
53.025926
 20
228.826651
 11
52.901521
 21
229.139365
  0
LINE
  8
1
 62
2
  6
CONTINUOUS
 10
52.901521
 20
229.139365
 11
52.696546
 21
229.441285
  0
LINE
  8
1
 62
2
  6
CONTINUOUS
 10
52.696546
 20
229.441285
 11
52.414507
 21
229.727244
  0
LINE
  8
1
 62
2
  6
CONTINUOUS
 10
52.414507
 20
229.727244
 11
52.060230
 21
229.992350
  0
LINE
  8
1
 62
2
  6
CONTINUOUS
 10
52.060230
 20
229.992350
 11
51.639778
 21
230.232067
  0
LINE
  8
1
 62
2
  6
CONTINUOUS
 10
51.639778
 20
230.232067
 11
51.160345
 21
230.442293
  0
LINE
  8
1
 62
2
  6
CONTINUOUS
 10
51.160345
 20
230.442293
 11
50.630133
 21
230.619431
  0
LINE
  8
1
 62
2
  6
CONTINUOUS
 10
50.630133
 20
230.619431
 11
50.058215
 21
230.760450
  0
LINE
  8
1
 62
2
  6
CONTINUOUS
 10
50.058215
 20
230.760450
 11
49.454376
 21
230.862938
  0
LINE
  8
1
 62
2
  6
CONTINUOUS
 10
49.454376
 20
230.862938
 11
48.828948
 21
230.925141
  0
LINE
  8
1
 62
2
  6
CONTINUOUS
 10
48.828948
 20
230.925141
 11
48.192633
 21
230.945994
  0
LINE
  8
1
 62
2
  6
CONTINUOUS
 10
48.192633
 20
230.945994
 11
47.556318
 21
230.925141
  0
LINE
  8
1
 62
2
  6
CONTINUOUS
 10
47.556318
 20
230.925141
 11
46.930890
 21
230.862938
  0
LINE
  8
1
 62
2
  6
CONTINUOUS
 10
46.930890
 20
230.862938
 11
46.327051
 21
230.760450
  0
LINE
  8
1
 62
2
  6
CONTINUOUS
 10
46.327051
 20
230.760450
 11
45.755133
 21
230.619431
  0
LINE
  8
1
 62
2
  6
CONTINUOUS
 10
49.125511
 20
227.700597
 11
49.328434
 21
227.768391
  0
LINE
  8
1
 62
2
  6
CONTINUOUS
 10
49.328434
 20
227.768391
 11
49.511922
 21
227.848849
  0
LINE
  8
1
 62
2
  6
CONTINUOUS
 10
49.511922
 20
227.848849
 11
49.672837
 21
227.940593
  0
LINE
  8
1
 62
2
  6
CONTINUOUS
 10
49.672837
 20
227.940593
 11
49.808426
 21
228.042055
  0
LINE
  8
1
 62
2
  6
CONTINUOUS
 10
49.808426
 20
228.042055
 11
49.916368
 21
228.151497
  0
LINE
  8
1
 62
2
  6
CONTINUOUS
 10
49.916368
 20
228.151497
 11
49.994816
 21
228.267047
  0
LINE
  8
1
 62
2
  6
CONTINUOUS
 10
49.994816
 20
228.267047
 11
50.042428
 21
228.386729
  0
LINE
  8
1
 62
2
  6
CONTINUOUS
 10
50.042428
 20
228.386729
 11
50.058390
 21
228.508494
  0
LINE
  8
1
 62
2
  6
CONTINUOUS
 10
50.058390
 20
228.508494
 11
50.042428
 21
228.630259
  0
LINE
  8
1
 62
2
  6
CONTINUOUS
 10
50.042428
 20
228.630259
 11
49.994816
 21
228.749940
  0
LINE
  8
1
 62
2
  6
CONTINUOUS
 10
49.994816
 20
228.749940
 11
49.916368
 21
228.865491
  0
LINE
  8
1
 62
2
  6
CONTINUOUS
 10
49.916368
 20
228.865491
 11
49.808426
 21
228.974933
  0
LINE
  8
1
 62
2
  6
CONTINUOUS
 10
49.808426
 20
228.974933
 11
49.672837
 21
229.076394
  0
LINE
  8
1
 62
2
  6
CONTINUOUS
 10
49.672837
 20
229.076394
 11
49.511922
 21
229.168138
  0
LINE
  8
1
 62
2
  6
CONTINUOUS
 10
49.511922
 20
229.168138
 11
49.328434
 21
229.248596
  0
LINE
  8
1
 62
2
  6
CONTINUOUS
 10
49.328434
 20
229.248596
 11
49.125511
 21
229.316390
  0
LINE
  8
1
 62
2
  6
CONTINUOUS
 10
49.125511
 20
229.316390
 11
48.906627
 21
229.370361
  0
LINE
  8
1
 62
2
  6
CONTINUOUS
 10
48.906627
 20
229.370361
 11
48.675526
 21
229.409585
  0
LINE
  8
1
 62
2
  6
CONTINUOUS
 10
48.675526
 20
229.409585
 11
48.436163
 21
229.433391
  0
LINE
  8
1
 62
2
  6
CONTINUOUS
 10
48.436163
 20
229.433391
 11
48.192633
 21
229.441372
  0
LINE
  8
1
 62
2
  6
CONTINUOUS
 10
48.192633
 20
229.441372
 11
47.949103
 21
229.433391
  0
LINE
  8
1
 62
2
  6
CONTINUOUS
 10
47.949103
 20
229.433391
 11
47.709739
 21
229.409585
  0
LINE
  8
1
 62
2
  6
CONTINUOUS
 10
47.709739
 20
229.409585
 11
47.478639
 21
229.370361
  0
LINE
  8
1
 62
2
  6
CONTINUOUS
 10
47.478639
 20
229.370361
 11
47.259754
 21
229.316390
  0
LINE
  8
1
 62
2
  6
CONTINUOUS
 10
47.259754
 20
229.316390
 11
47.056832
 21
229.248596
  0
LINE
  8
1
 62
2
  6
CONTINUOUS
 10
47.056832
 20
229.248596
 11
46.873343
 21
229.168138
  0
LINE
  8
1
 62
2
  6
CONTINUOUS
 10
46.873343
 20
229.168138
 11
46.712428
 21
229.076394
  0
LINE
  8
1
 62
2
  6
CONTINUOUS
 10
46.712428
 20
229.076394
 11
46.576840
 21
228.974933
  0
LINE
  8
1
 62
2
  6
CONTINUOUS
 10
46.576840
 20
228.974933
 11
46.468898
 21
228.865491
  0
LINE
  8
1
 62
2
  6
CONTINUOUS
 10
46.468898
 20
228.865491
 11
46.390450
 21
228.749940
  0
LINE
  8
1
 62
2
  6
CONTINUOUS
 10
46.390450
 20
228.749940
 11
46.342838
 21
228.630259
  0
LINE
  8
1
 62
2
  6
CONTINUOUS
 10
46.342838
 20
228.630259
 11
46.326876
 21
228.508494
  0
LINE
  8
1
 62
2
  6
CONTINUOUS
 10
46.326876
 20
228.508494
 11
46.342838
 21
228.386729
  0
LINE
  8
1
 62
2
  6
CONTINUOUS
 10
46.342838
 20
228.386729
 11
46.390450
 21
228.267047
  0
LINE
  8
1
 62
2
  6
CONTINUOUS
 10
46.390450
 20
228.267047
 11
46.468898
 21
228.151497
  0
LINE
  8
1
 62
2
  6
CONTINUOUS
 10
46.468898
 20
228.151497
 11
46.576840
 21
228.042055
  0
LINE
  8
1
 62
2
  6
CONTINUOUS
 10
46.576840
 20
228.042055
 11
46.712428
 21
227.940593
  0
LINE
  8
1
 62
2
  6
CONTINUOUS
 10
46.712428
 20
227.940593
 11
46.873343
 21
227.848849
  0
LINE
  8
1
 62
2
  6
CONTINUOUS
 10
46.873343
 20
227.848849
 11
47.056832
 21
227.768391
  0
LINE
  8
1
 62
2
  6
CONTINUOUS
 10
47.056832
 20
227.768391
 11
47.259754
 21
227.700597
  0
LINE
  8
1
 62
2
  6
CONTINUOUS
 10
47.259754
 20
227.700597
 11
47.478639
 21
227.646626
  0
LINE
  8
1
 62
2
  6
CONTINUOUS
 10
47.478639
 20
227.646626
 11
47.709739
 21
227.607402
  0
LINE
  8
1
 62
2
  6
CONTINUOUS
 10
47.709739
 20
227.607402
 11
47.949103
 21
227.583596
  0
LINE
  8
1
 62
2
  6
CONTINUOUS
 10
47.949103
 20
227.583596
 11
48.192633
 21
227.575615
  0
LINE
  8
1
 62
2
  6
CONTINUOUS
 10
48.192633
 20
227.575615
 11
48.436163
 21
227.583596
  0
LINE
  8
1
 62
2
  6
CONTINUOUS
 10
48.436163
 20
227.583596
 11
48.675526
 21
227.607402
  0
LINE
  8
1
 62
2
  6
CONTINUOUS
 10
48.675526
 20
227.607402
 11
48.906627
 21
227.646626
  0
LINE
  8
1
 62
2
  6
CONTINUOUS
 10
48.906627
 20
227.646626
 11
49.125511
 21
227.700597
  0
LINE
  8
1
 62
2
  6
CONTINUOUS
 10
88.586431
 20
232.345363
 11
79.848931
 21
239.912260
  0
LINE
  8
1
 62
2
  6
CONTINUOUS
 10
78.723250
 20
221.044253
 11
69.985750
 21
228.611150
  0
LINE
  8
1
 62
2
  6
CONTINUOUS
 10
44.505929
 20
264.071263
 11
49.438781
 21
259.799288
  0
LINE
  8
1
 62
2
  6
CONTINUOUS
 10
41.053752
 20
260.115930
 11
46.001096
 21
255.831404
  0
LINE
  8
1
 62
2
  6
CONTINUOUS
 10
47.156221
 20
250.367279
 11
47.333688
 21
250.213588
  0
LINE
  8
1
 62
2
  6
CONTINUOUS
 10
54.903460
 20
259.530494
 11
55.202844
 21
259.271220
  0
LINE
  8
1
 62
2
  6
CONTINUOUS
 10
47.156221
 20
250.367279
 11
47.122073
 21
250.399042
  0
LINE
  8
1
 62
2
  6
CONTINUOUS
 10
47.122073
 20
250.399042
 11
46.698160
 21
250.819253
  0
LINE
  8
1
 62
2
  6
CONTINUOUS
 10
46.698160
 20
250.819253
 11
46.614611
 21
250.921715
  0
LINE
  8
1
 62
2
  6
CONTINUOUS
 10
46.614611
 20
250.921715
 11
46.267514
 21
251.413130
  0
LINE
  8
1
 62
2
  6
CONTINUOUS
 10
46.267514
 20
251.413130
 11
46.208291
 21
251.527833
  0
LINE
  8
1
 62
2
  6
CONTINUOUS
 10
46.208291
 20
251.527833
 11
45.944688
 21
252.078825
  0
LINE
  8
1
 62
2
  6
CONTINUOUS
 10
45.944688
 20
252.078825
 11
45.766336
 21
252.683782
  0
LINE
  8
1
 62
2
  6
CONTINUOUS
 10
45.766336
 20
252.683782
 11
45.736779
 21
252.795891
  0
LINE
  8
1
 62
2
  6
CONTINUOUS
 10
45.736779
 20
252.795891
 11
45.647954
 21
253.435965
  0
LINE
  8
1
 62
2
  6
CONTINUOUS
 10
45.647954
 20
253.435965
 11
45.646413
 21
253.542232
  0
LINE
  8
1
 62
2
  6
CONTINUOUS
 10
45.646413
 20
253.542232
 11
45.646413
 21
254.202432
  0
LINE
  8
1
 62
2
  6
CONTINUOUS
 10
45.646413
 20
254.202432
 11
45.733729
 21
254.882038
  0
LINE
  8
1
 62
2
  6
CONTINUOUS
 10
45.733729
 20
254.882038
 11
45.906826
 21
255.569111
  0
LINE
  8
1
 62
2
  6
CONTINUOUS
 10
45.906826
 20
255.569111
 11
45.926668
 21
255.632860
  0
LINE
  8
1
 62
2
  6
CONTINUOUS
 10
45.926668
 20
255.632860
 11
46.177081
 21
256.300856
  0
LINE
  8
1
 62
2
  6
CONTINUOUS
 10
46.177081
 20
256.300856
 11
46.504079
 21
256.952608
  0
LINE
  8
1
 62
2
  6
CONTINUOUS
 10
46.504079
 20
256.952608
 11
46.901919
 21
257.576667
  0
LINE
  8
1
 62
2
  6
CONTINUOUS
 10
46.901919
 20
257.576667
 11
47.363611
 21
258.162068
  0
LINE
  8
1
 62
2
  6
CONTINUOUS
 10
47.363611
 20
258.162068
 11
47.881044
 21
258.698527
  0
LINE
  8
1
 62
2
  6
CONTINUOUS
 10
47.881044
 20
258.698527
 11
48.445125
 21
259.176618
  0
LINE
  8
1
 62
2
  6
CONTINUOUS
 10
48.445125
 20
259.176618
 11
49.045947
 21
259.587942
  0
LINE
  8
1
 62
2
  6
CONTINUOUS
 10
49.045947
 20
259.587942
 11
49.672951
 21
259.925272
  0
LINE
  8
1
 62
2
  6
CONTINUOUS
 10
49.734276
 20
259.954522
 11
50.390362
 21
260.217509
  0
LINE
  8
1
 62
2
  6
CONTINUOUS
 10
50.390362
 20
260.217509
 11
50.616326
 21
260.287866
  0
LINE
  8
1
 62
2
  6
CONTINUOUS
 10
49.734276
 20
259.954522
 11
49.672951
 21
259.925272
  0
LINE
  8
1
 62
2
  6
CONTINUOUS
 10
50.616326
 20
260.287866
 11
50.842254
 21
260.347959
  0
LINE
  8
1
 62
2
  6
CONTINUOUS
 10
50.842254
 20
260.347959
 11
51.498339
 21
260.463763
  0
LINE
  8
1
 62
2
  6
CONTINUOUS
 10
51.601062
 20
260.477172
 11
52.252728
 21
260.502814
  0
LINE
  8
1
 62
2
  6
CONTINUOUS
 10
52.252728
 20
260.502814
 11
52.877180
 21
260.435839
  0
LINE
  8
1
 62
2
  6
CONTINUOUS
 10
51.601062
 20
260.477172
 11
51.498339
 21
260.463763
  0
LINE
  8
1
 62
2
  6
CONTINUOUS
 10
52.998430
 20
260.421838
 11
53.592226
 21
260.261391
  0
LINE
  8
1
 62
2
  6
CONTINUOUS
 10
52.998430
 20
260.421838
 11
52.877180
 21
260.435839
  0
LINE
  8
1
 62
2
  6
CONTINUOUS
 10
53.713088
 20
260.219593
 11
54.262324
 21
259.967263
  0
LINE
  8
1
 62
2
  6
CONTINUOUS
 10
53.713088
 20
260.219593
 11
53.592226
 21
260.261391
  0
LINE
  8
1
 62
2
  6
CONTINUOUS
 10
54.375200
 20
259.899489
 11
54.867149
 21
259.559750
  0
LINE
  8
1
 62
2
  6
CONTINUOUS
 10
54.375200
 20
259.899489
 11
54.262324
 21
259.967263
  0
LINE
  8
1
 62
2
  6
CONTINUOUS
 10
54.903460
 20
259.530494
 11
54.867149
 21
259.559750
  0
LINE
  8
1
 62
2
  6
CONTINUOUS
 10
65.992152
 20
223.475871
 11
65.791966
 21
223.618874
  0
LINE
  8
1
 62
2
  6
CONTINUOUS
 10
73.772498
 20
225.331730
 11
66.654186
 21
223.276850
  0
LINE
  8
1
 62
2
  6
CONTINUOUS
 10
48.973112
 20
257.277996
 11
48.973112
 21
238.182136
  0
LINE
  8
1
 62
2
  6
CONTINUOUS
 10
48.973112
 20
257.277996
 11
63.448112
 21
244.742278
  0
LINE
  8
1
 62
2
  6
CONTINUOUS
 10
63.448112
 20
244.742278
 11
63.448112
 21
225.646418
  0
LINE
  8
1
 62
2
  6
CONTINUOUS
 10
48.973112
 20
238.182136
 11
63.448112
 21
225.646418
  0
LINE
  8
1
 62
2
  6
CONTINUOUS
 10
78.860463
 20
249.364646
 11
64.366713
 21
261.916602
  0
LINE
  8
1
 62
2
  6
CONTINUOUS
 10
78.860463
 20
249.364646
 11
63.661718
 21
244.977146
  0
LINE
  8
1
 62
2
  6
CONTINUOUS
 10
49.167968
 20
257.529102
 11
63.661718
 21
244.977146
  0
LINE
  8
1
 62
2
  6
CONTINUOUS
 10
64.366713
 20
261.916602
 11
49.167968
 21
257.529102
  0
LINE
  8
1
 62
2
  6
CONTINUOUS
 10
82.524069
 20
244.143554
 11
82.524069
 21
237.595522
  0
LINE
  8
1
 62
2
  6
CONTINUOUS
 10
81.324069
 20
247.261245
 11
81.380423
 21
247.210148
  0
LINE
  8
1
 62
2
  6
CONTINUOUS
 10
81.380423
 20
247.210148
 11
81.540401
 21
247.039843
  0
LINE
  8
1
 62
2
  6
CONTINUOUS
 10
81.540401
 20
247.039843
 11
81.696432
 21
246.836173
  0
LINE
  8
1
 62
2
  6
CONTINUOUS
 10
81.696432
 20
246.836173
 11
81.845762
 21
246.602751
  0
LINE
  8
1
 62
2
  6
CONTINUOUS
 10
81.845762
 20
246.602751
 11
81.985705
 21
246.343778
  0
LINE
  8
1
 62
2
  6
CONTINUOUS
 10
81.985705
 20
246.343778
 11
82.113743
 21
246.063914
  0
LINE
  8
1
 62
2
  6
CONTINUOUS
 10
82.113743
 20
246.063914
 11
82.227599
 21
245.768113
  0
LINE
  8
1
 62
2
  6
CONTINUOUS
 10
82.227599
 20
245.768113
 11
82.325187
 21
245.461778
  0
LINE
  8
1
 62
2
  6
CONTINUOUS
 10
82.325187
 20
245.461778
 11
82.404734
 21
245.150500
  0
LINE
  8
1
 62
2
  6
CONTINUOUS
 10
82.404734
 20
245.150500
 11
82.464835
 21
244.839803
  0
LINE
  8
1
 62
2
  6
CONTINUOUS
 10
82.464835
 20
244.839803
 11
82.504408
 21
244.535278
  0
LINE
  8
1
 62
2
  6
CONTINUOUS
 10
82.504408
 20
244.535278
 11
82.522745
 21
244.242308
  0
LINE
  8
1
 62
2
  6
CONTINUOUS
 10
82.522745
 20
244.242308
 11
82.524069
 21
244.143554
  0
LINE
  8
1
 62
2
  6
CONTINUOUS
 10
81.324069
 20
247.261245
 11
79.092819
 21
249.193564
  0
LINE
  8
1
 62
2
  6
CONTINUOUS
 10
63.699218
 20
244.944670
 11
78.897963
 21
249.332170
  0
LINE
  8
1
 62
2
  6
CONTINUOUS
 10
81.129213
 20
247.399851
 11
78.897963
 21
249.332170
  0
LINE
  8
1
 62
2
  6
CONTINUOUS
 10
65.930468
 20
243.012351
 11
81.129213
 21
247.399851
  0
LINE
  8
1
 62
2
  6
CONTINUOUS
 10
63.699218
 20
244.944670
 11
65.930468
 21
243.012351
  0
LINE
  8
1
 62
2
  6
CONTINUOUS
 10
82.441713
 20
243.989876
 11
82.441713
 21
237.666844
  0
LINE
  8
1
 62
2
  6
CONTINUOUS
 10
67.242968
 20
224.663438
 11
72.718874
 21
226.244196
  0
LINE
  8
1
 62
2
  6
CONTINUOUS
 10
66.673112
 20
238.896607
 11
66.671955
 21
238.985958
  0
LINE
  8
1
 62
2
  6
CONTINUOUS
 10
66.671955
 20
238.985958
 11
66.655335
 21
239.257030
  0
LINE
  8
1
 62
2
  6
CONTINUOUS
 10
66.655335
 20
239.257030
 11
66.619261
 21
239.538887
  0
LINE
  8
1
 62
2
  6
CONTINUOUS
 10
66.619261
 20
239.538887
 11
66.564367
 21
239.826578
  0
LINE
  8
1
 62
2
  6
CONTINUOUS
 10
66.564367
 20
239.826578
 11
66.491616
 21
240.115047
  0
LINE
  8
1
 62
2
  6
CONTINUOUS
 10
66.491616
 20
240.115047
 11
66.402288
 21
240.399226
  0
LINE
  8
1
 62
2
  6
CONTINUOUS
 10
66.402288
 20
240.399226
 11
66.297952
 21
240.674122
  0
LINE
  8
1
 62
2
  6
CONTINUOUS
 10
66.297952
 20
240.674122
 11
66.180440
 21
240.934905
  0
LINE
  8
1
 62
2
  6
CONTINUOUS
 10
66.180440
 20
240.934905
 11
66.051819
 21
241.176993
  0
LINE
  8
1
 62
2
  6
CONTINUOUS
 10
66.051819
 20
241.176993
 11
65.914347
 21
241.396132
  0
LINE
  8
1
 62
2
  6
CONTINUOUS
 10
65.914347
 20
241.396132
 11
65.770440
 21
241.588471
  0
LINE
  8
1
 62
2
  6
CONTINUOUS
 10
65.770440
 20
241.588471
 11
65.622673
 21
241.750587
  0
LINE
  8
1
 62
2
  6
CONTINUOUS
 10
65.622673
 20
241.750587
 11
65.473597
 21
241.879695
  0
LINE
  8
1
 62
2
  6
CONTINUOUS
 10
65.473597
 20
241.879695
 11
65.325784
 21
241.973554
  0
LINE
  8
1
 62
2
  6
CONTINUOUS
 10
65.325784
 20
241.973554
 11
65.181877
 21
242.030468
  0
LINE
  8
1
 62
2
  6
CONTINUOUS
 10
65.181877
 20
242.030468
 11
65.044405
 21
242.049438
  0
LINE
  8
1
 62
2
  6
CONTINUOUS
 10
65.044405
 20
242.049438
 11
64.915784
 21
242.030130
  0
LINE
  8
1
 62
2
  6
CONTINUOUS
 10
64.915784
 20
242.030130
 11
64.798272
 21
241.972883
  0
LINE
  8
1
 62
2
  6
CONTINUOUS
 10
64.798272
 20
241.972883
 11
64.693936
 21
241.878703
  0
LINE
  8
1
 62
2
  6
CONTINUOUS
 10
64.693936
 20
241.878703
 11
64.604608
 21
241.749244
  0
LINE
  8
1
 62
2
  6
CONTINUOUS
 10
64.604608
 20
241.749244
 11
64.531857
 21
241.586783
  0
LINE
  8
1
 62
2
  6
CONTINUOUS
 10
64.531857
 20
241.586783
 11
64.476963
 21
241.394172
  0
LINE
  8
1
 62
2
  6
CONTINUOUS
 10
64.476963
 20
241.394172
 11
64.440889
 21
241.174797
  0
LINE
  8
1
 62
2
  6
CONTINUOUS
 10
64.440889
 20
241.174797
 11
64.424269
 21
240.932511
  0
LINE
  8
1
 62
2
  6
CONTINUOUS
 10
64.424269
 20
240.932511
 11
64.423112
 21
240.845164
  0
LINE
  8
1
 62
2
  6
CONTINUOUS
 10
64.423112
 20
240.845164
 11
64.424269
 21
240.755813
  0
LINE
  8
1
 62
2
  6
CONTINUOUS
 10
64.424269
 20
240.755813
 11
64.440889
 21
240.484741
  0
LINE
  8
1
 62
2
  6
CONTINUOUS
 10
64.440889
 20
240.484741
 11
64.476963
 21
240.202884
  0
LINE
  8
1
 62
2
  6
CONTINUOUS
 10
64.476963
 20
240.202884
 11
64.531857
 21
239.915193
  0
LINE
  8
1
 62
2
  6
CONTINUOUS
 10
64.531857
 20
239.915193
 11
64.604608
 21
239.626724
  0
LINE
  8
1
 62
2
  6
CONTINUOUS
 10
64.604608
 20
239.626724
 11
64.693936
 21
239.342545
  0
LINE
  8
1
 62
2
  6
CONTINUOUS
 10
64.693936
 20
239.342545
 11
64.798272
 21
239.067649
  0
LINE
  8
1
 62
2
  6
CONTINUOUS
 10
64.798272
 20
239.067649
 11
64.915784
 21
238.806866
  0
LINE
  8
1
 62
2
  6
CONTINUOUS
 10
64.915784
 20
238.806866
 11
65.044405
 21
238.564778
  0
LINE
  8
1
 62
2
  6
CONTINUOUS
 10
65.044405
 20
238.564778
 11
65.181877
 21
238.345639
  0
LINE
  8
1
 62
2
  6
CONTINUOUS
 10
65.181877
 20
238.345639
 11
65.325784
 21
238.153300
  0
LINE
  8
1
 62
2
  6
CONTINUOUS
 10
65.325784
 20
238.153300
 11
65.473551
 21
237.991184
  0
LINE
  8
1
 62
2
  6
CONTINUOUS
 10
65.473551
 20
237.991184
 11
65.622626
 21
237.862076
  0
LINE
  8
1
 62
2
  6
CONTINUOUS
 10
65.622626
 20
237.862076
 11
65.770440
 21
237.768217
  0
LINE
  8
1
 62
2
  6
CONTINUOUS
 10
65.770440
 20
237.768217
 11
65.914347
 21
237.711302
  0
LINE
  8
1
 62
2
  6
CONTINUOUS
 10
65.914347
 20
237.711302
 11
66.051819
 21
237.692333
  0
LINE
  8
1
 62
2
  6
CONTINUOUS
 10
66.051819
 20
237.692333
 11
66.180440
 21
237.711641
  0
LINE
  8
1
 62
2
  6
CONTINUOUS
 10
66.180440
 20
237.711641
 11
66.297952
 21
237.768888
  0
LINE
  8
1
 62
2
  6
CONTINUOUS
 10
66.297952
 20
237.768888
 11
66.402288
 21
237.863068
  0
LINE
  8
1
 62
2
  6
CONTINUOUS
 10
66.402288
 20
237.863068
 11
66.491616
 21
237.992526
  0
LINE
  8
1
 62
2
  6
CONTINUOUS
 10
66.491616
 20
237.992526
 11
66.564367
 21
238.154988
  0
LINE
  8
1
 62
2
  6
CONTINUOUS
 10
66.564367
 20
238.154988
 11
66.619261
 21
238.347599
  0
LINE
  8
1
 62
2
  6
CONTINUOUS
 10
66.619261
 20
238.347599
 11
66.655335
 21
238.566974
  0
LINE
  8
1
 62
2
  6
CONTINUOUS
 10
66.655335
 20
238.566974
 11
66.671955
 21
238.809260
  0
LINE
  8
1
 62
2
  6
CONTINUOUS
 10
66.671955
 20
238.809260
 11
66.673112
 21
238.896607
  0
LINE
  8
1
 62
2
  6
CONTINUOUS
 10
66.673112
 20
225.906226
 11
66.671955
 21
225.995577
  0
LINE
  8
1
 62
2
  6
CONTINUOUS
 10
66.671955
 20
225.995577
 11
66.655335
 21
226.266649
  0
LINE
  8
1
 62
2
  6
CONTINUOUS
 10
66.655335
 20
226.266649
 11
66.619261
 21
226.548506
  0
LINE
  8
1
 62
2
  6
CONTINUOUS
 10
66.619261
 20
226.548506
 11
66.564367
 21
226.836197
  0
LINE
  8
1
 62
2
  6
CONTINUOUS
 10
66.564367
 20
226.836197
 11
66.491616
 21
227.124666
  0
LINE
  8
1
 62
2
  6
CONTINUOUS
 10
66.491616
 20
227.124666
 11
66.402288
 21
227.408845
  0
LINE
  8
1
 62
2
  6
CONTINUOUS
 10
66.402288
 20
227.408845
 11
66.297952
 21
227.683741
  0
LINE
  8
1
 62
2
  6
CONTINUOUS
 10
66.297952
 20
227.683741
 11
66.180440
 21
227.944524
  0
LINE
  8
1
 62
2
  6
CONTINUOUS
 10
66.180440
 20
227.944524
 11
66.051819
 21
228.186612
  0
LINE
  8
1
 62
2
  6
CONTINUOUS
 10
66.051819
 20
228.186612
 11
65.914347
 21
228.405750
  0
LINE
  8
1
 62
2
  6
CONTINUOUS
 10
65.914347
 20
228.405750
 11
65.770440
 21
228.598090
  0
LINE
  8
1
 62
2
  6
CONTINUOUS
 10
65.770440
 20
228.598090
 11
65.622673
 21
228.760206
  0
LINE
  8
1
 62
2
  6
CONTINUOUS
 10
65.622673
 20
228.760206
 11
65.473597
 21
228.889314
  0
LINE
  8
1
 62
2
  6
CONTINUOUS
 10
65.473597
 20
228.889314
 11
65.325784
 21
228.983173
  0
LINE
  8
1
 62
2
  6
CONTINUOUS
 10
65.325784
 20
228.983173
 11
65.181877
 21
229.040087
  0
LINE
  8
1
 62
2
  6
CONTINUOUS
 10
65.181877
 20
229.040087
 11
65.044405
 21
229.059057
  0
LINE
  8
1
 62
2
  6
CONTINUOUS
 10
65.044405
 20
229.059057
 11
64.915784
 21
229.039749
  0
LINE
  8
1
 62
2
  6
CONTINUOUS
 10
64.915784
 20
229.039749
 11
64.798272
 21
228.982502
  0
LINE
  8
1
 62
2
  6
CONTINUOUS
 10
64.798272
 20
228.982502
 11
64.693936
 21
228.888322
  0
LINE
  8
1
 62
2
  6
CONTINUOUS
 10
64.693936
 20
228.888322
 11
64.604608
 21
228.758863
  0
LINE
  8
1
 62
2
  6
CONTINUOUS
 10
64.604608
 20
228.758863
 11
64.531857
 21
228.596402
  0
LINE
  8
1
 62
2
  6
CONTINUOUS
 10
64.531857
 20
228.596402
 11
64.476963
 21
228.403791
  0
LINE
  8
1
 62
2
  6
CONTINUOUS
 10
64.476963
 20
228.403791
 11
64.440889
 21
228.184416
  0
LINE
  8
1
 62
2
  6
CONTINUOUS
 10
64.440889
 20
228.184416
 11
64.424269
 21
227.942130
  0
LINE
  8
1
 62
2
  6
CONTINUOUS
 10
64.424269
 20
227.942130
 11
64.423112
 21
227.854783
  0
LINE
  8
1
 62
2
  6
CONTINUOUS
 10
64.423112
 20
227.854783
 11
64.424269
 21
227.765432
  0
LINE
  8
1
 62
2
  6
CONTINUOUS
 10
64.424269
 20
227.765432
 11
64.440889
 21
227.494360
  0
LINE
  8
1
 62
2
  6
CONTINUOUS
 10
64.440889
 20
227.494360
 11
64.476963
 21
227.212503
  0
LINE
  8
1
 62
2
  6
CONTINUOUS
 10
64.476963
 20
227.212503
 11
64.531857
 21
226.924812
  0
LINE
  8
1
 62
2
  6
CONTINUOUS
 10
64.531857
 20
226.924812
 11
64.604608
 21
226.636343
  0
LINE
  8
1
 62
2
  6
CONTINUOUS
 10
64.604608
 20
226.636343
 11
64.693936
 21
226.352164
  0
LINE
  8
1
 62
2
  6
CONTINUOUS
 10
64.693936
 20
226.352164
 11
64.798272
 21
226.077268
  0
LINE
  8
1
 62
2
  6
CONTINUOUS
 10
64.798272
 20
226.077268
 11
64.915784
 21
225.816485
  0
LINE
  8
1
 62
2
  6
CONTINUOUS
 10
64.915784
 20
225.816485
 11
65.044405
 21
225.574397
  0
LINE
  8
1
 62
2
  6
CONTINUOUS
 10
65.044405
 20
225.574397
 11
65.181877
 21
225.355258
  0
LINE
  8
1
 62
2
  6
CONTINUOUS
 10
65.181877
 20
225.355258
 11
65.325784
 21
225.162919
  0
LINE
  8
1
 62
2
  6
CONTINUOUS
 10
65.325784
 20
225.162919
 11
65.473551
 21
225.000803
  0
LINE
  8
1
 62
2
  6
CONTINUOUS
 10
65.473551
 20
225.000803
 11
65.622626
 21
224.871695
  0
LINE
  8
1
 62
2
  6
CONTINUOUS
 10
65.622626
 20
224.871695
 11
65.770440
 21
224.777836
  0
LINE
  8
1
 62
2
  6
CONTINUOUS
 10
65.770440
 20
224.777836
 11
65.914347
 21
224.720921
  0
LINE
  8
1
 62
2
  6
CONTINUOUS
 10
65.914347
 20
224.720921
 11
66.051819
 21
224.701952
  0
LINE
  8
1
 62
2
  6
CONTINUOUS
 10
66.051819
 20
224.701952
 11
66.180440
 21
224.721260
  0
LINE
  8
1
 62
2
  6
CONTINUOUS
 10
66.180440
 20
224.721260
 11
66.297952
 21
224.778507
  0
LINE
  8
1
 62
2
  6
CONTINUOUS
 10
66.297952
 20
224.778507
 11
66.402288
 21
224.872687
  0
LINE
  8
1
 62
2
  6
CONTINUOUS
 10
66.402288
 20
224.872687
 11
66.491616
 21
225.002145
  0
LINE
  8
1
 62
2
  6
CONTINUOUS
 10
66.491616
 20
225.002145
 11
66.564367
 21
225.164607
  0
LINE
  8
1
 62
2
  6
CONTINUOUS
 10
66.564367
 20
225.164607
 11
66.619261
 21
225.357218
  0
LINE
  8
1
 62
2
  6
CONTINUOUS
 10
66.619261
 20
225.357218
 11
66.655335
 21
225.576593
  0
LINE
  8
1
 62
2
  6
CONTINUOUS
 10
66.655335
 20
225.576593
 11
66.671955
 21
225.818879
  0
LINE
  8
1
 62
2
  6
CONTINUOUS
 10
66.671955
 20
225.818879
 11
66.673112
 21
225.906226
  0
LINE
  8
1
 62
2
  6
CONTINUOUS
 10
63.485612
 20
225.613942
 11
63.485612
 21
244.709802
  0
LINE
  8
1
 62
2
  6
CONTINUOUS
 10
63.485612
 20
244.709802
 11
65.735612
 21
242.761245
  0
LINE
  8
1
 62
2
  6
CONTINUOUS
 10
66.935612
 20
239.643554
 11
66.934288
 21
239.742308
  0
LINE
  8
1
 62
2
  6
CONTINUOUS
 10
66.934288
 20
239.742308
 11
66.915951
 21
240.035278
  0
LINE
  8
1
 62
2
  6
CONTINUOUS
 10
66.915951
 20
240.035278
 11
66.876377
 21
240.339803
  0
LINE
  8
1
 62
2
  6
CONTINUOUS
 10
66.876377
 20
240.339803
 11
66.816277
 21
240.650500
  0
LINE
  8
1
 62
2
  6
CONTINUOUS
 10
66.816277
 20
240.650500
 11
66.736730
 21
240.961778
  0
LINE
  8
1
 62
2
  6
CONTINUOUS
 10
66.736730
 20
240.961778
 11
66.639169
 21
241.268035
  0
LINE
  8
1
 62
2
  6
CONTINUOUS
 10
66.639169
 20
241.268035
 11
66.525317
 21
241.563840
  0
LINE
  8
1
 62
2
  6
CONTINUOUS
 10
66.525317
 20
241.563840
 11
66.397248
 21
241.843778
  0
LINE
  8
1
 62
2
  6
CONTINUOUS
 10
66.397248
 20
241.843778
 11
66.257305
 21
242.102751
  0
LINE
  8
1
 62
2
  6
CONTINUOUS
 10
66.257305
 20
242.102751
 11
66.107975
 21
242.336173
  0
LINE
  8
1
 62
2
  6
CONTINUOUS
 10
66.107975
 20
242.336173
 11
65.951944
 21
242.539843
  0
LINE
  8
1
 62
2
  6
CONTINUOUS
 10
65.951944
 20
242.539843
 11
65.791966
 21
242.710148
  0
LINE
  8
1
 62
2
  6
CONTINUOUS
 10
65.791966
 20
242.710148
 11
65.735612
 21
242.761245
  0
LINE
  8
1
 62
2
  6
CONTINUOUS
 10
66.935612
 20
239.643554
 11
66.935612
 21
225.625541
  0
LINE
  8
1
 62
2
  6
CONTINUOUS
 10
66.935612
 20
225.625541
 11
66.935612
 21
224.704615
  0
LINE
  8
1
 62
2
  6
CONTINUOUS
 10
65.735612
 20
223.665385
 11
65.791966
 21
223.618874
  0
LINE
  8
1
 62
2
  6
CONTINUOUS
 10
65.791966
 20
223.618874
 11
65.951944
 21
223.512090
  0
LINE
  8
1
 62
2
  6
CONTINUOUS
 10
65.951944
 20
223.512090
 11
66.107975
 21
223.445507
  0
LINE
  8
1
 62
2
  6
CONTINUOUS
 10
66.107975
 20
223.445507
 11
66.257305
 21
223.420280
  0
LINE
  8
1
 62
2
  6
CONTINUOUS
 10
66.257305
 20
223.420280
 11
66.397248
 21
223.436865
  0
LINE
  8
1
 62
2
  6
CONTINUOUS
 10
66.397248
 20
223.436865
 11
66.525285
 21
223.494961
  0
LINE
  8
1
 62
2
  6
CONTINUOUS
 10
66.525285
 20
223.494961
 11
66.639142
 21
223.593557
  0
LINE
  8
1
 62
2
  6
CONTINUOUS
 10
66.639142
 20
223.593557
 11
66.736730
 21
223.730865
  0
LINE
  8
1
 62
2
  6
CONTINUOUS
 10
66.736730
 20
223.730865
 11
66.816277
 21
223.904364
  0
LINE
  8
1
 62
2
  6
CONTINUOUS
 10
66.816277
 20
223.904364
 11
66.876377
 21
224.110963
  0
LINE
  8
1
 62
2
  6
CONTINUOUS
 10
66.876377
 20
224.110963
 11
66.915951
 21
224.346944
  0
LINE
  8
1
 62
2
  6
CONTINUOUS
 10
66.915951
 20
224.346944
 11
66.934288
 21
224.608155
  0
LINE
  8
1
 62
2
  6
CONTINUOUS
 10
66.934288
 20
224.608155
 11
66.935612
 21
224.704615
  0
LINE
  8
1
 62
2
  6
CONTINUOUS
 10
63.485612
 20
225.613942
 11
65.735612
 21
223.665385
  0
LINE
  8
1
 62
2
  6
CONTINUOUS
 10
79.055319
 20
249.220239
 11
79.055319
 21
249.226040
  0
LINE
  8
1
 62
2
  6
CONTINUOUS
 10
79.055319
 20
249.226040
 11
64.561569
 21
261.777996
  0
LINE
  8
1
 62
2
  6
CONTINUOUS
 10
81.129213
 20
247.399851
 11
81.190898
 21
247.343918
  0
LINE
  8
1
 62
2
  6
CONTINUOUS
 10
81.190898
 20
247.343918
 11
81.365834
 21
247.157683
  0
LINE
  8
1
 62
2
  6
CONTINUOUS
 10
81.365834
 20
247.157683
 11
81.536510
 21
246.934892
  0
LINE
  8
1
 62
2
  6
CONTINUOUS
 10
81.536510
 20
246.934892
 11
81.699856
 21
246.679553
  0
LINE
  8
1
 62
2
  6
CONTINUOUS
 10
81.699856
 20
246.679553
 11
81.852932
 21
246.396263
  0
LINE
  8
1
 62
2
  6
CONTINUOUS
 10
81.852932
 20
246.396263
 11
81.992982
 21
246.090120
  0
LINE
  8
1
 62
2
  6
CONTINUOUS
 10
81.992982
 20
246.090120
 11
82.117454
 21
245.766724
  0
LINE
  8
1
 62
2
  6
CONTINUOUS
 10
82.117454
 20
245.766724
 11
82.224151
 21
245.431808
  0
LINE
  8
1
 62
2
  6
CONTINUOUS
 10
82.224151
 20
245.431808
 11
82.311171
 21
245.091312
  0
LINE
  8
1
 62
2
  6
CONTINUOUS
 10
82.311171
 20
245.091312
 11
82.376918
 21
244.751450
  0
LINE
  8
1
 62
2
  6
CONTINUOUS
 10
82.376918
 20
244.751450
 11
82.420208
 21
244.418338
  0
LINE
  8
1
 62
2
  6
CONTINUOUS
 10
82.420208
 20
244.418338
 11
82.440263
 21
244.097973
  0
LINE
  8
1
 62
2
  6
CONTINUOUS
 10
82.440263
 20
244.097973
 11
82.441713
 21
243.989876
  0
LINE
  8
1
 62
2
  6
CONTINUOUS
 10
65.992152
 20
223.475871
 11
66.167088
 21
223.359109
  0
LINE
  8
1
 62
2
  6
CONTINUOUS
 10
66.167088
 20
223.359109
 11
66.337764
 21
223.286280
  0
LINE
  8
1
 62
2
  6
CONTINUOUS
 10
66.337764
 20
223.286280
 11
66.501111
 21
223.258695
  0
LINE
  8
1
 62
2
  6
CONTINUOUS
 10
66.501111
 20
223.258695
 11
66.654186
 21
223.276850
  0
LINE
  8
1
 62
2
  6
CONTINUOUS
 10
66.654186
 20
223.276850
 11
66.794202
 21
223.340397
  0
LINE
  8
1
 62
2
  6
CONTINUOUS
 10
66.794202
 20
223.340397
 11
66.918678
 21
223.448190
  0
LINE
  8
1
 62
2
  6
CONTINUOUS
 10
66.918678
 20
223.448190
 11
67.025405
 21
223.598335
  0
LINE
  8
1
 62
2
  6
CONTINUOUS
 10
67.025405
 20
223.598335
 11
67.112425
 21
223.788108
  0
LINE
  8
1
 62
2
  6
CONTINUOUS
 10
67.112425
 20
223.788108
 11
67.178172
 21
224.014094
  0
LINE
  8
1
 62
2
  6
CONTINUOUS
 10
67.178172
 20
224.014094
 11
67.221462
 21
224.272224
  0
LINE
  8
1
 62
2
  6
CONTINUOUS
 10
67.221462
 20
224.272224
 11
67.241517
 21
224.557852
  0
LINE
  8
1
 62
2
  6
CONTINUOUS
 10
67.241517
 20
224.557852
 11
67.242968
 21
224.663438
  0
LINE
  8
1
 62
2
  6
CONTINUOUS
 10
63.677567
 20
244.916769
 11
63.596766
 21
244.893444
  0
LINE
  8
1
 62
2
  6
CONTINUOUS
 10
78.925415
 20
249.318444
 11
78.919614
 21
249.316769
  0
LINE
  8
1
 62
2
  6
CONTINUOUS
 10
78.934790
 20
249.310325
 11
78.925415
 21
249.318444
  0
LINE
  8
1
 62
2
  6
CONTINUOUS
 10
78.962915
 20
249.285968
 11
78.934790
 21
249.310325
  0
LINE
  8
1
 62
2
  6
CONTINUOUS
 10
63.615516
 20
244.877206
 11
63.634266
 21
244.860968
  0
LINE
  8
1
 62
2
  6
CONTINUOUS
 10
63.596766
 20
244.893444
 11
63.615516
 21
244.877206
  0
LINE
  8
1
 62
2
  6
CONTINUOUS
 10
63.661718
 20
244.977146
 11
63.596766
 21
244.893444
  0
LINE
  8
1
 62
2
  6
CONTINUOUS
 10
78.925415
 20
249.318444
 11
78.860463
 21
249.364646
  0
LINE
  8
1
 62
2
  6
CONTINUOUS
 10
63.634266
 20
244.860968
 11
63.699218
 21
244.944670
  0
LINE
  8
1
 62
2
  6
CONTINUOUS
 10
78.897963
 20
249.332170
 11
78.962915
 21
249.285968
  0
LINE
  8
1
 62
2
  6
CONTINUOUS
 10
78.999742
 20
249.264123
 11
79.027867
 21
249.239766
  0
LINE
  8
1
 62
2
  6
CONTINUOUS
 10
78.990367
 20
249.272242
 11
78.999742
 21
249.264123
  0
LINE
  8
1
 62
2
  6
CONTINUOUS
 10
79.055319
 20
249.226040
 11
78.990367
 21
249.272242
  0
LINE
  8
1
 62
2
  6
CONTINUOUS
 10
79.027867
 20
249.239766
 11
79.092819
 21
249.193564
  0
LINE
  8
1
 62
2
  6
CONTINUOUS
 10
63.578016
 20
244.828881
 11
63.578016
 21
244.909682
  0
LINE
  8
1
 62
2
  6
CONTINUOUS
 10
63.596766
 20
244.893444
 11
63.578016
 21
244.909682
  0
LINE
  8
1
 62
2
  6
CONTINUOUS
 10
63.578016
 20
244.909682
 11
63.448112
 21
244.742278
  0
LINE
  8
1
 62
2
  6
CONTINUOUS
 10
63.448112
 20
225.646418
 11
63.485612
 21
225.619743
  0
LINE
  8
1
 62
2
  6
CONTINUOUS
 10
63.485612
 20
244.709802
 11
63.615516
 21
244.877206
  0
LINE
  8
1
 62
2
  6
CONTINUOUS
 10
64.407891
 20
261.896013
 11
64.561569
 21
261.777996
  0
LINE
  8
1
 62
2
  6
CONTINUOUS
 10
64.407891
 20
261.896013
 11
64.366713
 21
261.916602
  0
LINE
  8
1
 62
2
  6
CONTINUOUS
 10
81.324069
 20
247.261245
 11
81.129213
 21
247.399851
  0
LINE
  8
1
 62
2
  6
CONTINUOUS
 10
82.441713
 20
243.989876
 11
82.524069
 21
244.143554
  0
LINE
  8
1
 62
2
  6
CONTINUOUS
 10
65.930468
 20
243.012351
 11
65.735612
 21
242.761245
  0
LINE
  8
1
 62
2
  6
CONTINUOUS
 10
67.242968
 20
224.663438
 11
66.935612
 21
224.704615
  0
LINE
  8
1
 62
2
  6
CONTINUOUS
 10
48.973112
 20
257.277996
 11
49.014290
 21
257.452263
  0
LINE
  8
1
 62
2
  6
CONTINUOUS
 10
49.167968
 20
257.529102
 11
49.014290
 21
257.452263
  0
LINE
  8
1
 62
2
  6
CONTINUOUS
 10
51.029841
 20
260.145039
 11
51.265579
 21
260.207741
  0
LINE
  8
1
 62
2
  6
CONTINUOUS
 10
51.265579
 20
260.207741
 11
51.950051
 21
260.328550
  0
LINE
  8
1
 62
2
  6
CONTINUOUS
 10
51.950051
 20
260.328550
 11
52.618296
 21
260.354839
  0
LINE
  8
1
 62
2
  6
CONTINUOUS
 10
52.618296
 20
260.354839
 11
53.258600
 21
260.286167
  0
LINE
  8
1
 62
2
  6
CONTINUOUS
 10
53.258600
 20
260.286167
 11
53.859841
 21
260.123715
  0
LINE
  8
1
 62
2
  6
CONTINUOUS
 10
53.859841
 20
260.123715
 11
54.411358
 21
259.870340
  0
LINE
  8
1
 62
2
  6
CONTINUOUS
 10
54.411358
 20
259.870340
 11
54.903460
 21
259.530494
  0
LINE
  8
1
 62
2
  6
CONTINUOUS
 10
47.156221
 20
250.367279
 11
46.732178
 21
250.787625
  0
LINE
  8
1
 62
2
  6
CONTINUOUS
 10
46.732178
 20
250.787625
 11
46.383680
 21
251.281029
  0
LINE
  8
1
 62
2
  6
CONTINUOUS
 10
46.383680
 20
251.281029
 11
46.116803
 21
251.838852
  0
LINE
  8
1
 62
2
  6
CONTINUOUS
 10
46.116803
 20
251.838852
 11
45.936210
 21
252.451386
  0
LINE
  8
1
 62
2
  6
CONTINUOUS
 10
45.936210
 20
252.451386
 11
45.845113
 21
253.107802
  0
LINE
  8
1
 62
2
  6
CONTINUOUS
 10
45.845113
 20
253.107802
 11
45.845113
 21
253.796567
  0
LINE
  8
1
 62
2
  6
CONTINUOUS
 10
45.845113
 20
253.796567
 11
45.936210
 21
254.505578
  0
LINE
  8
1
 62
2
  6
CONTINUOUS
 10
45.936210
 20
254.505578
 11
46.116803
 21
255.222378
  0
LINE
  8
1
 62
2
  6
CONTINUOUS
 10
46.116803
 20
255.222378
 11
46.383680
 21
255.934282
  0
LINE
  8
1
 62
2
  6
CONTINUOUS
 10
46.383680
 20
255.934282
 11
46.732178
 21
256.628892
  0
LINE
  8
1
 62
2
  6
CONTINUOUS
 10
46.732178
 20
256.628892
 11
47.156221
 21
257.294059
  0
LINE
  8
1
 62
2
  6
CONTINUOUS
 10
47.156221
 20
257.294059
 11
47.648323
 21
257.918020
  0
LINE
  8
1
 62
2
  6
CONTINUOUS
 10
47.648323
 20
257.918020
 11
48.199840
 21
258.489814
  0
LINE
  8
1
 62
2
  6
CONTINUOUS
 10
48.199840
 20
258.489814
 11
48.801081
 21
258.999392
  0
LINE
  8
1
 62
2
  6
CONTINUOUS
 10
48.801081
 20
258.999392
 11
49.441385
 21
259.437743
  0
LINE
  8
1
 62
2
  6
CONTINUOUS
 10
49.441385
 20
259.437743
 11
50.109630
 21
259.797266
  0
LINE
  8
1
 62
2
  6
CONTINUOUS
 10
50.109630
 20
259.797266
 11
50.794102
 21
260.071637
  0
LINE
  8
1
 62
2
  6
CONTINUOUS
 10
50.794102
 20
260.071637
 11
51.029841
 21
260.145039
  0
LINE
  8
1
 62
2
  6
CONTINUOUS
 10
48.458688
 20
251.175570
 11
48.470113
 21
250.834486
  0
LINE
  8
1
 62
2
  6
CONTINUOUS
 10
48.470113
 20
250.834486
 11
48.561210
 21
250.178070
  0
LINE
  8
1
 62
2
  6
CONTINUOUS
 10
48.561210
 20
250.178070
 11
48.741803
 21
249.565535
  0
LINE
  8
1
 62
2
  6
CONTINUOUS
 10
48.741803
 20
249.565535
 11
48.973112
 21
249.082056
  0
LINE
  8
1
 62
2
  6
CONTINUOUS
 10
48.973112
 20
253.566087
 11
48.741803
 21
252.949061
  0
LINE
  8
1
 62
2
  6
CONTINUOUS
 10
48.741803
 20
252.949061
 11
48.561210
 21
252.232261
  0
LINE
  8
1
 62
2
  6
CONTINUOUS
 10
48.561210
 20
252.232261
 11
48.470113
 21
251.523250
  0
LINE
  8
1
 62
2
  6
CONTINUOUS
 10
48.470113
 20
251.523250
 11
48.458688
 21
251.175570
  0
LINE
  8
1
 62
2
  6
CONTINUOUS
 10
48.950993
 20
248.033454
 11
48.973112
 21
248.027069
  0
LINE
  8
1
 62
2
  6
CONTINUOUS
 10
48.458688
 20
248.744034
 11
48.950993
 21
248.033454
  0
LINE
  8
1
 62
2
  6
CONTINUOUS
 10
48.458688
 20
251.175570
 11
48.458688
 21
248.744034
  0
LINE
  8
1
 62
2
  6
CONTINUOUS
 10
48.458688
 20
253.607106
 11
48.458688
 21
251.175570
  0
LINE
  8
1
 62
2
  6
CONTINUOUS
 10
48.950993
 20
254.601918
 11
48.458688
 21
253.607106
  0
LINE
  8
1
 62
2
  6
CONTINUOUS
 10
48.973112
 20
254.621074
 11
48.950993
 21
254.601918
  0
LINE
  8
1
 62
2
  6
CONTINUOUS
 10
53.022145
 20
259.507732
 11
52.037536
 21
259.223500
  0
LINE
  8
1
 62
2
  6
CONTINUOUS
 10
52.037536
 20
259.223500
 11
50.537536
 21
257.924462
  0
LINE
  8
1
 62
2
  6
CONTINUOUS
 10
54.522145
 20
259.074720
 11
53.022145
 21
259.507732
  0
LINE
  8
1
 62
2
  6
CONTINUOUS
 10
47.825993
 20
255.576197
 11
47.333688
 21
254.581384
  0
LINE
  8
1
 62
2
  6
CONTINUOUS
 10
47.333688
 20
254.581384
 11
47.333688
 21
252.149849
  0
LINE
  8
1
 62
2
  6
CONTINUOUS
 10
48.973112
 20
256.569631
 11
47.825993
 21
255.576197
  0
LINE
  8
1
 62
2
  6
CONTINUOUS
 10
47.333688
 20
249.718313
 11
47.825993
 21
249.007733
  0
LINE
  8
1
 62
2
  6
CONTINUOUS
 10
47.333688
 20
252.149849
 11
47.333688
 21
249.718313
  0
LINE
  8
1
 62
2
  6
CONTINUOUS
 10
53.772145
 20
258.858213
 11
53.022145
 21
259.507732
  0
LINE
  8
1
 62
2
  6
CONTINUOUS
 10
48.950993
 20
248.033454
 11
47.825993
 21
249.007733
  0
LINE
  8
1
 62
2
  6
CONTINUOUS
 10
48.458688
 20
248.744034
 11
47.333688
 21
249.718313
  0
LINE
  8
1
 62
2
  6
CONTINUOUS
 10
48.458688
 20
253.607106
 11
47.333688
 21
254.581384
  0
LINE
  8
1
 62
2
  6
CONTINUOUS
 10
48.950993
 20
254.601918
 11
47.825993
 21
255.576197
  0
LINE
  8
1
 62
2
  6
CONTINUOUS
 10
52.787536
 20
258.573981
 11
52.037536
 21
259.223500
  0
LINE
  8
1
 62
2
  6
CONTINUOUS
 10
41.053752
 20
260.115930
 11
40.873259
 21
260.305104
  0
LINE
  8
1
 62
2
  6
CONTINUOUS
 10
40.873259
 20
260.305104
 11
40.726290
 21
260.525647
  0
LINE
  8
1
 62
2
  6
CONTINUOUS
 10
40.726290
 20
260.525647
 11
40.615352
 21
260.773812
  0
LINE
  8
1
 62
2
  6
CONTINUOUS
 10
40.615352
 20
260.773812
 11
40.542456
 21
261.045130
  0
LINE
  8
1
 62
2
  6
CONTINUOUS
 10
40.542456
 20
261.045130
 11
40.508863
 21
261.334912
  0
LINE
  8
1
 62
2
  6
CONTINUOUS
 10
40.508863
 20
261.334912
 11
40.506524
 21
261.437346
  0
LINE
  8
1
 62
2
  6
CONTINUOUS
 10
40.506524
 20
261.437346
 11
40.508863
 21
261.541131
  0
LINE
  8
1
 62
2
  6
CONTINUOUS
 10
40.508863
 20
261.541131
 11
40.542456
 21
261.850308
  0
LINE
  8
1
 62
2
  6
CONTINUOUS
 10
40.542456
 20
261.850308
 11
40.615352
 21
262.163713
  0
LINE
  8
1
 62
2
  6
CONTINUOUS
 10
40.615352
 20
262.163713
 11
40.726290
 21
262.475928
  0
LINE
  8
1
 62
2
  6
CONTINUOUS
 10
40.726290
 20
262.475928
 11
40.873259
 21
262.781323
  0
LINE
  8
1
 62
2
  6
CONTINUOUS
 10
40.873259
 20
262.781323
 11
41.053752
 21
263.074705
  0
LINE
  8
1
 62
2
  6
CONTINUOUS
 10
41.053752
 20
263.074705
 11
41.264591
 21
263.350876
  0
LINE
  8
1
 62
2
  6
CONTINUOUS
 10
41.264591
 20
263.350876
 11
41.502036
 21
263.604935
  0
LINE
  8
1
 62
2
  6
CONTINUOUS
 10
41.502036
 20
263.604935
 11
41.761948
 21
263.832455
  0
LINE
  8
1
 62
2
  6
CONTINUOUS
 10
41.761948
 20
263.832455
 11
42.039731
 21
264.029412
  0
LINE
  8
1
 62
2
  6
CONTINUOUS
 10
42.039731
 20
264.029412
 11
42.330528
 21
264.192363
  0
LINE
  8
1
 62
2
  6
CONTINUOUS
 10
42.330528
 20
264.192363
 11
42.629214
 21
264.318435
  0
LINE
  8
1
 62
2
  6
CONTINUOUS
 10
42.629214
 20
264.318435
 11
42.930547
 21
264.405417
  0
LINE
  8
1
 62
2
  6
CONTINUOUS
 10
42.930547
 20
264.405417
 11
43.229153
 21
264.451773
  0
LINE
  8
1
 62
2
  6
CONTINUOUS
 10
43.229153
 20
264.451773
 11
43.519950
 21
264.456714
  0
LINE
  8
1
 62
2
  6
CONTINUOUS
 10
43.519950
 20
264.456714
 11
43.797733
 21
264.420135
  0
LINE
  8
1
 62
2
  6
CONTINUOUS
 10
43.797733
 20
264.420135
 11
44.057645
 21
264.342675
  0
LINE
  8
1
 62
2
  6
CONTINUOUS
 10
44.057645
 20
264.342675
 11
44.295090
 21
264.225705
  0
LINE
  8
1
 62
2
  6
CONTINUOUS
 10
44.295090
 20
264.225705
 11
44.505929
 21
264.071263
  0
LINE
  8
1
 62
2
  6
CONTINUOUS
 10
77.159650
 20
224.819808
 11
77.166338
 21
224.527065
  0
LINE
  8
1
 62
2
  6
CONTINUOUS
 10
77.166338
 20
224.527065
 11
77.262304
 21
223.699236
  0
LINE
  8
1
 62
2
  6
CONTINUOUS
 10
77.262304
 20
223.699236
 11
77.470559
 21
222.924072
  0
LINE
  8
1
 62
2
  6
CONTINUOUS
 10
77.470559
 20
222.924072
 11
77.787492
 21
222.215064
  0
LINE
  8
1
 62
2
  6
CONTINUOUS
 10
77.787492
 20
222.215064
 11
78.207515
 21
221.584766
  0
LINE
  8
1
 62
2
  6
CONTINUOUS
 10
78.207515
 20
221.584766
 11
78.723250
 21
221.044253
  0
LINE
  8
1
 62
2
  6
CONTINUOUS
 10
78.723250
 20
221.044253
 11
79.325582
 21
220.603053
  0
LINE
  8
1
 62
2
  6
CONTINUOUS
 10
79.325582
 20
220.603053
 11
80.003948
 21
220.268877
  0
LINE
  8
1
 62
2
  6
CONTINUOUS
 10
80.003948
 20
220.268877
 11
80.746531
 21
220.047564
  0
LINE
  8
1
 62
2
  6
CONTINUOUS
 10
80.746531
 20
220.047564
 11
81.540213
 21
219.943044
  0
LINE
  8
1
 62
2
  6
CONTINUOUS
 10
81.540213
 20
219.943044
 11
82.371050
 21
219.957155
  0
LINE
  8
1
 62
2
  6
CONTINUOUS
 10
82.371050
 20
219.957155
 11
83.224444
 21
220.089648
  0
LINE
  8
1
 62
2
  6
CONTINUOUS
 10
83.224444
 20
220.089648
 11
84.085317
 21
220.338166
  0
LINE
  8
1
 62
2
  6
CONTINUOUS
 10
84.085317
 20
220.338166
 11
84.938631
 21
220.698352
  0
LINE
  8
1
 62
2
  6
CONTINUOUS
 10
84.938631
 20
220.698352
 11
85.769468
 21
221.163925
  0
LINE
  8
1
 62
2
  6
CONTINUOUS
 10
85.769468
 20
221.163925
 11
86.563150
 21
221.726677
  0
LINE
  8
1
 62
2
  6
CONTINUOUS
 10
86.563150
 20
221.726677
 11
87.305733
 21
222.376720
  0
LINE
  8
1
 62
2
  6
CONTINUOUS
 10
87.305733
 20
222.376720
 11
87.984099
 21
223.102551
  0
LINE
  8
1
 62
2
  6
CONTINUOUS
 10
87.984099
 20
223.102551
 11
88.586431
 21
223.891508
  0
LINE
  8
1
 62
2
  6
CONTINUOUS
 10
88.586431
 20
223.891508
 11
89.102166
 21
224.729781
  0
LINE
  8
1
 62
2
  6
CONTINUOUS
 10
89.102166
 20
224.729781
 11
89.522189
 21
225.602579
  0
LINE
  8
1
 62
2
  6
CONTINUOUS
 10
89.522189
 20
225.602579
 11
89.839122
 21
226.494569
  0
LINE
  8
1
 62
2
  6
CONTINUOUS
 10
89.839122
 20
226.494569
 11
90.047377
 21
227.389969
  0
LINE
  8
1
 62
2
  6
CONTINUOUS
 10
90.047377
 20
227.389969
 11
90.143343
 21
228.273204
  0
LINE
  8
1
 62
2
  6
CONTINUOUS
 10
90.143343
 20
228.273204
 11
90.150031
 21
228.569808
  0
LINE
  8
1
 62
2
  6
CONTINUOUS
 10
69.985750
 20
228.611150
 11
69.470015
 21
229.151663
  0
LINE
  8
1
 62
2
  6
CONTINUOUS
 10
69.470015
 20
229.151663
 11
69.049992
 21
229.781961
  0
LINE
  8
1
 62
2
  6
CONTINUOUS
 10
69.049992
 20
229.781961
 11
68.733059
 21
230.490969
  0
LINE
  8
1
 62
2
  6
CONTINUOUS
 10
68.733059
 20
230.490969
 11
68.524804
 21
231.266133
  0
LINE
  8
1
 62
2
  6
CONTINUOUS
 10
68.524804
 20
231.266133
 11
68.428838
 21
232.093962
  0
LINE
  8
1
 62
2
  6
CONTINUOUS
 10
68.428838
 20
232.093962
 11
68.422150
 21
232.386705
  0
LINE
  8
1
 62
2
  6
CONTINUOUS
 10
68.422150
 20
232.386705
 11
68.428838
 21
232.683309
  0
LINE
  8
1
 62
2
  6
CONTINUOUS
 10
68.428838
 20
232.683309
 11
68.524804
 21
233.566544
  0
LINE
  8
1
 62
2
  6
CONTINUOUS
 10
68.524804
 20
233.566544
 11
68.733059
 21
234.461944
  0
LINE
  8
1
 62
2
  6
CONTINUOUS
 10
68.733059
 20
234.461944
 11
69.049992
 21
235.353933
  0
LINE
  8
1
 62
2
  6
CONTINUOUS
 10
69.049992
 20
235.353933
 11
69.470015
 21
236.226732
  0
LINE
  8
1
 62
2
  6
CONTINUOUS
 10
69.470015
 20
236.226732
 11
69.985750
 21
237.065004
  0
LINE
  8
1
 62
2
  6
CONTINUOUS
 10
69.985750
 20
237.065004
 11
70.588082
 21
237.853961
  0
LINE
  8
1
 62
2
  6
CONTINUOUS
 10
70.588082
 20
237.853961
 11
71.266448
 21
238.579792
  0
LINE
  8
1
 62
2
  6
CONTINUOUS
 10
71.266448
 20
238.579792
 11
72.009031
 21
239.229836
  0
LINE
  8
1
 62
2
  6
CONTINUOUS
 10
72.009031
 20
239.229836
 11
72.802713
 21
239.792588
  0
LINE
  8
1
 62
2
  6
CONTINUOUS
 10
72.802713
 20
239.792588
 11
73.633550
 21
240.258161
  0
LINE
  8
1
 62
2
  6
CONTINUOUS
 10
73.633550
 20
240.258161
 11
74.486864
 21
240.618347
  0
LINE
  8
1
 62
2
  6
CONTINUOUS
 10
74.486864
 20
240.618347
 11
75.347737
 21
240.866865
  0
LINE
  8
1
 62
2
  6
CONTINUOUS
 10
75.347737
 20
240.866865
 11
76.201131
 21
240.999358
  0
LINE
  8
1
 62
2
  6
CONTINUOUS
 10
76.201131
 20
240.999358
 11
77.031968
 21
241.013468
  0
LINE
  8
1
 62
2
  6
CONTINUOUS
 10
77.031968
 20
241.013468
 11
77.825650
 21
240.908949
  0
LINE
  8
1
 62
2
  6
CONTINUOUS
 10
77.825650
 20
240.908949
 11
78.568233
 21
240.687636
  0
LINE
  8
1
 62
2
  6
CONTINUOUS
 10
78.568233
 20
240.687636
 11
79.246599
 21
240.353460
  0
LINE
  8
1
 62
2
  6
CONTINUOUS
 10
79.246599
 20
240.353460
 11
79.848931
 21
239.912260
  0
LINE
  8
1
 62
2
  6
CONTINUOUS
 10
90.150031
 20
228.569808
 11
90.143343
 21
228.862551
  0
LINE
  8
1
 62
2
  6
CONTINUOUS
 10
90.143343
 20
228.862551
 11
90.047377
 21
229.690380
  0
LINE
  8
1
 62
2
  6
CONTINUOUS
 10
90.047377
 20
229.690380
 11
89.839122
 21
230.465544
  0
LINE
  8
1
 62
2
  6
CONTINUOUS
 10
89.839122
 20
230.465544
 11
89.522189
 21
231.174552
  0
LINE
  8
1
 62
2
  6
CONTINUOUS
 10
89.522189
 20
231.174552
 11
89.102166
 21
231.804849
  0
LINE
  8
1
 62
2
  6
CONTINUOUS
 10
89.102166
 20
231.804849
 11
88.586431
 21
232.345363
  0
LINE
  8
1
 62
2
  6
CONTINUOUS
 10
88.586431
 20
232.345363
 11
87.984099
 21
232.786563
  0
LINE
  8
1
 62
2
  6
CONTINUOUS
 10
87.984099
 20
232.786563
 11
87.305733
 21
233.120739
  0
LINE
  8
1
 62
2
  6
CONTINUOUS
 10
87.305733
 20
233.120739
 11
86.563150
 21
233.342052
  0
LINE
  8
1
 62
2
  6
CONTINUOUS
 10
86.563150
 20
233.342052
 11
85.769468
 21
233.446571
  0
LINE
  8
1
 62
2
  6
CONTINUOUS
 10
85.769468
 20
233.446571
 11
84.938631
 21
233.432461
  0
LINE
  8
1
 62
2
  6
CONTINUOUS
 10
84.938631
 20
233.432461
 11
84.085237
 21
233.299968
  0
LINE
  8
1
 62
2
  6
CONTINUOUS
 10
84.085237
 20
233.299968
 11
83.224364
 21
233.051450
  0
LINE
  8
1
 62
2
  6
CONTINUOUS
 10
83.224364
 20
233.051450
 11
82.371050
 21
232.691264
  0
LINE
  8
1
 62
2
  6
CONTINUOUS
 10
82.371050
 20
232.691264
 11
81.540213
 21
232.225691
  0
LINE
  8
1
 62
2
  6
CONTINUOUS
 10
81.540213
 20
232.225691
 11
80.746531
 21
231.662939
  0
LINE
  8
1
 62
2
  6
CONTINUOUS
 10
80.746531
 20
231.662939
 11
80.003948
 21
231.012895
  0
LINE
  8
1
 62
2
  6
CONTINUOUS
 10
80.003948
 20
231.012895
 11
79.325582
 21
230.287064
  0
LINE
  8
1
 62
2
  6
CONTINUOUS
 10
79.325582
 20
230.287064
 11
78.723250
 21
229.498107
  0
LINE
  8
1
 62
2
  6
CONTINUOUS
 10
78.723250
 20
229.498107
 11
78.207515
 21
228.659835
  0
LINE
  8
1
 62
2
  6
CONTINUOUS
 10
78.207515
 20
228.659835
 11
77.787492
 21
227.787036
  0
LINE
  8
1
 62
2
  6
CONTINUOUS
 10
77.787492
 20
227.787036
 11
77.470559
 21
226.895047
  0
LINE
  8
1
 62
2
  6
CONTINUOUS
 10
77.470559
 20
226.895047
 11
77.262304
 21
225.999647
  0
LINE
  8
1
 62
2
  6
CONTINUOUS
 10
77.262304
 20
225.999647
 11
77.166338
 21
225.116412
  0
LINE
  8
1
 62
2
  6
CONTINUOUS
 10
77.166338
 20
225.116412
 11
77.159650
 21
224.819808
  0
LINE
  8
1
 62
2
  6
CONTINUOUS
 10
89.038493
 20
228.032428
 11
89.033143
 21
228.266623
  0
LINE
  8
1
 62
2
  6
CONTINUOUS
 10
89.033143
 20
228.266623
 11
88.956362
 21
228.928929
  0
LINE
  8
1
 62
2
  6
CONTINUOUS
 10
88.956362
 20
228.928929
 11
88.789745
 21
229.549077
  0
LINE
  8
1
 62
2
  6
CONTINUOUS
 10
88.789745
 20
229.549077
 11
88.536233
 21
230.116198
  0
LINE
  8
1
 62
2
  6
CONTINUOUS
 10
88.536233
 20
230.116198
 11
88.200218
 21
230.620439
  0
LINE
  8
1
 62
2
  6
CONTINUOUS
 10
88.200218
 20
230.620439
 11
87.787634
 21
231.052853
  0
LINE
  8
1
 62
2
  6
CONTINUOUS
 10
87.787634
 20
231.052853
 11
87.305730
 21
231.405843
  0
LINE
  8
1
 62
2
  6
CONTINUOUS
 10
87.305730
 20
231.405843
 11
86.762974
 21
231.673205
  0
LINE
  8
1
 62
2
  6
CONTINUOUS
 10
86.762974
 20
231.673205
 11
86.168967
 21
231.850228
  0
LINE
  8
1
 62
2
  6
CONTINUOUS
 10
86.168967
 20
231.850228
 11
85.534104
 21
231.933836
  0
LINE
  8
1
 62
2
  6
CONTINUOUS
 10
85.534104
 20
231.933836
 11
84.869436
 21
231.922556
  0
LINE
  8
1
 62
2
  6
CONTINUOUS
 10
84.869436
 20
231.922556
 11
84.186723
 21
231.816570
  0
LINE
  8
1
 62
2
  6
CONTINUOUS
 10
84.186723
 20
231.816570
 11
83.497958
 21
231.617741
  0
LINE
  8
1
 62
2
  6
CONTINUOUS
 10
83.497958
 20
231.617741
 11
82.815245
 21
231.329562
  0
LINE
  8
1
 62
2
  6
CONTINUOUS
 10
82.815245
 20
231.329562
 11
82.150577
 21
230.957096
  0
LINE
  8
1
 62
2
  6
CONTINUOUS
 10
82.150577
 20
230.957096
 11
81.515714
 21
230.506950
  0
LINE
  8
1
 62
2
  6
CONTINUOUS
 10
81.515714
 20
230.506950
 11
80.921707
 21
229.986976
  0
LINE
  8
1
 62
2
  6
CONTINUOUS
 10
80.921707
 20
229.986976
 11
80.378951
 21
229.406254
  0
LINE
  8
1
 62
2
  6
CONTINUOUS
 10
80.378951
 20
229.406254
 11
79.897047
 21
228.775037
  0
LINE
  8
1
 62
2
  6
CONTINUOUS
 10
79.897047
 20
228.775037
 11
79.484463
 21
228.104417
  0
LINE
  8
1
 62
2
  6
CONTINUOUS
 10
79.484463
 20
228.104417
 11
79.148448
 21
227.406177
  0
LINE
  8
1
 62
2
  6
CONTINUOUS
 10
79.148448
 20
227.406177
 11
78.894936
 21
226.692691
  0
LINE
  8
1
 62
2
  6
CONTINUOUS
 10
78.894936
 20
226.692691
 11
78.728319
 21
225.976348
  0
LINE
  8
1
 62
2
  6
CONTINUOUS
 10
78.728319
 20
225.976348
 11
78.651538
 21
225.269712
  0
LINE
  8
1
 62
2
  6
CONTINUOUS
 10
78.651538
 20
225.269712
 11
78.646188
 21
225.032428
  0
LINE
  8
1
 62
2
  6
CONTINUOUS
 10
78.646188
 20
225.032428
 11
78.651538
 21
224.798234
  0
LINE
  8
1
 62
2
  6
CONTINUOUS
 10
78.651538
 20
224.798234
 11
78.728319
 21
224.135927
  0
LINE
  8
1
 62
2
  6
CONTINUOUS
 10
78.728319
 20
224.135927
 11
78.894936
 21
223.515780
  0
LINE
  8
1
 62
2
  6
CONTINUOUS
 10
78.894936
 20
223.515780
 11
79.148448
 21
222.948658
  0
LINE
  8
1
 62
2
  6
CONTINUOUS
 10
79.148448
 20
222.948658
 11
79.484463
 21
222.444417
  0
LINE
  8
1
 62
2
  6
CONTINUOUS
 10
79.484463
 20
222.444417
 11
79.897047
 21
222.012003
  0
LINE
  8
1
 62
2
  6
CONTINUOUS
 10
79.897047
 20
222.012003
 11
80.378951
 21
221.659014
  0
LINE
  8
1
 62
2
  6
CONTINUOUS
 10
80.378951
 20
221.659014
 11
80.921707
 21
221.391652
  0
LINE
  8
1
 62
2
  6
CONTINUOUS
 10
80.921707
 20
221.391652
 11
81.515714
 21
221.214628
  0
LINE
  8
1
 62
2
  6
CONTINUOUS
 10
81.515714
 20
221.214628
 11
82.150577
 21
221.131021
  0
LINE
  8
1
 62
2
  6
CONTINUOUS
 10
82.150577
 20
221.131021
 11
82.815245
 21
221.142300
  0
LINE
  8
1
 62
2
  6
CONTINUOUS
 10
82.815245
 20
221.142300
 11
83.497958
 21
221.248286
  0
LINE
  8
1
 62
2
  6
CONTINUOUS
 10
83.497958
 20
221.248286
 11
84.186723
 21
221.447115
  0
LINE
  8
1
 62
2
  6
CONTINUOUS
 10
84.186723
 20
221.447115
 11
84.869436
 21
221.735294
  0
LINE
  8
1
 62
2
  6
CONTINUOUS
 10
84.869436
 20
221.735294
 11
85.534104
 21
222.107761
  0
LINE
  8
1
 62
2
  6
CONTINUOUS
 10
85.534104
 20
222.107761
 11
86.168967
 21
222.557907
  0
LINE
  8
1
 62
2
  6
CONTINUOUS
 10
86.168967
 20
222.557907
 11
86.762974
 21
223.077880
  0
LINE
  8
1
 62
2
  6
CONTINUOUS
 10
86.762974
 20
223.077880
 11
87.305730
 21
223.658603
  0
LINE
  8
1
 62
2
  6
CONTINUOUS
 10
87.305730
 20
223.658603
 11
87.787634
 21
224.289819
  0
LINE
  8
1
 62
2
  6
CONTINUOUS
 10
87.787634
 20
224.289819
 11
88.200218
 21
224.960439
  0
LINE
  8
1
 62
2
  6
CONTINUOUS
 10
88.200218
 20
224.960439
 11
88.536233
 21
225.658679
  0
LINE
  8
1
 62
2
  6
CONTINUOUS
 10
88.536233
 20
225.658679
 11
88.789745
 21
226.372165
  0
LINE
  8
1
 62
2
  6
CONTINUOUS
 10
88.789745
 20
226.372165
 11
88.956362
 21
227.088508
  0
LINE
  8
1
 62
2
  6
CONTINUOUS
 10
88.956362
 20
227.088508
 11
89.033143
 21
227.795145
  0
LINE
  8
1
 62
2
  6
CONTINUOUS
 10
89.033143
 20
227.795145
 11
89.038493
 21
228.032428
  0
LINE
  8
1
 62
2
  6
CONTINUOUS
 10
77.671910
 20
224.751178
 11
77.678264
 21
224.473050
  0
LINE
  8
1
 62
2
  6
CONTINUOUS
 10
77.678264
 20
224.473050
 11
77.769439
 21
223.686589
  0
LINE
  8
1
 62
2
  6
CONTINUOUS
 10
77.769439
 20
223.686589
 11
77.967309
 21
222.950126
  0
LINE
  8
1
 62
2
  6
CONTINUOUS
 10
77.967309
 20
222.950126
 11
78.268398
 21
222.276601
  0
LINE
  8
1
 62
2
  6
CONTINUOUS
 10
78.268398
 20
222.276601
 11
78.667415
 21
221.677847
  0
LINE
  8
1
 62
2
  6
CONTINUOUS
 10
78.667415
 20
221.677847
 11
79.157351
 21
221.164382
  0
LINE
  8
1
 62
2
  6
CONTINUOUS
 10
79.157351
 20
221.164382
 11
79.729597
 21
220.745229
  0
LINE
  8
1
 62
2
  6
CONTINUOUS
 10
79.729597
 20
220.745229
 11
80.374100
 21
220.427752
  0
LINE
  8
1
 62
2
  6
CONTINUOUS
 10
80.374100
 20
220.427752
 11
81.079536
 21
220.217527
  0
LINE
  8
1
 62
2
  6
CONTINUOUS
 10
81.079536
 20
220.217527
 11
81.833513
 21
220.118249
  0
LINE
  8
1
 62
2
  6
CONTINUOUS
 10
81.833513
 20
220.118249
 11
82.622782
 21
220.131662
  0
LINE
  8
1
 62
2
  6
CONTINUOUS
 10
82.622782
 20
220.131662
 11
83.433402
 21
220.257513
  0
LINE
  8
1
 62
2
  6
CONTINUOUS
 10
83.433402
 20
220.257513
 11
84.251203
 21
220.493586
  0
LINE
  8
1
 62
2
  6
CONTINUOUS
 10
84.251203
 20
220.493586
 11
85.061899
 21
220.835774
  0
LINE
  8
1
 62
2
  6
CONTINUOUS
 10
85.061899
 20
220.835774
 11
85.851168
 21
221.278046
  0
LINE
  8
1
 62
2
  6
CONTINUOUS
 10
85.851168
 20
221.278046
 11
86.605145
 21
221.812633
  0
LINE
  8
1
 62
2
  6
CONTINUOUS
 10
86.605145
 20
221.812633
 11
87.310581
 21
222.430141
  0
LINE
  8
1
 62
2
  6
CONTINUOUS
 10
87.310581
 20
222.430141
 11
87.955084
 21
223.119723
  0
LINE
  8
1
 62
2
  6
CONTINUOUS
 10
87.955084
 20
223.119723
 11
88.527330
 21
223.869262
  0
LINE
  8
1
 62
2
  6
CONTINUOUS
 10
88.527330
 20
223.869262
 11
89.017266
 21
224.665591
  0
LINE
  8
1
 62
2
  6
CONTINUOUS
 10
89.017266
 20
224.665591
 11
89.416283
 21
225.494718
  0
LINE
  8
1
 62
2
  6
CONTINUOUS
 10
89.416283
 20
225.494718
 11
89.717372
 21
226.342077
  0
LINE
  8
1
 62
2
  6
CONTINUOUS
 10
89.717372
 20
226.342077
 11
89.915242
 21
227.192780
  0
LINE
  8
1
 62
2
  6
CONTINUOUS
 10
89.915242
 20
227.192780
 11
90.006417
 21
228.031881
  0
LINE
  8
1
 62
2
  6
CONTINUOUS
 10
90.006417
 20
228.031881
 11
90.012772
 21
228.313678
  0
LINE
  8
1
 62
2
  6
CONTINUOUS
 10
90.012772
 20
228.313678
 11
90.006417
 21
228.591806
  0
LINE
  8
1
 62
2
  6
CONTINUOUS
 10
90.006417
 20
228.591806
 11
89.915242
 21
229.378267
  0
LINE
  8
1
 62
2
  6
CONTINUOUS
 10
89.915242
 20
229.378267
 11
89.717372
 21
230.114730
  0
LINE
  8
1
 62
2
  6
CONTINUOUS
 10
89.717372
 20
230.114730
 11
89.416283
 21
230.788255
  0
LINE
  8
1
 62
2
  6
CONTINUOUS
 10
89.416283
 20
230.788255
 11
89.017266
 21
231.387010
  0
LINE
  8
1
 62
2
  6
CONTINUOUS
 10
89.017266
 20
231.387010
 11
88.527330
 21
231.900474
  0
LINE
  8
1
 62
2
  6
CONTINUOUS
 10
88.527330
 20
231.900474
 11
87.955084
 21
232.319627
  0
LINE
  8
1
 62
2
  6
CONTINUOUS
 10
87.955084
 20
232.319627
 11
87.310581
 21
232.637105
  0
LINE
  8
1
 62
2
  6
CONTINUOUS
 10
87.310581
 20
232.637105
 11
86.605145
 21
232.847329
  0
LINE
  8
1
 62
2
  6
CONTINUOUS
 10
86.605145
 20
232.847329
 11
85.851168
 21
232.946607
  0
LINE
  8
1
 62
2
  6
CONTINUOUS
 10
85.851168
 20
232.946607
 11
85.061899
 21
232.933195
  0
LINE
  8
1
 62
2
  6
CONTINUOUS
 10
85.061899
 20
232.933195
 11
84.251279
 21
232.807344
  0
LINE
  8
1
 62
2
  6
CONTINUOUS
 10
84.251279
 20
232.807344
 11
83.433478
 21
232.571270
  0
LINE
  8
1
 62
2
  6
CONTINUOUS
 10
83.433478
 20
232.571270
 11
82.622782
 21
232.229082
  0
LINE
  8
1
 62
2
  6
CONTINUOUS
 10
82.622782
 20
232.229082
 11
81.833513
 21
231.786810
  0
LINE
  8
1
 62
2
  6
CONTINUOUS
 10
81.833513
 20
231.786810
 11
81.079536
 21
231.252223
  0
LINE
  8
1
 62
2
  6
CONTINUOUS
 10
81.079536
 20
231.252223
 11
80.374100
 21
230.634715
  0
LINE
  8
1
 62
2
  6
CONTINUOUS
 10
80.374100
 20
230.634715
 11
79.729597
 21
229.945133
  0
LINE
  8
1
 62
2
  6
CONTINUOUS
 10
79.729597
 20
229.945133
 11
79.157351
 21
229.195594
  0
LINE
  8
1
 62
2
  6
CONTINUOUS
 10
79.157351
 20
229.195594
 11
78.667415
 21
228.399265
  0
LINE
  8
1
 62
2
  6
CONTINUOUS
 10
78.667415
 20
228.399265
 11
78.268398
 21
227.570138
  0
LINE
  8
1
 62
2
  6
CONTINUOUS
 10
78.268398
 20
227.570138
 11
77.967309
 21
226.722779
  0
LINE
  8
1
 62
2
  6
CONTINUOUS
 10
77.967309
 20
226.722779
 11
77.769439
 21
225.872076
  0
LINE
  8
1
 62
2
  6
CONTINUOUS
 10
77.769439
 20
225.872076
 11
77.678264
 21
225.032975
  0
LINE
  8
1
 62
2
  6
CONTINUOUS
 10
77.678264
 20
225.032975
 11
77.671910
 21
224.751178
  0
LINE
  8
1
 62
2
  6
CONTINUOUS
 10
87.579743
 20
229.295743
 11
87.574395
 21
229.529894
  0
LINE
  8
1
 62
2
  6
CONTINUOUS
 10
87.574395
 20
229.529894
 11
87.497630
 21
230.192147
  0
LINE
  8
1
 62
2
  6
CONTINUOUS
 10
87.497630
 20
230.192147
 11
87.330994
 21
230.812392
  0
LINE
  8
1
 62
2
  6
CONTINUOUS
 10
87.330994
 20
230.812392
 11
87.077457
 21
231.379560
  0
LINE
  8
1
 62
2
  6
CONTINUOUS
 10
87.077457
 20
231.379560
 11
86.939830
 21
231.586085
  0
LINE
  8
1
 62
2
  6
CONTINUOUS
 10
79.286103
 20
222.742086
 11
79.462955
 21
222.654967
  0
LINE
  8
1
 62
2
  6
CONTINUOUS
 10
79.462955
 20
222.654967
 11
80.056950
 21
222.477946
  0
LINE
  8
1
 62
2
  6
CONTINUOUS
 10
80.056950
 20
222.477946
 11
80.691908
 21
222.394331
  0
LINE
  8
1
 62
2
  6
CONTINUOUS
 10
80.691908
 20
222.394331
 11
81.356476
 21
222.405613
  0
LINE
  8
1
 62
2
  6
CONTINUOUS
 10
81.356476
 20
222.405613
 11
82.039219
 21
222.511603
  0
LINE
  8
1
 62
2
  6
CONTINUOUS
 10
82.039219
 20
222.511603
 11
82.058831
 21
222.515999
  0
LINE
  8
1
 62
2
  6
CONTINUOUS
 10
82.171050
 20
222.973788
 11
82.333350
 21
223.028258
  0
LINE
  8
1
 62
2
  6
CONTINUOUS
 10
82.333350
 20
223.028258
 11
82.708350
 21
222.703499
  0
LINE
  8
1
 62
2
  6
CONTINUOUS
 10
82.708350
 20
222.703499
 11
82.727962
 21
222.710426
  0
LINE
  8
1
 62
2
  6
CONTINUOUS
 10
82.727962
 20
222.710426
 11
83.410705
 21
222.998618
  0
LINE
  8
1
 62
2
  6
CONTINUOUS
 10
83.410705
 20
222.998618
 11
84.075273
 21
223.371024
  0
LINE
  8
1
 62
2
  6
CONTINUOUS
 10
84.075273
 20
223.371024
 11
84.710231
 21
223.821232
  0
LINE
  8
1
 62
2
  6
CONTINUOUS
 10
84.710231
 20
223.821232
 11
85.304226
 21
224.341197
  0
LINE
  8
1
 62
2
  6
CONTINUOUS
 10
85.304226
 20
224.341197
 11
85.847015
 21
224.921958
  0
LINE
  8
1
 62
2
  6
CONTINUOUS
 10
85.847015
 20
224.921958
 11
86.328905
 21
225.553164
  0
LINE
  8
1
 62
2
  6
CONTINUOUS
 10
86.328905
 20
225.553164
 11
86.741453
 21
226.223725
  0
LINE
  8
1
 62
2
  6
CONTINUOUS
 10
86.741453
 20
226.223725
 11
87.077457
 21
226.921931
  0
LINE
  8
1
 62
2
  6
CONTINUOUS
 10
87.077457
 20
226.921931
 11
87.330994
 21
227.635478
  0
LINE
  8
1
 62
2
  6
CONTINUOUS
 10
87.330994
 20
227.635478
 11
87.497630
 21
228.351930
  0
LINE
  8
1
 62
2
  6
CONTINUOUS
 10
87.497630
 20
228.351930
 11
87.574395
 21
229.058503
  0
LINE
  8
1
 62
2
  6
CONTINUOUS
 10
87.574395
 20
229.058503
 11
87.579743
 21
229.295743
  0
LINE
  8
1
 62
2
  6
CONTINUOUS
 10
78.701703
 20
224.683777
 11
78.959220
 21
224.565471
  0
LINE
  8
1
 62
2
  6
CONTINUOUS
 10
78.959220
 20
224.565471
 11
79.447655
 21
224.433494
  0
LINE
  8
1
 62
2
  6
CONTINUOUS
 10
79.447655
 20
224.433494
 11
79.967996
 21
224.377685
  0
LINE
  8
1
 62
2
  6
CONTINUOUS
 10
79.967996
 20
224.377685
 11
80.510974
 21
224.399051
  0
LINE
  8
1
 62
2
  6
CONTINUOUS
 10
80.510974
 20
224.399051
 11
81.067026
 21
224.497196
  0
LINE
  8
1
 62
2
  6
CONTINUOUS
 10
81.067026
 20
224.497196
 11
81.258591
 21
224.548147
  0
LINE
  8
1
 62
2
  6
CONTINUOUS
 10
81.258591
 20
224.548147
 11
81.450155
 21
224.607796
  0
LINE
  8
1
 62
2
  6
CONTINUOUS
 10
81.450155
 20
224.607796
 11
82.006207
 21
224.830688
  0
LINE
  8
1
 62
2
  6
CONTINUOUS
 10
82.006207
 20
224.830688
 11
82.549185
 21
225.122810
  0
LINE
  8
1
 62
2
  6
CONTINUOUS
 10
82.549185
 20
225.122810
 11
83.069526
 21
225.479038
  0
LINE
  8
1
 62
2
  6
CONTINUOUS
 10
83.069526
 20
225.479038
 11
83.557961
 21
225.893013
  0
LINE
  8
1
 62
2
  6
CONTINUOUS
 10
83.557961
 20
225.893013
 11
84.006057
 21
226.357582
  0
LINE
  8
1
 62
2
  6
CONTINUOUS
 10
84.006057
 20
226.357582
 11
84.405902
 21
226.864562
  0
LINE
  8
1
 62
2
  6
CONTINUOUS
 10
84.405902
 20
226.864562
 11
84.750431
 21
227.405000
  0
LINE
  8
1
 62
2
  6
CONTINUOUS
 10
84.750431
 20
227.405000
 11
85.033619
 21
227.969440
  0
LINE
  8
1
 62
2
  6
CONTINUOUS
 10
85.033619
 20
227.969440
 11
85.250447
 21
228.547853
  0
LINE
  8
1
 62
2
  6
CONTINUOUS
 10
85.250447
 20
228.547853
 11
85.397173
 21
229.130249
  0
LINE
  8
1
 62
2
  6
CONTINUOUS
 10
85.397173
 20
229.130249
 11
85.471184
 21
229.706323
  0
LINE
  8
1
 62
2
  6
CONTINUOUS
 10
85.471184
 20
229.706323
 11
85.471184
 21
230.265862
  0
LINE
  8
1
 62
2
  6
CONTINUOUS
 10
85.471184
 20
230.265862
 11
85.397173
 21
230.799205
  0
LINE
  8
1
 62
2
  6
CONTINUOUS
 10
85.397173
 20
230.799205
 11
85.250447
 21
231.296889
  0
LINE
  8
1
 62
2
  6
CONTINUOUS
 10
85.250447
 20
231.296889
 11
85.033619
 21
231.750116
  0
LINE
  8
1
 62
2
  6
CONTINUOUS
 10
85.033619
 20
231.750116
 11
84.940476
 21
231.881990
  0
LINE
  8
1
 62
2
  6
CONTINUOUS
 10
82.333350
 20
223.028258
 11
82.333350
 21
224.004888
  0
LINE
  8
1
 62
2
  6
CONTINUOUS
 10
82.708350
 20
223.680128
 11
82.333350
 21
224.004888
  0
LINE
  8
1
 62
2
  6
CONTINUOUS
 10
82.708350
 20
222.704764
 11
82.708350
 21
223.680128
  0
LINE
  8
1
 62
2
  6
CONTINUOUS
 10
82.058831
 20
223.492628
 11
82.058831
 21
222.517264
  0
LINE
  8
1
 62
2
  6
CONTINUOUS
 10
82.058831
 20
223.492628
 11
81.683831
 21
223.817388
  0
LINE
  8
1
 62
2
  6
CONTINUOUS
 10
81.683831
 20
223.817388
 11
81.817050
 21
223.847683
  0
LINE
  8
1
 62
2
  6
CONTINUOUS
 10
81.817050
 20
223.847683
 11
82.008591
 21
223.898628
  0
LINE
  8
1
 62
2
  6
CONTINUOUS
 10
82.008591
 20
223.898628
 11
82.200131
 21
223.958268
  0
LINE
  8
1
 62
2
  6
CONTINUOUS
 10
82.200131
 20
223.958268
 11
82.333350
 21
224.004888
  0
LINE
  8
1
 62
2
  6
CONTINUOUS
 10
82.708350
 20
223.680128
 11
83.131278
 21
223.856442
  0
LINE
  8
1
 62
2
  6
CONTINUOUS
 10
83.131278
 20
223.856442
 11
83.674213
 21
224.148548
  0
LINE
  8
1
 62
2
  6
CONTINUOUS
 10
83.674213
 20
224.148548
 11
84.194444
 21
224.504697
  0
LINE
  8
1
 62
2
  6
CONTINUOUS
 10
84.194444
 20
224.504697
 11
84.682984
 21
224.918757
  0
LINE
  8
1
 62
2
  6
CONTINUOUS
 10
84.682984
 20
224.918757
 11
85.131034
 21
225.383276
  0
LINE
  8
1
 62
2
  6
CONTINUOUS
 10
85.131034
 20
225.383276
 11
85.530901
 21
225.890283
  0
LINE
  8
1
 62
2
  6
CONTINUOUS
 10
85.530901
 20
225.890283
 11
85.875391
 21
226.430650
  0
LINE
  8
1
 62
2
  6
CONTINUOUS
 10
85.875391
 20
226.430650
 11
86.158606
 21
226.995131
  0
LINE
  8
1
 62
2
  6
CONTINUOUS
 10
86.158606
 20
226.995131
 11
86.375435
 21
227.573537
  0
LINE
  8
1
 62
2
  6
CONTINUOUS
 10
86.375435
 20
227.573537
 11
86.522178
 21
228.155997
  0
LINE
  8
1
 62
2
  6
CONTINUOUS
 10
86.522178
 20
228.155997
 11
86.596180
 21
228.731971
  0
LINE
  8
1
 62
2
  6
CONTINUOUS
 10
86.596180
 20
228.731971
 11
86.596563
 21
228.737915
  0
LINE
  8
1
 62
2
  6
CONTINUOUS
 10
86.596563
 20
228.737915
 11
86.596563
 21
229.285931
  0
LINE
  8
1
 62
2
  6
CONTINUOUS
 10
86.596563
 20
229.285931
 11
86.596180
 21
229.291654
  0
LINE
  8
1
 62
2
  6
CONTINUOUS
 10
86.596180
 20
229.291654
 11
86.522178
 21
229.824903
  0
LINE
  8
1
 62
2
  6
CONTINUOUS
 10
86.522178
 20
229.824903
 11
86.375435
 21
230.322641
  0
LINE
  8
1
 62
2
  6
CONTINUOUS
 10
86.375435
 20
230.322641
 11
86.158606
 21
230.775861
  0
LINE
  8
1
 62
2
  6
CONTINUOUS
 10
86.158606
 20
230.775861
 11
85.875391
 21
231.176827
  0
LINE
  8
1
 62
2
  6
CONTINUOUS
 10
85.875391
 20
231.176827
 11
85.530901
 21
231.518303
  0
LINE
  8
1
 62
2
  6
CONTINUOUS
 10
85.530901
 20
231.518303
 11
85.131034
 21
231.794446
  0
LINE
  8
1
 62
2
  6
CONTINUOUS
 10
85.131034
 20
231.794446
 11
84.856535
 21
231.920553
  0
LINE
  8
1
 62
2
  6
CONTINUOUS
 10
78.657562
 20
224.746270
 11
78.891790
 21
224.414658
  0
LINE
  8
1
 62
2
  6
CONTINUOUS
 10
78.891790
 20
224.414658
 11
79.236280
 21
224.073182
  0
LINE
  8
1
 62
2
  6
CONTINUOUS
 10
79.236280
 20
224.073182
 11
79.636147
 21
223.797039
  0
LINE
  8
1
 62
2
  6
CONTINUOUS
 10
79.636147
 20
223.797039
 11
80.084197
 21
223.591201
  0
LINE
  8
1
 62
2
  6
CONTINUOUS
 10
80.084197
 20
223.591201
 11
80.572737
 21
223.459200
  0
LINE
  8
1
 62
2
  6
CONTINUOUS
 10
80.572737
 20
223.459200
 11
81.092968
 21
223.403407
  0
LINE
  8
1
 62
2
  6
CONTINUOUS
 10
81.092968
 20
223.403407
 11
81.635903
 21
223.424765
  0
LINE
  8
1
 62
2
  6
CONTINUOUS
 10
81.635903
 20
223.424765
 11
82.058831
 21
223.492628
  0
LINE
  8
1
 62
2
  6
CONTINUOUS
 10
66.619261
 20
238.033617
 11
66.620198
 21
238.033887
  0
LINE
  8
1
 62
2
  6
CONTINUOUS
 10
66.302232
 20
237.942098
 11
66.493798
 21
237.997399
  0
LINE
  8
1
 62
2
  6
CONTINUOUS
 10
65.128855
 20
241.894686
 11
65.103892
 21
241.883905
  0
LINE
  8
1
 62
2
  6
CONTINUOUS
 10
65.103892
 20
241.883905
 11
65.001757
 21
241.825929
  0
LINE
  8
1
 62
2
  6
CONTINUOUS
 10
65.001757
 20
241.825929
 11
64.978963
 21
241.811735
  0
LINE
  8
1
 62
2
  6
CONTINUOUS
 10
64.978963
 20
241.811735
 11
64.958578
 21
241.794285
  0
LINE
  8
1
 62
2
  6
CONTINUOUS
 10
64.958578
 20
241.794285
 11
64.868976
 21
241.705456
  0
LINE
  8
1
 62
2
  6
CONTINUOUS
 10
64.868976
 20
241.705456
 11
64.852021
 21
241.685715
  0
LINE
  8
1
 62
2
  6
CONTINUOUS
 10
64.852021
 20
241.685715
 11
64.776072
 21
241.567849
  0
LINE
  8
1
 62
2
  6
CONTINUOUS
 10
64.776072
 20
241.567849
 11
64.763044
 21
241.546745
  0
LINE
  8
1
 62
2
  6
CONTINUOUS
 10
64.763044
 20
241.546745
 11
64.701909
 21
241.402463
  0
LINE
  8
1
 62
2
  6
CONTINUOUS
 10
64.701909
 20
241.402463
 11
64.693133
 21
241.381043
  0
LINE
  8
1
 62
2
  6
CONTINUOUS
 10
64.693133
 20
241.381043
 11
64.647630
 21
241.213475
  0
LINE
  8
1
 62
2
  6
CONTINUOUS
 10
64.647630
 20
241.213475
 11
64.643257
 21
241.192835
  0
LINE
  8
1
 62
2
  6
CONTINUOUS
 10
64.643257
 20
241.192835
 11
64.613850
 21
241.005518
  0
LINE
  8
1
 62
2
  6
CONTINUOUS
 10
64.613850
 20
241.005518
 11
64.600477
 21
240.799534
  0
LINE
  8
1
 62
2
  6
CONTINUOUS
 10
64.600477
 20
240.799534
 11
64.600669
 21
240.783506
  0
LINE
  8
1
 62
2
  6
CONTINUOUS
 10
64.600669
 20
240.783506
 11
64.599837
 21
240.714456
  0
LINE
  8
1
 62
2
  6
CONTINUOUS
 10
87.097055
 20
244.920639
 11
85.506408
 21
244.461458
  0
LINE
  8
1
 62
2
  6
CONTINUOUS
 10
86.743591
 20
247.004696
 11
86.952650
 21
246.855238
  0
LINE
  8
1
 62
2
  6
CONTINUOUS
 10
65.137962
 20
241.897576
 11
65.349341
 21
241.958596
  0
LINE
  8
1
 62
2
  6
CONTINUOUS
 10
64.599623
 20
240.729546
 11
64.600577
 21
240.654076
  0
LINE
  8
1
 62
2
  6
CONTINUOUS
 10
64.600577
 20
240.654076
 11
64.600767
 21
240.639994
  0
LINE
  8
1
 62
2
  6
CONTINUOUS
 10
64.600767
 20
240.639994
 11
64.614649
 21
240.409471
  0
LINE
  8
1
 62
2
  6
CONTINUOUS
 10
64.614649
 20
240.409471
 11
64.644922
 21
240.169779
  0
LINE
  8
1
 62
2
  6
CONTINUOUS
 10
64.644922
 20
240.169779
 11
64.691065
 21
239.925043
  0
LINE
  8
1
 62
2
  6
CONTINUOUS
 10
64.691065
 20
239.925043
 11
64.752283
 21
239.679470
  0
LINE
  8
1
 62
2
  6
CONTINUOUS
 10
64.752283
 20
239.679470
 11
64.827524
 21
239.437287
  0
LINE
  8
1
 62
2
  6
CONTINUOUS
 10
64.827524
 20
239.437287
 11
64.915494
 21
239.202659
  0
LINE
  8
1
 62
2
  6
CONTINUOUS
 10
64.915494
 20
239.202659
 11
65.014679
 21
238.979621
  0
LINE
  8
1
 62
2
  6
CONTINUOUS
 10
65.014679
 20
238.979621
 11
65.123373
 21
238.772011
  0
LINE
  8
1
 62
2
  6
CONTINUOUS
 10
65.130270
 20
238.760764
 11
65.248181
 21
238.569595
  0
LINE
  8
1
 62
2
  6
CONTINUOUS
 10
65.248181
 20
238.569595
 11
65.371807
 21
238.400970
  0
LINE
  8
1
 62
2
  6
CONTINUOUS
 10
65.371807
 20
238.400970
 11
65.499021
 21
238.257790
  0
LINE
  8
1
 62
2
  6
CONTINUOUS
 10
65.130270
 20
238.760764
 11
65.123373
 21
238.772011
  0
LINE
  8
1
 62
2
  6
CONTINUOUS
 10
65.513869
 20
238.242506
 11
65.644057
 21
238.125824
  0
LINE
  8
1
 62
2
  6
CONTINUOUS
 10
65.513869
 20
238.242506
 11
65.499021
 21
238.257790
  0
LINE
  8
1
 62
2
  6
CONTINUOUS
 10
65.663055
 20
238.112252
 11
65.793812
 21
238.024897
  0
LINE
  8
1
 62
2
  6
CONTINUOUS
 10
65.663055
 20
238.112252
 11
65.644057
 21
238.125824
  0
LINE
  8
1
 62
2
  6
CONTINUOUS
 10
65.816237
 20
238.013896
 11
65.945077
 21
237.958122
  0
LINE
  8
1
 62
2
  6
CONTINUOUS
 10
65.816237
 20
238.013896
 11
65.793812
 21
238.024897
  0
LINE
  8
1
 62
2
  6
CONTINUOUS
 10
65.970083
 20
237.950408
 11
66.094508
 21
237.927805
  0
LINE
  8
1
 62
2
  6
CONTINUOUS
 10
65.970083
 20
237.950408
 11
65.945077
 21
237.958122
  0
LINE
  8
1
 62
2
  6
CONTINUOUS
 10
66.148094
 20
237.924028
 11
66.266086
 21
237.935500
  0
LINE
  8
1
 62
2
  6
CONTINUOUS
 10
66.148094
 20
237.924028
 11
66.121169
 21
237.923896
  0
LINE
  8
1
 62
2
  6
CONTINUOUS
 10
66.121169
 20
237.923896
 11
66.094508
 21
237.927805
  0
LINE
  8
1
 62
2
  6
CONTINUOUS
 10
66.302232
 20
237.942098
 11
66.292989
 21
237.939690
  0
LINE
  8
1
 62
2
  6
CONTINUOUS
 10
66.292989
 20
237.939690
 11
66.266086
 21
237.935500
  0
LINE
  8
1
 62
2
  6
CONTINUOUS
 10
86.464724
 20
247.079882
 11
84.139300
 21
246.408590
  0
LINE
  8
1
 62
2
  6
CONTINUOUS
 10
87.289016
 20
245.142309
 11
87.385354
 21
245.377744
  0
LINE
  8
1
 62
2
  6
CONTINUOUS
 10
86.464724
 20
247.079882
 11
86.529030
 21
247.089537
  0
LINE
  8
1
 62
2
  6
CONTINUOUS
 10
86.529030
 20
247.089537
 11
86.597752
 21
247.080057
  0
LINE
  8
1
 62
2
  6
CONTINUOUS
 10
86.597752
 20
247.080057
 11
86.669697
 21
247.051610
  0
LINE
  8
1
 62
2
  6
CONTINUOUS
 10
86.669697
 20
247.051610
 11
86.743591
 21
247.004696
  0
LINE
  8
1
 62
2
  6
CONTINUOUS
 10
86.743591
 20
247.004696
 11
86.818189
 21
246.940093
  0
LINE
  8
1
 62
2
  6
CONTINUOUS
 10
86.818189
 20
246.940093
 11
86.892083
 21
246.859018
  0
LINE
  8
1
 62
2
  6
CONTINUOUS
 10
86.892083
 20
246.859018
 11
86.964028
 21
246.762853
  0
LINE
  8
1
 62
2
  6
CONTINUOUS
 10
86.964028
 20
246.762853
 11
87.032750
 21
246.653302
  0
LINE
  8
1
 62
2
  6
CONTINUOUS
 10
87.032750
 20
246.653302
 11
87.097055
 21
246.532267
  0
LINE
  8
1
 62
2
  6
CONTINUOUS
 10
87.097055
 20
246.532267
 11
87.155799
 21
246.401905
  0
LINE
  8
1
 62
2
  6
CONTINUOUS
 10
87.155799
 20
246.401905
 11
87.207966
 21
246.264464
  0
LINE
  8
1
 62
2
  6
CONTINUOUS
 10
87.207966
 20
246.264464
 11
87.252652
 21
246.122305
  0
LINE
  8
1
 62
2
  6
CONTINUOUS
 10
87.252652
 20
246.122305
 11
87.289016
 21
245.978110
  0
LINE
  8
1
 62
2
  6
CONTINUOUS
 10
87.289016
 20
245.978110
 11
87.316464
 21
245.834264
  0
LINE
  8
1
 62
2
  6
CONTINUOUS
 10
87.316464
 20
245.834264
 11
87.334497
 21
245.693377
  0
LINE
  8
1
 62
2
  6
CONTINUOUS
 10
87.334497
 20
245.693377
 11
87.342810
 21
245.557834
  0
LINE
  8
1
 62
2
  6
CONTINUOUS
 10
87.342810
 20
245.557834
 11
87.343390
 21
245.513121
  0
LINE
  8
1
 62
2
  6
CONTINUOUS
 10
87.343390
 20
245.513121
 11
87.342810
 21
245.469412
  0
LINE
  8
1
 62
2
  6
CONTINUOUS
 10
87.342810
 20
245.469412
 11
87.334497
 21
245.348267
  0
LINE
  8
1
 62
2
  6
CONTINUOUS
 10
87.334497
 20
245.348267
 11
87.316464
 21
245.238615
  0
LINE
  8
1
 62
2
  6
CONTINUOUS
 10
87.316464
 20
245.238615
 11
87.289016
 21
245.142309
  0
LINE
  8
1
 62
2
  6
CONTINUOUS
 10
87.289016
 20
245.142309
 11
87.252652
 21
245.061099
  0
LINE
  8
1
 62
2
  6
CONTINUOUS
 10
87.252652
 20
245.061099
 11
87.207966
 21
244.996338
  0
LINE
  8
1
 62
2
  6
CONTINUOUS
 10
87.207966
 20
244.996338
 11
87.155799
 21
244.949254
  0
LINE
  8
1
 62
2
  6
CONTINUOUS
 10
87.155799
 20
244.949254
 11
87.097055
 21
244.920639
  0
LINE
  8
1
 62
2
  6
CONTINUOUS
 10
87.428491
 20
245.671922
 11
87.428031
 21
245.637245
  0
LINE
  8
1
 62
2
  6
CONTINUOUS
 10
87.428031
 20
245.637245
 11
87.421436
 21
245.541137
  0
LINE
  8
1
 62
2
  6
CONTINUOUS
 10
87.421436
 20
245.541137
 11
87.407130
 21
245.454147
  0
LINE
  8
1
 62
2
  6
CONTINUOUS
 10
87.407130
 20
245.454147
 11
87.385354
 21
245.377744
  0
LINE
  8
1
 62
2
  6
CONTINUOUS
 10
86.952650
 20
246.855238
 11
87.011831
 21
246.803986
  0
LINE
  8
1
 62
2
  6
CONTINUOUS
 10
87.011831
 20
246.803986
 11
87.070454
 21
246.739666
  0
LINE
  8
1
 62
2
  6
CONTINUOUS
 10
87.070454
 20
246.739666
 11
87.127530
 21
246.663376
  0
LINE
  8
1
 62
2
  6
CONTINUOUS
 10
87.127530
 20
246.663376
 11
87.182050
 21
246.576465
  0
LINE
  8
1
 62
2
  6
CONTINUOUS
 10
87.182050
 20
246.576465
 11
87.233065
 21
246.480444
  0
LINE
  8
1
 62
2
  6
CONTINUOUS
 10
87.233065
 20
246.480444
 11
87.279668
 21
246.377024
  0
LINE
  8
1
 62
2
  6
CONTINUOUS
 10
87.279668
 20
246.377024
 11
87.321055
 21
246.267987
  0
LINE
  8
1
 62
2
  6
CONTINUOUS
 10
87.321055
 20
246.267987
 11
87.356505
 21
246.155208
  0
LINE
  8
1
 62
2
  6
CONTINUOUS
 10
87.356505
 20
246.155208
 11
87.385354
 21
246.040813
  0
LINE
  8
1
 62
2
  6
CONTINUOUS
 10
87.385354
 20
246.040813
 11
87.407130
 21
245.926695
  0
LINE
  8
1
 62
2
  6
CONTINUOUS
 10
87.407130
 20
245.926695
 11
87.421436
 21
245.814925
  0
LINE
  8
1
 62
2
  6
CONTINUOUS
 10
87.421436
 20
245.814925
 11
87.428031
 21
245.707394
  0
LINE
  8
1
 62
2
  6
CONTINUOUS
 10
87.428031
 20
245.707394
 11
87.428491
 21
245.671922
  0
LINE
  8
1
 62
2
  6
CONTINUOUS
 10
65.465513
 20
241.884828
 11
65.370783
 21
241.915249
  0
LINE
  8
1
 62
2
  6
CONTINUOUS
 10
65.370783
 20
241.915249
 11
65.250321
 21
241.922960
  0
LINE
  8
1
 62
2
  6
CONTINUOUS
 10
65.250321
 20
241.922960
 11
65.137962
 21
241.897576
  0
LINE
  8
1
 62
2
  6
CONTINUOUS
 10
66.619261
 20
238.233561
 11
66.619600
 21
238.234249
  0
LINE
  8
1
 62
2
  6
CONTINUOUS
 10
66.302232
 20
237.942098
 11
66.410784
 21
237.987726
  0
LINE
  8
1
 62
2
  6
CONTINUOUS
 10
66.410784
 20
237.987726
 11
66.507866
 21
238.066706
  0
LINE
  8
1
 62
2
  6
CONTINUOUS
 10
66.507866
 20
238.066706
 11
66.549468
 21
238.121718
  0
LINE
  8
1
 62
2
  6
CONTINUOUS
 10
64.629362
 20
240.666546
 11
64.630251
 21
240.595786
  0
LINE
  8
1
 62
2
  6
CONTINUOUS
 10
64.630251
 20
240.595786
 11
64.643427
 21
240.376988
  0
LINE
  8
1
 62
2
  6
CONTINUOUS
 10
64.643427
 20
240.376988
 11
64.672170
 21
240.149385
  0
LINE
  8
1
 62
2
  6
CONTINUOUS
 10
64.672170
 20
240.149385
 11
64.715985
 21
239.916991
  0
LINE
  8
1
 62
2
  6
CONTINUOUS
 10
64.715985
 20
239.916991
 11
64.774118
 21
239.683803
  0
LINE
  8
1
 62
2
  6
CONTINUOUS
 10
64.774118
 20
239.683803
 11
64.845567
 21
239.453834
  0
LINE
  8
1
 62
2
  6
CONTINUOUS
 10
64.845567
 20
239.453834
 11
64.929078
 21
239.231104
  0
LINE
  8
1
 62
2
  6
CONTINUOUS
 10
64.929078
 20
239.231104
 11
65.023223
 21
239.019398
  0
LINE
  8
1
 62
2
  6
CONTINUOUS
 10
65.023223
 20
239.019398
 11
65.126435
 21
238.822255
  0
LINE
  8
1
 62
2
  6
CONTINUOUS
 10
65.126435
 20
238.822255
 11
65.236902
 21
238.643154
  0
LINE
  8
1
 62
2
  6
CONTINUOUS
 10
65.236902
 20
238.643154
 11
65.352723
 21
238.485178
  0
LINE
  8
1
 62
2
  6
CONTINUOUS
 10
65.352723
 20
238.485178
 11
65.471906
 21
238.351043
  0
LINE
  8
1
 62
2
  6
CONTINUOUS
 10
65.471906
 20
238.351043
 11
65.592359
 21
238.243091
  0
LINE
  8
1
 62
2
  6
CONTINUOUS
 10
65.592359
 20
238.243091
 11
65.712051
 21
238.163127
  0
LINE
  8
1
 62
2
  6
CONTINUOUS
 10
65.712051
 20
238.163127
 11
65.828964
 21
238.112513
  0
LINE
  8
1
 62
2
  6
CONTINUOUS
 10
65.828964
 20
238.112513
 11
65.941045
 21
238.092153
  0
LINE
  8
1
 62
2
  6
CONTINUOUS
 10
65.941045
 20
238.092153
 11
66.046365
 21
238.102398
  0
LINE
  8
1
 62
2
  6
CONTINUOUS
 10
66.046365
 20
238.102398
 11
66.143076
 21
238.143048
  0
LINE
  8
1
 62
2
  6
CONTINUOUS
 10
66.143076
 20
238.143048
 11
66.229566
 21
238.213412
  0
LINE
  8
1
 62
2
  6
CONTINUOUS
 10
66.229566
 20
238.213412
 11
66.304359
 21
238.312311
  0
LINE
  8
1
 62
2
  6
CONTINUOUS
 10
66.304359
 20
238.312311
 11
66.366140
 21
238.438025
  0
LINE
  8
1
 62
2
  6
CONTINUOUS
 10
66.366140
 20
238.438025
 11
66.413846
 21
238.588393
  0
LINE
  8
1
 62
2
  6
CONTINUOUS
 10
66.413846
 20
238.588393
 11
66.446657
 21
238.760828
  0
LINE
  8
1
 62
2
  6
CONTINUOUS
 10
66.446657
 20
238.760828
 11
66.464003
 21
238.952270
  0
LINE
  8
1
 62
2
  6
CONTINUOUS
 10
66.464003
 20
238.952270
 11
66.466302
 21
239.020173
  0
LINE
  8
1
 62
2
  6
CONTINUOUS
 10
66.466302
 20
239.020173
 11
66.466841
 21
239.085947
  0
LINE
  8
1
 62
2
  6
CONTINUOUS
 10
66.466841
 20
239.085947
 11
66.458433
 21
239.297587
  0
LINE
  8
1
 62
2
  6
CONTINUOUS
 10
66.458433
 20
239.297587
 11
66.434921
 21
239.518838
  0
LINE
  8
1
 62
2
  6
CONTINUOUS
 10
66.434921
 20
239.518838
 11
66.396695
 21
239.745930
  0
LINE
  8
1
 62
2
  6
CONTINUOUS
 10
66.396695
 20
239.745930
 11
66.344390
 21
239.975096
  0
LINE
  8
1
 62
2
  6
CONTINUOUS
 10
66.344390
 20
239.975096
 11
66.278873
 21
240.202532
  0
LINE
  8
1
 62
2
  6
CONTINUOUS
 10
66.278873
 20
240.202532
 11
66.201232
 21
240.424466
  0
LINE
  8
1
 62
2
  6
CONTINUOUS
 10
66.201232
 20
240.424466
 11
66.112755
 21
240.637215
  0
LINE
  8
1
 62
2
  6
CONTINUOUS
 10
66.112755
 20
240.637215
 11
66.014916
 21
240.837236
  0
LINE
  8
1
 62
2
  6
CONTINUOUS
 10
66.014916
 20
240.837236
 11
65.909395
 21
241.021128
  0
LINE
  8
1
 62
2
  6
CONTINUOUS
 10
65.909395
 20
241.021128
 11
65.797815
 21
241.186057
  0
LINE
  8
1
 62
2
  6
CONTINUOUS
 10
65.797815
 20
241.186057
 11
65.682092
 21
241.329165
  0
LINE
  8
1
 62
2
  6
CONTINUOUS
 10
65.682092
 20
241.329165
 11
65.564146
 21
241.448078
  0
LINE
  8
1
 62
2
  6
CONTINUOUS
 10
65.564146
 20
241.448078
 11
65.445934
 21
241.540824
  0
LINE
  8
1
 62
2
  6
CONTINUOUS
 10
65.445934
 20
241.540824
 11
65.329418
 21
241.605862
  0
LINE
  8
1
 62
2
  6
CONTINUOUS
 10
65.329418
 20
241.605862
 11
65.216530
 21
241.642114
  0
LINE
  8
1
 62
2
  6
CONTINUOUS
 10
65.216530
 20
241.642114
 11
65.109209
 21
241.648984
  0
LINE
  8
1
 62
2
  6
CONTINUOUS
 10
65.109209
 20
241.648984
 11
65.009107
 21
241.626369
  0
LINE
  8
1
 62
2
  6
CONTINUOUS
 10
65.009107
 20
241.626369
 11
64.917941
 21
241.574627
  0
LINE
  8
1
 62
2
  6
CONTINUOUS
 10
64.917941
 20
241.574627
 11
64.837230
 21
241.494617
  0
LINE
  8
1
 62
2
  6
CONTINUOUS
 10
64.837230
 20
241.494617
 11
64.768314
 21
241.387667
  0
LINE
  8
1
 62
2
  6
CONTINUOUS
 10
64.768314
 20
241.387667
 11
64.712336
 21
241.255551
  0
LINE
  8
1
 62
2
  6
CONTINUOUS
 10
64.712336
 20
241.255551
 11
64.670225
 21
241.100462
  0
LINE
  8
1
 62
2
  6
CONTINUOUS
 10
64.670225
 20
241.100462
 11
64.642679
 21
240.924972
  0
LINE
  8
1
 62
2
  6
CONTINUOUS
 10
64.642679
 20
240.924972
 11
64.630158
 21
240.732090
  0
LINE
  8
1
 62
2
  6
CONTINUOUS
 10
64.630158
 20
240.732090
 11
64.629362
 21
240.666546
  0
LINE
  8
1
 62
2
  6
CONTINUOUS
 10
65.079362
 20
240.745585
 11
65.548112
 21
240.808385
  0
LINE
  8
1
 62
2
  6
CONTINUOUS
 10
65.079362
 20
239.808085
 11
65.079362
 21
240.745585
  0
LINE
  8
1
 62
2
  6
CONTINUOUS
 10
65.548112
 20
238.933385
 11
65.079362
 21
239.808085
  0
LINE
  8
1
 62
2
  6
CONTINUOUS
 10
66.016862
 20
238.996186
 11
65.548112
 21
238.933385
  0
LINE
  8
1
 62
2
  6
CONTINUOUS
 10
66.016862
 20
239.933686
 11
66.016862
 21
238.996186
  0
LINE
  8
1
 62
2
  6
CONTINUOUS
 10
65.548112
 20
240.808385
 11
66.016862
 21
239.933686
  0
LINE
  8
1
 62
2
  6
CONTINUOUS
 10
66.016862
 20
239.068702
 11
65.548112
 21
238.933385
  0
LINE
  8
1
 62
2
  6
CONTINUOUS
 10
65.923737
 20
240.051835
 11
65.079362
 21
239.808085
  0
LINE
  8
1
 62
2
  6
CONTINUOUS
 10
65.923737
 20
240.051835
 11
65.972030
 21
239.998879
  0
LINE
  8
1
 62
2
  6
CONTINUOUS
 10
65.972030
 20
239.998879
 11
65.999902
 21
239.965334
  0
LINE
  8
1
 62
2
  6
CONTINUOUS
 10
65.933309
 20
240.089598
 11
65.923737
 21
240.051835
  0
LINE
  8
1
 62
2
  6
CONTINUOUS
 10
66.934288
 20
225.134176
 11
66.935574
 21
225.134548
  0
LINE
  8
1
 62
2
  6
CONTINUOUS
 10
66.302232
 20
224.951717
 11
66.493798
 21
225.007018
  0
LINE
  8
1
 62
2
  6
CONTINUOUS
 10
65.128855
 20
228.904305
 11
65.103892
 21
228.893524
  0
LINE
  8
1
 62
2
  6
CONTINUOUS
 10
65.103892
 20
228.893524
 11
65.001757
 21
228.835548
  0
LINE
  8
1
 62
2
  6
CONTINUOUS
 10
65.001757
 20
228.835548
 11
64.978963
 21
228.821354
  0
LINE
  8
1
 62
2
  6
CONTINUOUS
 10
64.978963
 20
228.821354
 11
64.958578
 21
228.803904
  0
LINE
  8
1
 62
2
  6
CONTINUOUS
 10
64.958578
 20
228.803904
 11
64.868976
 21
228.715075
  0
LINE
  8
1
 62
2
  6
CONTINUOUS
 10
64.868976
 20
228.715075
 11
64.852021
 21
228.695334
  0
LINE
  8
1
 62
2
  6
CONTINUOUS
 10
64.852021
 20
228.695334
 11
64.776072
 21
228.577468
  0
LINE
  8
1
 62
2
  6
CONTINUOUS
 10
64.776072
 20
228.577468
 11
64.763044
 21
228.556364
  0
LINE
  8
1
 62
2
  6
CONTINUOUS
 10
64.763044
 20
228.556364
 11
64.701909
 21
228.412082
  0
LINE
  8
1
 62
2
  6
CONTINUOUS
 10
64.701909
 20
228.412082
 11
64.693133
 21
228.390662
  0
LINE
  8
1
 62
2
  6
CONTINUOUS
 10
64.693133
 20
228.390662
 11
64.647630
 21
228.223094
  0
LINE
  8
1
 62
2
  6
CONTINUOUS
 10
64.647630
 20
228.223094
 11
64.643257
 21
228.202454
  0
LINE
  8
1
 62
2
  6
CONTINUOUS
 10
64.643257
 20
228.202454
 11
64.613850
 21
228.015137
  0
LINE
  8
1
 62
2
  6
CONTINUOUS
 10
64.613850
 20
228.015137
 11
64.600477
 21
227.809153
  0
LINE
  8
1
 62
2
  6
CONTINUOUS
 10
64.600477
 20
227.809153
 11
64.600669
 21
227.793125
  0
LINE
  8
1
 62
2
  6
CONTINUOUS
 10
64.600669
 20
227.793125
 11
64.599837
 21
227.724075
  0
LINE
  8
1
 62
2
  6
CONTINUOUS
 10
86.743591
 20
234.014315
 11
86.952650
 21
233.864857
  0
LINE
  8
1
 62
2
  6
CONTINUOUS
 10
65.137962
 20
228.907195
 11
65.349341
 21
228.968215
  0
LINE
  8
1
 62
2
  6
CONTINUOUS
 10
64.600577
 20
227.663695
 11
64.600767
 21
227.649613
  0
LINE
  8
1
 62
2
  6
CONTINUOUS
 10
64.600767
 20
227.649613
 11
64.614649
 21
227.419090
  0
LINE
  8
1
 62
2
  6
CONTINUOUS
 10
64.614649
 20
227.419090
 11
64.644922
 21
227.179398
  0
LINE
  8
1
 62
2
  6
CONTINUOUS
 10
64.644922
 20
227.179398
 11
64.691065
 21
226.934662
  0
LINE
  8
1
 62
2
  6
CONTINUOUS
 10
64.691065
 20
226.934662
 11
64.752283
 21
226.689089
  0
LINE
  8
1
 62
2
  6
CONTINUOUS
 10
64.752283
 20
226.689089
 11
64.827524
 21
226.446906
  0
LINE
  8
1
 62
2
  6
CONTINUOUS
 10
64.827524
 20
226.446906
 11
64.915494
 21
226.212278
  0
LINE
  8
1
 62
2
  6
CONTINUOUS
 10
64.915494
 20
226.212278
 11
65.014679
 21
225.989240
  0
LINE
  8
1
 62
2
  6
CONTINUOUS
 10
65.014679
 20
225.989240
 11
65.123373
 21
225.781630
  0
LINE
  8
1
 62
2
  6
CONTINUOUS
 10
65.130270
 20
225.770383
 11
65.248181
 21
225.579214
  0
LINE
  8
1
 62
2
  6
CONTINUOUS
 10
65.248181
 20
225.579214
 11
65.371807
 21
225.410589
  0
LINE
  8
1
 62
2
  6
CONTINUOUS
 10
65.371807
 20
225.410589
 11
65.499021
 21
225.267409
  0
LINE
  8
1
 62
2
  6
CONTINUOUS
 10
65.130270
 20
225.770383
 11
65.123373
 21
225.781630
  0
LINE
  8
1
 62
2
  6
CONTINUOUS
 10
65.513869
 20
225.252125
 11
65.644057
 21
225.135443
  0
LINE
  8
1
 62
2
  6
CONTINUOUS
 10
65.513869
 20
225.252125
 11
65.499021
 21
225.267409
  0
LINE
  8
1
 62
2
  6
CONTINUOUS
 10
65.663055
 20
225.121871
 11
65.793812
 21
225.034516
  0
LINE
  8
1
 62
2
  6
CONTINUOUS
 10
65.663055
 20
225.121871
 11
65.644057
 21
225.135443
  0
LINE
  8
1
 62
2
  6
CONTINUOUS
 10
65.816237
 20
225.023515
 11
65.945077
 21
224.967741
  0
LINE
  8
1
 62
2
  6
CONTINUOUS
 10
65.816237
 20
225.023515
 11
65.793812
 21
225.034516
  0
LINE
  8
1
 62
2
  6
CONTINUOUS
 10
65.970083
 20
224.960027
 11
66.094508
 21
224.937424
  0
LINE
  8
1
 62
2
  6
CONTINUOUS
 10
65.970083
 20
224.960027
 11
65.945077
 21
224.967741
  0
LINE
  8
1
 62
2
  6
CONTINUOUS
 10
66.148094
 20
224.933647
 11
66.266086
 21
224.945119
  0
LINE
  8
1
 62
2
  6
CONTINUOUS
 10
66.148094
 20
224.933647
 11
66.121169
 21
224.933515
  0
LINE
  8
1
 62
2
  6
CONTINUOUS
 10
66.121169
 20
224.933515
 11
66.094508
 21
224.937424
  0
LINE
  8
1
 62
2
  6
CONTINUOUS
 10
66.302232
 20
224.951717
 11
66.292989
 21
224.949309
  0
LINE
  8
1
 62
2
  6
CONTINUOUS
 10
66.292989
 20
224.949309
 11
66.266086
 21
224.945119
  0
LINE
  8
1
 62
2
  6
CONTINUOUS
 10
86.567444
 20
234.093857
 11
86.597752
 21
234.089676
  0
LINE
  8
1
 62
2
  6
CONTINUOUS
 10
86.597752
 20
234.089676
 11
86.669697
 21
234.061229
  0
LINE
  8
1
 62
2
  6
CONTINUOUS
 10
86.669697
 20
234.061229
 11
86.743591
 21
234.014315
  0
LINE
  8
1
 62
2
  6
CONTINUOUS
 10
86.743591
 20
234.014315
 11
86.818189
 21
233.949712
  0
LINE
  8
1
 62
2
  6
CONTINUOUS
 10
86.818189
 20
233.949712
 11
86.892083
 21
233.868637
  0
LINE
  8
1
 62
2
  6
CONTINUOUS
 10
86.892083
 20
233.868637
 11
86.964028
 21
233.772472
  0
LINE
  8
1
 62
2
  6
CONTINUOUS
 10
86.964028
 20
233.772472
 11
86.994336
 21
233.724158
  0
LINE
  8
1
 62
2
  6
CONTINUOUS
 10
86.952650
 20
233.864857
 11
87.011831
 21
233.813605
  0
LINE
  8
1
 62
2
  6
CONTINUOUS
 10
87.011831
 20
233.813605
 11
87.070454
 21
233.749285
  0
LINE
  8
1
 62
2
  6
CONTINUOUS
 10
87.070454
 20
233.749285
 11
87.127530
 21
233.672995
  0
LINE
  8
1
 62
2
  6
CONTINUOUS
 10
87.127530
 20
233.672995
 11
87.182050
 21
233.586084
  0
LINE
  8
1
 62
2
  6
CONTINUOUS
 10
87.182050
 20
233.586084
 11
87.206152
 21
233.540720
  0
LINE
  8
1
 62
2
  6
CONTINUOUS
 10
65.465513
 20
228.894447
 11
65.370783
 21
228.924868
  0
LINE
  8
1
 62
2
  6
CONTINUOUS
 10
65.370783
 20
228.924868
 11
65.250321
 21
228.932579
  0
LINE
  8
1
 62
2
  6
CONTINUOUS
 10
65.250321
 20
228.932579
 11
65.137962
 21
228.907195
  0
LINE
  8
1
 62
2
  6
CONTINUOUS
 10
66.673023
 20
226.894795
 11
66.671955
 21
226.899476
  0
LINE
  8
1
 62
2
  6
CONTINUOUS
 10
66.302232
 20
224.951717
 11
66.410784
 21
224.997345
  0
LINE
  8
1
 62
2
  6
CONTINUOUS
 10
66.410784
 20
224.997345
 11
66.507866
 21
225.076325
  0
LINE
  8
1
 62
2
  6
CONTINUOUS
 10
66.507866
 20
225.076325
 11
66.549468
 21
225.131337
  0
LINE
  8
1
 62
2
  6
CONTINUOUS
 10
64.629362
 20
227.676165
 11
64.630251
 21
227.605405
  0
LINE
  8
1
 62
2
  6
CONTINUOUS
 10
64.630251
 20
227.605405
 11
64.643427
 21
227.386607
  0
LINE
  8
1
 62
2
  6
CONTINUOUS
 10
64.643427
 20
227.386607
 11
64.672170
 21
227.159004
  0
LINE
  8
1
 62
2
  6
CONTINUOUS
 10
64.672170
 20
227.159004
 11
64.715985
 21
226.926610
  0
LINE
  8
1
 62
2
  6
CONTINUOUS
 10
64.715985
 20
226.926610
 11
64.774118
 21
226.693422
  0
LINE
  8
1
 62
2
  6
CONTINUOUS
 10
64.774118
 20
226.693422
 11
64.845567
 21
226.463453
  0
LINE
  8
1
 62
2
  6
CONTINUOUS
 10
64.845567
 20
226.463453
 11
64.929078
 21
226.240723
  0
LINE
  8
1
 62
2
  6
CONTINUOUS
 10
64.929078
 20
226.240723
 11
65.023223
 21
226.029017
  0
LINE
  8
1
 62
2
  6
CONTINUOUS
 10
65.023223
 20
226.029017
 11
65.126435
 21
225.831874
  0
LINE
  8
1
 62
2
  6
CONTINUOUS
 10
65.126435
 20
225.831874
 11
65.236902
 21
225.652773
  0
LINE
  8
1
 62
2
  6
CONTINUOUS
 10
65.236902
 20
225.652773
 11
65.352723
 21
225.494797
  0
LINE
  8
1
 62
2
  6
CONTINUOUS
 10
65.352723
 20
225.494797
 11
65.471906
 21
225.360662
  0
LINE
  8
1
 62
2
  6
CONTINUOUS
 10
65.471906
 20
225.360662
 11
65.592359
 21
225.252710
  0
LINE
  8
1
 62
2
  6
CONTINUOUS
 10
65.592359
 20
225.252710
 11
65.712051
 21
225.172746
  0
LINE
  8
1
 62
2
  6
CONTINUOUS
 10
65.712051
 20
225.172746
 11
65.828964
 21
225.122132
  0
LINE
  8
1
 62
2
  6
CONTINUOUS
 10
65.828964
 20
225.122132
 11
65.941045
 21
225.101772
  0
LINE
  8
1
 62
2
  6
CONTINUOUS
 10
65.941045
 20
225.101772
 11
66.046365
 21
225.112017
  0
LINE
  8
1
 62
2
  6
CONTINUOUS
 10
66.046365
 20
225.112017
 11
66.143076
 21
225.152667
  0
LINE
  8
1
 62
2
  6
CONTINUOUS
 10
66.143076
 20
225.152667
 11
66.229566
 21
225.223031
  0
LINE
  8
1
 62
2
  6
CONTINUOUS
 10
66.229566
 20
225.223031
 11
66.304359
 21
225.321930
  0
LINE
  8
1
 62
2
  6
CONTINUOUS
 10
66.304359
 20
225.321930
 11
66.366140
 21
225.447644
  0
LINE
  8
1
 62
2
  6
CONTINUOUS
 10
66.366140
 20
225.447644
 11
66.413846
 21
225.598012
  0
LINE
  8
1
 62
2
  6
CONTINUOUS
 10
66.413846
 20
225.598012
 11
66.446657
 21
225.770447
  0
LINE
  8
1
 62
2
  6
CONTINUOUS
 10
66.446657
 20
225.770447
 11
66.464003
 21
225.961888
  0
LINE
  8
1
 62
2
  6
CONTINUOUS
 10
66.464003
 20
225.961888
 11
66.466302
 21
226.029792
  0
LINE
  8
1
 62
2
  6
CONTINUOUS
 10
66.466302
 20
226.029792
 11
66.466841
 21
226.095566
  0
LINE
  8
1
 62
2
  6
CONTINUOUS
 10
66.466841
 20
226.095566
 11
66.458433
 21
226.307206
  0
LINE
  8
1
 62
2
  6
CONTINUOUS
 10
66.458433
 20
226.307206
 11
66.434921
 21
226.528457
  0
LINE
  8
1
 62
2
  6
CONTINUOUS
 10
66.434921
 20
226.528457
 11
66.396695
 21
226.755549
  0
LINE
  8
1
 62
2
  6
CONTINUOUS
 10
66.396695
 20
226.755549
 11
66.344390
 21
226.984715
  0
LINE
  8
1
 62
2
  6
CONTINUOUS
 10
66.344390
 20
226.984715
 11
66.278873
 21
227.212151
  0
LINE
  8
1
 62
2
  6
CONTINUOUS
 10
66.278873
 20
227.212151
 11
66.201232
 21
227.434085
  0
LINE
  8
1
 62
2
  6
CONTINUOUS
 10
66.201232
 20
227.434085
 11
66.112755
 21
227.646834
  0
LINE
  8
1
 62
2
  6
CONTINUOUS
 10
66.112755
 20
227.646834
 11
66.014916
 21
227.846855
  0
LINE
  8
1
 62
2
  6
CONTINUOUS
 10
66.014916
 20
227.846855
 11
65.909395
 21
228.030747
  0
LINE
  8
1
 62
2
  6
CONTINUOUS
 10
65.909395
 20
228.030747
 11
65.797815
 21
228.195676
  0
LINE
  8
1
 62
2
  6
CONTINUOUS
 10
65.797815
 20
228.195676
 11
65.682092
 21
228.338784
  0
LINE
  8
1
 62
2
  6
CONTINUOUS
 10
65.682092
 20
228.338784
 11
65.564146
 21
228.457697
  0
LINE
  8
1
 62
2
  6
CONTINUOUS
 10
65.564146
 20
228.457697
 11
65.445934
 21
228.550443
  0
LINE
  8
1
 62
2
  6
CONTINUOUS
 10
65.445934
 20
228.550443
 11
65.329418
 21
228.615481
  0
LINE
  8
1
 62
2
  6
CONTINUOUS
 10
65.329418
 20
228.615481
 11
65.216530
 21
228.651733
  0
LINE
  8
1
 62
2
  6
CONTINUOUS
 10
65.216530
 20
228.651733
 11
65.109209
 21
228.658603
  0
LINE
  8
1
 62
2
  6
CONTINUOUS
 10
65.109209
 20
228.658603
 11
65.009107
 21
228.635988
  0
LINE
  8
1
 62
2
  6
CONTINUOUS
 10
65.009107
 20
228.635988
 11
64.917941
 21
228.584246
  0
LINE
  8
1
 62
2
  6
CONTINUOUS
 10
64.917941
 20
228.584246
 11
64.837230
 21
228.504236
  0
LINE
  8
1
 62
2
  6
CONTINUOUS
 10
64.837230
 20
228.504236
 11
64.768314
 21
228.397286
  0
LINE
  8
1
 62
2
  6
CONTINUOUS
 10
64.768314
 20
228.397286
 11
64.712336
 21
228.265170
  0
LINE
  8
1
 62
2
  6
CONTINUOUS
 10
64.712336
 20
228.265170
 11
64.670225
 21
228.110081
  0
LINE
  8
1
 62
2
  6
CONTINUOUS
 10
64.670225
 20
228.110081
 11
64.642679
 21
227.934591
  0
LINE
  8
1
 62
2
  6
CONTINUOUS
 10
64.642679
 20
227.934591
 11
64.630158
 21
227.741709
  0
LINE
  8
1
 62
2
  6
CONTINUOUS
 10
64.630158
 20
227.741709
 11
64.629362
 21
227.676165
  0
LINE
  8
1
 62
2
  6
CONTINUOUS
 10
65.079362
 20
227.755204
 11
65.548112
 21
227.818004
  0
LINE
  8
1
 62
2
  6
CONTINUOUS
 10
65.079362
 20
226.817704
 11
65.079362
 21
227.755204
  0
LINE
  8
1
 62
2
  6
CONTINUOUS
 10
65.548112
 20
225.943004
 11
65.079362
 21
226.817704
  0
LINE
  8
1
 62
2
  6
CONTINUOUS
 10
66.016862
 20
226.005805
 11
65.548112
 21
225.943004
  0
LINE
  8
1
 62
2
  6
CONTINUOUS
 10
66.016862
 20
226.943305
 11
66.016862
 21
226.005805
  0
LINE
  8
1
 62
2
  6
CONTINUOUS
 10
65.548112
 20
227.818004
 11
66.016862
 21
226.943305
  0
LINE
  8
1
 62
2
  6
CONTINUOUS
 10
66.016862
 20
226.078321
 11
65.548112
 21
225.943004
  0
LINE
  8
1
 62
2
  6
CONTINUOUS
 10
65.923737
 20
227.061454
 11
65.079362
 21
226.817704
  0
LINE
  8
1
 62
2
  6
CONTINUOUS
 10
65.923737
 20
227.061454
 11
65.972030
 21
227.008498
  0
LINE
  8
1
 62
2
  6
CONTINUOUS
 10
65.972030
 20
227.008498
 11
65.999902
 21
226.974953
  0
LINE
  8
1
 62
2
  6
CONTINUOUS
 10
65.933309
 20
227.099217
 11
65.923737
 21
227.061454
  0
LINE
  8
1
 62
2
  6
CONTINUOUS
 10
84.292971
 20
246.139110
 11
84.334965
 21
246.048589
  0
LINE
  8
1
 62
2
  6
CONTINUOUS
 10
84.250270
 20
246.221216
 11
84.292410
 21
246.139983
  0
LINE
  8
1
 62
2
  6
CONTINUOUS
 10
84.292410
 20
246.139983
 11
84.333356
 21
246.049982
  0
LINE
  8
1
 62
2
  6
CONTINUOUS
 10
83.219020
 20
247.114305
 11
83.261138
 21
247.119760
  0
LINE
  8
1
 62
2
  6
CONTINUOUS
 10
83.261138
 20
247.119760
 11
83.367751
 21
247.131493
  0
LINE
  8
1
 62
2
  6
CONTINUOUS
 10
83.367751
 20
247.131493
 11
83.460214
 21
247.138145
  0
LINE
  8
1
 62
2
  6
CONTINUOUS
 10
83.460214
 20
247.138145
 11
83.540346
 21
247.139343
  0
LINE
  8
1
 62
2
  6
CONTINUOUS
 10
83.540346
 20
247.139343
 11
83.576187
 21
247.137642
  0
LINE
  8
1
 62
2
  6
CONTINUOUS
 10
83.576187
 20
247.137642
 11
83.202122
 21
247.029659
  0
LINE
  8
1
 62
2
  6
CONTINUOUS
 10
83.120918
 20
247.099984
 11
83.174476
 21
247.108148
  0
LINE
  8
1
 62
2
  6
CONTINUOUS
 10
83.174476
 20
247.108148
 11
83.219020
 21
247.114305
  0
LINE
  8
1
 62
2
  6
CONTINUOUS
 10
83.576187
 20
247.137642
 11
83.696034
 21
247.004445
  0
LINE
  8
1
 62
2
  6
CONTINUOUS
 10
83.696034
 20
247.004445
 11
83.899261
 21
246.757608
  0
LINE
  8
1
 62
2
  6
CONTINUOUS
 10
83.899261
 20
246.757608
 11
84.065947
 21
246.526615
  0
LINE
  8
1
 62
2
  6
CONTINUOUS
 10
84.065947
 20
246.526615
 11
84.205726
 21
246.301709
  0
LINE
  8
1
 62
2
  6
CONTINUOUS
 10
84.205726
 20
246.301709
 11
84.250270
 21
246.221216
  0
LINE
  8
1
 62
2
  6
CONTINUOUS
 10
66.491616
 20
237.992526
 11
82.441713
 21
243.989876
  0
LINE
  8
1
 62
2
  6
CONTINUOUS
 10
66.491616
 20
237.992526
 11
67.242968
 21
224.663438
  0
LINE
  8
1
 62
2
  6
CONTINUOUS
 10
66.491616
 20
237.992526
 11
67.241517
 21
239.710473
  0
LINE
  8
1
 62
2
  6
CONTINUOUS
 10
67.241517
 20
239.710473
 11
67.221462
 21
240.030838
  0
LINE
  8
1
 62
2
  6
CONTINUOUS
 10
67.221462
 20
240.030838
 11
67.178172
 21
240.363950
  0
LINE
  8
1
 62
2
  6
CONTINUOUS
 10
67.178172
 20
240.363950
 11
67.112425
 21
240.703812
  0
LINE
  8
1
 62
2
  6
CONTINUOUS
 10
67.112425
 20
240.703812
 11
67.025405
 21
241.044308
  0
LINE
  8
1
 62
2
  6
CONTINUOUS
 10
67.025405
 20
241.044308
 11
66.918708
 21
241.379224
  0
LINE
  8
1
 62
2
  6
CONTINUOUS
 10
66.918708
 20
241.379224
 11
66.794236
 21
241.702620
  0
LINE
  8
1
 62
2
  6
CONTINUOUS
 10
66.794236
 20
241.702620
 11
66.654186
 21
242.008763
  0
LINE
  8
1
 62
2
  6
CONTINUOUS
 10
66.654186
 20
242.008763
 11
66.501111
 21
242.292053
  0
LINE
  8
1
 62
2
  6
CONTINUOUS
 10
66.501111
 20
242.292053
 11
66.337764
 21
242.547392
  0
LINE
  8
1
 62
2
  6
CONTINUOUS
 10
66.337764
 20
242.547392
 11
66.167088
 21
242.770183
  0
LINE
  8
1
 62
2
  6
CONTINUOUS
 10
66.167088
 20
242.770183
 11
65.992152
 21
242.956418
  0
LINE
  8
1
 62
2
  6
CONTINUOUS
 10
65.992152
 20
242.956418
 11
65.930468
 21
243.012351
  0
LINE
  8
1
 62
2
  6
CONTINUOUS
 10
66.935612
 20
239.643554
 11
66.491616
 21
237.992526
  0
TEXT
  8
5
 62
7
  6
CONTINUOUS
 10
153.250937
 20
36.382897
 40
4.000000
 41
1.000000
  1
FTKX/FLHX/TMHX用
  7
KANJI
 50
0.213789
 51
0.000000
  0
TEXT
  8
5
 62
7
  6
CONTINUOUS
 10
153.132841
 20
31.570699
 40
4.000000
 41
1.000000
  1
三脚取付金具 TMAX-E
  7
KANJI
 50
0.213789
 51
0.000000
  0
TEXT
  8
5
 62
7
  6
CONTINUOUS
 10
153.678577
 20
26.477159
 40
4.000000
 41
1.000000
  1
外形図
  7
KANJI
 50
0.213789
 51
0.000000
  0
LINE
  8
1
 62
7
  6
DASHDOT
 10
27.160775
 20
175.058676
 11
34.342997
 21
175.058676
  0
TEXT
  8
2
 62
7
  6
CONTINUOUS
 10
42.333544
 20
270.941006
 40
4.000000
 41
1.000000
  1
TMHX：HX-C2aヘッド取付例
  7
KANJI
 50
0.000000
 51
0.000000
  0
TEXT
  8
2
 62
134
  6
CONTINUOUS
 10
25.715876
 20
90.459662
 40
3.999996
 41
1.000000
  1
ｽﾌﾟﾘﾝｸﾞﾜｯｼｬ　PbSW
  7
KANJI
 50
0.000000
 51
0.000000
  0
TEXT
  8
2
 62
134
  6
CONTINUOUS
 10
47.104491
 20
98.480392
 40
3.999996
 41
1.000000
  1
品名
  7
KANJI
 50
0.000000
 51
0.000000
  0
TEXT
  8
2
 62
134
  6
CONTINUOUS
 10
22.735259
 20
103.459649
 40
4.999995
 41
1.000000
  1
標準付属部品リスト
  7
KANJI
 50
0.000000
 51
0.000000
  0
TEXT
  8
2
 62
134
  6
CONTINUOUS
 10
26.017249
 20
72.459680
 40
3.999996
 41
1.000000
  1
ﾅﾍﾞﾈｼﾞ BS
  7
KANJI
 50
0.000000
 51
0.000000
  0
TEXT
  8
2
 62
134
  6
CONTINUOUS
 10
26.318622
 20
66.459686
 40
3.999996
 41
1.000000
  1
ﾅﾍﾞﾈｼﾞ BS
  7
KANJI
 50
0.000000
 51
0.000000
  0
TEXT
  8
2
 62
134
  6
CONTINUOUS
 10
26.318622
 20
60.459692
 40
3.999996
 41
1.000000
  1
ﾅﾍﾞﾈｼﾞ BS
  7
KANJI
 50
0.000000
 51
0.000000
  0
TEXT
  8
2
 62
134
  6
CONTINUOUS
 10
26.017249
 20
54.459698
 40
3.999996
 41
1.000000
  1
ﾅﾍﾞﾈｼﾞ BS
  7
KANJI
 50
0.000000
 51
0.000000
  0
TEXT
  8
2
 62
134
  6
CONTINUOUS
 10
26.367896
 20
48.459698
 40
3.999996
 41
1.000000
  1
ﾅﾍﾞﾈｼﾞ BS
  7
KANJI
 50
0.000000
 51
0.000000
  0
LINE
  8
2
 62
134
  6
CONTINUOUS
 10
22.735259
 20
48.459698
 11
22.735259
 21
103.459649
  0
TEXT
  8
2
 62
134
  6
CONTINUOUS
 10
26.017249
 20
84.459674
 40
3.999996
 41
1.000000
  1
平ﾜｯｼｬ BS
  7
KANJI
 50
0.000000
 51
0.000000
  0
TEXT
  8
2
 62
134
  6
CONTINUOUS
 10
26.017249
 20
78.459674
 40
3.999996
 41
1.000000
  1
ﾅｯﾄ BS
  7
KANJI
 50
0.000000
 51
0.000000
  0
LINE
  8
2
 62
134
  6
CONTINUOUS
 10
61.189247
 20
48.459698
 11
61.189247
 21
97.459655
  0
TEXT
  8
2
 62
134
  6
CONTINUOUS
 10
63.720887
 20
90.363793
 40
3.999996
 41
1.000000
  1
M3
  7
KANJI
 50
0.000000
 51
0.000000
  0
TEXT
  8
2
 62
134
  6
CONTINUOUS
 10
64.062120
 20
72.459680
 40
3.999996
 41
1.000000
  1
M3L20
  7
KANJI
 50
0.000000
 51
0.000000
  0
TEXT
  8
2
 62
134
  6
CONTINUOUS
 10
63.760747
 20
66.459686
 40
3.999996
 41
1.000000
  1
M3L25
  7
KANJI
 50
0.000000
 51
0.000000
  0
TEXT
  8
2
 62
134
  6
CONTINUOUS
 10
64.062120
 20
60.459692
 40
3.999996
 41
1.000000
  1
M3L30
  7
KANJI
 50
0.000000
 51
0.000000
  0
TEXT
  8
2
 62
134
  6
CONTINUOUS
 10
64.062120
 20
54.459698
 40
3.999996
 41
1.000000
  1
M3L40
  7
KANJI
 50
0.000000
 51
0.000000
  0
TEXT
  8
2
 62
134
  6
CONTINUOUS
 10
63.760747
 20
48.459698
 40
3.999996
 41
1.000000
  1
M3L45
  7
KANJI
 50
0.000000
 51
0.000000
  0
TEXT
  8
2
 62
134
  6
CONTINUOUS
 10
63.729385
 20
84.459674
 40
3.999996
 41
1.000000
  1
M3大
  7
KANJI
 50
0.000000
 51
0.000000
  0
TEXT
  8
2
 62
134
  6
CONTINUOUS
 10
63.790023
 20
78.459674
 40
3.999996
 41
1.000000
  1
M3
  7
KANJI
 50
0.000000
 51
0.000000
  0
LINE
  8
2
 62
134
  6
CONTINUOUS
 10
75.990327
 20
48.459698
 11
75.990327
 21
103.459649
  0
TEXT
  8
2
 62
134
  6
CONTINUOUS
 10
79.615894
 20
90.459662
 40
3.999996
 41
1.000000
  1
2
  7
KANJI
 50
0.000000
 51
0.000000
  0
TEXT
  8
2
 62
134
  6
CONTINUOUS
 10
79.615894
 20
78.459674
 40
3.999996
 41
1.000000
  1
2
  7
KANJI
 50
0.000000
 51
0.000000
  0
TEXT
  8
2
 62
134
  6
CONTINUOUS
 10
79.615894
 20
72.459680
 40
3.999996
 41
1.000000
  1
2
  7
KANJI
 50
0.000000
 51
0.000000
  0
TEXT
  8
2
 62
134
  6
CONTINUOUS
 10
79.615894
 20
66.459686
 40
3.999996
 41
1.000000
  1
2
  7
KANJI
 50
0.000000
 51
0.000000
  0
TEXT
  8
2
 62
134
  6
CONTINUOUS
 10
79.615894
 20
60.459692
 40
3.999996
 41
1.000000
  1
2
  7
KANJI
 50
0.000000
 51
0.000000
  0
TEXT
  8
2
 62
134
  6
CONTINUOUS
 10
79.615894
 20
54.459698
 40
3.999996
 41
1.000000
  1
2
  7
KANJI
 50
0.000000
 51
0.000000
  0
TEXT
  8
2
 62
134
  6
CONTINUOUS
 10
79.615894
 20
48.459698
 40
3.999996
 41
1.000000
  1
2
  7
KANJI
 50
0.000000
 51
0.000000
  0
LINE
  8
2
 62
134
  6
CONTINUOUS
 10
85.167291
 20
48.459698
 11
85.167291
 21
103.459649
  0
TEXT
  8
2
 62
134
  6
CONTINUOUS
 10
79.615894
 20
84.459674
 40
3.999996
 41
1.000000
  1
4
  7
KANJI
 50
0.000000
 51
0.000000
  0
TEXT
  8
2
 62
134
  6
CONTINUOUS
 10
76.715666
 20
97.907483
 40
3.999996
 41
1.000000
  1
数量
  7
KANJI
 50
0.000000
 51
0.000000
  0
TEXT
  8
2
 62
134
  6
CONTINUOUS
 10
87.222958
 20
90.459662
 40
3.999996
 41
1.000000
  1
ﾍｯﾄﾞ固定用共通
  7
KANJI
 50
0.000000
 51
0.000000
  0
TEXT
  8
2
 62
134
  6
CONTINUOUS
 10
87.025448
 20
78.459674
 40
3.999996
 41
1.000000
  1
ﾍｯﾄﾞ固定用共通
  7
KANJI
 50
0.000000
 51
0.000000
  0
TEXT
  8
2
 62
134
  6
CONTINUOUS
 10
87.025448
 20
84.459674
 40
3.999996
 41
1.000000
  1
ﾍｯﾄﾞ固定用共通
  7
KANJI
 50
0.000000
 51
0.000000
  0
TEXT
  8
2
 62
134
  6
CONTINUOUS
 10
90.048738
 20
98.289423
 40
3.999996
 41
1.000000
  1
用途(FTKX/FLHX/TMHX用)
  7
KANJI
 50
0.000000
 51
0.000000
  0
TEXT
  8
2
 62
134
  6
CONTINUOUS
 10
86.432919
 20
72.459680
 40
3.999996
 41
1.000000
  1
FTKX:φ6角ﾍｯﾄﾞ用
  7
KANJI
 50
0.000000
 51
0.000000
  0
TEXT
  8
2
 62
134
  6
CONTINUOUS
 10
86.630429
 20
66.459686
 40
3.999996
 41
1.000000
  1
FTKX:φ6光学照準ﾍｯﾄﾞ用
  7
KANJI
 50
0.000000
 51
0.000000
  0
LINE
  8
2
 62
134
  6
CONTINUOUS
 10
22.735259
 20
96.459656
 11
191.936450
 21
96.459656
  0
LINE
  8
2
 62
134
  6
CONTINUOUS
 10
22.735259
 20
90.459662
 11
191.936450
 21
90.459662
  0
LINE
  8
2
 62
134
  6
CONTINUOUS
 10
22.735259
 20
103.459649
 11
191.936450
 21
103.459649
  0
LINE
  8
2
 62
134
  6
CONTINUOUS
 10
22.735259
 20
97.459655
 11
191.936450
 21
97.459655
  0
LINE
  8
2
 62
134
  6
CONTINUOUS
 10
22.735259
 20
78.459674
 11
191.936450
 21
78.459674
  0
LINE
  8
2
 62
134
  6
CONTINUOUS
 10
22.735259
 20
72.459680
 11
191.936450
 21
72.459680
  0
LINE
  8
2
 62
134
  6
CONTINUOUS
 10
22.735259
 20
66.459686
 11
191.936450
 21
66.459686
  0
LINE
  8
2
 62
134
  6
CONTINUOUS
 10
22.735259
 20
60.459692
 11
191.936450
 21
60.459692
  0
LINE
  8
2
 62
134
  6
CONTINUOUS
 10
22.735259
 20
48.459698
 11
191.936450
 21
48.459698
  0
LINE
  8
2
 62
134
  6
CONTINUOUS
 10
191.936450
 20
103.459649
 11
191.936450
 21
48.459698
  0
LINE
  8
2
 62
134
  6
CONTINUOUS
 10
22.735259
 20
54.459692
 11
191.936450
 21
54.459692
  0
LINE
  8
2
 62
134
  6
CONTINUOUS
 10
22.735259
 20
84.459674
 11
191.936450
 21
84.459674
  0
TEXT
  8
2
 62
134
  6
CONTINUOUS
 10
86.232882
 20
60.920084
 40
3.999996
 41
1.000000
  1
TMHX:HX-C用、FLHX:全ﾍｯﾄﾞ、FTKX:φ15角､光学照準ﾍｯﾄﾞ用
  7
KANJI
 50
0.000000
 51
0.000000
  0
TEXT
  8
2
 62
134
  6
CONTINUOUS
 10
86.332910
 20
54.919055
 40
3.999996
 41
1.000000
  1
TMHX:HX-D用、FTKX:φ25角ﾍｯﾄﾞ、φ25光学照準ﾍｯﾄﾞ用
  7
KANJI
 50
0.000000
 51
0.000000
  0
TEXT
  8
2
 62
134
  6
CONTINUOUS
 10
86.784401
 20
48.889832
 40
3.999996
 41
1.000000
  1
FTKX:φ25光学照準ﾍｯﾄﾞ用
  7
KANJI
 50
0.000000
 51
0.000000
  0
ENDSEC
  0
EOF
