  0
SECTION
  2
HEADER
  9
$ACADVER
  1
AC1027
  9
$ACADMAINTVER
 70
     8
  9
$DWGCODEPAGE
  3
ANSI_932
  9
$REQUIREDVERSIONS
160
                 0
  9
$INSBASE
 10
0.0
 20
0.0
 30
0.0
  9
$EXTMIN
 10
10.69835590863275
 20
10.11855466200292
 30
0.0
  9
$EXTMAX
 10
291.450203957046
 20
285.8286347112452
 30
0.0
  9
$LIMMIN
 10
0.0
 20
0.0
  9
$LIMMAX
 10
210.0
 20
297.0
  9
$ORTHOMODE
 70
     0
  9
$REGENMODE
 70
     1
  9
$FILLMODE
 70
     1
  9
$QTEXTMODE
 70
     0
  9
$MIRRTEXT
 70
     1
  9
$LTSCALE
 40
0.25
  9
$ATTMODE
 70
     1
  9
$TEXTSIZE
 40
5.0
  9
$TRACEWID
 40
0.05
  9
$TEXTSTYLE
  7
Standard
  9
$CLAYER
  8
0
  9
$CELTYPE
  6
ByLayer
  9
$CECOLOR
 62
   256
  9
$CELTSCALE
 40
1.0
  9
$DISPSILH
 70
     0
  9
$DIMSCALE
 40
1.0
  9
$DIMASZ
 40
2.0
  9
$DIMEXO
 40
2.0
  9
$DIMDLI
 40
10.0
  9
$DIMRND
 40
0.0
  9
$DIMDLE
 40
0.0
  9
$DIMEXE
 40
2.0
  9
$DIMTP
 40
0.0
  9
$DIMTM
 40
0.0
  9
$DIMTXT
 40
4.0
  9
$DIMCEN
 40
0.09
  9
$DIMTSZ
 40
0.0
  9
$DIMTOL
 70
     0
  9
$DIMLIM
 70
     0
  9
$DIMTIH
 70
     0
  9
$DIMTOH
 70
     0
  9
$DIMSE1
 70
     0
  9
$DIMSE2
 70
     0
  9
$DIMTAD
 70
     3
  9
$DIMZIN
 70
     8
  9
$DIMBLK
  1

  9
$DIMASO
 70
     1
  9
$DIMSHO
 70
     1
  9
$DIMPOST
  1

  9
$DIMAPOST
  1

  9
$DIMALT
 70
     0
  9
$DIMALTD
 70
     2
  9
$DIMALTF
 40
25.4
  9
$DIMLFAC
 40
1.0
  9
$DIMTOFL
 70
     1
  9
$DIMTVP
 40
0.7
  9
$DIMTIX
 70
     0
  9
$DIMSOXD
 70
     0
  9
$DIMSAH
 70
     0
  9
$DIMBLK1
  1

  9
$DIMBLK2
  1

  9
$DIMSTYLE
  2
Standard
  9
$DIMCLRD
 70
     0
  9
$DIMCLRE
 70
     0
  9
$DIMCLRT
 70
     0
  9
$DIMTFAC
 40
0.5
  9
$DIMGAP
 40
0.09
  9
$DIMJUST
 70
     0
  9
$DIMSD1
 70
     0
  9
$DIMSD2
 70
     0
  9
$DIMTOLJ
 70
     1
  9
$DIMTZIN
 70
     8
  9
$DIMALTZ
 70
     0
  9
$DIMALTTZ
 70
     0
  9
$DIMUPT
 70
     1
  9
$DIMDEC
 70
     2
  9
$DIMTDEC
 70
     4
  9
$DIMALTU
 70
     2
  9
$DIMALTTD
 70
     2
  9
$DIMTXSTY
  7
Standard
  9
$DIMAUNIT
 70
     0
  9
$DIMADEC
 70
     0
  9
$DIMALTRND
 40
0.0
  9
$DIMAZIN
 70
     0
  9
$DIMDSEP
 70
    46
  9
$DIMATFIT
 70
     2
  9
$DIMFRAC
 70
     0
  9
$DIMLDRBLK
  1

  9
$DIMLUNIT
 70
     2
  9
$DIMLWD
 70
    -2
  9
$DIMLWE
 70
    -2
  9
$DIMTMOVE
 70
     2
  9
$DIMFXL
 40
1.0
  9
$DIMFXLON
 70
     0
  9
$DIMJOGANG
 40
0.7853981633974483
  9
$DIMTFILL
 70
     0
  9
$DIMTFILLCLR
 70
     0
  9
$DIMARCSYM
 70
     0
  9
$DIMLTYPE
  6

  9
$DIMLTEX1
  6

  9
$DIMLTEX2
  6

  9
$DIMTXTDIRECTION
 70
     0
  9
$LUNITS
 70
     2
  9
$LUPREC
 70
     4
  9
$SKETCHINC
 40
0.1
  9
$FILLETRAD
 40
0.5
  9
$AUNITS
 70
     0
  9
$AUPREC
 70
     0
  9
$MENU
  1
.
  9
$ELEVATION
 40
0.0
  9
$PELEVATION
 40
0.0
  9
$THICKNESS
 40
0.0
  9
$LIMCHECK
 70
     0
  9
$CHAMFERA
 40
0.0
  9
$CHAMFERB
 40
0.0
  9
$CHAMFERC
 40
0.0
  9
$CHAMFERD
 40
0.0
  9
$SKPOLY
 70
     0
  9
$TDCREATE
 40
2457186.814583333
  9
$TDUCREATE
 40
2457186.439583333
  9
$TDUPDATE
 40
2457186.439584827
  9
$TDUUPDATE
 40
2457186.064584827
  9
$TDINDWG
 40
0.0000000116
  9
$TDUSRTIMER
 40
0.0000000116
  9
$USRTIMER
 70
     1
  9
$ANGBASE
 50
0.0
  9
$ANGDIR
 70
     0
  9
$PDMODE
 70
     0
  9
$PDSIZE
 40
0.0
  9
$PLINEWID
 40
0.0
  9
$SPLFRAME
 70
     0
  9
$SPLINETYPE
 70
     6
  9
$SPLINESEGS
 70
     8
  9
$HANDSEED
  5
578
  9
$SURFTAB1
 70
     6
  9
$SURFTAB2
 70
     6
  9
$SURFTYPE
 70
     6
  9
$SURFU
 70
     6
  9
$SURFV
 70
     6
  9
$UCSBASE
  2

  9
$UCSNAME
  2

  9
$UCSORG
 10
0.0
 20
0.0
 30
0.0
  9
$UCSXDIR
 10
1.0
 20
0.0
 30
0.0
  9
$UCSYDIR
 10
0.0
 20
1.0
 30
0.0
  9
$UCSORTHOREF
  2

  9
$UCSORTHOVIEW
 70
     0
  9
$UCSORGTOP
 10
0.0
 20
0.0
 30
0.0
  9
$UCSORGBOTTOM
 10
0.0
 20
0.0
 30
0.0
  9
$UCSORGLEFT
 10
0.0
 20
0.0
 30
0.0
  9
$UCSORGRIGHT
 10
0.0
 20
0.0
 30
0.0
  9
$UCSORGFRONT
 10
0.0
 20
0.0
 30
0.0
  9
$UCSORGBACK
 10
0.0
 20
0.0
 30
0.0
  9
$PUCSBASE
  2

  9
$PUCSNAME
  2

  9
$PUCSORG
 10
0.0
 20
0.0
 30
0.0
  9
$PUCSXDIR
 10
1.0
 20
0.0
 30
0.0
  9
$PUCSYDIR
 10
0.0
 20
1.0
 30
0.0
  9
$PUCSORTHOREF
  2

  9
$PUCSORTHOVIEW
 70
     0
  9
$PUCSORGTOP
 10
0.0
 20
0.0
 30
0.0
  9
$PUCSORGBOTTOM
 10
0.0
 20
0.0
 30
0.0
  9
$PUCSORGLEFT
 10
0.0
 20
0.0
 30
0.0
  9
$PUCSORGRIGHT
 10
0.0
 20
0.0
 30
0.0
  9
$PUCSORGFRONT
 10
0.0
 20
0.0
 30
0.0
  9
$PUCSORGBACK
 10
0.0
 20
0.0
 30
0.0
  9
$USERI1
 70
     0
  9
$USERI2
 70
     0
  9
$USERI3
 70
     0
  9
$USERI4
 70
     0
  9
$USERI5
 70
     0
  9
$USERR1
 40
0.0
  9
$USERR2
 40
0.0
  9
$USERR3
 40
0.0
  9
$USERR4
 40
0.0
  9
$USERR5
 40
0.0
  9
$WORLDVIEW
 70
     1
  9
$SHADEDGE
 70
     3
  9
$SHADEDIF
 70
    70
  9
$TILEMODE
 70
     1
  9
$MAXACTVP
 70
    64
  9
$PINSBASE
 10
0.0
 20
0.0
 30
0.0
  9
$PLIMCHECK
 70
     0
  9
$PEXTMIN
 10
0.0
 20
0.0
 30
0.0
  9
$PEXTMAX
 10
210.0
 20
297.0
 30
0.0
  9
$PLIMMIN
 10
0.0
 20
0.0
  9
$PLIMMAX
 10
210.0
 20
297.0
  9
$UNITMODE
 70
     0
  9
$VISRETAIN
 70
     1
  9
$PLINEGEN
 70
     0
  9
$PSLTSCALE
 70
     1
  9
$TREEDEPTH
 70
  3020
  9
$CMLSTYLE
  2
Standard
  9
$CMLJUST
 70
     0
  9
$CMLSCALE
 40
1.0
  9
$PROXYGRAPHICS
 70
     1
  9
$MEASUREMENT
 70
     1
  9
$CELWEIGHT
370
    -1
  9
$ENDCAPS
280
     0
  9
$JOINSTYLE
280
     0
  9
$LWDISPLAY
290
     0
  9
$INSUNITS
 70
     4
  9
$HYPERLINKBASE
  1

  9
$STYLESHEET
  1

  9
$XEDIT
290
     1
  9
$CEPSNTYPE
380
     0
  9
$PSTYLEMODE
290
     1
  9
$FINGERPRINTGUID
  2
{7A899161-C70A-414F-8C0E-7BF2ACD3B896}
  9
$VERSIONGUID
  2
{FAEB1C32-E019-11D5-929B-00C0DF256EC4}
  9
$EXTNAMES
290
     1
  9
$PSVPSCALE
 40
0.0
  9
$OLESTARTUP
290
     0
  9
$SORTENTS
280
   127
  9
$INDEXCTL
280
     0
  9
$HIDETEXT
280
     1
  9
$XCLIPFRAME
280
     2
  9
$HALOGAP
280
     0
  9
$OBSCOLOR
 70
   257
  9
$OBSLTYPE
280
     0
  9
$INTERSECTIONDISPLAY
280
     0
  9
$INTERSECTIONCOLOR
 70
   257
  9
$DIMASSOC
280
     1
  9
$PROJECTNAME
  1

  9
$CAMERADISPLAY
290
     0
  9
$LENSLENGTH
 40
50.0
  9
$CAMERAHEIGHT
 40
0.0
  9
$STEPSPERSEC
 40
2.0
  9
$STEPSIZE
 40
6.0
  9
$3DDWFPREC
 40
2.0
  9
$PSOLWIDTH
 40
0.25
  9
$PSOLHEIGHT
 40
4.0
  9
$LOFTANG1
 40
1.570796326794897
  9
$LOFTANG2
 40
1.570796326794897
  9
$LOFTMAG1
 40
0.0
  9
$LOFTMAG2
 40
0.0
  9
$LOFTPARAM
 70
     7
  9
$LOFTNORMALS
280
     1
  9
$LATITUDE
 40
37.795
  9
$LONGITUDE
 40
-122.394
  9
$NORTHDIRECTION
 40
0.0
  9
$TIMEZONE
 70
 -8000
  9
$LIGHTGLYPHDISPLAY
280
     1
  9
$TILEMODELIGHTSYNCH
280
     1
  9
$CMATERIAL
347
44
  9
$SOLIDHIST
280
     1
  9
$SHOWHIST
280
     1
  9
$DWFFRAME
280
     2
  9
$DGNFRAME
280
     2
  9
$REALWORLDSCALE
290
     1
  9
$INTERFERECOLOR
 62
   256
  9
$CSHADOW
280
     0
  9
$SHADOWPLANELOCATION
 40
0.0
  0
ENDSEC
  0
SECTION
  2
CLASSES
  0
CLASS
  1
ACDBDICTIONARYWDFLT
  2
AcDbDictionaryWithDefault
  3
ObjectDBX Classes
 90
        0
 91
        4
280
     0
281
     0
  0
CLASS
  1
VISUALSTYLE
  2
AcDbVisualStyle
  3
ObjectDBX Classes
 90
     4095
 91
        4
280
     0
281
     0
  0
CLASS
  1
MATERIAL
  2
AcDbMaterial
  3
ObjectDBX Classes
 90
     1153
 91
        4
280
     0
281
     0
  0
CLASS
  1
SCALE
  2
AcDbScale
  3
ObjectDBX Classes
 90
     1153
 91
        4
280
     0
281
     0
  0
CLASS
  1
SUN
  2
AcDbSun
  3
SCENEOE
 90
     1153
 91
        4
280
     0
281
     0
  0
CLASS
  1
DICTIONARYVAR
  2
AcDbDictionaryVar
  3
ObjectDBX Classes
 90
        0
 91
        4
280
     0
281
     0
  0
ENDSEC
  0
SECTION
  2
TABLES
  0
TABLE
  2
VPORT
  5
8
330
0
100
AcDbSymbolTable
 70
     1
  0
VPORT
  5
29
330
8
100
AcDbSymbolTableRecord
100
AcDbViewportTableRecord
  2
*Active
 70
     0
 10
0.0
 20
0.0
 11
1.0
 21
1.0
 12
10.42990654205607
 22
4.5
 13
0.0
 23
0.0
 14
0.5
 24
0.5
 15
0.5
 25
0.5
 16
0.0
 26
0.0
 36
1.0
 17
0.0
 27
0.0
 37
0.0
 40
9.0
 41
1.972972972850329
 42
50.0
 43
0.0
 44
0.0
 50
0.0
 51
0.0
 71
     0
 72
   100
 73
     1
 74
     3
 75
     0
 76
     0
 77
     0
 78
     0
281
     0
 65
     1
110
0.0
120
0.0
130
0.0
111
1.0
121
0.0
131
0.0
112
0.0
122
1.0
132
0.0
 79
     0
146
0.0
 60
     3
 61
     5
292
     1
282
     1
141
0.0
142
0.0
 63
   250
361
69
  0
ENDTAB
  0
TABLE
  2
LTYPE
  5
5
330
0
100
AcDbSymbolTable
 70
     9
  0
LTYPE
  5
14
330
5
100
AcDbSymbolTableRecord
100
AcDbLinetypeTableRecord
  2
ByBlock
 70
     0
  3

 72
    65
 73
     0
 40
0.0
  0
LTYPE
  5
15
330
5
100
AcDbSymbolTableRecord
100
AcDbLinetypeTableRecord
  2
ByLayer
 70
     0
  3

 72
    65
 73
     0
 40
0.0
  0
LTYPE
  5
16
330
5
100
AcDbSymbolTableRecord
100
AcDbLinetypeTableRecord
  2
Continuous
 70
     0
  3
Solid line
 72
    65
 73
     0
 40
0.0
  0
LTYPE
  5
B9
330
5
100
AcDbSymbolTableRecord
100
AcDbLinetypeTableRecord
  2
DOT
 70
     0
  3
DOT
 72
    65
 73
     2
 40
4.0
 49
6.0
 74
     0
 49
-2.0
 74
     0
  0
LTYPE
  5
BA
330
5
100
AcDbSymbolTableRecord
100
AcDbLinetypeTableRecord
  2
HIDDEN
 70
     0
  3
HIDDEN
 72
    65
 73
     2
 40
4.2
 49
8.4
 74
     0
 49
-4.2
 74
     0
  0
LTYPE
  5
BB
330
5
100
AcDbSymbolTableRecord
100
AcDbLinetypeTableRecord
  2
DASHDOT
 70
     0
  3
DASHDOT
 72
    65
 73
     4
 40
14.5
 49
30.0
 74
     0
 49
-9.0
 74
     0
 49
2.5
 74
     0
 49
-9.0
 74
     0
  0
LTYPE
  5
BC
330
5
100
AcDbSymbolTableRecord
100
AcDbLinetypeTableRecord
  2
PHANTOM
 70
     0
  3
PHANTOM
 72
    65
 73
     6
 40
12.0
 49
30.0
 74
     0
 49
-9.0
 74
     0
 49
2.5
 74
     0
 49
-5.0
 74
     0
 49
2.5
 74
     0
 49
-9.0
 74
     0
  0
LTYPE
  5
BD
330
5
100
AcDbSymbolTableRecord
100
AcDbLinetypeTableRecord
  2
ACAD_ISO14W100
 70
     0
  3
ACAD_ISO14W100
 72
    65
 73
     8
 40
1.5
 49
12.0
 74
     0
 49
-3.0
 74
     0
 49
0.5
 74
     0
 49
-3.0
 74
     0
 49
0.5
 74
     0
 49
-3.0
 74
     0
 49
0.5
 74
     0
 49
-3.0
 74
     0
  0
LTYPE
  5
BE
330
5
100
AcDbSymbolTableRecord
100
AcDbLinetypeTableRecord
  2
ACAD_ISO06W100
 70
     0
  3
ACAD_ISO06W100
 72
    65
 73
     8
 40
13.5
 49
24.0
 74
     0
 49
-3.0
 74
     0
 49
0.5
 74
     0
 49
-3.0
 74
     0
 49
0.5
 74
     0
 49
-3.0
 74
     0
 49
0.5
 74
     0
 49
-3.0
 74
     0
  0
LTYPE
  5
BF
330
5
100
AcDbSymbolTableRecord
100
AcDbLinetypeTableRecord
  2
ACAD_ISO11W100
 70
     0
  3
ACAD_ISO11W100
 72
    65
 73
     6
 40
15.5
 49
12.0
 74
     0
 49
-3.0
 74
     0
 49
12.0
 74
     0
 49
-3.0
 74
     0
 49
0.5
 74
     0
 49
-3.0
 74
     0
  0
LTYPE
  5
C0
330
5
100
AcDbSymbolTableRecord
100
AcDbLinetypeTableRecord
  2
ACAD_ISO13W100
 70
     0
  3
ACAD_ISO13W100
 72
    65
 73
     8
 40
13.0
 49
12.0
 74
     0
 49
-3.0
 74
     0
 49
12.0
 74
     0
 49
-3.0
 74
     0
 49
0.5
 74
     0
 49
-3.0
 74
     0
 49
0.5
 74
     0
 49
-3.0
 74
     0
  0
ENDTAB
  0
TABLE
  2
LAYER
  5
2
330
0
100
AcDbSymbolTable
 70
    22
  0
LAYER
  5
10
330
2
100
AcDbSymbolTableRecord
100
AcDbLayerTableRecord
  2
0
 70
     0
 62
     7
  6
Continuous
370
    -3
390
F
347
46
348
0
  0
LAYER
  5
C1
330
2
100
AcDbSymbolTableRecord
100
AcDbLayerTableRecord
  2
1
 70
     0
 62
     7
  6
Continuous
370
     9
390
F
347
46
348
0
  0
LAYER
  5
C2
330
2
100
AcDbSymbolTableRecord
100
AcDbLayerTableRecord
  2
2
 70
     0
 62
   134
  6
Continuous
370
     9
390
F
347
46
348
0
  0
LAYER
  5
C3
330
2
100
AcDbSymbolTableRecord
100
AcDbLayerTableRecord
  2
3
 70
     0
 62
   214
  6
Continuous
370
     9
390
F
347
46
348
0
  0
LAYER
  5
C4
330
2
100
AcDbSymbolTableRecord
100
AcDbLayerTableRecord
  2
4
 70
     0
 62
    54
  6
Continuous
370
     9
390
F
347
46
348
0
  0
LAYER
  5
C5
330
2
100
AcDbSymbolTableRecord
100
AcDbLayerTableRecord
  2
5
 70
     0
 62
    94
  6
Continuous
370
     9
390
F
347
46
348
0
  0
LAYER
  5
C6
330
2
100
AcDbSymbolTableRecord
100
AcDbLayerTableRecord
  2
6
 70
     0
 62
    14
  6
Continuous
370
     9
390
F
347
46
348
0
  0
LAYER
  5
C7
330
2
100
AcDbSymbolTableRecord
100
AcDbLayerTableRecord
  2
7
 70
     0
 62
     4
  6
Continuous
370
     9
390
F
347
46
348
0
  0
LAYER
  5
C8
330
2
100
AcDbSymbolTableRecord
100
AcDbLayerTableRecord
  2
8
 70
     0
 62
     6
  6
Continuous
370
     9
390
F
347
46
348
0
  0
LAYER
  5
C9
330
2
100
AcDbSymbolTableRecord
100
AcDbLayerTableRecord
  2
9
 70
     0
 62
     2
  6
Continuous
370
     9
390
F
347
46
348
0
  0
LAYER
  5
CA
330
2
100
AcDbSymbolTableRecord
100
AcDbLayerTableRecord
  2
10
 70
     0
 62
     3
  6
Continuous
370
     9
390
F
347
46
348
0
  0
LAYER
  5
CB
330
2
100
AcDbSymbolTableRecord
100
AcDbLayerTableRecord
  2
11
 70
     0
 62
   251
  6
Continuous
370
     9
390
F
347
46
348
0
  0
LAYER
  5
CC
330
2
100
AcDbSymbolTableRecord
100
AcDbLayerTableRecord
  2
12
 70
     0
 62
   136
  6
Continuous
370
     9
390
F
347
46
348
0
  0
LAYER
  5
CD
330
2
100
AcDbSymbolTableRecord
100
AcDbLayerTableRecord
  2
13
 70
     0
 62
   216
  6
Continuous
370
     9
390
F
347
46
348
0
  0
LAYER
  5
CE
330
2
100
AcDbSymbolTableRecord
100
AcDbLayerTableRecord
  2
14
 70
     0
 62
    56
  6
Continuous
370
     9
390
F
347
46
348
0
  0
LAYER
  5
CF
330
2
100
AcDbSymbolTableRecord
100
AcDbLayerTableRecord
  2
15
 70
     0
 62
    96
  6
Continuous
370
     9
390
F
347
46
348
0
  0
LAYER
  5
D0
330
2
100
AcDbSymbolTableRecord
100
AcDbLayerTableRecord
  2
16
 70
     0
 62
    16
  6
Continuous
370
     9
390
F
347
46
348
0
  0
LAYER
  5
D1
330
2
100
AcDbSymbolTableRecord
100
AcDbLayerTableRecord
  2
17
 70
     0
 62
   132
  6
Continuous
370
     9
390
F
347
46
348
0
  0
LAYER
  5
D2
330
2
100
AcDbSymbolTableRecord
100
AcDbLayerTableRecord
  2
18
 70
     0
 62
   212
  6
Continuous
370
     9
390
F
347
46
348
0
  0
LAYER
  5
D3
330
2
100
AcDbSymbolTableRecord
100
AcDbLayerTableRecord
  2
19
 70
     0
 62
    52
  6
Continuous
370
     9
390
F
347
46
348
0
  0
LAYER
  5
D4
330
2
100
AcDbSymbolTableRecord
100
AcDbLayerTableRecord
  2
20
 70
     0
 62
   250
  6
Continuous
370
     9
390
F
347
46
348
0
  0
LAYER
  5
D5
330
2
100
AcDbSymbolTableRecord
100
AcDbLayerTableRecord
  2
128
 70
     0
 62
     7
  6
Continuous
370
     9
390
F
347
46
348
0
  0
ENDTAB
  0
TABLE
  2
STYLE
  5
3
330
0
100
AcDbSymbolTable
 70
     2
  0
STYLE
  5
11
330
3
100
AcDbSymbolTableRecord
100
AcDbTextStyleTableRecord
  2
Standard
 70
     0
 40
0.0
 41
1.0
 50
0.0
 71
     0
 42
5.0
  3
txt
  4
bigfont
  0
STYLE
  5
6C
330
3
100
AcDbSymbolTableRecord
100
AcDbTextStyleTableRecord
  2
T_STANDARD
 70
     4
 40
10.0
 41
1.0
 50
0.0
 71
     0
 42
5.0
  3
txt
  4
bigfont
1001
ACAD
1000

1071
      256
  0
ENDTAB
  0
TABLE
  2
VIEW
  5
6
330
0
100
AcDbSymbolTable
 70
     0
  0
ENDTAB
  0
TABLE
  2
UCS
  5
7
330
0
100
AcDbSymbolTable
 70
     0
  0
ENDTAB
  0
TABLE
  2
APPID
  5
9
330
0
100
AcDbSymbolTable
 70
     2
  0
APPID
  5
12
330
9
100
AcDbSymbolTableRecord
100
AcDbRegAppTableRecord
  2
ACAD
 70
     0
  0
APPID
  5
6B
330
9
100
AcDbSymbolTableRecord
100
AcDbRegAppTableRecord
  2
ODA
 70
     0
  0
ENDTAB
  0
TABLE
  2
DIMSTYLE
  5
A
330
0
100
AcDbSymbolTable
 70
     1
100
AcDbDimStyleTable
  0
DIMSTYLE
105
27
102
{ACAD_REACTORS
330
44D
330
457
330
461
330
46B
330
475
102
}
330
A
100
AcDbSymbolTableRecord
100
AcDbDimStyleTableRecord
  2
Standard
 70
     0
178
     0
340
11
  0
ENDTAB
  0
TABLE
  2
BLOCK_RECORD
  5
1
330
0
100
AcDbSymbolTable
 70
    65
  0
BLOCK_RECORD
  5
1F
330
1
100
AcDbSymbolTableRecord
100
AcDbBlockTableRecord
  2
*Model_Space
340
22
 70
     0
280
     1
281
     0
  0
BLOCK_RECORD
  5
1B
330
1
100
AcDbSymbolTableRecord
100
AcDbBlockTableRecord
  2
*Paper_Space
340
1E
 70
     0
280
     1
281
     0
  0
BLOCK_RECORD
  5
23
330
1
100
AcDbSymbolTableRecord
100
AcDbBlockTableRecord
  2
*Paper_Space0
340
26
 70
     0
280
     1
281
     0
  0
BLOCK_RECORD
  5
6D
330
1
100
AcDbSymbolTableRecord
100
AcDbBlockTableRecord
  2
_ORIGIN
340
0
 70
     0
280
     1
281
     0
  0
BLOCK_RECORD
  5
72
330
1
100
AcDbSymbolTableRecord
100
AcDbBlockTableRecord
  2
_DOTBLANK
340
0
 70
     0
280
     1
281
     0
  0
BLOCK_RECORD
  5
77
330
1
100
AcDbSymbolTableRecord
100
AcDbBlockTableRecord
  2
_DOT
340
0
 70
     0
280
     1
281
     0
  0
BLOCK_RECORD
  5
7C
330
1
100
AcDbSymbolTableRecord
100
AcDbBlockTableRecord
  2
_OPEN
340
0
 70
     0
280
     1
281
     0
  0
BLOCK_RECORD
  5
82
330
1
100
AcDbSymbolTableRecord
100
AcDbBlockTableRecord
  2
_CLOSED
340
0
 70
     0
280
     1
281
     0
  0
BLOCK_RECORD
  5
89
330
1
100
AcDbSymbolTableRecord
100
AcDbBlockTableRecord
  2
_CLOSEDBLANK
340
0
 70
     0
280
     1
281
     0
  0
BLOCK_RECORD
  5
8F
330
1
100
AcDbSymbolTableRecord
100
AcDbBlockTableRecord
  2
_ARROWFILLED
340
0
102
{BLKREFS
331
44B
331
44C
331
455
331
456
331
45F
331
460
331
469
331
46A
331
473
331
474
331
543
331
54A
331
551
331
558
331
55F
331
566
102
}
 70
     0
280
     1
281
     0
  0
BLOCK_RECORD
  5
93
330
1
100
AcDbSymbolTableRecord
100
AcDbBlockTableRecord
  2
_BOXBLANK
340
0
 70
     0
280
     1
281
     0
  0
BLOCK_RECORD
  5
9B
330
1
100
AcDbSymbolTableRecord
100
AcDbBlockTableRecord
  2
_BOXFILLED
340
0
 70
     0
280
     1
281
     0
  0
BLOCK_RECORD
  5
A0
330
1
100
AcDbSymbolTableRecord
100
AcDbBlockTableRecord
  2
_INTEGRAL
340
0
 70
     0
280
     1
281
     0
  0
BLOCK_RECORD
  5
A5
330
1
100
AcDbSymbolTableRecord
100
AcDbBlockTableRecord
  2
_OBLIQUE
340
0
 70
     0
280
     1
281
     0
  0
BLOCK_RECORD
  5
A9
330
1
100
AcDbSymbolTableRecord
100
AcDbBlockTableRecord
  2
_NONE
340
0
 70
     0
280
     1
281
     0
  0
BLOCK_RECORD
  5
AC
330
1
100
AcDbSymbolTableRecord
100
AcDbBlockTableRecord
  2
MARK_OPEN
340
0
 70
     0
280
     1
281
     0
  0
BLOCK_RECORD
  5
B1
330
1
100
AcDbSymbolTableRecord
100
AcDbBlockTableRecord
  2
MARK_ORIGIN
340
0
 70
     0
280
     1
281
     0
  0
BLOCK_RECORD
  5
B5
330
1
100
AcDbSymbolTableRecord
100
AcDbBlockTableRecord
  2
MARK_DOT
340
0
 70
     0
280
     1
281
     0
  0
BLOCK_RECORD
  5
D6
330
1
100
AcDbSymbolTableRecord
100
AcDbBlockTableRecord
  2
*G16
340
0
102
{BLKREFS
331
DD
102
}
 70
     0
280
     1
281
     0
  0
BLOCK_RECORD
  5
101
330
1
100
AcDbSymbolTableRecord
100
AcDbBlockTableRecord
  2
*G17
340
0
102
{BLKREFS
331
10C
102
}
 70
     0
280
     1
281
     0
  0
BLOCK_RECORD
  5
10D
330
1
100
AcDbSymbolTableRecord
100
AcDbBlockTableRecord
  2
*G18
340
0
102
{BLKREFS
331
114
102
}
 70
     0
280
     1
281
     0
  0
BLOCK_RECORD
  5
115
330
1
100
AcDbSymbolTableRecord
100
AcDbBlockTableRecord
  2
*G19
340
0
102
{BLKREFS
331
178
102
}
 70
     0
280
     1
281
     0
  0
BLOCK_RECORD
  5
118
330
1
100
AcDbSymbolTableRecord
100
AcDbBlockTableRecord
  2
*G20
340
0
102
{BLKREFS
331
11F
102
}
 70
     0
280
     1
281
     0
  0
BLOCK_RECORD
  5
120
330
1
100
AcDbSymbolTableRecord
100
AcDbBlockTableRecord
  2
*G21
340
0
102
{BLKREFS
331
127
102
}
 70
     0
280
     1
281
     0
  0
BLOCK_RECORD
  5
128
330
1
100
AcDbSymbolTableRecord
100
AcDbBlockTableRecord
  2
*G22
340
0
102
{BLKREFS
331
12F
102
}
 70
     0
280
     1
281
     0
  0
BLOCK_RECORD
  5
14D
330
1
100
AcDbSymbolTableRecord
100
AcDbBlockTableRecord
  2
*G23
340
0
102
{BLKREFS
331
153
102
}
 70
     0
280
     1
281
     0
  0
BLOCK_RECORD
  5
155
330
1
100
AcDbSymbolTableRecord
100
AcDbBlockTableRecord
  2
*G24
340
0
102
{BLKREFS
331
15B
102
}
 70
     0
280
     1
281
     0
  0
BLOCK_RECORD
  5
15D
330
1
100
AcDbSymbolTableRecord
100
AcDbBlockTableRecord
  2
*G25
340
0
102
{BLKREFS
331
163
102
}
 70
     0
280
     1
281
     0
  0
BLOCK_RECORD
  5
167
330
1
100
AcDbSymbolTableRecord
100
AcDbBlockTableRecord
  2
*G26
340
0
102
{BLKREFS
331
16D
102
}
 70
     0
280
     1
281
     0
  0
BLOCK_RECORD
  5
16E
330
1
100
AcDbSymbolTableRecord
100
AcDbBlockTableRecord
  2
*G27
340
0
102
{BLKREFS
331
175
102
}
 70
     0
280
     1
281
     0
  0
BLOCK_RECORD
  5
17B
330
1
100
AcDbSymbolTableRecord
100
AcDbBlockTableRecord
  2
*G28
340
0
102
{BLKREFS
331
182
102
}
 70
     0
280
     1
281
     0
  0
BLOCK_RECORD
  5
183
330
1
100
AcDbSymbolTableRecord
100
AcDbBlockTableRecord
  2
*G29
340
0
102
{BLKREFS
331
18A
102
}
 70
     0
280
     1
281
     0
  0
BLOCK_RECORD
  5
18B
330
1
100
AcDbSymbolTableRecord
100
AcDbBlockTableRecord
  2
*G30
340
0
102
{BLKREFS
331
3C8
102
}
 70
     0
280
     1
281
     0
  0
BLOCK_RECORD
  5
18E
330
1
100
AcDbSymbolTableRecord
100
AcDbBlockTableRecord
  2
*G31
340
0
102
{BLKREFS
331
1C1
102
}
 70
     0
280
     1
281
     0
  0
BLOCK_RECORD
  5
1C2
330
1
100
AcDbSymbolTableRecord
100
AcDbBlockTableRecord
  2
*G32
340
0
102
{BLKREFS
331
1F5
102
}
 70
     0
280
     1
281
     0
  0
BLOCK_RECORD
  5
1F6
330
1
100
AcDbSymbolTableRecord
100
AcDbBlockTableRecord
  2
*G33
340
0
102
{BLKREFS
331
229
102
}
 70
     0
280
     1
281
     0
  0
BLOCK_RECORD
  5
22A
330
1
100
AcDbSymbolTableRecord
100
AcDbBlockTableRecord
  2
*G34
340
0
102
{BLKREFS
331
25D
102
}
 70
     0
280
     1
281
     0
  0
BLOCK_RECORD
  5
25E
330
1
100
AcDbSymbolTableRecord
100
AcDbBlockTableRecord
  2
*G35
340
0
102
{BLKREFS
331
291
102
}
 70
     0
280
     1
281
     0
  0
BLOCK_RECORD
  5
292
330
1
100
AcDbSymbolTableRecord
100
AcDbBlockTableRecord
  2
*G36
340
0
102
{BLKREFS
331
2C5
102
}
 70
     0
280
     1
281
     0
  0
BLOCK_RECORD
  5
2C6
330
1
100
AcDbSymbolTableRecord
100
AcDbBlockTableRecord
  2
*G37
340
0
102
{BLKREFS
331
2F9
102
}
 70
     0
280
     1
281
     0
  0
BLOCK_RECORD
  5
2FA
330
1
100
AcDbSymbolTableRecord
100
AcDbBlockTableRecord
  2
*G38
340
0
102
{BLKREFS
331
32D
102
}
 70
     0
280
     1
281
     0
  0
BLOCK_RECORD
  5
32E
330
1
100
AcDbSymbolTableRecord
100
AcDbBlockTableRecord
  2
*G39
340
0
102
{BLKREFS
331
361
102
}
 70
     0
280
     1
281
     0
  0
BLOCK_RECORD
  5
362
330
1
100
AcDbSymbolTableRecord
100
AcDbBlockTableRecord
  2
*G40
340
0
102
{BLKREFS
331
395
102
}
 70
     0
280
     1
281
     0
  0
BLOCK_RECORD
  5
396
330
1
100
AcDbSymbolTableRecord
100
AcDbBlockTableRecord
  2
*G41
340
0
102
{BLKREFS
331
39D
102
}
 70
     0
280
     1
281
     0
  0
BLOCK_RECORD
  5
39E
330
1
100
AcDbSymbolTableRecord
100
AcDbBlockTableRecord
  2
*G42
340
0
102
{BLKREFS
331
3A5
102
}
 70
     0
280
     1
281
     0
  0
BLOCK_RECORD
  5
3A6
330
1
100
AcDbSymbolTableRecord
100
AcDbBlockTableRecord
  2
*G43
340
0
102
{BLKREFS
331
3AD
102
}
 70
     0
280
     1
281
     0
  0
BLOCK_RECORD
  5
3B4
330
1
100
AcDbSymbolTableRecord
100
AcDbBlockTableRecord
  2
*G44
340
0
102
{BLKREFS
331
3BB
102
}
 70
     0
280
     1
281
     0
  0
BLOCK_RECORD
  5
3BC
330
1
100
AcDbSymbolTableRecord
100
AcDbBlockTableRecord
  2
*G45
340
0
102
{BLKREFS
331
3C3
102
}
 70
     0
280
     1
281
     0
  0
BLOCK_RECORD
  5
3CB
330
1
100
AcDbSymbolTableRecord
100
AcDbBlockTableRecord
  2
*G46
340
0
102
{BLKREFS
331
3D6
102
}
 70
     0
280
     1
281
     0
  0
BLOCK_RECORD
  5
3D7
330
1
100
AcDbSymbolTableRecord
100
AcDbBlockTableRecord
  2
*G47
340
0
102
{BLKREFS
331
3DE
102
}
 70
     0
280
     1
281
     0
  0
BLOCK_RECORD
  5
3E2
330
1
100
AcDbSymbolTableRecord
100
AcDbBlockTableRecord
  2
*G48
340
0
102
{BLKREFS
331
3ED
102
}
 70
     0
280
     1
281
     0
  0
BLOCK_RECORD
  5
401
330
1
100
AcDbSymbolTableRecord
100
AcDbBlockTableRecord
  2
*G49
340
0
102
{BLKREFS
331
415
102
}
 70
     0
280
     1
281
     0
  0
BLOCK_RECORD
  5
416
330
1
100
AcDbSymbolTableRecord
100
AcDbBlockTableRecord
  2
*G50
340
0
102
{BLKREFS
331
42A
102
}
 70
     0
280
     1
281
     0
  0
BLOCK_RECORD
  5
43A
330
1
100
AcDbSymbolTableRecord
100
AcDbBlockTableRecord
  2
*G51
340
0
102
{BLKREFS
331
443
102
}
 70
     0
280
     1
281
     0
  0
BLOCK_RECORD
  5
444
330
1
100
AcDbSymbolTableRecord
100
AcDbBlockTableRecord
  2
Dim1
340
0
 70
     0
280
     1
281
     0
  0
BLOCK_RECORD
  5
44E
330
1
100
AcDbSymbolTableRecord
100
AcDbBlockTableRecord
  2
Dim2
340
0
 70
     0
280
     1
281
     0
  0
BLOCK_RECORD
  5
458
330
1
100
AcDbSymbolTableRecord
100
AcDbBlockTableRecord
  2
Dim3
340
0
 70
     0
280
     1
281
     0
  0
BLOCK_RECORD
  5
462
330
1
100
AcDbSymbolTableRecord
100
AcDbBlockTableRecord
  2
Dim4
340
0
 70
     0
280
     1
281
     0
  0
BLOCK_RECORD
  5
46C
330
1
100
AcDbSymbolTableRecord
100
AcDbBlockTableRecord
  2
Dim5
340
0
 70
     0
280
     1
281
     0
  0
BLOCK_RECORD
  5
477
330
1
100
AcDbSymbolTableRecord
100
AcDbBlockTableRecord
  2
*G57
340
0
102
{BLKREFS
331
4B1
102
}
 70
     0
280
     1
281
     0
  0
BLOCK_RECORD
  5
4B2
330
1
100
AcDbSymbolTableRecord
100
AcDbBlockTableRecord
  2
*G58
340
0
102
{BLKREFS
331
512
102
}
 70
     0
280
     1
281
     0
  0
BLOCK_RECORD
  5
4B5
330
1
100
AcDbSymbolTableRecord
100
AcDbBlockTableRecord
  2
*G59
340
0
102
{BLKREFS
331
50F
102
}
 70
     0
280
     1
281
     0
  0
BLOCK_RECORD
  5
506
330
1
100
AcDbSymbolTableRecord
100
AcDbBlockTableRecord
  2
*G60
340
0
102
{BLKREFS
331
50D
102
}
 70
     0
280
     1
281
     0
  0
BLOCK_RECORD
  5
518
330
1
100
AcDbSymbolTableRecord
100
AcDbBlockTableRecord
  2
*G61
340
0
102
{BLKREFS
331
521
102
}
 70
     0
280
     1
281
     0
  0
BLOCK_RECORD
  5
523
330
1
100
AcDbSymbolTableRecord
100
AcDbBlockTableRecord
  2
*G62
340
0
102
{BLKREFS
331
52A
102
}
 70
     0
280
     1
281
     0
  0
BLOCK_RECORD
  5
52B
330
1
100
AcDbSymbolTableRecord
100
AcDbBlockTableRecord
  2
*G63
340
0
102
{BLKREFS
331
532
102
}
 70
     0
280
     1
281
     0
  0
BLOCK_RECORD
  5
536
330
1
100
AcDbSymbolTableRecord
100
AcDbBlockTableRecord
  2
*G64
340
0
102
{BLKREFS
331
53E
102
}
 70
     0
280
     1
281
     0
  0
ENDTAB
  0
ENDSEC
  0
SECTION
  2
BLOCKS
  0
BLOCK
  5
20
330
1F
100
AcDbEntity
  8
0
100
AcDbBlockBegin
  2
*Model_Space
 70
     0
 10
0.0
 20
0.0
 30
0.0
  3
*Model_Space
  1
*Model_Space
  0
ENDBLK
  5
21
330
1F
100
AcDbEntity
  8
0
100
AcDbBlockEnd
  0
BLOCK
  5
1C
330
1B
100
AcDbEntity
 67
     1
  8
0
100
AcDbBlockBegin
  2
*Paper_Space
 70
     0
 10
0.0
 20
0.0
 30
0.0
  3
*Paper_Space
  1
*Paper_Space
  0
ENDBLK
  5
1D
330
1B
100
AcDbEntity
 67
     1
  8
0
100
AcDbBlockEnd
  0
BLOCK
  5
24
330
23
100
AcDbEntity
  8
0
100
AcDbBlockBegin
  2
*Paper_Space0
 70
     0
 10
0.0
 20
0.0
 30
0.0
  3
*Paper_Space0
  1
*Paper_Space0
  0
ENDBLK
  5
25
330
23
100
AcDbEntity
  8
0
100
AcDbBlockEnd
  0
BLOCK
  5
70
330
6D
100
AcDbEntity
  8
0
100
AcDbBlockBegin
  2
_ORIGIN
 70
     0
 10
0.0
 20
0.0
 30
0.0
  3
_ORIGIN
  1
_ORIGIN
  0
CIRCLE
  5
6E
330
6D
100
AcDbEntity
  8
0
 62
     0
100
AcDbCircle
 10
0.0
 20
0.0
 30
0.0
 40
0.5
  0
LINE
  5
6F
330
6D
100
AcDbEntity
  8
0
 62
     0
100
AcDbLine
 10
0.0
 20
0.0
 30
0.0
 11
-1.0
 21
0.0
 31
0.0
  0
ENDBLK
  5
71
330
6D
100
AcDbEntity
  8
0
100
AcDbBlockEnd
  0
BLOCK
  5
75
330
72
100
AcDbEntity
  8
0
100
AcDbBlockBegin
  2
_DOTBLANK
 70
     0
 10
0.0
 20
0.0
 30
0.0
  3
_DOTBLANK
  1
_DOTBLANK
  0
CIRCLE
  5
73
330
72
100
AcDbEntity
  8
0
 62
     0
100
AcDbCircle
 10
0.0
 20
0.0
 30
0.0
 40
0.5
  0
LINE
  5
74
330
72
100
AcDbEntity
  8
0
 62
     0
100
AcDbLine
 10
-0.5
 20
0.0
 30
0.0
 11
-1.0
 21
0.0
 31
0.0
  0
ENDBLK
  5
76
330
72
100
AcDbEntity
  8
0
100
AcDbBlockEnd
  0
BLOCK
  5
7A
330
77
100
AcDbEntity
  8
0
100
AcDbBlockBegin
  2
_DOT
 70
     0
 10
0.0
 20
0.0
 30
0.0
  3
_DOT
  1
_DOT
  0
LWPOLYLINE
  5
78
330
77
100
AcDbEntity
  8
0
 62
     0
100
AcDbPolyline
 90
        2
 70
     1
 43
0.5
 10
-0.25
 20
0.0
 42
1.0
 10
0.25
 20
0.0
 42
1.0
  0
LINE
  5
79
330
77
100
AcDbEntity
  8
0
 62
     0
100
AcDbLine
 10
-0.5
 20
0.0
 30
0.0
 11
-1.0
 21
0.0
 31
0.0
  0
ENDBLK
  5
7B
330
77
100
AcDbEntity
  8
0
100
AcDbBlockEnd
  0
BLOCK
  5
80
330
7C
100
AcDbEntity
  8
0
100
AcDbBlockBegin
  2
_OPEN
 70
     0
 10
0.0
 20
0.0
 30
0.0
  3
_OPEN
  1
_OPEN
  0
LINE
  5
7D
330
7C
100
AcDbEntity
  8
0
 62
     0
100
AcDbLine
 10
0.0
 20
0.0
 30
0.0
 11
-1.0
 21
0.1666666666666667
 31
0.0
  0
LINE
  5
7E
330
7C
100
AcDbEntity
  8
0
 62
     0
100
AcDbLine
 10
0.0
 20
0.0
 30
0.0
 11
-1.0
 21
-0.1666666666666667
 31
0.0
  0
LINE
  5
7F
330
7C
100
AcDbEntity
  8
0
 62
     0
100
AcDbLine
 10
0.0
 20
0.0
 30
0.0
 11
-1.0
 21
0.0
 31
0.0
  0
ENDBLK
  5
81
330
7C
100
AcDbEntity
  8
0
100
AcDbBlockEnd
  0
BLOCK
  5
87
330
82
100
AcDbEntity
  8
0
100
AcDbBlockBegin
  2
_CLOSED
 70
     0
 10
0.0
 20
0.0
 30
0.0
  3
_CLOSED
  1
_CLOSED
  0
LINE
  5
83
330
82
100
AcDbEntity
  8
0
 62
     0
100
AcDbLine
 10
0.0
 20
0.0
 30
0.0
 11
-1.0
 21
0.1666666666666667
 31
0.0
  0
LINE
  5
84
330
82
100
AcDbEntity
  8
0
 62
     0
100
AcDbLine
 10
0.0
 20
0.0
 30
0.0
 11
-1.0
 21
-0.1666666666666667
 31
0.0
  0
LINE
  5
85
330
82
100
AcDbEntity
  8
0
 62
     0
100
AcDbLine
 10
-1.0
 20
0.1666666666666667
 30
0.0
 11
-1.0
 21
-0.1666666666666667
 31
0.0
  0
LINE
  5
86
330
82
100
AcDbEntity
  8
0
 62
     0
100
AcDbLine
 10
0.0
 20
0.0
 30
0.0
 11
-1.0
 21
0.0
 31
0.0
  0
ENDBLK
  5
88
330
82
100
AcDbEntity
  8
0
100
AcDbBlockEnd
  0
BLOCK
  5
8D
330
89
100
AcDbEntity
  8
0
100
AcDbBlockBegin
  2
_CLOSEDBLANK
 70
     0
 10
0.0
 20
0.0
 30
0.0
  3
_CLOSEDBLANK
  1
_CLOSEDBLANK
  0
LINE
  5
8A
330
89
100
AcDbEntity
  8
0
 62
     0
100
AcDbLine
 10
0.0
 20
0.0
 30
0.0
 11
-1.0
 21
0.1666666666666667
 31
0.0
  0
LINE
  5
8B
330
89
100
AcDbEntity
  8
0
 62
     0
100
AcDbLine
 10
0.0
 20
0.0
 30
0.0
 11
-1.0
 21
-0.1666666666666667
 31
0.0
  0
LINE
  5
8C
330
89
100
AcDbEntity
  8
0
 62
     0
100
AcDbLine
 10
-1.0
 20
0.1666666666666667
 30
0.0
 11
-1.0
 21
-0.1666666666666667
 31
0.0
  0
ENDBLK
  5
8E
330
89
100
AcDbEntity
  8
0
100
AcDbBlockEnd
  0
BLOCK
  5
91
330
8F
100
AcDbEntity
  8
0
100
AcDbBlockBegin
  2
_ARROWFILLED
 70
     0
 10
0.0
 20
0.0
 30
0.0
  3
_ARROWFILLED
  1
_ARROWFILLED
  0
SOLID
  5
90
330
8F
100
AcDbEntity
  8
0
 62
     0
100
AcDbTrace
 10
0.0
 20
0.0
 30
0.0
 11
-1.0
 21
-0.1666666666666667
 31
0.0
 12
-1.0
 22
0.1666666666666667
 32
0.0
 13
0.0
 23
0.0
 33
0.0
  0
ENDBLK
  5
92
330
8F
100
AcDbEntity
  8
0
100
AcDbBlockEnd
  0
BLOCK
  5
99
330
93
100
AcDbEntity
  8
0
100
AcDbBlockBegin
  2
_BOXBLANK
 70
     0
 10
0.0
 20
0.0
 30
0.0
  3
_BOXBLANK
  1
_BOXBLANK
  0
LINE
  5
94
330
93
100
AcDbEntity
  8
0
 62
     0
100
AcDbLine
 10
-0.5
 20
-0.5
 30
0.0
 11
0.5
 21
-0.5
 31
0.0
  0
LINE
  5
95
330
93
100
AcDbEntity
  8
0
 62
     0
100
AcDbLine
 10
0.5
 20
-0.5
 30
0.0
 11
0.5
 21
0.5
 31
0.0
  0
LINE
  5
96
330
93
100
AcDbEntity
  8
0
 62
     0
100
AcDbLine
 10
0.5
 20
0.5
 30
0.0
 11
-0.5
 21
0.5
 31
0.0
  0
LINE
  5
97
330
93
100
AcDbEntity
  8
0
 62
     0
100
AcDbLine
 10
-0.5
 20
0.5
 30
0.0
 11
-0.5
 21
-0.5
 31
0.0
  0
LINE
  5
98
330
93
100
AcDbEntity
  8
0
 62
     0
100
AcDbLine
 10
-0.5
 20
0.0
 30
0.0
 11
-1.0
 21
0.0
 31
0.0
  0
ENDBLK
  5
9A
330
93
100
AcDbEntity
  8
0
100
AcDbBlockEnd
  0
BLOCK
  5
9E
330
9B
100
AcDbEntity
  8
0
100
AcDbBlockBegin
  2
_BOXFILLED
 70
     0
 10
0.0
 20
0.0
 30
0.0
  3
_BOXFILLED
  1
_BOXFILLED
  0
SOLID
  5
9C
330
9B
100
AcDbEntity
  8
0
 62
     0
100
AcDbTrace
 10
-0.5
 20
0.5
 30
0.0
 11
0.5
 21
0.5
 31
0.0
 12
-0.5
 22
-0.5
 32
0.0
 13
0.5
 23
-0.5
 33
0.0
  0
LINE
  5
9D
330
9B
100
AcDbEntity
  8
0
 62
     0
100
AcDbLine
 10
-0.5
 20
0.0
 30
0.0
 11
-1.0
 21
0.0
 31
0.0
  0
ENDBLK
  5
9F
330
9B
100
AcDbEntity
  8
0
100
AcDbBlockEnd
  0
BLOCK
  5
A3
330
A0
100
AcDbEntity
  8
0
100
AcDbBlockBegin
  2
_INTEGRAL
 70
     0
 10
0.0
 20
0.0
 30
0.0
  3
_INTEGRAL
  1
_INTEGRAL
  0
ARC
  5
A1
330
A0
100
AcDbEntity
  8
0
 62
     0
100
AcDbCircle
 10
0.444888
 20
-0.0913346
 30
0.0
 40
0.4541666
100
AcDbArc
 50
101.9999999999999
 51
167.9999999999998
  0
ARC
  5
A2
330
A0
100
AcDbEntity
  8
0
 62
     0
100
AcDbCircle
 10
-0.444888
 20
0.0913346
 30
0.0
 40
0.4541666
100
AcDbArc
 50
281.9999999999997
 51
347.9999999999997
  0
ENDBLK
  5
A4
330
A0
100
AcDbEntity
  8
0
100
AcDbBlockEnd
  0
BLOCK
  5
A7
330
A5
100
AcDbEntity
  8
0
100
AcDbBlockBegin
  2
_OBLIQUE
 70
     0
 10
0.0
 20
0.0
 30
0.0
  3
_OBLIQUE
  1
_OBLIQUE
  0
LINE
  5
A6
330
A5
100
AcDbEntity
  8
0
 62
     0
100
AcDbLine
 10
-0.5
 20
-0.5
 30
0.0
 11
0.5
 21
0.5
 31
0.0
  0
ENDBLK
  5
A8
330
A5
100
AcDbEntity
  8
0
100
AcDbBlockEnd
  0
BLOCK
  5
AA
330
A9
100
AcDbEntity
  8
0
100
AcDbBlockBegin
  2
_NONE
 70
     0
 10
0.0
 20
0.0
 30
0.0
  3
_NONE
  1
_NONE
  0
ENDBLK
  5
AB
330
A9
100
AcDbEntity
  8
0
100
AcDbBlockEnd
  0
BLOCK
  5
AF
330
AC
100
AcDbEntity
  8
0
100
AcDbBlockBegin
  2
MARK_OPEN
 70
     0
 10
0.0
 20
0.0
 30
0.0
  3
MARK_OPEN
  1
MARK_OPEN
  0
LINE
  5
AD
330
AC
100
AcDbEntity
  8
0
 62
     0
100
AcDbLine
 10
0.0
 20
0.0
 30
0.0
 11
-1.0
 21
0.1666666666666667
 31
0.0
  0
LINE
  5
AE
330
AC
100
AcDbEntity
  8
0
 62
     0
100
AcDbLine
 10
0.0
 20
0.0
 30
0.0
 11
-1.0
 21
-0.1666666666666667
 31
0.0
  0
ENDBLK
  5
B0
330
AC
100
AcDbEntity
  8
0
100
AcDbBlockEnd
  0
BLOCK
  5
B3
330
B1
100
AcDbEntity
  8
0
100
AcDbBlockBegin
  2
MARK_ORIGIN
 70
     0
 10
0.0
 20
0.0
 30
0.0
  3
MARK_ORIGIN
  1
MARK_ORIGIN
  0
CIRCLE
  5
B2
330
B1
100
AcDbEntity
  8
0
 62
     0
100
AcDbCircle
 10
0.0
 20
0.0
 30
0.0
 40
0.5
  0
ENDBLK
  5
B4
330
B1
100
AcDbEntity
  8
0
100
AcDbBlockEnd
  0
BLOCK
  5
B7
330
B5
100
AcDbEntity
  8
0
100
AcDbBlockBegin
  2
MARK_DOT
 70
     0
 10
0.0
 20
0.0
 30
0.0
  3
MARK_DOT
  1
MARK_DOT
  0
LWPOLYLINE
  5
B6
330
B5
100
AcDbEntity
  8
0
 62
     0
100
AcDbPolyline
 90
        2
 70
     1
 43
0.5
 10
-0.25
 20
0.0
 42
1.0
 10
0.25
 20
0.0
 42
1.0
  0
ENDBLK
  5
B8
330
B5
100
AcDbEntity
  8
0
100
AcDbBlockEnd
  0
BLOCK
  5
D7
330
D6
100
AcDbEntity
  8
0
100
AcDbBlockBegin
  2
*G16
 70
     1
 10
0.0
 20
0.0
 30
0.0
  3
*G16
  1
*G16
  0
LINE
  5
D9
330
D6
100
AcDbEntity
  8
5
  6
Continuous
 62
    94
370
    80
100
AcDbLine
 10
199.830676864131
 20
10.11855466200344
 30
0.0
 11
199.830676864131
 21
285.1185546620034
 31
0.0
  0
LINE
  5
DA
330
D6
100
AcDbEntity
  8
5
  6
Continuous
 62
    94
370
    80
100
AcDbLine
 10
199.830676864131
 20
285.1185546620034
 30
0.0
 11
10.69835590863275
 21
285.1185546620034
 31
0.0
  0
LINE
  5
DB
330
D6
100
AcDbEntity
  8
5
  6
Continuous
 62
    94
370
    80
100
AcDbLine
 10
10.69835590863275
 20
285.1185546620034
 30
0.0
 11
10.69835590863279
 21
10.11855466200342
 31
0.0
  0
LINE
  5
DC
330
D6
100
AcDbEntity
  8
5
  6
Continuous
 62
    94
370
    80
100
AcDbLine
 10
10.69835590863279
 20
10.11855466200342
 30
0.0
 11
199.830676864131
 21
10.11855466200344
 31
0.0
  0
ENDBLK
  5
D8
330
D6
100
AcDbEntity
  8
0
100
AcDbBlockEnd
  0
BLOCK
  5
102
330
101
100
AcDbEntity
  8
0
100
AcDbBlockBegin
  2
*G17
 70
     1
 10
0.0
 20
0.0
 30
0.0
  3
*G17
  1
*G17
  0
ARC
  5
104
330
101
100
AcDbEntity
  8
1
  6
Continuous
 62
     7
370
    50
100
AcDbCircle
 10
26.49999999999999
 20
205.0
 30
0.0
 40
5.0
100
AcDbArc
 50
89.99999999999991
 51
179.9999999999998
  0
LINE
  5
105
330
101
100
AcDbEntity
  8
1
  6
Continuous
 62
     7
370
    50
100
AcDbLine
 10
93.5
 20
210.0
 30
0.0
 11
26.5
 21
210.0
 31
0.0
  0
ARC
  5
106
330
101
100
AcDbEntity
  8
1
  6
Continuous
 62
     7
370
    50
100
AcDbCircle
 10
93.5
 20
205.0
 30
0.0
 40
5.0
100
AcDbArc
 50
0.0
 51
89.99999999999991
  0
LINE
  5
107
330
101
100
AcDbEntity
  8
1
  6
Continuous
 62
     7
370
    50
100
AcDbLine
 10
21.49999999999999
 20
205.0
 30
0.0
 11
21.50000000000001
 21
75.0
 31
0.0
  0
ARC
  5
108
330
101
100
AcDbEntity
  8
1
  6
Continuous
 62
     7
370
    50
100
AcDbCircle
 10
26.50000000000001
 20
75.0
 30
0.0
 40
5.0
100
AcDbArc
 50
179.9999999999998
 51
269.9999999999995
  0
LINE
  5
109
330
101
100
AcDbEntity
  8
1
  6
Continuous
 62
     7
370
    50
100
AcDbLine
 10
26.5
 20
70.0
 30
0.0
 11
93.5
 21
70.0
 31
0.0
  0
LINE
  5
10A
330
101
100
AcDbEntity
  8
1
  6
Continuous
 62
     7
370
    50
100
AcDbLine
 10
98.5
 20
75.0
 30
0.0
 11
98.5
 21
205.0
 31
0.0
  0
ARC
  5
10B
330
101
100
AcDbEntity
  8
1
  6
Continuous
 62
     7
370
    50
100
AcDbCircle
 10
93.5
 20
75.0
 30
0.0
 40
5.0
100
AcDbArc
 50
269.9999999999998
 51
0.0
  0
ENDBLK
  5
103
330
101
100
AcDbEntity
  8
0
100
AcDbBlockEnd
  0
BLOCK
  5
10E
330
10D
100
AcDbEntity
  8
0
100
AcDbBlockBegin
  2
*G18
 70
     1
 10
0.0
 20
0.0
 30
0.0
  3
*G18
  1
*G18
  0
LINE
  5
110
330
10D
100
AcDbEntity
  8
1
  6
Continuous
 62
     7
370
    50
100
AcDbLine
 10
26.49999999999999
 20
205.0
 30
0.0
 11
26.50000000000001
 21
75.0
 31
0.0
  0
LINE
  5
111
330
10D
100
AcDbEntity
  8
1
  6
Continuous
 62
     7
370
    50
100
AcDbLine
 10
26.50000000000001
 20
75.0
 30
0.0
 11
93.5
 21
75.0
 31
0.0
  0
LINE
  5
112
330
10D
100
AcDbEntity
  8
1
  6
Continuous
 62
     7
370
    50
100
AcDbLine
 10
93.5
 20
75.0
 30
0.0
 11
93.5
 21
205.0
 31
0.0
  0
LINE
  5
113
330
10D
100
AcDbEntity
  8
1
  6
Continuous
 62
     7
370
    50
100
AcDbLine
 10
93.5
 20
205.0
 30
0.0
 11
26.49999999999999
 21
205.0
 31
0.0
  0
ENDBLK
  5
10F
330
10D
100
AcDbEntity
  8
0
100
AcDbBlockEnd
  0
BLOCK
  5
116
330
115
100
AcDbEntity
  8
0
100
AcDbBlockBegin
  2
*G19
 70
     1
 10
0.0
 20
0.0
 30
0.0
  3
*G19
  1
*G19
  0
INSERT
  5
11F
330
115
100
AcDbEntity
  8
0
100
AcDbBlockReference
  2
*G20
 10
0.0
 20
0.0
 30
0.0
  0
INSERT
  5
127
330
115
100
AcDbEntity
  8
0
100
AcDbBlockReference
  2
*G21
 10
0.0
 20
0.0
 30
0.0
  0
INSERT
  5
12F
330
115
100
AcDbEntity
  8
0
100
AcDbBlockReference
  2
*G22
 10
0.0
 20
0.0
 30
0.0
  0
LINE
  5
130
330
115
100
AcDbEntity
  8
1
  6
Continuous
 62
     7
370
     9
100
AcDbLine
 10
37.25000000000001
 20
149.0
 30
0.0
 11
82.75000000000003
 21
149.0
 31
0.0
  0
LINE
  5
131
330
115
100
AcDbEntity
  8
1
  6
Continuous
 62
     7
370
     9
100
AcDbLine
 10
37.24999999999999
 20
166.0
 30
0.0
 11
82.75000000000003
 21
166.0
 31
0.0
  0
LINE
  5
132
330
115
100
AcDbEntity
  8
1
  6
DASHDOT
 62
     7
370
     9
100
AcDbLine
 10
29.32989264779143
 20
168.0
 30
0.0
 11
92.30100000000002
 21
168.0
 31
0.0
  0
LINE
  5
133
330
115
100
AcDbEntity
  8
1
  6
DASHDOT
 62
     7
370
     9
100
AcDbLine
 10
47.25000000000001
 20
161.160487515795
 30
0.0
 11
47.24999999999999
 21
153.7295818373367
 31
0.0
  0
LINE
  5
134
330
115
100
AcDbEntity
  8
1
  6
DASHDOT
 62
     7
370
     9
100
AcDbLine
 10
43.26471663514462
 20
157.5000000007954
 30
0.0
 11
51.85798389061415
 21
157.5000000007954
 31
0.0
  0
LINE
  5
135
330
115
100
AcDbEntity
  8
1
  6
DASHDOT
 62
     7
370
     9
100
AcDbLine
 10
80.55365604571433
 20
153.5000000007954
 30
0.0
 11
50.8819040724303
 21
153.5000000007954
 31
0.0
  0
LINE
  5
136
330
115
100
AcDbEntity
  8
1
  6
DASHDOT
 62
     7
370
     9
100
AcDbLine
 10
80.46863669908603
 20
161.5
 30
0.0
 11
50.96692341905862
 21
161.5
 31
0.0
  0
LINE
  5
137
330
115
100
AcDbEntity
  8
1
  6
DASHDOT
 62
     7
370
     9
100
AcDbLine
 10
55.50000000000004
 20
165.0559222334225
 30
0.0
 11
55.5
 21
156.8630346202098
 31
0.0
  0
LINE
  5
138
330
115
100
AcDbEntity
  8
1
  6
DASHDOT
 62
     7
370
     9
100
AcDbLine
 10
65.50000000000004
 20
165.0559222334225
 30
0.0
 11
65.50000000000003
 21
156.8630346202098
 31
0.0
  0
LINE
  5
139
330
115
100
AcDbEntity
  8
1
  6
DASHDOT
 62
     7
370
     9
100
AcDbLine
 10
75.50000000000004
 20
165.0559222334225
 30
0.0
 11
75.50000000000003
 21
156.8630346202098
 31
0.0
  0
LINE
  5
13A
330
115
100
AcDbEntity
  8
1
  6
DASHDOT
 62
     7
370
     9
100
AcDbLine
 10
75.50000000000003
 20
157.0559222342179
 30
0.0
 11
75.50000000000001
 21
148.8630346210052
 31
0.0
  0
LINE
  5
13B
330
115
100
AcDbEntity
  8
1
  6
DASHDOT
 62
     7
370
     9
100
AcDbLine
 10
65.50000000000003
 20
157.0559222342179
 30
0.0
 11
65.50000000000001
 21
148.8630346210052
 31
0.0
  0
LINE
  5
13C
330
115
100
AcDbEntity
  8
1
  6
DASHDOT
 62
     7
370
     9
100
AcDbLine
 10
55.5
 20
157.0559222342179
 30
0.0
 11
55.50000000000001
 21
148.8630346210052
 31
0.0
  0
LINE
  5
13D
330
115
100
AcDbEntity
  8
1
  6
DASHDOT
 62
     7
370
     9
100
AcDbLine
 10
60.0
 20
193.8306227072237
 30
0.0
 11
59.99999999999999
 21
136.5334976800586
 31
0.0
  0
TEXT
  5
13E
330
115
100
AcDbEntity
  8
1
  6
Continuous
 62
     7
370
     9
100
AcDbText
 10
37.64196096715921
 20
179.3366655177103
 30
0.0
 40
2.5
  1
A2
 41
0.5
100
AcDbText
  0
TEXT
  5
13F
330
115
100
AcDbEntity
  8
1
  6
Continuous
 62
     7
370
     9
100
AcDbText
 10
37.64196096715921
 20
182.3366655177103
 30
0.0
 40
2.5
  1
A1
 41
0.5
100
AcDbText
  0
TEXT
  5
140
330
115
100
AcDbEntity
  8
1
  6
Continuous
 62
     7
370
     9
100
AcDbText
 10
37.62558627767088
 20
167.8366655177103
 30
0.0
 40
2.5
  1
LK
 41
0.5
100
AcDbText
  0
TEXT
  5
141
330
115
100
AcDbEntity
  8
1
  6
Continuous
 62
     7
370
     9
100
AcDbText
 10
37.62558627767088
 20
170.8366655177103
 30
0.0
 40
2.5
  1
SH
 41
0.5
100
AcDbText
  0
TEXT
  5
142
330
115
100
AcDbEntity
  8
1
  6
Continuous
 62
     7
370
     9
100
AcDbText
 10
37.62558627767089
 20
173.8366655177103
 30
0.0
 40
2.5
  1
PH
 41
0.5
100
AcDbText
  0
TEXT
  5
143
330
115
100
AcDbEntity
  8
1
  6
Continuous
 62
     7
370
     9
100
AcDbText
 10
45.02012050026008
 20
146.0570786187371
 30
0.0
 40
2.5
  1
Japan Sensor Corporation
 41
0.5172413793103449
100
AcDbText
  0
CIRCLE
  5
144
330
115
100
AcDbEntity
  8
1
  6
Continuous
 62
     7
370
    50
100
AcDbCircle
 10
55.50000000000001
 20
161.5
 30
0.0
 40
3.5
  0
CIRCLE
  5
145
330
115
100
AcDbEntity
  8
1
  6
Continuous
 62
     7
370
    50
100
AcDbCircle
 10
65.50000000000003
 20
161.5
 30
0.0
 40
3.5
  0
CIRCLE
  5
146
330
115
100
AcDbEntity
  8
1
  6
Continuous
 62
     7
370
    50
100
AcDbCircle
 10
75.50000000000003
 20
161.5
 30
0.0
 40
3.5
  0
CIRCLE
  5
147
330
115
100
AcDbEntity
  8
1
  6
Continuous
 62
     7
370
    50
100
AcDbCircle
 10
55.49999999999999
 20
153.5000000007954
 30
0.0
 40
3.5
  0
CIRCLE
  5
148
330
115
100
AcDbEntity
  8
1
  6
Continuous
 62
     7
370
    50
100
AcDbCircle
 10
65.50000000000001
 20
153.5000000007954
 30
0.0
 40
3.5
  0
CIRCLE
  5
149
330
115
100
AcDbEntity
  8
1
  6
Continuous
 62
     7
370
    50
100
AcDbCircle
 10
75.50000000000001
 20
153.5000000007954
 30
0.0
 40
3.5
  0
TEXT
  5
14A
330
115
100
AcDbEntity
  8
1
  6
Continuous
 62
     7
370
     9
100
AcDbText
 10
44.24608586134594
 20
163.3279360198133
 30
0.0
 40
2.5
  1
POWER
 41
0.5
100
AcDbText
  0
TEXT
  5
14B
330
115
100
AcDbEntity
  8
1
  6
Continuous
 62
     7
370
     9
100
AcDbText
 10
46.04084901848706
 20
161.2265075841992
 30
0.0
 40
2.5
  1
ON
 41
0.5
100
AcDbText
  0
TEXT
  5
14C
330
115
100
AcDbEntity
  8
1
  6
Continuous
 62
     7
370
     9
100
AcDbText
 10
45.29807577538556
 20
151.4059973538294
 30
0.0
 40
2.5
  1
OFF
 41
0.5
100
AcDbText
  0
INSERT
  5
153
330
115
100
AcDbEntity
  8
0
100
AcDbBlockReference
  2
*G23
 10
0.0
 20
0.0
 30
0.0
  0
HATCH
  5
154
330
115
100
AcDbEntity
  8
1
  6
Continuous
 62
     7
370
     9
100
AcDbHatch
 10
0.0
 20
0.0
 30
0.0
210
0.0
220
0.0
230
1.0
  2
SOLID
 70
     1
 71
     0
 91
        1
 92
        0
 93
        3
 72
     1
 10
55.50000000000012
 20
163.7465840933698
 11
57.47204199516943
 21
160.3309071630769
 72
     1
 10
57.47204199516943
 20
160.3309071630769
 11
53.52795800483068
 21
160.3309071630769
 72
     1
 10
53.52795800483068
 20
160.3309071630769
 11
55.50000000000012
 21
163.7465840933698
 97
        0
 75
     0
 76
     1
 98
        0
  0
INSERT
  5
15B
330
115
100
AcDbEntity
  8
0
100
AcDbBlockReference
  2
*G24
 10
0.0
 20
0.0
 30
0.0
  0
HATCH
  5
15C
330
115
100
AcDbEntity
  8
1
  6
Continuous
 62
     7
370
     9
100
AcDbHatch
 10
0.0
 20
0.0
 30
0.0
210
0.0
220
0.0
230
1.0
  2
SOLID
 70
     1
 71
     0
 91
        1
 92
        0
 93
        3
 72
     1
 10
55.50000000000001
 20
151.2534159074256
 11
53.52795800483056
 21
154.6690928377185
 72
     1
 10
53.52795800483056
 20
154.6690928377185
 11
57.47204199516943
 21
154.6690928377185
 72
     1
 10
57.47204199516943
 20
154.6690928377185
 11
55.50000000000001
 21
151.2534159074256
 97
        0
 75
     0
 76
     1
 98
        0
  0
INSERT
  5
163
330
115
100
AcDbEntity
  8
0
100
AcDbBlockReference
  2
*G25
 10
0.0
 20
0.0
 30
0.0
  0
HATCH
  5
164
330
115
100
AcDbEntity
  8
1
  6
Continuous
 62
     7
370
     9
100
AcDbHatch
 10
0.0
 20
0.0
 30
0.0
210
0.0
220
0.0
230
1.0
  2
SOLID
 70
     1
 71
     0
 91
        1
 92
        0
 93
        3
 72
     1
 10
63.25341590663019
 20
161.5
 11
66.66909283692318
 21
163.4720419951694
 72
     1
 10
66.66909283692318
 20
163.4720419951694
 11
66.66909283692317
 21
159.5279580048306
 72
     1
 10
66.66909283692317
 20
159.5279580048306
 11
63.25341590663019
 21
161.5
 97
        0
 75
     0
 76
     1
 98
        0
  0
TEXT
  5
165
330
115
100
AcDbEntity
  8
1
  6
Continuous
 62
     7
370
     9
100
AcDbText
 10
63.27327929254556
 20
151.984148047936
 30
0.0
 40
3.2
  1
ENT
 41
0.5
100
AcDbText
  0
TEXT
  5
166
330
115
100
AcDbEntity
  8
1
  6
Continuous
 62
     7
370
     9
100
AcDbText
 10
73.11402620831123
 20
159.9589086890229
 30
0.0
 40
3.2
  1
MODE
 41
0.3750000000000001
100
AcDbText
  0
INSERT
  5
16D
330
115
100
AcDbEntity
  8
0
100
AcDbBlockReference
  2
*G26
 10
0.0
 20
0.0
 30
0.0
  0
INSERT
  5
175
330
115
100
AcDbEntity
  8
0
100
AcDbBlockReference
  2
*G27
 10
0.0
 20
0.0
 30
0.0
  0
HATCH
  5
176
330
115
100
AcDbEntity
  8
1
  6
Continuous
 62
     7
370
     9
100
AcDbHatch
 10
0.0
 20
0.0
 30
0.0
210
0.0
220
0.0
230
1.0
  2
SOLID
 70
     1
 71
     0
 91
        1
 92
        0
 93
        4
 72
     1
 10
75.10182148390172
 20
155.6374055298058
 11
75.86186085398052
 21
155.6374055298058
 72
     1
 10
75.86186085398052
 20
155.6374055298058
 11
75.8618608539805
 21
153.3572874195697
 72
     1
 10
75.8618608539805
 20
153.3572874195697
 11
75.1018214839017
 21
153.3572874195697
 72
     1
 10
75.1018214839017
 20
153.3572874195697
 11
75.10182148390172
 21
155.6374055298058
 97
        0
 75
     0
 76
     1
 98
        0
  0
HATCH
  5
177
330
115
100
AcDbEntity
  8
1
  6
Continuous
 62
     7
370
     9
100
AcDbHatch
 10
0.0
 20
0.0
 30
0.0
210
0.0
220
0.0
230
1.0
  2
SOLID
 70
     1
 71
     0
 91
        1
 92
        0
 93
        3
 72
     1
 10
75.51107345240565
 20
151.3505608740822
 11
76.69199981724564
 21
153.3959853379827
 72
     1
 10
76.69199981724564
 20
153.3959853379827
 11
74.33014708756566
 21
153.3959853379827
 72
     1
 10
74.33014708756566
 20
153.3959853379827
 11
75.51107345240565
 21
151.3505608740822
 97
        0
 75
     0
 76
     1
 98
        0
  0
ENDBLK
  5
117
330
115
100
AcDbEntity
  8
0
100
AcDbBlockEnd
  0
BLOCK
  5
119
330
118
100
AcDbEntity
  8
0
100
AcDbBlockBegin
  2
*G20
 70
     1
 10
0.0
 20
0.0
 30
0.0
  3
*G20
  1
*G20
  0
LINE
  5
11B
330
118
100
AcDbEntity
  8
1
  6
Continuous
 62
     7
370
    50
100
AcDbLine
 10
44.95000000000005
 20
160.9000000007954
 30
0.0
 11
44.95000000000004
 21
154.1000000007954
 31
0.0
  0
LINE
  5
11C
330
118
100
AcDbEntity
  8
1
  6
Continuous
 62
     7
370
    50
100
AcDbLine
 10
44.95000000000004
 20
154.1000000007954
 30
0.0
 11
49.55000000000006
 21
154.1000000007954
 31
0.0
  0
LINE
  5
11D
330
118
100
AcDbEntity
  8
1
  6
Continuous
 62
     7
370
    50
100
AcDbLine
 10
49.55000000000006
 20
154.1000000007954
 30
0.0
 11
49.55000000000008
 21
160.9000000007954
 31
0.0
  0
LINE
  5
11E
330
118
100
AcDbEntity
  8
1
  6
Continuous
 62
     7
370
    50
100
AcDbLine
 10
49.55000000000008
 20
160.9000000007954
 30
0.0
 11
44.95000000000005
 21
160.9000000007954
 31
0.0
  0
ENDBLK
  5
11A
330
118
100
AcDbEntity
  8
0
100
AcDbBlockEnd
  0
BLOCK
  5
121
330
120
100
AcDbEntity
  8
0
100
AcDbBlockBegin
  2
*G21
 70
     1
 10
0.0
 20
0.0
 30
0.0
  3
*G21
  1
*G21
  0
LINE
  5
123
330
120
100
AcDbEntity
  8
1
  6
Continuous
 62
     7
370
    50
100
AcDbLine
 10
40.70000000000004
 20
187.2000000514896
 30
0.0
 11
40.70000000000003
 21
167.0
 31
0.0
  0
LINE
  5
124
330
120
100
AcDbEntity
  8
1
  6
Continuous
 62
     7
370
    50
100
AcDbLine
 10
40.70000000000003
 20
167.0
 30
0.0
 11
80.90000000000002
 21
167.0
 31
0.0
  0
LINE
  5
125
330
120
100
AcDbEntity
  8
1
  6
Continuous
 62
     7
370
    50
100
AcDbLine
 10
80.90000000000002
 20
167.0
 30
0.0
 11
80.89999999999999
 21
187.2000000514896
 31
0.0
  0
LINE
  5
126
330
120
100
AcDbEntity
  8
1
  6
Continuous
 62
     7
370
    50
100
AcDbLine
 10
80.89999999999999
 20
187.2000000514896
 30
0.0
 11
40.70000000000004
 21
187.2000000514896
 31
0.0
  0
ENDBLK
  5
122
330
120
100
AcDbEntity
  8
0
100
AcDbBlockEnd
  0
BLOCK
  5
129
330
128
100
AcDbEntity
  8
0
100
AcDbBlockBegin
  2
*G22
 70
     1
 10
0.0
 20
0.0
 30
0.0
  3
*G22
  1
*G22
  0
LINE
  5
12B
330
128
100
AcDbEntity
  8
1
  6
Continuous
 62
     7
370
    50
100
AcDbLine
 10
37.24999999999999
 20
190.75
 30
0.0
 11
37.25000000000001
 21
145.25
 31
0.0
  0
LINE
  5
12C
330
128
100
AcDbEntity
  8
1
  6
Continuous
 62
     7
370
    50
100
AcDbLine
 10
37.25000000000001
 20
145.25
 30
0.0
 11
82.75000000000003
 21
145.25
 31
0.0
  0
LINE
  5
12D
330
128
100
AcDbEntity
  8
1
  6
Continuous
 62
     7
370
    50
100
AcDbLine
 10
82.75000000000003
 20
145.25
 30
0.0
 11
82.75000000000003
 21
190.75
 31
0.0
  0
LINE
  5
12E
330
128
100
AcDbEntity
  8
1
  6
Continuous
 62
     7
370
    50
100
AcDbLine
 10
82.75000000000003
 20
190.75
 30
0.0
 11
37.24999999999999
 21
190.75
 31
0.0
  0
ENDBLK
  5
12A
330
128
100
AcDbEntity
  8
0
100
AcDbBlockEnd
  0
BLOCK
  5
14E
330
14D
100
AcDbEntity
  8
0
100
AcDbBlockBegin
  2
*G23
 70
     1
 10
0.0
 20
0.0
 30
0.0
  3
*G23
  1
*G23
  0
LINE
  5
150
330
14D
100
AcDbEntity
  8
1
  6
Continuous
 62
     7
370
     9
100
AcDbLine
 10
55.50000000000012
 20
163.7465840933698
 30
0.0
 11
53.52795800483068
 21
160.3309071630769
 31
0.0
  0
LINE
  5
151
330
14D
100
AcDbEntity
  8
1
  6
Continuous
 62
     7
370
     9
100
AcDbLine
 10
53.52795800483068
 20
160.3309071630769
 30
0.0
 11
57.47204199516943
 21
160.3309071630769
 31
0.0
  0
LINE
  5
152
330
14D
100
AcDbEntity
  8
1
  6
Continuous
 62
     7
370
     9
100
AcDbLine
 10
57.47204199516943
 20
160.3309071630769
 30
0.0
 11
55.50000000000012
 21
163.7465840933698
 31
0.0
  0
ENDBLK
  5
14F
330
14D
100
AcDbEntity
  8
0
100
AcDbBlockEnd
  0
BLOCK
  5
156
330
155
100
AcDbEntity
  8
0
100
AcDbBlockBegin
  2
*G24
 70
     1
 10
0.0
 20
0.0
 30
0.0
  3
*G24
  1
*G24
  0
LINE
  5
158
330
155
100
AcDbEntity
  8
1
  6
Continuous
 62
     7
370
     9
100
AcDbLine
 10
55.50000000000001
 20
151.2534159074256
 30
0.0
 11
57.47204199516943
 21
154.6690928377185
 31
0.0
  0
LINE
  5
159
330
155
100
AcDbEntity
  8
1
  6
Continuous
 62
     7
370
     9
100
AcDbLine
 10
57.47204199516943
 20
154.6690928377185
 30
0.0
 11
53.52795800483056
 21
154.6690928377185
 31
0.0
  0
LINE
  5
15A
330
155
100
AcDbEntity
  8
1
  6
Continuous
 62
     7
370
     9
100
AcDbLine
 10
53.52795800483056
 20
154.6690928377185
 30
0.0
 11
55.50000000000001
 21
151.2534159074256
 31
0.0
  0
ENDBLK
  5
157
330
155
100
AcDbEntity
  8
0
100
AcDbBlockEnd
  0
BLOCK
  5
15E
330
15D
100
AcDbEntity
  8
0
100
AcDbBlockBegin
  2
*G25
 70
     1
 10
0.0
 20
0.0
 30
0.0
  3
*G25
  1
*G25
  0
LINE
  5
160
330
15D
100
AcDbEntity
  8
1
  6
Continuous
 62
     7
370
     9
100
AcDbLine
 10
63.25341590663019
 20
161.5
 30
0.0
 11
66.66909283692317
 21
159.5279580048306
 31
0.0
  0
LINE
  5
161
330
15D
100
AcDbEntity
  8
1
  6
Continuous
 62
     7
370
     9
100
AcDbLine
 10
66.66909283692317
 20
159.5279580048306
 30
0.0
 11
66.66909283692318
 21
163.4720419951694
 31
0.0
  0
LINE
  5
162
330
15D
100
AcDbEntity
  8
1
  6
Continuous
 62
     7
370
     9
100
AcDbLine
 10
66.66909283692318
 20
163.4720419951694
 30
0.0
 11
63.25341590663019
 21
161.5
 31
0.0
  0
ENDBLK
  5
15F
330
15D
100
AcDbEntity
  8
0
100
AcDbBlockEnd
  0
BLOCK
  5
168
330
167
100
AcDbEntity
  8
0
100
AcDbBlockBegin
  2
*G26
 70
     1
 10
0.0
 20
0.0
 30
0.0
  3
*G26
  1
*G26
  0
LINE
  5
16A
330
167
100
AcDbEntity
  8
1
  6
Continuous
 62
     7
370
     9
100
AcDbLine
 10
75.51107345240565
 20
151.3505608740822
 30
0.0
 11
76.69199981724564
 21
153.3959853379827
 31
0.0
  0
LINE
  5
16B
330
167
100
AcDbEntity
  8
1
  6
Continuous
 62
     7
370
     9
100
AcDbLine
 10
76.69199981724564
 20
153.3959853379827
 30
0.0
 11
74.33014708756566
 21
153.3959853379827
 31
0.0
  0
LINE
  5
16C
330
167
100
AcDbEntity
  8
1
  6
Continuous
 62
     7
370
     9
100
AcDbLine
 10
74.33014708756566
 20
153.3959853379827
 30
0.0
 11
75.51107345240565
 21
151.3505608740822
 31
0.0
  0
ENDBLK
  5
169
330
167
100
AcDbEntity
  8
0
100
AcDbBlockEnd
  0
BLOCK
  5
16F
330
16E
100
AcDbEntity
  8
0
100
AcDbBlockBegin
  2
*G27
 70
     1
 10
0.0
 20
0.0
 30
0.0
  3
*G27
  1
*G27
  0
LINE
  5
171
330
16E
100
AcDbEntity
  8
1
  6
Continuous
 62
     7
370
     9
100
AcDbLine
 10
75.10182148390172
 20
155.6374055298058
 30
0.0
 11
75.1018214839017
 21
153.3572874195697
 31
0.0
  0
LINE
  5
172
330
16E
100
AcDbEntity
  8
1
  6
Continuous
 62
     7
370
     9
100
AcDbLine
 10
75.1018214839017
 20
153.3572874195697
 30
0.0
 11
75.8618608539805
 21
153.3572874195697
 31
0.0
  0
LINE
  5
173
330
16E
100
AcDbEntity
  8
1
  6
Continuous
 62
     7
370
     9
100
AcDbLine
 10
75.8618608539805
 20
153.3572874195697
 30
0.0
 11
75.86186085398052
 21
155.6374055298058
 31
0.0
  0
LINE
  5
174
330
16E
100
AcDbEntity
  8
1
  6
Continuous
 62
     7
370
     9
100
AcDbLine
 10
75.86186085398052
 20
155.6374055298058
 30
0.0
 11
75.10182148390172
 21
155.6374055298058
 31
0.0
  0
ENDBLK
  5
170
330
16E
100
AcDbEntity
  8
0
100
AcDbBlockEnd
  0
BLOCK
  5
17C
330
17B
100
AcDbEntity
  8
0
100
AcDbBlockBegin
  2
*G28
 70
     1
 10
0.0
 20
0.0
 30
0.0
  3
*G28
  1
*G28
  0
LINE
  5
17E
330
17B
100
AcDbEntity
  8
1
  6
Continuous
 62
     7
370
    50
100
AcDbLine
 10
36.09999999999999
 20
191.9
 30
0.0
 11
36.1
 21
144.1
 31
0.0
  0
LINE
  5
17F
330
17B
100
AcDbEntity
  8
1
  6
Continuous
 62
     7
370
    50
100
AcDbLine
 10
36.1
 20
144.1
 30
0.0
 11
83.89999999999998
 21
144.1
 31
0.0
  0
LINE
  5
180
330
17B
100
AcDbEntity
  8
1
  6
Continuous
 62
     7
370
    50
100
AcDbLine
 10
83.89999999999998
 20
144.1
 30
0.0
 11
83.9
 21
191.9
 31
0.0
  0
LINE
  5
181
330
17B
100
AcDbEntity
  8
1
  6
Continuous
 62
     7
370
    50
100
AcDbLine
 10
83.9
 20
191.9
 30
0.0
 11
36.09999999999999
 21
191.9
 31
0.0
  0
ENDBLK
  5
17D
330
17B
100
AcDbEntity
  8
0
100
AcDbBlockEnd
  0
BLOCK
  5
184
330
183
100
AcDbEntity
  8
0
100
AcDbBlockBegin
  2
*G29
 70
     1
 10
0.0
 20
0.0
 30
0.0
  3
*G29
  1
*G29
  0
LINE
  5
186
330
183
100
AcDbEntity
  8
1
  6
Continuous
 62
     7
370
    50
100
AcDbLine
 10
36.99999999999999
 20
191.0
 30
0.0
 11
37.00000000000001
 21
145.0
 31
0.0
  0
LINE
  5
187
330
183
100
AcDbEntity
  8
1
  6
Continuous
 62
     7
370
    50
100
AcDbLine
 10
37.00000000000001
 20
145.0
 30
0.0
 11
83.0
 21
145.0
 31
0.0
  0
LINE
  5
188
330
183
100
AcDbEntity
  8
1
  6
Continuous
 62
     7
370
    50
100
AcDbLine
 10
83.0
 20
145.0
 30
0.0
 11
83.0
 21
191.0
 31
0.0
  0
LINE
  5
189
330
183
100
AcDbEntity
  8
1
  6
Continuous
 62
     7
370
    50
100
AcDbLine
 10
83.0
 20
191.0
 30
0.0
 11
36.99999999999999
 21
191.0
 31
0.0
  0
ENDBLK
  5
185
330
183
100
AcDbEntity
  8
0
100
AcDbBlockEnd
  0
BLOCK
  5
18C
330
18B
100
AcDbEntity
  8
0
100
AcDbBlockBegin
  2
*G30
 70
     1
 10
0.0
 20
0.0
 30
0.0
  3
*G30
  1
*G30
  0
INSERT
  5
1C1
330
18B
100
AcDbEntity
  8
0
100
AcDbBlockReference
  2
*G31
 10
0.0
 20
0.0
 30
0.0
  0
INSERT
  5
1F5
330
18B
100
AcDbEntity
  8
0
100
AcDbBlockReference
  2
*G32
 10
0.0
 20
0.0
 30
0.0
  0
INSERT
  5
229
330
18B
100
AcDbEntity
  8
0
100
AcDbBlockReference
  2
*G33
 10
0.0
 20
0.0
 30
0.0
  0
INSERT
  5
25D
330
18B
100
AcDbEntity
  8
0
100
AcDbBlockReference
  2
*G34
 10
0.0
 20
0.0
 30
0.0
  0
INSERT
  5
291
330
18B
100
AcDbEntity
  8
0
100
AcDbBlockReference
  2
*G35
 10
0.0
 20
0.0
 30
0.0
  0
INSERT
  5
2C5
330
18B
100
AcDbEntity
  8
0
100
AcDbBlockReference
  2
*G36
 10
0.0
 20
0.0
 30
0.0
  0
INSERT
  5
2F9
330
18B
100
AcDbEntity
  8
0
100
AcDbBlockReference
  2
*G37
 10
0.0
 20
0.0
 30
0.0
  0
INSERT
  5
32D
330
18B
100
AcDbEntity
  8
0
100
AcDbBlockReference
  2
*G38
 10
0.0
 20
0.0
 30
0.0
  0
INSERT
  5
361
330
18B
100
AcDbEntity
  8
0
100
AcDbBlockReference
  2
*G39
 10
0.0
 20
0.0
 30
0.0
  0
INSERT
  5
395
330
18B
100
AcDbEntity
  8
0
100
AcDbBlockReference
  2
*G40
 10
0.0
 20
0.0
 30
0.0
  0
INSERT
  5
39D
330
18B
100
AcDbEntity
  8
0
100
AcDbBlockReference
  2
*G41
 10
0.0
 20
0.0
 30
0.0
  0
INSERT
  5
3A5
330
18B
100
AcDbEntity
  8
0
100
AcDbBlockReference
  2
*G42
 10
0.0
 20
0.0
 30
0.0
  0
INSERT
  5
3AD
330
18B
100
AcDbEntity
  8
0
100
AcDbBlockReference
  2
*G43
 10
0.0
 20
0.0
 30
0.0
  0
LINE
  5
3AE
330
18B
100
AcDbEntity
  8
4
  6
DASHDOT
 62
    54
370
     9
100
AcDbLine
 10
41.17649798233025
 20
169.0
 30
0.0
 11
44.74594522663391
 21
169.0
 31
0.0
  0
LINE
  5
3AF
330
18B
100
AcDbEntity
  8
4
  6
DASHDOT
 62
    54
370
     9
100
AcDbLine
 10
42.99999999999999
 20
167.8848291579041
 30
0.0
 11
42.99999999999999
 21
170.0740901344104
 31
0.0
  0
LINE
  5
3B0
330
18B
100
AcDbEntity
  8
4
  6
DASHDOT
 62
    54
370
     9
100
AcDbLine
 10
41.17649798233023
 20
171.9999999999999
 30
0.0
 11
44.74594522663391
 21
171.9999999999999
 31
0.0
  0
LINE
  5
3B1
330
18B
100
AcDbEntity
  8
4
  6
DASHDOT
 62
    54
370
     9
100
AcDbLine
 10
42.99999999999999
 20
170.8848291579041
 30
0.0
 11
42.99999999999999
 21
173.0740901344104
 31
0.0
  0
LINE
  5
3B2
330
18B
100
AcDbEntity
  8
4
  6
DASHDOT
 62
    54
370
     9
100
AcDbLine
 10
41.17649798233023
 20
174.9999999999999
 30
0.0
 11
44.74594522663392
 21
174.9999999999999
 31
0.0
  0
LINE
  5
3B3
330
18B
100
AcDbEntity
  8
4
  6
DASHDOT
 62
    54
370
     9
100
AcDbLine
 10
43.0
 20
173.8848291579041
 30
0.0
 11
43.0
 21
176.0740901344104
 31
0.0
  0
INSERT
  5
3BB
330
18B
100
AcDbEntity
  8
0
100
AcDbBlockReference
  2
*G44
 10
0.0
 20
0.0
 30
0.0
  0
INSERT
  5
3C3
330
18B
100
AcDbEntity
  8
0
100
AcDbBlockReference
  2
*G45
 10
0.0
 20
0.0
 30
0.0
  0
LINE
  5
3C4
330
18B
100
AcDbEntity
  8
4
  6
DASHDOT
 62
    54
370
     9
100
AcDbLine
 10
41.24788692721627
 20
183.5
 30
0.0
 11
44.60316733686177
 21
183.5
 31
0.0
  0
LINE
  5
3C5
330
18B
100
AcDbEntity
  8
4
  6
DASHDOT
 62
    54
370
     9
100
AcDbLine
 10
43.00000000000001
 20
184.5248331897014
 30
0.0
 11
43.00000000000001
 21
182.2641832683091
 31
0.0
  0
LINE
  5
3C6
330
18B
100
AcDbEntity
  8
4
  6
DASHDOT
 62
    54
370
     9
100
AcDbLine
 10
41.17649798233024
 20
180.5
 30
0.0
 11
44.74594522663393
 21
180.5
 31
0.0
  0
LINE
  5
3C7
330
18B
100
AcDbEntity
  8
4
  6
DASHDOT
 62
    54
370
     9
100
AcDbLine
 10
43.00000000000001
 20
179.3848291579041
 30
0.0
 11
43.00000000000001
 21
181.5740901344104
 31
0.0
  0
ENDBLK
  5
18D
330
18B
100
AcDbEntity
  8
0
100
AcDbBlockEnd
  0
BLOCK
  5
18F
330
18E
100
AcDbEntity
  8
0
100
AcDbBlockBegin
  2
*G31
 70
     1
 10
0.0
 20
0.0
 30
0.0
  3
*G31
  1
*G31
  0
LINE
  5
191
330
18E
100
AcDbEntity
  8
4
  6
DASHDOT
 62
    54
370
     9
100
AcDbLine
 10
46.2946921472
 20
172.0
 30
0.0
 11
52.00806646146324
 21
172.0
 31
0.0
  0
LINE
  5
192
330
18E
100
AcDbEntity
  8
4
  6
DASHDOT
 62
    54
370
     9
100
AcDbLine
 10
48.17280821842421
 20
167.3087620735168
 30
0.0
 11
49.80568878692856
 21
176.569287776947
 31
0.0
  0
LINE
  5
193
330
18E
100
AcDbEntity
  8
4
  6
DASHDOT
 62
    54
370
     9
100
AcDbLine
 10
49.0
 20
176.4269941919371
 30
0.0
 11
48.99999999999999
 21
167.3285483436999
 31
0.0
  0
CIRCLE
  5
194
330
18E
100
AcDbEntity
  8
4
  6
Continuous
 62
    54
370
    50
100
AcDbCircle
 10
51.49999999999999
 20
168.4
 30
0.0
 40
0.4
  0
LINE
  5
195
330
18E
100
AcDbEntity
  8
4
  6
Continuous
 62
    54
370
    50
100
AcDbLine
 10
51.2053079808
 20
176.0
 30
0.0
 11
48.2053079808
 21
176.0
 31
0.0
  0
LINE
  5
196
330
18E
100
AcDbEntity
  8
4
  6
Continuous
 62
    54
370
    50
100
AcDbLine
 10
46.7946921472
 20
168.0
 30
0.0
 11
49.7946921472
 21
168.0
 31
0.0
  0
LINE
  5
197
330
18E
100
AcDbEntity
  8
4
  6
Continuous
 62
    54
370
    50
100
AcDbLine
 10
50.32898115911274
 20
175.000000507738
 30
0.0
 11
51.33020928953343
 21
175.8511484168183
 31
0.0
  0
LINE
  5
198
330
18E
100
AcDbEntity
  8
4
  6
Continuous
 62
    54
370
    50
100
AcDbLine
 10
50.49371567839805
 20
174.8000004119507
 30
0.0
 11
51.49671990719534
 21
175.6526581891356
 31
0.0
  0
LINE
  5
199
330
18E
100
AcDbEntity
  8
4
  6
Continuous
 62
    54
370
    50
100
AcDbLine
 10
51.2053079808
 20
176.0
 30
0.0
 11
51.33020928953343
 21
175.8511484168183
 31
0.0
  0
LINE
  5
19A
330
18E
100
AcDbEntity
  8
4
  6
Continuous
 62
    54
370
    50
100
AcDbLine
 10
51.5
 20
175.6487997279312
 30
0.0
 11
51.61848389268692
 21
175.5075961233669
 31
0.0
  0
LINE
  5
19B
330
18E
100
AcDbEntity
  8
4
  6
Continuous
 62
    54
370
    50
100
AcDbLine
 10
50.87657121450248
 20
171.3000002038399
 30
0.0
 11
50.38151623531307
 21
168.4924038766331
 31
0.0
  0
LINE
  5
19C
330
18E
100
AcDbEntity
  8
4
  6
Continuous
 62
    54
370
    50
100
AcDbLine
 10
49.8765711767044
 20
171.2999999894763
 30
0.0
 11
50.46473477754238
 21
171.8000002729938
 31
0.0
  0
LINE
  5
19D
330
18E
100
AcDbEntity
  8
4
  6
Continuous
 62
    54
370
    50
100
AcDbLine
 10
49.71183597308808
 20
171.4999995554575
 30
0.0
 11
50.30000016217442
 21
172.0000003390473
 31
0.0
  0
LINE
  5
19E
330
18E
100
AcDbEntity
  8
4
  6
Continuous
 62
    54
370
    50
100
AcDbLine
 10
50.46473477754235
 20
171.8000002729938
 30
0.0
 11
50.87657121450248
 21
171.3000002038399
 31
0.0
  0
LINE
  5
19F
330
18E
100
AcDbEntity
  8
4
  6
Continuous
 62
    54
370
    50
100
AcDbLine
 10
51.61848389268692
 20
175.5075961233669
 30
0.0
 11
51.12342905732316
 21
172.7000006118358
 31
0.0
  0
LINE
  5
1A0
330
18E
100
AcDbEntity
  8
4
  6
Continuous
 62
    54
370
    50
100
AcDbLine
 10
50.5352655573481
 20
172.2000004140623
 30
0.0
 11
51.12342905732316
 21
172.7000006118358
 31
0.0
  0
LINE
  5
1A1
330
18E
100
AcDbEntity
  8
4
  6
Continuous
 62
    54
370
    50
100
AcDbLine
 10
50.12342904976301
 20
172.7000005689601
 30
0.0
 11
50.5352655573481
 21
172.2000004140623
 31
0.0
  0
LINE
  5
1A2
330
18E
100
AcDbEntity
  8
4
  6
Continuous
 62
    54
370
    50
100
AcDbLine
 10
50.12342904976301
 20
172.7000005689601
 30
0.0
 11
50.49382138551061
 21
174.8005999067816
 31
0.0
  0
LINE
  5
1A3
330
18E
100
AcDbEntity
  8
4
  6
Continuous
 62
    54
370
    50
100
AcDbLine
 10
49.88816407039999
 20
172.5
 30
0.0
 11
50.30000045039994
 21
172.0
 31
0.0
  0
LINE
  5
1A4
330
18E
100
AcDbEntity
  8
4
  6
Continuous
 62
    54
370
    50
100
AcDbLine
 10
47.70000002641171
 20
172.0
 30
0.0
 11
48.11183659236337
 21
171.4999999156178
 31
0.0
  0
LINE
  5
1A5
330
18E
100
AcDbEntity
  8
4
  6
Continuous
 62
    54
370
    50
100
AcDbLine
 10
46.87657115262248
 20
171.2999998529011
 30
0.0
 11
46.38151623531307
 21
168.4924038766331
 31
0.0
  0
LINE
  5
1A6
330
18E
100
AcDbEntity
  8
4
  6
Continuous
 62
    54
370
    50
100
AcDbLine
 10
48.11183655557095
 20
171.5
 30
0.0
 11
49.71183649601516
 21
171.5
 31
0.0
  0
LINE
  5
1A7
330
18E
100
AcDbEntity
  8
4
  6
Continuous
 62
    54
370
    50
100
AcDbLine
 10
47.69977952662628
 20
171.9998125818528
 30
0.0
 11
48.28816352800001
 21
172.5000001730823
 31
0.0
  0
LINE
  5
1A8
330
18E
100
AcDbEntity
  8
4
  6
Continuous
 62
    54
370
    50
100
AcDbLine
 10
46.87609996301943
 20
171.2995992927363
 30
0.0
 11
47.46473459789842
 21
171.7999999485103
 31
0.0
  0
LINE
  5
1A9
330
18E
100
AcDbEntity
  8
4
  6
Continuous
 62
    54
370
    50
100
AcDbLine
 10
48.28816332439867
 20
172.5
 30
0.0
 11
49.88816407039999
 21
172.5
 31
0.0
  0
LINE
  5
1AA
330
18E
100
AcDbEntity
  8
4
  6
Continuous
 62
    54
370
    50
100
AcDbLine
 10
47.46473459789842
 20
171.7999999485103
 30
0.0
 11
47.87657113514677
 21
171.2999998989761
 31
0.0
  0
LINE
  5
1AB
330
18E
100
AcDbEntity
  8
4
  6
Continuous
 62
    54
370
    50
100
AcDbLine
 10
47.53526538536433
 20
172.2000000515593
 30
0.0
 11
48.12342897079906
 21
172.7000002663181
 31
0.0
  0
LINE
  5
1AC
330
18E
100
AcDbEntity
  8
4
  6
Continuous
 62
    54
370
    50
100
AcDbLine
 10
47.12353629169302
 20
172.6998696566357
 30
0.0
 11
47.53526538536436
 21
172.2000000515593
 31
0.0
  0
LINE
  5
1AD
330
18E
100
AcDbEntity
  8
4
  6
Continuous
 62
    54
370
    50
100
AcDbLine
 10
47.61848389268692
 20
175.5075961233669
 30
0.0
 11
47.12340989617703
 21
172.6998919435752
 31
0.0
  0
LINE
  5
1AE
330
18E
100
AcDbEntity
  8
4
  6
Continuous
 62
    54
370
    50
100
AcDbLine
 10
47.61848389268692
 20
175.5075961233669
 30
0.0
 11
47.79138659754003
 21
175.6526787194542
 31
0.0
  0
LINE
  5
1AF
330
18E
100
AcDbEntity
  8
4
  6
Continuous
 62
    54
370
    50
100
AcDbLine
 10
48.02791299981604
 20
175.8511479366625
 30
0.0
 11
48.72898067836397
 21
174.999999156011
 31
0.0
  0
LINE
  5
1B0
330
18E
100
AcDbEntity
  8
4
  6
Continuous
 62
    54
370
    50
100
AcDbLine
 10
48.02791299981607
 20
175.8511479366625
 30
0.0
 11
48.2053079808
 21
176.0
 31
0.0
  0
LINE
  5
1B1
330
18E
100
AcDbEntity
  8
4
  6
Continuous
 62
    54
370
    50
100
AcDbLine
 10
48.72897998319365
 20
175.0
 30
0.0
 11
50.32898104636396
 21
175.0
 31
0.0
  0
LINE
  5
1B2
330
18E
100
AcDbEntity
  8
4
  6
Continuous
 62
    54
370
    50
100
AcDbLine
 10
48.12342897079906
 20
172.7000002663181
 30
0.0
 11
48.49357859334356
 21
174.7992231091516
 31
0.0
  0
LINE
  5
1B3
330
18E
100
AcDbEntity
  8
4
  6
Continuous
 62
    54
370
    50
100
AcDbLine
 10
47.79138659754003
 20
175.6526787194542
 30
0.0
 11
48.49404078219715
 21
174.7996038013103
 31
0.0
  0
LINE
  5
1B4
330
18E
100
AcDbEntity
  8
4
  6
Continuous
 62
    54
370
    50
100
AcDbLine
 10
46.38151623531307
 20
168.4924038766331
 30
0.0
 11
46.50325526445231
 21
168.347320951513
 31
0.0
  0
LINE
  5
1B5
330
18E
100
AcDbEntity
  8
4
  6
Continuous
 62
    54
370
    50
100
AcDbLine
 10
46.66979061384153
 20
168.1488518508793
 30
0.0
 11
47.67101954377556
 21
169.0
 31
0.0
  0
LINE
  5
1B6
330
18E
100
AcDbEntity
  8
4
  6
Continuous
 62
    54
370
    50
100
AcDbLine
 10
46.66979061384153
 20
168.1488518508793
 30
0.0
 11
46.7946921472
 21
168.0
 31
0.0
  0
LINE
  5
1B7
330
18E
100
AcDbEntity
  8
4
  6
Continuous
 62
    54
370
    50
100
AcDbLine
 10
46.50325526445231
 20
168.347320951513
 30
0.0
 11
47.50625078188533
 21
169.1999708827287
 31
0.0
  0
LINE
  5
1B8
330
18E
100
AcDbEntity
  8
4
  6
Continuous
 62
    54
370
    50
100
AcDbLine
 10
47.50627850066915
 20
169.1999659951593
 30
0.0
 11
47.87657113514677
 21
171.2999998989761
 31
0.0
  0
LINE
  5
1B9
330
18E
100
AcDbEntity
  8
4
  6
Continuous
 62
    54
370
    50
100
AcDbLine
 10
49.27101931428778
 20
169.0
 30
0.0
 11
49.97208688960733
 21
168.1488518631479
 31
0.0
  0
LINE
  5
1BA
330
18E
100
AcDbEntity
  8
4
  6
Continuous
 62
    54
370
    50
100
AcDbLine
 10
49.7946921472
 20
168.0
 30
0.0
 11
49.97208688960733
 21
168.1488518631479
 31
0.0
  0
LINE
  5
1BB
330
18E
100
AcDbEntity
  8
4
  6
Continuous
 62
    54
370
    50
100
AcDbLine
 10
50.20861323300066
 20
168.3473210309478
 30
0.0
 11
50.38151623531307
 21
168.4924038766331
 31
0.0
  0
LINE
  5
1BC
330
18E
100
AcDbEntity
  8
4
  6
Continuous
 62
    54
370
    50
100
AcDbLine
 10
47.67101954377556
 20
169.0
 30
0.0
 11
49.27101931428778
 21
169.0
 31
0.0
  0
LINE
  5
1BD
330
18E
100
AcDbEntity
  8
4
  6
Continuous
 62
    54
370
    50
100
AcDbLine
 10
49.50628456289841
 20
169.2000002305854
 30
0.0
 11
49.8765711767044
 21
171.2999999894763
 31
0.0
  0
LINE
  5
1BE
330
18E
100
AcDbEntity
  8
4
  6
Continuous
 62
    54
370
    50
100
AcDbLine
 10
49.50628456289841
 20
169.2000002305854
 30
0.0
 11
50.20861323300066
 21
168.3473210309478
 31
0.0
  0
LINE
  5
1BF
330
18E
100
AcDbEntity
  8
4
  6
DASHDOT
 62
    54
370
     9
100
AcDbLine
 10
51.49999999999999
 20
169.2300753860563
 30
0.0
 11
51.49999999999999
 21
167.5494438442292
 31
0.0
  0
LINE
  5
1C0
330
18E
100
AcDbEntity
  8
4
  6
DASHDOT
 62
    54
370
     9
100
AcDbLine
 10
50.92491814619693
 20
168.4
 30
0.0
 11
52.26917161611549
 21
168.4
 31
0.0
  0
ENDBLK
  5
190
330
18E
100
AcDbEntity
  8
0
100
AcDbBlockEnd
  0
BLOCK
  5
1C3
330
1C2
100
AcDbEntity
  8
0
100
AcDbBlockBegin
  2
*G32
 70
     1
 10
0.0
 20
0.0
 30
0.0
  3
*G32
  1
*G32
  0
LINE
  5
1C5
330
1C2
100
AcDbEntity
  8
4
  6
DASHDOT
 62
    54
370
     9
100
AcDbLine
 10
53.2946921472
 20
172.0
 30
0.0
 11
59.00806646146324
 21
172.0
 31
0.0
  0
LINE
  5
1C6
330
1C2
100
AcDbEntity
  8
4
  6
DASHDOT
 62
    54
370
     9
100
AcDbLine
 10
55.17280821842421
 20
167.3087620735168
 30
0.0
 11
56.80568878692856
 21
176.569287776947
 31
0.0
  0
LINE
  5
1C7
330
1C2
100
AcDbEntity
  8
4
  6
DASHDOT
 62
    54
370
     9
100
AcDbLine
 10
56.0
 20
176.4269941919371
 30
0.0
 11
55.99999999999999
 21
167.3285483436999
 31
0.0
  0
CIRCLE
  5
1C8
330
1C2
100
AcDbEntity
  8
4
  6
Continuous
 62
    54
370
    50
100
AcDbCircle
 10
58.49999999999999
 20
168.4
 30
0.0
 40
0.4
  0
LINE
  5
1C9
330
1C2
100
AcDbEntity
  8
4
  6
Continuous
 62
    54
370
    50
100
AcDbLine
 10
58.2053079808
 20
176.0
 30
0.0
 11
55.2053079808
 21
176.0
 31
0.0
  0
LINE
  5
1CA
330
1C2
100
AcDbEntity
  8
4
  6
Continuous
 62
    54
370
    50
100
AcDbLine
 10
53.7946921472
 20
168.0
 30
0.0
 11
56.7946921472
 21
168.0
 31
0.0
  0
LINE
  5
1CB
330
1C2
100
AcDbEntity
  8
4
  6
Continuous
 62
    54
370
    50
100
AcDbLine
 10
57.32898115911274
 20
175.000000507738
 30
0.0
 11
58.3302092895334
 21
175.8511484168183
 31
0.0
  0
LINE
  5
1CC
330
1C2
100
AcDbEntity
  8
4
  6
Continuous
 62
    54
370
    50
100
AcDbLine
 10
57.49371567839802
 20
174.8000004119507
 30
0.0
 11
58.49671990719534
 21
175.6526581891356
 31
0.0
  0
LINE
  5
1CD
330
1C2
100
AcDbEntity
  8
4
  6
Continuous
 62
    54
370
    50
100
AcDbLine
 10
58.2053079808
 20
176.0
 30
0.0
 11
58.33020928953343
 21
175.8511484168183
 31
0.0
  0
LINE
  5
1CE
330
1C2
100
AcDbEntity
  8
4
  6
Continuous
 62
    54
370
    50
100
AcDbLine
 10
58.5
 20
175.6487997279312
 30
0.0
 11
58.61848389268692
 21
175.5075961233669
 31
0.0
  0
LINE
  5
1CF
330
1C2
100
AcDbEntity
  8
4
  6
Continuous
 62
    54
370
    50
100
AcDbLine
 10
57.87657121450248
 20
171.3000002038399
 30
0.0
 11
57.38151623531307
 21
168.4924038766331
 31
0.0
  0
LINE
  5
1D0
330
1C2
100
AcDbEntity
  8
4
  6
Continuous
 62
    54
370
    50
100
AcDbLine
 10
56.87657117670437
 20
171.2999999894763
 30
0.0
 11
57.46473477754238
 21
171.8000002729938
 31
0.0
  0
LINE
  5
1D1
330
1C2
100
AcDbEntity
  8
4
  6
Continuous
 62
    54
370
    50
100
AcDbLine
 10
56.71183597308808
 20
171.4999995554575
 30
0.0
 11
57.30000016217442
 21
172.0000003390473
 31
0.0
  0
LINE
  5
1D2
330
1C2
100
AcDbEntity
  8
4
  6
Continuous
 62
    54
370
    50
100
AcDbLine
 10
57.46473477754235
 20
171.8000002729938
 30
0.0
 11
57.87657121450248
 21
171.3000002038399
 31
0.0
  0
LINE
  5
1D3
330
1C2
100
AcDbEntity
  8
4
  6
Continuous
 62
    54
370
    50
100
AcDbLine
 10
58.61848389268692
 20
175.5075961233669
 30
0.0
 11
58.12342905732316
 21
172.7000006118358
 31
0.0
  0
LINE
  5
1D4
330
1C2
100
AcDbEntity
  8
4
  6
Continuous
 62
    54
370
    50
100
AcDbLine
 10
57.5352655573481
 20
172.2000004140623
 30
0.0
 11
58.12342905732316
 21
172.7000006118358
 31
0.0
  0
LINE
  5
1D5
330
1C2
100
AcDbEntity
  8
4
  6
Continuous
 62
    54
370
    50
100
AcDbLine
 10
57.12342904976301
 20
172.7000005689601
 30
0.0
 11
57.5352655573481
 21
172.2000004140623
 31
0.0
  0
LINE
  5
1D6
330
1C2
100
AcDbEntity
  8
4
  6
Continuous
 62
    54
370
    50
100
AcDbLine
 10
57.12342904976301
 20
172.7000005689601
 30
0.0
 11
57.49382138551061
 21
174.8005999067816
 31
0.0
  0
LINE
  5
1D7
330
1C2
100
AcDbEntity
  8
4
  6
Continuous
 62
    54
370
    50
100
AcDbLine
 10
56.88816407039999
 20
172.5
 30
0.0
 11
57.30000045039994
 21
172.0
 31
0.0
  0
LINE
  5
1D8
330
1C2
100
AcDbEntity
  8
4
  6
Continuous
 62
    54
370
    50
100
AcDbLine
 10
54.70000002641171
 20
172.0
 30
0.0
 11
55.11183659236337
 21
171.4999999156178
 31
0.0
  0
LINE
  5
1D9
330
1C2
100
AcDbEntity
  8
4
  6
Continuous
 62
    54
370
    50
100
AcDbLine
 10
53.87657115262248
 20
171.2999998529011
 30
0.0
 11
53.38151623531307
 21
168.4924038766331
 31
0.0
  0
LINE
  5
1DA
330
1C2
100
AcDbEntity
  8
4
  6
Continuous
 62
    54
370
    50
100
AcDbLine
 10
55.11183655557095
 20
171.5
 30
0.0
 11
56.71183649601516
 21
171.5
 31
0.0
  0
LINE
  5
1DB
330
1C2
100
AcDbEntity
  8
4
  6
Continuous
 62
    54
370
    50
100
AcDbLine
 10
54.69977952662628
 20
171.9998125818528
 30
0.0
 11
55.28816352800001
 21
172.5000001730823
 31
0.0
  0
LINE
  5
1DC
330
1C2
100
AcDbEntity
  8
4
  6
Continuous
 62
    54
370
    50
100
AcDbLine
 10
53.87609996301943
 20
171.2995992927363
 30
0.0
 11
54.46473459789842
 21
171.7999999485103
 31
0.0
  0
LINE
  5
1DD
330
1C2
100
AcDbEntity
  8
4
  6
Continuous
 62
    54
370
    50
100
AcDbLine
 10
55.28816332439867
 20
172.5
 30
0.0
 11
56.88816407039999
 21
172.5
 31
0.0
  0
LINE
  5
1DE
330
1C2
100
AcDbEntity
  8
4
  6
Continuous
 62
    54
370
    50
100
AcDbLine
 10
54.46473459789842
 20
171.7999999485103
 30
0.0
 11
54.87657113514677
 21
171.2999998989761
 31
0.0
  0
LINE
  5
1DF
330
1C2
100
AcDbEntity
  8
4
  6
Continuous
 62
    54
370
    50
100
AcDbLine
 10
54.53526538536433
 20
172.2000000515593
 30
0.0
 11
55.12342897079906
 21
172.7000002663181
 31
0.0
  0
LINE
  5
1E0
330
1C2
100
AcDbEntity
  8
4
  6
Continuous
 62
    54
370
    50
100
AcDbLine
 10
54.12353629169302
 20
172.6998696566357
 30
0.0
 11
54.53526538536436
 21
172.2000000515593
 31
0.0
  0
LINE
  5
1E1
330
1C2
100
AcDbEntity
  8
4
  6
Continuous
 62
    54
370
    50
100
AcDbLine
 10
54.61848389268692
 20
175.5075961233669
 30
0.0
 11
54.12340989617703
 21
172.6998919435752
 31
0.0
  0
LINE
  5
1E2
330
1C2
100
AcDbEntity
  8
4
  6
Continuous
 62
    54
370
    50
100
AcDbLine
 10
54.61848389268692
 20
175.5075961233669
 30
0.0
 11
54.79138659754003
 21
175.6526787194542
 31
0.0
  0
LINE
  5
1E3
330
1C2
100
AcDbEntity
  8
4
  6
Continuous
 62
    54
370
    50
100
AcDbLine
 10
55.02791299981604
 20
175.8511479366625
 30
0.0
 11
55.72898067836397
 21
174.999999156011
 31
0.0
  0
LINE
  5
1E4
330
1C2
100
AcDbEntity
  8
4
  6
Continuous
 62
    54
370
    50
100
AcDbLine
 10
55.02791299981607
 20
175.8511479366625
 30
0.0
 11
55.2053079808
 21
176.0
 31
0.0
  0
LINE
  5
1E5
330
1C2
100
AcDbEntity
  8
4
  6
Continuous
 62
    54
370
    50
100
AcDbLine
 10
55.72897998319365
 20
175.0
 30
0.0
 11
57.32898104636396
 21
175.0
 31
0.0
  0
LINE
  5
1E6
330
1C2
100
AcDbEntity
  8
4
  6
Continuous
 62
    54
370
    50
100
AcDbLine
 10
55.12342897079906
 20
172.7000002663181
 30
0.0
 11
55.49357859334356
 21
174.7992231091516
 31
0.0
  0
LINE
  5
1E7
330
1C2
100
AcDbEntity
  8
4
  6
Continuous
 62
    54
370
    50
100
AcDbLine
 10
54.79138659754003
 20
175.6526787194542
 30
0.0
 11
55.49404078219715
 21
174.7996038013103
 31
0.0
  0
LINE
  5
1E8
330
1C2
100
AcDbEntity
  8
4
  6
Continuous
 62
    54
370
    50
100
AcDbLine
 10
53.38151623531307
 20
168.4924038766331
 30
0.0
 11
53.50325526445231
 21
168.347320951513
 31
0.0
  0
LINE
  5
1E9
330
1C2
100
AcDbEntity
  8
4
  6
Continuous
 62
    54
370
    50
100
AcDbLine
 10
53.66979061384153
 20
168.1488518508793
 30
0.0
 11
54.67101954377556
 21
169.0
 31
0.0
  0
LINE
  5
1EA
330
1C2
100
AcDbEntity
  8
4
  6
Continuous
 62
    54
370
    50
100
AcDbLine
 10
53.66979061384153
 20
168.1488518508793
 30
0.0
 11
53.7946921472
 21
168.0
 31
0.0
  0
LINE
  5
1EB
330
1C2
100
AcDbEntity
  8
4
  6
Continuous
 62
    54
370
    50
100
AcDbLine
 10
53.50325526445231
 20
168.347320951513
 30
0.0
 11
54.50625078188533
 21
169.1999708827287
 31
0.0
  0
LINE
  5
1EC
330
1C2
100
AcDbEntity
  8
4
  6
Continuous
 62
    54
370
    50
100
AcDbLine
 10
54.50627850066915
 20
169.1999659951593
 30
0.0
 11
54.87657113514677
 21
171.2999998989761
 31
0.0
  0
LINE
  5
1ED
330
1C2
100
AcDbEntity
  8
4
  6
Continuous
 62
    54
370
    50
100
AcDbLine
 10
56.27101931428773
 20
169.0
 30
0.0
 11
56.97208688960733
 21
168.1488518631479
 31
0.0
  0
LINE
  5
1EE
330
1C2
100
AcDbEntity
  8
4
  6
Continuous
 62
    54
370
    50
100
AcDbLine
 10
56.7946921472
 20
168.0
 30
0.0
 11
56.97208688960733
 21
168.1488518631479
 31
0.0
  0
LINE
  5
1EF
330
1C2
100
AcDbEntity
  8
4
  6
Continuous
 62
    54
370
    50
100
AcDbLine
 10
57.20861323300066
 20
168.3473210309478
 30
0.0
 11
57.38151623531307
 21
168.4924038766331
 31
0.0
  0
LINE
  5
1F0
330
1C2
100
AcDbEntity
  8
4
  6
Continuous
 62
    54
370
    50
100
AcDbLine
 10
54.67101954377556
 20
169.0
 30
0.0
 11
56.27101931428773
 21
169.0
 31
0.0
  0
LINE
  5
1F1
330
1C2
100
AcDbEntity
  8
4
  6
Continuous
 62
    54
370
    50
100
AcDbLine
 10
56.50628456289841
 20
169.2000002305854
 30
0.0
 11
56.8765711767044
 21
171.2999999894763
 31
0.0
  0
LINE
  5
1F2
330
1C2
100
AcDbEntity
  8
4
  6
Continuous
 62
    54
370
    50
100
AcDbLine
 10
56.50628456289841
 20
169.2000002305854
 30
0.0
 11
57.20861323300066
 21
168.3473210309478
 31
0.0
  0
LINE
  5
1F3
330
1C2
100
AcDbEntity
  8
4
  6
DASHDOT
 62
    54
370
     9
100
AcDbLine
 10
58.49999999999999
 20
169.2300753860563
 30
0.0
 11
58.49999999999999
 21
167.5494438442292
 31
0.0
  0
LINE
  5
1F4
330
1C2
100
AcDbEntity
  8
4
  6
DASHDOT
 62
    54
370
     9
100
AcDbLine
 10
57.92491814619693
 20
168.4
 30
0.0
 11
59.26917161611549
 21
168.4
 31
0.0
  0
ENDBLK
  5
1C4
330
1C2
100
AcDbEntity
  8
0
100
AcDbBlockEnd
  0
BLOCK
  5
1F7
330
1F6
100
AcDbEntity
  8
0
100
AcDbBlockBegin
  2
*G33
 70
     1
 10
0.0
 20
0.0
 30
0.0
  3
*G33
  1
*G33
  0
LINE
  5
1F9
330
1F6
100
AcDbEntity
  8
4
  6
DASHDOT
 62
    54
370
     9
100
AcDbLine
 10
60.2946921472
 20
172.0
 30
0.0
 11
66.00806646146324
 21
172.0
 31
0.0
  0
LINE
  5
1FA
330
1F6
100
AcDbEntity
  8
4
  6
DASHDOT
 62
    54
370
     9
100
AcDbLine
 10
62.17280821842421
 20
167.3087620735168
 30
0.0
 11
63.80568878692856
 21
176.569287776947
 31
0.0
  0
LINE
  5
1FB
330
1F6
100
AcDbEntity
  8
4
  6
DASHDOT
 62
    54
370
     9
100
AcDbLine
 10
63.0
 20
176.4269941919371
 30
0.0
 11
62.99999999999999
 21
167.3285483436999
 31
0.0
  0
CIRCLE
  5
1FC
330
1F6
100
AcDbEntity
  8
4
  6
Continuous
 62
    54
370
    50
100
AcDbCircle
 10
65.49999999999999
 20
168.4
 30
0.0
 40
0.4
  0
LINE
  5
1FD
330
1F6
100
AcDbEntity
  8
4
  6
Continuous
 62
    54
370
    50
100
AcDbLine
 10
65.2053079808
 20
176.0
 30
0.0
 11
62.2053079808
 21
176.0
 31
0.0
  0
LINE
  5
1FE
330
1F6
100
AcDbEntity
  8
4
  6
Continuous
 62
    54
370
    50
100
AcDbLine
 10
60.7946921472
 20
168.0
 30
0.0
 11
63.7946921472
 21
168.0
 31
0.0
  0
LINE
  5
1FF
330
1F6
100
AcDbEntity
  8
4
  6
Continuous
 62
    54
370
    50
100
AcDbLine
 10
64.32898115911274
 20
175.000000507738
 30
0.0
 11
65.33020928953343
 21
175.8511484168183
 31
0.0
  0
LINE
  5
200
330
1F6
100
AcDbEntity
  8
4
  6
Continuous
 62
    54
370
    50
100
AcDbLine
 10
64.49371567839805
 20
174.8000004119507
 30
0.0
 11
65.49671990719534
 21
175.6526581891356
 31
0.0
  0
LINE
  5
201
330
1F6
100
AcDbEntity
  8
4
  6
Continuous
 62
    54
370
    50
100
AcDbLine
 10
65.2053079808
 20
176.0
 30
0.0
 11
65.33020928953343
 21
175.8511484168183
 31
0.0
  0
LINE
  5
202
330
1F6
100
AcDbEntity
  8
4
  6
Continuous
 62
    54
370
    50
100
AcDbLine
 10
65.5
 20
175.6487997279312
 30
0.0
 11
65.61848389268692
 21
175.5075961233669
 31
0.0
  0
LINE
  5
203
330
1F6
100
AcDbEntity
  8
4
  6
Continuous
 62
    54
370
    50
100
AcDbLine
 10
64.8765712145025
 20
171.3000002038399
 30
0.0
 11
64.38151623531307
 21
168.4924038766331
 31
0.0
  0
LINE
  5
204
330
1F6
100
AcDbEntity
  8
4
  6
Continuous
 62
    54
370
    50
100
AcDbLine
 10
63.87657117670437
 20
171.2999999894763
 30
0.0
 11
64.46473477754239
 21
171.8000002729938
 31
0.0
  0
LINE
  5
205
330
1F6
100
AcDbEntity
  8
4
  6
Continuous
 62
    54
370
    50
100
AcDbLine
 10
63.71183597308808
 20
171.4999995554575
 30
0.0
 11
64.30000016217443
 21
172.0000003390473
 31
0.0
  0
LINE
  5
206
330
1F6
100
AcDbEntity
  8
4
  6
Continuous
 62
    54
370
    50
100
AcDbLine
 10
64.46473477754236
 20
171.8000002729938
 30
0.0
 11
64.8765712145025
 21
171.3000002038399
 31
0.0
  0
LINE
  5
207
330
1F6
100
AcDbEntity
  8
4
  6
Continuous
 62
    54
370
    50
100
AcDbLine
 10
65.61848389268692
 20
175.5075961233669
 30
0.0
 11
65.12342905732316
 21
172.7000006118358
 31
0.0
  0
LINE
  5
208
330
1F6
100
AcDbEntity
  8
4
  6
Continuous
 62
    54
370
    50
100
AcDbLine
 10
64.53526555734811
 20
172.2000004140623
 30
0.0
 11
65.12342905732316
 21
172.7000006118358
 31
0.0
  0
LINE
  5
209
330
1F6
100
AcDbEntity
  8
4
  6
Continuous
 62
    54
370
    50
100
AcDbLine
 10
64.12342904976302
 20
172.7000005689601
 30
0.0
 11
64.53526555734811
 21
172.2000004140623
 31
0.0
  0
LINE
  5
20A
330
1F6
100
AcDbEntity
  8
4
  6
Continuous
 62
    54
370
    50
100
AcDbLine
 10
64.12342904976302
 20
172.7000005689601
 30
0.0
 11
64.49382138551061
 21
174.8005999067816
 31
0.0
  0
LINE
  5
20B
330
1F6
100
AcDbEntity
  8
4
  6
Continuous
 62
    54
370
    50
100
AcDbLine
 10
63.88816407039999
 20
172.5
 30
0.0
 11
64.30000045039995
 21
172.0
 31
0.0
  0
LINE
  5
20C
330
1F6
100
AcDbEntity
  8
4
  6
Continuous
 62
    54
370
    50
100
AcDbLine
 10
61.70000002641171
 20
172.0
 30
0.0
 11
62.11183659236337
 21
171.4999999156178
 31
0.0
  0
LINE
  5
20D
330
1F6
100
AcDbEntity
  8
4
  6
Continuous
 62
    54
370
    50
100
AcDbLine
 10
60.87657115262248
 20
171.2999998529011
 30
0.0
 11
60.38151623531307
 21
168.4924038766331
 31
0.0
  0
LINE
  5
20E
330
1F6
100
AcDbEntity
  8
4
  6
Continuous
 62
    54
370
    50
100
AcDbLine
 10
62.11183655557095
 20
171.5
 30
0.0
 11
63.71183649601516
 21
171.5
 31
0.0
  0
LINE
  5
20F
330
1F6
100
AcDbEntity
  8
4
  6
Continuous
 62
    54
370
    50
100
AcDbLine
 10
61.69977952662628
 20
171.9998125818528
 30
0.0
 11
62.28816352799998
 21
172.5000001730823
 31
0.0
  0
LINE
  5
210
330
1F6
100
AcDbEntity
  8
4
  6
Continuous
 62
    54
370
    50
100
AcDbLine
 10
60.87609996301941
 20
171.2995992927363
 30
0.0
 11
61.46473459789842
 21
171.7999999485103
 31
0.0
  0
LINE
  5
211
330
1F6
100
AcDbEntity
  8
4
  6
Continuous
 62
    54
370
    50
100
AcDbLine
 10
62.28816332439867
 20
172.5
 30
0.0
 11
63.88816407039999
 21
172.5
 31
0.0
  0
LINE
  5
212
330
1F6
100
AcDbEntity
  8
4
  6
Continuous
 62
    54
370
    50
100
AcDbLine
 10
61.46473459789842
 20
171.7999999485103
 30
0.0
 11
61.87657113514674
 21
171.2999998989761
 31
0.0
  0
LINE
  5
213
330
1F6
100
AcDbEntity
  8
4
  6
Continuous
 62
    54
370
    50
100
AcDbLine
 10
61.53526538536433
 20
172.2000000515593
 30
0.0
 11
62.12342897079906
 21
172.7000002663181
 31
0.0
  0
LINE
  5
214
330
1F6
100
AcDbEntity
  8
4
  6
Continuous
 62
    54
370
    50
100
AcDbLine
 10
61.12353629169302
 20
172.6998696566357
 30
0.0
 11
61.53526538536433
 21
172.2000000515593
 31
0.0
  0
LINE
  5
215
330
1F6
100
AcDbEntity
  8
4
  6
Continuous
 62
    54
370
    50
100
AcDbLine
 10
61.6184838926869
 20
175.5075961233669
 30
0.0
 11
61.123409896177
 21
172.6998919435752
 31
0.0
  0
LINE
  5
216
330
1F6
100
AcDbEntity
  8
4
  6
Continuous
 62
    54
370
    50
100
AcDbLine
 10
61.6184838926869
 20
175.5075961233669
 30
0.0
 11
61.79138659754
 21
175.6526787194542
 31
0.0
  0
LINE
  5
217
330
1F6
100
AcDbEntity
  8
4
  6
Continuous
 62
    54
370
    50
100
AcDbLine
 10
62.02791299981604
 20
175.8511479366625
 30
0.0
 11
62.72898067836394
 21
174.999999156011
 31
0.0
  0
LINE
  5
218
330
1F6
100
AcDbEntity
  8
4
  6
Continuous
 62
    54
370
    50
100
AcDbLine
 10
62.02791299981607
 20
175.8511479366625
 30
0.0
 11
62.2053079808
 21
176.0
 31
0.0
  0
LINE
  5
219
330
1F6
100
AcDbEntity
  8
4
  6
Continuous
 62
    54
370
    50
100
AcDbLine
 10
62.72897998319363
 20
175.0
 30
0.0
 11
64.32898104636396
 21
175.0
 31
0.0
  0
LINE
  5
21A
330
1F6
100
AcDbEntity
  8
4
  6
Continuous
 62
    54
370
    50
100
AcDbLine
 10
62.12342897079906
 20
172.7000002663181
 30
0.0
 11
62.49357859334356
 21
174.7992231091516
 31
0.0
  0
LINE
  5
21B
330
1F6
100
AcDbEntity
  8
4
  6
Continuous
 62
    54
370
    50
100
AcDbLine
 10
61.79138659754003
 20
175.6526787194542
 30
0.0
 11
62.49404078219715
 21
174.7996038013103
 31
0.0
  0
LINE
  5
21C
330
1F6
100
AcDbEntity
  8
4
  6
Continuous
 62
    54
370
    50
100
AcDbLine
 10
60.38151623531307
 20
168.4924038766331
 30
0.0
 11
60.50325526445231
 21
168.347320951513
 31
0.0
  0
LINE
  5
21D
330
1F6
100
AcDbEntity
  8
4
  6
Continuous
 62
    54
370
    50
100
AcDbLine
 10
60.66979061384153
 20
168.1488518508793
 30
0.0
 11
61.6710195437755
 21
169.0
 31
0.0
  0
LINE
  5
21E
330
1F6
100
AcDbEntity
  8
4
  6
Continuous
 62
    54
370
    50
100
AcDbLine
 10
60.66979061384153
 20
168.1488518508793
 30
0.0
 11
60.7946921472
 21
168.0
 31
0.0
  0
LINE
  5
21F
330
1F6
100
AcDbEntity
  8
4
  6
Continuous
 62
    54
370
    50
100
AcDbLine
 10
60.50325526445231
 20
168.347320951513
 30
0.0
 11
61.50625078188533
 21
169.1999708827287
 31
0.0
  0
LINE
  5
220
330
1F6
100
AcDbEntity
  8
4
  6
Continuous
 62
    54
370
    50
100
AcDbLine
 10
61.50627850066915
 20
169.1999659951593
 30
0.0
 11
61.87657113514677
 21
171.2999998989761
 31
0.0
  0
LINE
  5
221
330
1F6
100
AcDbEntity
  8
4
  6
Continuous
 62
    54
370
    50
100
AcDbLine
 10
63.27101931428773
 20
169.0
 30
0.0
 11
63.97208688960733
 21
168.1488518631479
 31
0.0
  0
LINE
  5
222
330
1F6
100
AcDbEntity
  8
4
  6
Continuous
 62
    54
370
    50
100
AcDbLine
 10
63.7946921472
 20
168.0
 30
0.0
 11
63.97208688960733
 21
168.1488518631479
 31
0.0
  0
LINE
  5
223
330
1F6
100
AcDbEntity
  8
4
  6
Continuous
 62
    54
370
    50
100
AcDbLine
 10
64.20861323300066
 20
168.3473210309478
 30
0.0
 11
64.38151623531307
 21
168.4924038766331
 31
0.0
  0
LINE
  5
224
330
1F6
100
AcDbEntity
  8
4
  6
Continuous
 62
    54
370
    50
100
AcDbLine
 10
61.6710195437755
 20
169.0
 30
0.0
 11
63.27101931428773
 21
169.0
 31
0.0
  0
LINE
  5
225
330
1F6
100
AcDbEntity
  8
4
  6
Continuous
 62
    54
370
    50
100
AcDbLine
 10
63.50628456289841
 20
169.2000002305854
 30
0.0
 11
63.87657117670437
 21
171.2999999894763
 31
0.0
  0
LINE
  5
226
330
1F6
100
AcDbEntity
  8
4
  6
Continuous
 62
    54
370
    50
100
AcDbLine
 10
63.50628456289841
 20
169.2000002305854
 30
0.0
 11
64.20861323300066
 21
168.3473210309478
 31
0.0
  0
LINE
  5
227
330
1F6
100
AcDbEntity
  8
4
  6
DASHDOT
 62
    54
370
     9
100
AcDbLine
 10
65.49999999999999
 20
169.2300753860563
 30
0.0
 11
65.49999999999999
 21
167.5494438442292
 31
0.0
  0
LINE
  5
228
330
1F6
100
AcDbEntity
  8
4
  6
DASHDOT
 62
    54
370
     9
100
AcDbLine
 10
64.92491814619693
 20
168.4
 30
0.0
 11
66.26917161611549
 21
168.4
 31
0.0
  0
ENDBLK
  5
1F8
330
1F6
100
AcDbEntity
  8
0
100
AcDbBlockEnd
  0
BLOCK
  5
22B
330
22A
100
AcDbEntity
  8
0
100
AcDbBlockBegin
  2
*G34
 70
     1
 10
0.0
 20
0.0
 30
0.0
  3
*G34
  1
*G34
  0
LINE
  5
22D
330
22A
100
AcDbEntity
  8
4
  6
DASHDOT
 62
    54
370
     9
100
AcDbLine
 10
67.29469214720001
 20
172.0
 30
0.0
 11
73.00806646146324
 21
172.0
 31
0.0
  0
LINE
  5
22E
330
22A
100
AcDbEntity
  8
4
  6
DASHDOT
 62
    54
370
     9
100
AcDbLine
 10
69.17280821842421
 20
167.3087620735168
 30
0.0
 11
70.80568878692856
 21
176.569287776947
 31
0.0
  0
LINE
  5
22F
330
22A
100
AcDbEntity
  8
4
  6
DASHDOT
 62
    54
370
     9
100
AcDbLine
 10
70.0
 20
176.4269941919371
 30
0.0
 11
69.99999999999999
 21
167.3285483436999
 31
0.0
  0
CIRCLE
  5
230
330
22A
100
AcDbEntity
  8
4
  6
Continuous
 62
    54
370
    50
100
AcDbCircle
 10
72.49999999999999
 20
168.4
 30
0.0
 40
0.4
  0
LINE
  5
231
330
22A
100
AcDbEntity
  8
4
  6
Continuous
 62
    54
370
    50
100
AcDbLine
 10
72.2053079808
 20
176.0
 30
0.0
 11
69.2053079808
 21
176.0
 31
0.0
  0
LINE
  5
232
330
22A
100
AcDbEntity
  8
4
  6
Continuous
 62
    54
370
    50
100
AcDbLine
 10
67.7946921472
 20
168.0
 30
0.0
 11
70.7946921472
 21
168.0
 31
0.0
  0
LINE
  5
233
330
22A
100
AcDbEntity
  8
4
  6
Continuous
 62
    54
370
    50
100
AcDbLine
 10
71.32898115911277
 20
175.000000507738
 30
0.0
 11
72.33020928953343
 21
175.8511484168183
 31
0.0
  0
LINE
  5
234
330
22A
100
AcDbEntity
  8
4
  6
Continuous
 62
    54
370
    50
100
AcDbLine
 10
71.49371567839805
 20
174.8000004119507
 30
0.0
 11
72.49671990719537
 21
175.6526581891356
 31
0.0
  0
LINE
  5
235
330
22A
100
AcDbEntity
  8
4
  6
Continuous
 62
    54
370
    50
100
AcDbLine
 10
72.2053079808
 20
176.0
 30
0.0
 11
72.33020928953343
 21
175.8511484168183
 31
0.0
  0
LINE
  5
236
330
22A
100
AcDbEntity
  8
4
  6
Continuous
 62
    54
370
    50
100
AcDbLine
 10
72.5
 20
175.6487997279312
 30
0.0
 11
72.61848389268692
 21
175.5075961233669
 31
0.0
  0
LINE
  5
237
330
22A
100
AcDbEntity
  8
4
  6
Continuous
 62
    54
370
    50
100
AcDbLine
 10
71.8765712145025
 20
171.3000002038399
 30
0.0
 11
71.38151623531307
 21
168.4924038766331
 31
0.0
  0
LINE
  5
238
330
22A
100
AcDbEntity
  8
4
  6
Continuous
 62
    54
370
    50
100
AcDbLine
 10
70.87657117670442
 20
171.2999999894763
 30
0.0
 11
71.46473477754239
 21
171.8000002729938
 31
0.0
  0
LINE
  5
239
330
22A
100
AcDbEntity
  8
4
  6
Continuous
 62
    54
370
    50
100
AcDbLine
 10
70.7118359730881
 20
171.4999995554575
 30
0.0
 11
71.30000016217443
 21
172.0000003390473
 31
0.0
  0
LINE
  5
23A
330
22A
100
AcDbEntity
  8
4
  6
Continuous
 62
    54
370
    50
100
AcDbLine
 10
71.46473477754239
 20
171.8000002729938
 30
0.0
 11
71.8765712145025
 21
171.3000002038399
 31
0.0
  0
LINE
  5
23B
330
22A
100
AcDbEntity
  8
4
  6
Continuous
 62
    54
370
    50
100
AcDbLine
 10
72.61848389268692
 20
175.5075961233669
 30
0.0
 11
72.12342905732316
 21
172.7000006118358
 31
0.0
  0
LINE
  5
23C
330
22A
100
AcDbEntity
  8
4
  6
Continuous
 62
    54
370
    50
100
AcDbLine
 10
71.53526555734811
 20
172.2000004140623
 30
0.0
 11
72.12342905732316
 21
172.7000006118358
 31
0.0
  0
LINE
  5
23D
330
22A
100
AcDbEntity
  8
4
  6
Continuous
 62
    54
370
    50
100
AcDbLine
 10
71.12342904976305
 20
172.7000005689601
 30
0.0
 11
71.53526555734811
 21
172.2000004140623
 31
0.0
  0
LINE
  5
23E
330
22A
100
AcDbEntity
  8
4
  6
Continuous
 62
    54
370
    50
100
AcDbLine
 10
71.12342904976302
 20
172.7000005689601
 30
0.0
 11
71.49382138551061
 21
174.8005999067816
 31
0.0
  0
LINE
  5
23F
330
22A
100
AcDbEntity
  8
4
  6
Continuous
 62
    54
370
    50
100
AcDbLine
 10
70.88816407040002
 20
172.5
 30
0.0
 11
71.30000045039998
 21
172.0
 31
0.0
  0
LINE
  5
240
330
22A
100
AcDbEntity
  8
4
  6
Continuous
 62
    54
370
    50
100
AcDbLine
 10
68.70000002641174
 20
172.0
 30
0.0
 11
69.11183659236336
 21
171.4999999156178
 31
0.0
  0
LINE
  5
241
330
22A
100
AcDbEntity
  8
4
  6
Continuous
 62
    54
370
    50
100
AcDbLine
 10
67.87657115262253
 20
171.2999998529011
 30
0.0
 11
67.38151623531307
 21
168.4924038766331
 31
0.0
  0
LINE
  5
242
330
22A
100
AcDbEntity
  8
4
  6
Continuous
 62
    54
370
    50
100
AcDbLine
 10
69.11183655557095
 20
171.5
 30
0.0
 11
70.71183649601515
 21
171.5
 31
0.0
  0
LINE
  5
243
330
22A
100
AcDbEntity
  8
4
  6
Continuous
 62
    54
370
    50
100
AcDbLine
 10
68.69977952662632
 20
171.9998125818528
 30
0.0
 11
69.28816352800001
 21
172.5000001730823
 31
0.0
  0
LINE
  5
244
330
22A
100
AcDbEntity
  8
4
  6
Continuous
 62
    54
370
    50
100
AcDbLine
 10
67.87609996301943
 20
171.2995992927363
 30
0.0
 11
68.46473459789843
 21
171.7999999485103
 31
0.0
  0
LINE
  5
245
330
22A
100
AcDbEntity
  8
4
  6
Continuous
 62
    54
370
    50
100
AcDbLine
 10
69.28816332439868
 20
172.5
 30
0.0
 11
70.88816407040002
 21
172.5
 31
0.0
  0
LINE
  5
246
330
22A
100
AcDbEntity
  8
4
  6
Continuous
 62
    54
370
    50
100
AcDbLine
 10
68.46473459789843
 20
171.7999999485103
 30
0.0
 11
68.87657113514676
 21
171.2999998989761
 31
0.0
  0
LINE
  5
247
330
22A
100
AcDbEntity
  8
4
  6
Continuous
 62
    54
370
    50
100
AcDbLine
 10
68.53526538536434
 20
172.2000000515593
 30
0.0
 11
69.12342897079907
 21
172.7000002663181
 31
0.0
  0
LINE
  5
248
330
22A
100
AcDbEntity
  8
4
  6
Continuous
 62
    54
370
    50
100
AcDbLine
 10
68.12353629169303
 20
172.6998696566357
 30
0.0
 11
68.53526538536437
 21
172.2000000515593
 31
0.0
  0
LINE
  5
249
330
22A
100
AcDbEntity
  8
4
  6
Continuous
 62
    54
370
    50
100
AcDbLine
 10
68.61848389268692
 20
175.5075961233669
 30
0.0
 11
68.12340989617704
 21
172.6998919435752
 31
0.0
  0
LINE
  5
24A
330
22A
100
AcDbEntity
  8
4
  6
Continuous
 62
    54
370
    50
100
AcDbLine
 10
68.61848389268692
 20
175.5075961233669
 30
0.0
 11
68.79138659754003
 21
175.6526787194542
 31
0.0
  0
LINE
  5
24B
330
22A
100
AcDbEntity
  8
4
  6
Continuous
 62
    54
370
    50
100
AcDbLine
 10
69.02791299981607
 20
175.8511479366625
 30
0.0
 11
69.72898067836397
 21
174.999999156011
 31
0.0
  0
LINE
  5
24C
330
22A
100
AcDbEntity
  8
4
  6
Continuous
 62
    54
370
    50
100
AcDbLine
 10
69.02791299981607
 20
175.8511479366625
 30
0.0
 11
69.2053079808
 21
176.0
 31
0.0
  0
LINE
  5
24D
330
22A
100
AcDbEntity
  8
4
  6
Continuous
 62
    54
370
    50
100
AcDbLine
 10
69.72897998319365
 20
175.0
 30
0.0
 11
71.32898104636396
 21
175.0
 31
0.0
  0
LINE
  5
24E
330
22A
100
AcDbEntity
  8
4
  6
Continuous
 62
    54
370
    50
100
AcDbLine
 10
69.12342897079907
 20
172.7000002663181
 30
0.0
 11
69.49357859334356
 21
174.7992231091516
 31
0.0
  0
LINE
  5
24F
330
22A
100
AcDbEntity
  8
4
  6
Continuous
 62
    54
370
    50
100
AcDbLine
 10
68.79138659754003
 20
175.6526787194542
 30
0.0
 11
69.49404078219715
 21
174.7996038013103
 31
0.0
  0
LINE
  5
250
330
22A
100
AcDbEntity
  8
4
  6
Continuous
 62
    54
370
    50
100
AcDbLine
 10
67.38151623531307
 20
168.4924038766331
 30
0.0
 11
67.5032552644523
 21
168.347320951513
 31
0.0
  0
LINE
  5
251
330
22A
100
AcDbEntity
  8
4
  6
Continuous
 62
    54
370
    50
100
AcDbLine
 10
67.66979061384158
 20
168.1488518508793
 30
0.0
 11
68.67101954377556
 21
169.0
 31
0.0
  0
LINE
  5
252
330
22A
100
AcDbEntity
  8
4
  6
Continuous
 62
    54
370
    50
100
AcDbLine
 10
67.66979061384153
 20
168.1488518508793
 30
0.0
 11
67.7946921472
 21
168.0
 31
0.0
  0
LINE
  5
253
330
22A
100
AcDbEntity
  8
4
  6
Continuous
 62
    54
370
    50
100
AcDbLine
 10
67.5032552644523
 20
168.347320951513
 30
0.0
 11
68.50625078188533
 21
169.1999708827287
 31
0.0
  0
LINE
  5
254
330
22A
100
AcDbEntity
  8
4
  6
Continuous
 62
    54
370
    50
100
AcDbLine
 10
68.50627850066921
 20
169.1999659951593
 30
0.0
 11
68.87657113514676
 21
171.2999998989761
 31
0.0
  0
LINE
  5
255
330
22A
100
AcDbEntity
  8
4
  6
Continuous
 62
    54
370
    50
100
AcDbLine
 10
70.27101931428778
 20
169.0
 30
0.0
 11
70.97208688960733
 21
168.1488518631479
 31
0.0
  0
LINE
  5
256
330
22A
100
AcDbEntity
  8
4
  6
Continuous
 62
    54
370
    50
100
AcDbLine
 10
70.7946921472
 20
168.0
 30
0.0
 11
70.97208688960733
 21
168.1488518631479
 31
0.0
  0
LINE
  5
257
330
22A
100
AcDbEntity
  8
4
  6
Continuous
 62
    54
370
    50
100
AcDbLine
 10
71.20861323300066
 20
168.3473210309478
 30
0.0
 11
71.38151623531307
 21
168.4924038766331
 31
0.0
  0
LINE
  5
258
330
22A
100
AcDbEntity
  8
4
  6
Continuous
 62
    54
370
    50
100
AcDbLine
 10
68.67101954377556
 20
169.0
 30
0.0
 11
70.27101931428778
 21
169.0
 31
0.0
  0
LINE
  5
259
330
22A
100
AcDbEntity
  8
4
  6
Continuous
 62
    54
370
    50
100
AcDbLine
 10
70.50628456289841
 20
169.2000002305854
 30
0.0
 11
70.87657117670442
 21
171.2999999894763
 31
0.0
  0
LINE
  5
25A
330
22A
100
AcDbEntity
  8
4
  6
Continuous
 62
    54
370
    50
100
AcDbLine
 10
70.50628456289841
 20
169.2000002305854
 30
0.0
 11
71.20861323300066
 21
168.3473210309478
 31
0.0
  0
LINE
  5
25B
330
22A
100
AcDbEntity
  8
4
  6
DASHDOT
 62
    54
370
     9
100
AcDbLine
 10
72.49999999999999
 20
169.2300753860563
 30
0.0
 11
72.49999999999999
 21
167.5494438442292
 31
0.0
  0
LINE
  5
25C
330
22A
100
AcDbEntity
  8
4
  6
DASHDOT
 62
    54
370
     9
100
AcDbLine
 10
71.92491814619693
 20
168.4
 30
0.0
 11
73.26917161611549
 21
168.4
 31
0.0
  0
ENDBLK
  5
22C
330
22A
100
AcDbEntity
  8
0
100
AcDbBlockEnd
  0
BLOCK
  5
25F
330
25E
100
AcDbEntity
  8
0
100
AcDbBlockBegin
  2
*G35
 70
     1
 10
0.0
 20
0.0
 30
0.0
  3
*G35
  1
*G35
  0
LINE
  5
261
330
25E
100
AcDbEntity
  8
4
  6
DASHDOT
 62
    54
370
     9
100
AcDbLine
 10
74.29469214720001
 20
172.0
 30
0.0
 11
80.00806646146324
 21
172.0
 31
0.0
  0
LINE
  5
262
330
25E
100
AcDbEntity
  8
4
  6
DASHDOT
 62
    54
370
     9
100
AcDbLine
 10
76.17280821842421
 20
167.3087620735168
 30
0.0
 11
77.80568878692856
 21
176.569287776947
 31
0.0
  0
LINE
  5
263
330
25E
100
AcDbEntity
  8
4
  6
DASHDOT
 62
    54
370
     9
100
AcDbLine
 10
77.0
 20
176.4269941919371
 30
0.0
 11
76.99999999999999
 21
167.3285483436999
 31
0.0
  0
CIRCLE
  5
264
330
25E
100
AcDbEntity
  8
4
  6
Continuous
 62
    54
370
    50
100
AcDbCircle
 10
79.49999999999999
 20
168.4
 30
0.0
 40
0.4
  0
LINE
  5
265
330
25E
100
AcDbEntity
  8
4
  6
Continuous
 62
    54
370
    50
100
AcDbLine
 10
79.2053079808
 20
176.0
 30
0.0
 11
76.2053079808
 21
176.0
 31
0.0
  0
LINE
  5
266
330
25E
100
AcDbEntity
  8
4
  6
Continuous
 62
    54
370
    50
100
AcDbLine
 10
74.7946921472
 20
168.0
 30
0.0
 11
77.7946921472
 21
168.0
 31
0.0
  0
LINE
  5
267
330
25E
100
AcDbEntity
  8
4
  6
Continuous
 62
    54
370
    50
100
AcDbLine
 10
78.32898115911274
 20
175.000000507738
 30
0.0
 11
79.33020928953343
 21
175.8511484168183
 31
0.0
  0
LINE
  5
268
330
25E
100
AcDbEntity
  8
4
  6
Continuous
 62
    54
370
    50
100
AcDbLine
 10
78.49371567839805
 20
174.8000004119507
 30
0.0
 11
79.49671990719534
 21
175.6526581891356
 31
0.0
  0
LINE
  5
269
330
25E
100
AcDbEntity
  8
4
  6
Continuous
 62
    54
370
    50
100
AcDbLine
 10
79.2053079808
 20
176.0
 30
0.0
 11
79.33020928953343
 21
175.8511484168183
 31
0.0
  0
LINE
  5
26A
330
25E
100
AcDbEntity
  8
4
  6
Continuous
 62
    54
370
    50
100
AcDbLine
 10
79.5
 20
175.6487997279312
 30
0.0
 11
79.61848389268692
 21
175.5075961233669
 31
0.0
  0
LINE
  5
26B
330
25E
100
AcDbEntity
  8
4
  6
Continuous
 62
    54
370
    50
100
AcDbLine
 10
78.8765712145025
 20
171.3000002038399
 30
0.0
 11
78.38151623531307
 21
168.4924038766331
 31
0.0
  0
LINE
  5
26C
330
25E
100
AcDbEntity
  8
4
  6
Continuous
 62
    54
370
    50
100
AcDbLine
 10
77.87657117670442
 20
171.2999999894763
 30
0.0
 11
78.46473477754239
 21
171.8000002729938
 31
0.0
  0
LINE
  5
26D
330
25E
100
AcDbEntity
  8
4
  6
Continuous
 62
    54
370
    50
100
AcDbLine
 10
77.7118359730881
 20
171.4999995554575
 30
0.0
 11
78.30000016217443
 21
172.0000003390473
 31
0.0
  0
LINE
  5
26E
330
25E
100
AcDbEntity
  8
4
  6
Continuous
 62
    54
370
    50
100
AcDbLine
 10
78.46473477754236
 20
171.8000002729938
 30
0.0
 11
78.8765712145025
 21
171.3000002038399
 31
0.0
  0
LINE
  5
26F
330
25E
100
AcDbEntity
  8
4
  6
Continuous
 62
    54
370
    50
100
AcDbLine
 10
79.61848389268692
 20
175.5075961233669
 30
0.0
 11
79.12342905732316
 21
172.7000006118358
 31
0.0
  0
LINE
  5
270
330
25E
100
AcDbEntity
  8
4
  6
Continuous
 62
    54
370
    50
100
AcDbLine
 10
78.53526555734811
 20
172.2000004140623
 30
0.0
 11
79.12342905732316
 21
172.7000006118358
 31
0.0
  0
LINE
  5
271
330
25E
100
AcDbEntity
  8
4
  6
Continuous
 62
    54
370
    50
100
AcDbLine
 10
78.12342904976302
 20
172.7000005689601
 30
0.0
 11
78.53526555734811
 21
172.2000004140623
 31
0.0
  0
LINE
  5
272
330
25E
100
AcDbEntity
  8
4
  6
Continuous
 62
    54
370
    50
100
AcDbLine
 10
78.12342904976302
 20
172.7000005689601
 30
0.0
 11
78.49382138551061
 21
174.8005999067816
 31
0.0
  0
LINE
  5
273
330
25E
100
AcDbEntity
  8
4
  6
Continuous
 62
    54
370
    50
100
AcDbLine
 10
77.8881640704
 20
172.5
 30
0.0
 11
78.30000045039995
 21
172.0
 31
0.0
  0
LINE
  5
274
330
25E
100
AcDbEntity
  8
4
  6
Continuous
 62
    54
370
    50
100
AcDbLine
 10
75.70000002641171
 20
172.0
 30
0.0
 11
76.11183659236336
 21
171.4999999156178
 31
0.0
  0
LINE
  5
275
330
25E
100
AcDbEntity
  8
4
  6
Continuous
 62
    54
370
    50
100
AcDbLine
 10
74.87657115262247
 20
171.2999998529011
 30
0.0
 11
74.38151623531307
 21
168.4924038766331
 31
0.0
  0
LINE
  5
276
330
25E
100
AcDbEntity
  8
4
  6
Continuous
 62
    54
370
    50
100
AcDbLine
 10
76.11183655557095
 20
171.5
 30
0.0
 11
77.71183649601515
 21
171.5
 31
0.0
  0
LINE
  5
277
330
25E
100
AcDbEntity
  8
4
  6
Continuous
 62
    54
370
    50
100
AcDbLine
 10
75.69977952662629
 20
171.9998125818528
 30
0.0
 11
76.28816352800001
 21
172.5000001730823
 31
0.0
  0
LINE
  5
278
330
25E
100
AcDbEntity
  8
4
  6
Continuous
 62
    54
370
    50
100
AcDbLine
 10
74.87609996301943
 20
171.2995992927363
 30
0.0
 11
75.46473459789843
 21
171.7999999485103
 31
0.0
  0
LINE
  5
279
330
25E
100
AcDbEntity
  8
4
  6
Continuous
 62
    54
370
    50
100
AcDbLine
 10
76.28816332439868
 20
172.5
 30
0.0
 11
77.8881640704
 21
172.5
 31
0.0
  0
LINE
  5
27A
330
25E
100
AcDbEntity
  8
4
  6
Continuous
 62
    54
370
    50
100
AcDbLine
 10
75.46473459789843
 20
171.7999999485103
 30
0.0
 11
75.87657113514676
 21
171.2999998989761
 31
0.0
  0
LINE
  5
27B
330
25E
100
AcDbEntity
  8
4
  6
Continuous
 62
    54
370
    50
100
AcDbLine
 10
75.53526538536434
 20
172.2000000515593
 30
0.0
 11
76.12342897079907
 21
172.7000002663181
 31
0.0
  0
LINE
  5
27C
330
25E
100
AcDbEntity
  8
4
  6
Continuous
 62
    54
370
    50
100
AcDbLine
 10
75.12353629169303
 20
172.6998696566357
 30
0.0
 11
75.53526538536437
 21
172.2000000515593
 31
0.0
  0
LINE
  5
27D
330
25E
100
AcDbEntity
  8
4
  6
Continuous
 62
    54
370
    50
100
AcDbLine
 10
75.61848389268692
 20
175.5075961233669
 30
0.0
 11
75.12340989617704
 21
172.6998919435752
 31
0.0
  0
LINE
  5
27E
330
25E
100
AcDbEntity
  8
4
  6
Continuous
 62
    54
370
    50
100
AcDbLine
 10
75.61848389268692
 20
175.5075961233669
 30
0.0
 11
75.79138659754003
 21
175.6526787194542
 31
0.0
  0
LINE
  5
27F
330
25E
100
AcDbEntity
  8
4
  6
Continuous
 62
    54
370
    50
100
AcDbLine
 10
76.02791299981604
 20
175.8511479366625
 30
0.0
 11
76.72898067836397
 21
174.999999156011
 31
0.0
  0
LINE
  5
280
330
25E
100
AcDbEntity
  8
4
  6
Continuous
 62
    54
370
    50
100
AcDbLine
 10
76.02791299981607
 20
175.8511479366625
 30
0.0
 11
76.2053079808
 21
176.0
 31
0.0
  0
LINE
  5
281
330
25E
100
AcDbEntity
  8
4
  6
Continuous
 62
    54
370
    50
100
AcDbLine
 10
76.72897998319365
 20
175.0
 30
0.0
 11
78.32898104636396
 21
175.0
 31
0.0
  0
LINE
  5
282
330
25E
100
AcDbEntity
  8
4
  6
Continuous
 62
    54
370
    50
100
AcDbLine
 10
76.12342897079907
 20
172.7000002663181
 30
0.0
 11
76.49357859334356
 21
174.7992231091516
 31
0.0
  0
LINE
  5
283
330
25E
100
AcDbEntity
  8
4
  6
Continuous
 62
    54
370
    50
100
AcDbLine
 10
75.79138659754003
 20
175.6526787194542
 30
0.0
 11
76.49404078219715
 21
174.7996038013103
 31
0.0
  0
LINE
  5
284
330
25E
100
AcDbEntity
  8
4
  6
Continuous
 62
    54
370
    50
100
AcDbLine
 10
74.38151623531307
 20
168.4924038766331
 30
0.0
 11
74.5032552644523
 21
168.347320951513
 31
0.0
  0
LINE
  5
285
330
25E
100
AcDbEntity
  8
4
  6
Continuous
 62
    54
370
    50
100
AcDbLine
 10
74.66979061384153
 20
168.1488518508793
 30
0.0
 11
75.67101954377556
 21
169.0
 31
0.0
  0
LINE
  5
286
330
25E
100
AcDbEntity
  8
4
  6
Continuous
 62
    54
370
    50
100
AcDbLine
 10
74.66979061384153
 20
168.1488518508793
 30
0.0
 11
74.7946921472
 21
168.0
 31
0.0
  0
LINE
  5
287
330
25E
100
AcDbEntity
  8
4
  6
Continuous
 62
    54
370
    50
100
AcDbLine
 10
74.5032552644523
 20
168.347320951513
 30
0.0
 11
75.50625078188533
 21
169.1999708827287
 31
0.0
  0
LINE
  5
288
330
25E
100
AcDbEntity
  8
4
  6
Continuous
 62
    54
370
    50
100
AcDbLine
 10
75.50627850066915
 20
169.1999659951593
 30
0.0
 11
75.87657113514676
 21
171.2999998989761
 31
0.0
  0
LINE
  5
289
330
25E
100
AcDbEntity
  8
4
  6
Continuous
 62
    54
370
    50
100
AcDbLine
 10
77.27101931428778
 20
169.0
 30
0.0
 11
77.97208688960733
 21
168.1488518631479
 31
0.0
  0
LINE
  5
28A
330
25E
100
AcDbEntity
  8
4
  6
Continuous
 62
    54
370
    50
100
AcDbLine
 10
77.7946921472
 20
168.0
 30
0.0
 11
77.97208688960733
 21
168.1488518631479
 31
0.0
  0
LINE
  5
28B
330
25E
100
AcDbEntity
  8
4
  6
Continuous
 62
    54
370
    50
100
AcDbLine
 10
78.20861323300066
 20
168.3473210309478
 30
0.0
 11
78.38151623531307
 21
168.4924038766331
 31
0.0
  0
LINE
  5
28C
330
25E
100
AcDbEntity
  8
4
  6
Continuous
 62
    54
370
    50
100
AcDbLine
 10
75.67101954377556
 20
169.0
 30
0.0
 11
77.27101931428778
 21
169.0
 31
0.0
  0
LINE
  5
28D
330
25E
100
AcDbEntity
  8
4
  6
Continuous
 62
    54
370
    50
100
AcDbLine
 10
77.50628456289841
 20
169.2000002305854
 30
0.0
 11
77.87657117670442
 21
171.2999999894763
 31
0.0
  0
LINE
  5
28E
330
25E
100
AcDbEntity
  8
4
  6
Continuous
 62
    54
370
    50
100
AcDbLine
 10
77.50628456289841
 20
169.2000002305854
 30
0.0
 11
78.20861323300066
 21
168.3473210309478
 31
0.0
  0
LINE
  5
28F
330
25E
100
AcDbEntity
  8
4
  6
DASHDOT
 62
    54
370
     9
100
AcDbLine
 10
79.49999999999999
 20
169.2300753860563
 30
0.0
 11
79.49999999999999
 21
167.5494438442292
 31
0.0
  0
LINE
  5
290
330
25E
100
AcDbEntity
  8
4
  6
DASHDOT
 62
    54
370
     9
100
AcDbLine
 10
78.92491814619693
 20
168.4
 30
0.0
 11
80.26917161611549
 21
168.4
 31
0.0
  0
ENDBLK
  5
260
330
25E
100
AcDbEntity
  8
0
100
AcDbBlockEnd
  0
BLOCK
  5
293
330
292
100
AcDbEntity
  8
0
100
AcDbBlockBegin
  2
*G36
 70
     1
 10
0.0
 20
0.0
 30
0.0
  3
*G36
  1
*G36
  0
LINE
  5
295
330
292
100
AcDbEntity
  8
4
  6
DASHDOT
 62
    54
370
     9
100
AcDbLine
 10
46.29469214720002
 20
182.0
 30
0.0
 11
52.00806646146325
 21
182.0
 31
0.0
  0
LINE
  5
296
330
292
100
AcDbEntity
  8
4
  6
DASHDOT
 62
    54
370
     9
100
AcDbLine
 10
48.17280821842422
 20
177.3087620735168
 30
0.0
 11
49.80568878692857
 21
186.569287776947
 31
0.0
  0
LINE
  5
297
330
292
100
AcDbEntity
  8
4
  6
DASHDOT
 62
    54
370
     9
100
AcDbLine
 10
49.00000000000001
 20
186.4269941919371
 30
0.0
 11
49.0
 21
177.3285483436999
 31
0.0
  0
CIRCLE
  5
298
330
292
100
AcDbEntity
  8
4
  6
Continuous
 62
    54
370
    50
100
AcDbCircle
 10
51.50000000000001
 20
178.4
 30
0.0
 40
0.4
  0
LINE
  5
299
330
292
100
AcDbEntity
  8
4
  6
Continuous
 62
    54
370
    50
100
AcDbLine
 10
51.20530798080001
 20
186.0
 30
0.0
 11
48.20530798080001
 21
186.0
 31
0.0
  0
LINE
  5
29A
330
292
100
AcDbEntity
  8
4
  6
Continuous
 62
    54
370
    50
100
AcDbLine
 10
46.79469214720001
 20
178.0
 30
0.0
 11
49.79469214720001
 21
178.0
 31
0.0
  0
LINE
  5
29B
330
292
100
AcDbEntity
  8
4
  6
Continuous
 62
    54
370
    50
100
AcDbLine
 10
50.32898115911276
 20
185.000000507738
 30
0.0
 11
51.33020928953341
 21
185.8511484168183
 31
0.0
  0
LINE
  5
29C
330
292
100
AcDbEntity
  8
4
  6
Continuous
 62
    54
370
    50
100
AcDbLine
 10
50.49371567839803
 20
184.8000004119507
 30
0.0
 11
51.49671990719533
 21
185.6526581891356
 31
0.0
  0
LINE
  5
29D
330
292
100
AcDbEntity
  8
4
  6
Continuous
 62
    54
370
    50
100
AcDbLine
 10
51.20530798080001
 20
186.0
 30
0.0
 11
51.33020928953341
 21
185.8511484168183
 31
0.0
  0
LINE
  5
29E
330
292
100
AcDbEntity
  8
4
  6
Continuous
 62
    54
370
    50
100
AcDbLine
 10
51.50000000000001
 20
185.6487997279312
 30
0.0
 11
51.61848389268694
 21
185.5075961233669
 31
0.0
  0
LINE
  5
29F
330
292
100
AcDbEntity
  8
4
  6
Continuous
 62
    54
370
    50
100
AcDbLine
 10
50.8765712145025
 20
181.3000002038399
 30
0.0
 11
50.38151623531309
 21
178.4924038766331
 31
0.0
  0
LINE
  5
2A0
330
292
100
AcDbEntity
  8
4
  6
Continuous
 62
    54
370
    50
100
AcDbLine
 10
49.87657117670441
 20
181.2999999894763
 30
0.0
 11
50.4647347775424
 21
181.8000002729938
 31
0.0
  0
LINE
  5
2A1
330
292
100
AcDbEntity
  8
4
  6
Continuous
 62
    54
370
    50
100
AcDbLine
 10
49.71183597308809
 20
181.4999995554575
 30
0.0
 11
50.30000016217443
 21
182.0000003390473
 31
0.0
  0
LINE
  5
2A2
330
292
100
AcDbEntity
  8
4
  6
Continuous
 62
    54
370
    50
100
AcDbLine
 10
50.46473477754237
 20
181.8000002729938
 30
0.0
 11
50.8765712145025
 21
181.3000002038399
 31
0.0
  0
LINE
  5
2A3
330
292
100
AcDbEntity
  8
4
  6
Continuous
 62
    54
370
    50
100
AcDbLine
 10
51.61848389268694
 20
185.5075961233669
 30
0.0
 11
51.12342905732318
 21
182.7000006118358
 31
0.0
  0
LINE
  5
2A4
330
292
100
AcDbEntity
  8
4
  6
Continuous
 62
    54
370
    50
100
AcDbLine
 10
50.53526555734812
 20
182.2000004140623
 30
0.0
 11
51.12342905732318
 21
182.7000006118358
 31
0.0
  0
LINE
  5
2A5
330
292
100
AcDbEntity
  8
4
  6
Continuous
 62
    54
370
    50
100
AcDbLine
 10
50.123429049763
 20
182.7000005689601
 30
0.0
 11
50.53526555734812
 21
182.2000004140623
 31
0.0
  0
LINE
  5
2A6
330
292
100
AcDbEntity
  8
4
  6
Continuous
 62
    54
370
    50
100
AcDbLine
 10
50.123429049763
 20
182.7000005689601
 30
0.0
 11
50.49382138551063
 21
184.8005999067816
 31
0.0
  0
LINE
  5
2A7
330
292
100
AcDbEntity
  8
4
  6
Continuous
 62
    54
370
    50
100
AcDbLine
 10
49.8881640704
 20
182.5
 30
0.0
 11
50.30000045039996
 21
182.0
 31
0.0
  0
LINE
  5
2A8
330
292
100
AcDbEntity
  8
4
  6
Continuous
 62
    54
370
    50
100
AcDbLine
 10
47.70000002641172
 20
182.0
 30
0.0
 11
48.11183659236338
 21
181.4999999156178
 31
0.0
  0
LINE
  5
2A9
330
292
100
AcDbEntity
  8
4
  6
Continuous
 62
    54
370
    50
100
AcDbLine
 10
46.8765711526225
 20
181.2999998529011
 30
0.0
 11
46.38151623531309
 21
178.4924038766331
 31
0.0
  0
LINE
  5
2AA
330
292
100
AcDbEntity
  8
4
  6
Continuous
 62
    54
370
    50
100
AcDbLine
 10
48.11183655557097
 20
181.5
 30
0.0
 11
49.71183649601517
 21
181.5
 31
0.0
  0
LINE
  5
2AB
330
292
100
AcDbEntity
  8
4
  6
Continuous
 62
    54
370
    50
100
AcDbLine
 10
47.69977952662629
 20
181.9998125818528
 30
0.0
 11
48.28816352800002
 21
182.5000001730823
 31
0.0
  0
LINE
  5
2AC
330
292
100
AcDbEntity
  8
4
  6
Continuous
 62
    54
370
    50
100
AcDbLine
 10
46.87609996301945
 20
181.2995992927363
 30
0.0
 11
47.46473459789843
 21
181.7999999485103
 31
0.0
  0
LINE
  5
2AD
330
292
100
AcDbEntity
  8
4
  6
Continuous
 62
    54
370
    50
100
AcDbLine
 10
48.28816332439869
 20
182.5
 30
0.0
 11
49.8881640704
 21
182.5
 31
0.0
  0
LINE
  5
2AE
330
292
100
AcDbEntity
  8
4
  6
Continuous
 62
    54
370
    50
100
AcDbLine
 10
47.46473459789843
 20
181.7999999485103
 30
0.0
 11
47.87657113514678
 21
181.2999998989761
 31
0.0
  0
LINE
  5
2AF
330
292
100
AcDbEntity
  8
4
  6
Continuous
 62
    54
370
    50
100
AcDbLine
 10
47.53526538536435
 20
182.2000000515593
 30
0.0
 11
48.12342897079908
 21
182.7000002663181
 31
0.0
  0
LINE
  5
2B0
330
292
100
AcDbEntity
  8
4
  6
Continuous
 62
    54
370
    50
100
AcDbLine
 10
47.12353629169304
 20
182.6998696566357
 30
0.0
 11
47.53526538536438
 21
182.2000000515593
 31
0.0
  0
LINE
  5
2B1
330
292
100
AcDbEntity
  8
4
  6
Continuous
 62
    54
370
    50
100
AcDbLine
 10
47.61848389268694
 20
185.5075961233669
 30
0.0
 11
47.12340989617702
 21
182.6998919435752
 31
0.0
  0
LINE
  5
2B2
330
292
100
AcDbEntity
  8
4
  6
Continuous
 62
    54
370
    50
100
AcDbLine
 10
47.61848389268694
 20
185.5075961233669
 30
0.0
 11
47.79138659754001
 21
185.6526787194542
 31
0.0
  0
LINE
  5
2B3
330
292
100
AcDbEntity
  8
4
  6
Continuous
 62
    54
370
    50
100
AcDbLine
 10
48.02791299981602
 20
185.8511479366625
 30
0.0
 11
48.72898067836395
 21
184.999999156011
 31
0.0
  0
LINE
  5
2B4
330
292
100
AcDbEntity
  8
4
  6
Continuous
 62
    54
370
    50
100
AcDbLine
 10
48.02791299981608
 20
185.8511479366625
 30
0.0
 11
48.20530798080001
 21
186.0
 31
0.0
  0
LINE
  5
2B5
330
292
100
AcDbEntity
  8
4
  6
Continuous
 62
    54
370
    50
100
AcDbLine
 10
48.72897998319367
 20
185.0
 30
0.0
 11
50.32898104636395
 21
185.0
 31
0.0
  0
LINE
  5
2B6
330
292
100
AcDbEntity
  8
4
  6
Continuous
 62
    54
370
    50
100
AcDbLine
 10
48.12342897079908
 20
182.7000002663181
 30
0.0
 11
48.49357859334357
 21
184.7992231091516
 31
0.0
  0
LINE
  5
2B7
330
292
100
AcDbEntity
  8
4
  6
Continuous
 62
    54
370
    50
100
AcDbLine
 10
47.79138659754001
 20
185.6526787194542
 30
0.0
 11
48.49404078219716
 21
184.7996038013103
 31
0.0
  0
LINE
  5
2B8
330
292
100
AcDbEntity
  8
4
  6
Continuous
 62
    54
370
    50
100
AcDbLine
 10
46.38151623531309
 20
178.4924038766331
 30
0.0
 11
46.50325526445233
 21
178.347320951513
 31
0.0
  0
LINE
  5
2B9
330
292
100
AcDbEntity
  8
4
  6
Continuous
 62
    54
370
    50
100
AcDbLine
 10
46.66979061384155
 20
178.1488518508793
 30
0.0
 11
47.67101954377555
 21
179.0
 31
0.0
  0
LINE
  5
2BA
330
292
100
AcDbEntity
  8
4
  6
Continuous
 62
    54
370
    50
100
AcDbLine
 10
46.66979061384155
 20
178.1488518508793
 30
0.0
 11
46.79469214720001
 21
178.0
 31
0.0
  0
LINE
  5
2BB
330
292
100
AcDbEntity
  8
4
  6
Continuous
 62
    54
370
    50
100
AcDbLine
 10
46.50325526445233
 20
178.347320951513
 30
0.0
 11
47.50625078188532
 21
179.1999708827287
 31
0.0
  0
LINE
  5
2BC
330
292
100
AcDbEntity
  8
4
  6
Continuous
 62
    54
370
    50
100
AcDbLine
 10
47.50627850066918
 20
179.1999659951593
 30
0.0
 11
47.87657113514678
 21
181.2999998989761
 31
0.0
  0
LINE
  5
2BD
330
292
100
AcDbEntity
  8
4
  6
Continuous
 62
    54
370
    50
100
AcDbLine
 10
49.27101931428778
 20
179.0
 30
0.0
 11
49.97208688960732
 21
178.1488518631479
 31
0.0
  0
LINE
  5
2BE
330
292
100
AcDbEntity
  8
4
  6
Continuous
 62
    54
370
    50
100
AcDbLine
 10
49.79469214720001
 20
178.0
 30
0.0
 11
49.97208688960732
 21
178.1488518631479
 31
0.0
  0
LINE
  5
2BF
330
292
100
AcDbEntity
  8
4
  6
Continuous
 62
    54
370
    50
100
AcDbLine
 10
50.20861323300065
 20
178.3473210309478
 30
0.0
 11
50.38151623531309
 21
178.4924038766331
 31
0.0
  0
LINE
  5
2C0
330
292
100
AcDbEntity
  8
4
  6
Continuous
 62
    54
370
    50
100
AcDbLine
 10
47.67101954377555
 20
179.0
 30
0.0
 11
49.27101931428778
 21
179.0
 31
0.0
  0
LINE
  5
2C1
330
292
100
AcDbEntity
  8
4
  6
Continuous
 62
    54
370
    50
100
AcDbLine
 10
49.50628456289844
 20
179.2000002305854
 30
0.0
 11
49.87657117670441
 21
181.2999999894763
 31
0.0
  0
LINE
  5
2C2
330
292
100
AcDbEntity
  8
4
  6
Continuous
 62
    54
370
    50
100
AcDbLine
 10
49.50628456289844
 20
179.2000002305854
 30
0.0
 11
50.20861323300065
 21
178.3473210309478
 31
0.0
  0
LINE
  5
2C3
330
292
100
AcDbEntity
  8
4
  6
DASHDOT
 62
    54
370
     9
100
AcDbLine
 10
51.50000000000001
 20
179.2300753860563
 30
0.0
 11
51.5
 21
177.5494438442292
 31
0.0
  0
LINE
  5
2C4
330
292
100
AcDbEntity
  8
4
  6
DASHDOT
 62
    54
370
     9
100
AcDbLine
 10
50.92491814619692
 20
178.4
 30
0.0
 11
52.26917161611548
 21
178.4
 31
0.0
  0
ENDBLK
  5
294
330
292
100
AcDbEntity
  8
0
100
AcDbBlockEnd
  0
BLOCK
  5
2C7
330
2C6
100
AcDbEntity
  8
0
100
AcDbBlockBegin
  2
*G37
 70
     1
 10
0.0
 20
0.0
 30
0.0
  3
*G37
  1
*G37
  0
LINE
  5
2C9
330
2C6
100
AcDbEntity
  8
4
  6
DASHDOT
 62
    54
370
     9
100
AcDbLine
 10
53.29469214720002
 20
182.0
 30
0.0
 11
59.00806646146325
 21
182.0
 31
0.0
  0
LINE
  5
2CA
330
2C6
100
AcDbEntity
  8
4
  6
DASHDOT
 62
    54
370
     9
100
AcDbLine
 10
55.17280821842422
 20
177.3087620735168
 30
0.0
 11
56.80568878692857
 21
186.569287776947
 31
0.0
  0
LINE
  5
2CB
330
2C6
100
AcDbEntity
  8
4
  6
DASHDOT
 62
    54
370
     9
100
AcDbLine
 10
56.00000000000001
 20
186.4269941919371
 30
0.0
 11
56.0
 21
177.3285483436999
 31
0.0
  0
CIRCLE
  5
2CC
330
2C6
100
AcDbEntity
  8
4
  6
Continuous
 62
    54
370
    50
100
AcDbCircle
 10
58.50000000000001
 20
178.4
 30
0.0
 40
0.4
  0
LINE
  5
2CD
330
2C6
100
AcDbEntity
  8
4
  6
Continuous
 62
    54
370
    50
100
AcDbLine
 10
58.20530798080001
 20
186.0
 30
0.0
 11
55.20530798080001
 21
186.0
 31
0.0
  0
LINE
  5
2CE
330
2C6
100
AcDbEntity
  8
4
  6
Continuous
 62
    54
370
    50
100
AcDbLine
 10
53.79469214720001
 20
178.0
 30
0.0
 11
56.79469214720001
 21
178.0
 31
0.0
  0
LINE
  5
2CF
330
2C6
100
AcDbEntity
  8
4
  6
Continuous
 62
    54
370
    50
100
AcDbLine
 10
57.32898115911276
 20
185.000000507738
 30
0.0
 11
58.33020928953341
 21
185.8511484168183
 31
0.0
  0
LINE
  5
2D0
330
2C6
100
AcDbEntity
  8
4
  6
Continuous
 62
    54
370
    50
100
AcDbLine
 10
57.49371567839803
 20
184.8000004119507
 30
0.0
 11
58.49671990719533
 21
185.6526581891356
 31
0.0
  0
LINE
  5
2D1
330
2C6
100
AcDbEntity
  8
4
  6
Continuous
 62
    54
370
    50
100
AcDbLine
 10
58.20530798080001
 20
186.0
 30
0.0
 11
58.33020928953341
 21
185.8511484168183
 31
0.0
  0
LINE
  5
2D2
330
2C6
100
AcDbEntity
  8
4
  6
Continuous
 62
    54
370
    50
100
AcDbLine
 10
58.50000000000001
 20
185.6487997279312
 30
0.0
 11
58.61848389268694
 21
185.5075961233669
 31
0.0
  0
LINE
  5
2D3
330
2C6
100
AcDbEntity
  8
4
  6
Continuous
 62
    54
370
    50
100
AcDbLine
 10
57.8765712145025
 20
181.3000002038399
 30
0.0
 11
57.38151623531309
 21
178.4924038766331
 31
0.0
  0
LINE
  5
2D4
330
2C6
100
AcDbEntity
  8
4
  6
Continuous
 62
    54
370
    50
100
AcDbLine
 10
56.87657117670438
 20
181.2999999894763
 30
0.0
 11
57.4647347775424
 21
181.8000002729938
 31
0.0
  0
LINE
  5
2D5
330
2C6
100
AcDbEntity
  8
4
  6
Continuous
 62
    54
370
    50
100
AcDbLine
 10
56.71183597308809
 20
181.4999995554575
 30
0.0
 11
57.30000016217443
 21
182.0000003390473
 31
0.0
  0
LINE
  5
2D6
330
2C6
100
AcDbEntity
  8
4
  6
Continuous
 62
    54
370
    50
100
AcDbLine
 10
57.46473477754237
 20
181.8000002729938
 30
0.0
 11
57.8765712145025
 21
181.3000002038399
 31
0.0
  0
LINE
  5
2D7
330
2C6
100
AcDbEntity
  8
4
  6
Continuous
 62
    54
370
    50
100
AcDbLine
 10
58.61848389268694
 20
185.5075961233669
 30
0.0
 11
58.12342905732318
 21
182.7000006118358
 31
0.0
  0
LINE
  5
2D8
330
2C6
100
AcDbEntity
  8
4
  6
Continuous
 62
    54
370
    50
100
AcDbLine
 10
57.53526555734812
 20
182.2000004140623
 30
0.0
 11
58.12342905732318
 21
182.7000006118358
 31
0.0
  0
LINE
  5
2D9
330
2C6
100
AcDbEntity
  8
4
  6
Continuous
 62
    54
370
    50
100
AcDbLine
 10
57.123429049763
 20
182.7000005689601
 30
0.0
 11
57.53526555734812
 21
182.2000004140623
 31
0.0
  0
LINE
  5
2DA
330
2C6
100
AcDbEntity
  8
4
  6
Continuous
 62
    54
370
    50
100
AcDbLine
 10
57.123429049763
 20
182.7000005689601
 30
0.0
 11
57.49382138551063
 21
184.8005999067816
 31
0.0
  0
LINE
  5
2DB
330
2C6
100
AcDbEntity
  8
4
  6
Continuous
 62
    54
370
    50
100
AcDbLine
 10
56.8881640704
 20
182.5
 30
0.0
 11
57.30000045039996
 21
182.0
 31
0.0
  0
LINE
  5
2DC
330
2C6
100
AcDbEntity
  8
4
  6
Continuous
 62
    54
370
    50
100
AcDbLine
 10
54.70000002641172
 20
182.0
 30
0.0
 11
55.11183659236338
 21
181.4999999156178
 31
0.0
  0
LINE
  5
2DD
330
2C6
100
AcDbEntity
  8
4
  6
Continuous
 62
    54
370
    50
100
AcDbLine
 10
53.8765711526225
 20
181.2999998529011
 30
0.0
 11
53.38151623531309
 21
178.4924038766331
 31
0.0
  0
LINE
  5
2DE
330
2C6
100
AcDbEntity
  8
4
  6
Continuous
 62
    54
370
    50
100
AcDbLine
 10
55.11183655557097
 20
181.5
 30
0.0
 11
56.71183649601517
 21
181.5
 31
0.0
  0
LINE
  5
2DF
330
2C6
100
AcDbEntity
  8
4
  6
Continuous
 62
    54
370
    50
100
AcDbLine
 10
54.69977952662629
 20
181.9998125818528
 30
0.0
 11
55.28816352800002
 21
182.5000001730823
 31
0.0
  0
LINE
  5
2E0
330
2C6
100
AcDbEntity
  8
4
  6
Continuous
 62
    54
370
    50
100
AcDbLine
 10
53.87609996301945
 20
181.2995992927363
 30
0.0
 11
54.46473459789843
 21
181.7999999485103
 31
0.0
  0
LINE
  5
2E1
330
2C6
100
AcDbEntity
  8
4
  6
Continuous
 62
    54
370
    50
100
AcDbLine
 10
55.28816332439869
 20
182.5
 30
0.0
 11
56.8881640704
 21
182.5
 31
0.0
  0
LINE
  5
2E2
330
2C6
100
AcDbEntity
  8
4
  6
Continuous
 62
    54
370
    50
100
AcDbLine
 10
54.46473459789843
 20
181.7999999485103
 30
0.0
 11
54.87657113514678
 21
181.2999998989761
 31
0.0
  0
LINE
  5
2E3
330
2C6
100
AcDbEntity
  8
4
  6
Continuous
 62
    54
370
    50
100
AcDbLine
 10
54.53526538536435
 20
182.2000000515593
 30
0.0
 11
55.12342897079908
 21
182.7000002663181
 31
0.0
  0
LINE
  5
2E4
330
2C6
100
AcDbEntity
  8
4
  6
Continuous
 62
    54
370
    50
100
AcDbLine
 10
54.12353629169304
 20
182.6998696566357
 30
0.0
 11
54.53526538536438
 21
182.2000000515593
 31
0.0
  0
LINE
  5
2E5
330
2C6
100
AcDbEntity
  8
4
  6
Continuous
 62
    54
370
    50
100
AcDbLine
 10
54.61848389268694
 20
185.5075961233669
 30
0.0
 11
54.12340989617702
 21
182.6998919435752
 31
0.0
  0
LINE
  5
2E6
330
2C6
100
AcDbEntity
  8
4
  6
Continuous
 62
    54
370
    50
100
AcDbLine
 10
54.61848389268694
 20
185.5075961233669
 30
0.0
 11
54.79138659754001
 21
185.6526787194542
 31
0.0
  0
LINE
  5
2E7
330
2C6
100
AcDbEntity
  8
4
  6
Continuous
 62
    54
370
    50
100
AcDbLine
 10
55.02791299981602
 20
185.8511479366625
 30
0.0
 11
55.72898067836395
 21
184.999999156011
 31
0.0
  0
LINE
  5
2E8
330
2C6
100
AcDbEntity
  8
4
  6
Continuous
 62
    54
370
    50
100
AcDbLine
 10
55.02791299981608
 20
185.8511479366625
 30
0.0
 11
55.20530798080001
 21
186.0
 31
0.0
  0
LINE
  5
2E9
330
2C6
100
AcDbEntity
  8
4
  6
Continuous
 62
    54
370
    50
100
AcDbLine
 10
55.72897998319367
 20
185.0
 30
0.0
 11
57.32898104636395
 21
185.0
 31
0.0
  0
LINE
  5
2EA
330
2C6
100
AcDbEntity
  8
4
  6
Continuous
 62
    54
370
    50
100
AcDbLine
 10
55.12342897079908
 20
182.7000002663181
 30
0.0
 11
55.49357859334357
 21
184.7992231091516
 31
0.0
  0
LINE
  5
2EB
330
2C6
100
AcDbEntity
  8
4
  6
Continuous
 62
    54
370
    50
100
AcDbLine
 10
54.79138659754001
 20
185.6526787194542
 30
0.0
 11
55.49404078219716
 21
184.7996038013103
 31
0.0
  0
LINE
  5
2EC
330
2C6
100
AcDbEntity
  8
4
  6
Continuous
 62
    54
370
    50
100
AcDbLine
 10
53.38151623531309
 20
178.4924038766331
 30
0.0
 11
53.50325526445233
 21
178.347320951513
 31
0.0
  0
LINE
  5
2ED
330
2C6
100
AcDbEntity
  8
4
  6
Continuous
 62
    54
370
    50
100
AcDbLine
 10
53.66979061384155
 20
178.1488518508793
 30
0.0
 11
54.67101954377555
 21
179.0
 31
0.0
  0
LINE
  5
2EE
330
2C6
100
AcDbEntity
  8
4
  6
Continuous
 62
    54
370
    50
100
AcDbLine
 10
53.66979061384155
 20
178.1488518508793
 30
0.0
 11
53.79469214720001
 21
178.0
 31
0.0
  0
LINE
  5
2EF
330
2C6
100
AcDbEntity
  8
4
  6
Continuous
 62
    54
370
    50
100
AcDbLine
 10
53.50325526445233
 20
178.347320951513
 30
0.0
 11
54.50625078188532
 21
179.1999708827287
 31
0.0
  0
LINE
  5
2F0
330
2C6
100
AcDbEntity
  8
4
  6
Continuous
 62
    54
370
    50
100
AcDbLine
 10
54.50627850066918
 20
179.1999659951593
 30
0.0
 11
54.87657113514678
 21
181.2999998989761
 31
0.0
  0
LINE
  5
2F1
330
2C6
100
AcDbEntity
  8
4
  6
Continuous
 62
    54
370
    50
100
AcDbLine
 10
56.27101931428775
 20
179.0
 30
0.0
 11
56.97208688960732
 21
178.1488518631479
 31
0.0
  0
LINE
  5
2F2
330
2C6
100
AcDbEntity
  8
4
  6
Continuous
 62
    54
370
    50
100
AcDbLine
 10
56.79469214720001
 20
178.0
 30
0.0
 11
56.97208688960732
 21
178.1488518631479
 31
0.0
  0
LINE
  5
2F3
330
2C6
100
AcDbEntity
  8
4
  6
Continuous
 62
    54
370
    50
100
AcDbLine
 10
57.20861323300065
 20
178.3473210309478
 30
0.0
 11
57.38151623531309
 21
178.4924038766331
 31
0.0
  0
LINE
  5
2F4
330
2C6
100
AcDbEntity
  8
4
  6
Continuous
 62
    54
370
    50
100
AcDbLine
 10
54.67101954377555
 20
179.0
 30
0.0
 11
56.27101931428775
 21
179.0
 31
0.0
  0
LINE
  5
2F5
330
2C6
100
AcDbEntity
  8
4
  6
Continuous
 62
    54
370
    50
100
AcDbLine
 10
56.50628456289844
 20
179.2000002305854
 30
0.0
 11
56.87657117670441
 21
181.2999999894763
 31
0.0
  0
LINE
  5
2F6
330
2C6
100
AcDbEntity
  8
4
  6
Continuous
 62
    54
370
    50
100
AcDbLine
 10
56.50628456289844
 20
179.2000002305854
 30
0.0
 11
57.20861323300065
 21
178.3473210309478
 31
0.0
  0
LINE
  5
2F7
330
2C6
100
AcDbEntity
  8
4
  6
DASHDOT
 62
    54
370
     9
100
AcDbLine
 10
58.50000000000001
 20
179.2300753860563
 30
0.0
 11
58.5
 21
177.5494438442292
 31
0.0
  0
LINE
  5
2F8
330
2C6
100
AcDbEntity
  8
4
  6
DASHDOT
 62
    54
370
     9
100
AcDbLine
 10
57.92491814619692
 20
178.4
 30
0.0
 11
59.26917161611548
 21
178.4
 31
0.0
  0
ENDBLK
  5
2C8
330
2C6
100
AcDbEntity
  8
0
100
AcDbBlockEnd
  0
BLOCK
  5
2FB
330
2FA
100
AcDbEntity
  8
0
100
AcDbBlockBegin
  2
*G38
 70
     1
 10
0.0
 20
0.0
 30
0.0
  3
*G38
  1
*G38
  0
LINE
  5
2FD
330
2FA
100
AcDbEntity
  8
4
  6
DASHDOT
 62
    54
370
     9
100
AcDbLine
 10
60.29469214720002
 20
182.0
 30
0.0
 11
66.00806646146323
 21
182.0
 31
0.0
  0
LINE
  5
2FE
330
2FA
100
AcDbEntity
  8
4
  6
DASHDOT
 62
    54
370
     9
100
AcDbLine
 10
62.17280821842422
 20
177.3087620735168
 30
0.0
 11
63.80568878692857
 21
186.569287776947
 31
0.0
  0
LINE
  5
2FF
330
2FA
100
AcDbEntity
  8
4
  6
DASHDOT
 62
    54
370
     9
100
AcDbLine
 10
63.00000000000001
 20
186.4269941919371
 30
0.0
 11
63.0
 21
177.3285483436999
 31
0.0
  0
CIRCLE
  5
300
330
2FA
100
AcDbEntity
  8
4
  6
Continuous
 62
    54
370
    50
100
AcDbCircle
 10
65.5
 20
178.4
 30
0.0
 40
0.4
  0
LINE
  5
301
330
2FA
100
AcDbEntity
  8
4
  6
Continuous
 62
    54
370
    50
100
AcDbLine
 10
65.20530798080001
 20
186.0
 30
0.0
 11
62.20530798080001
 21
186.0
 31
0.0
  0
LINE
  5
302
330
2FA
100
AcDbEntity
  8
4
  6
Continuous
 62
    54
370
    50
100
AcDbLine
 10
60.79469214720001
 20
178.0
 30
0.0
 11
63.79469214720001
 21
178.0
 31
0.0
  0
LINE
  5
303
330
2FA
100
AcDbEntity
  8
4
  6
Continuous
 62
    54
370
    50
100
AcDbLine
 10
64.32898115911276
 20
185.000000507738
 30
0.0
 11
65.33020928953341
 21
185.8511484168183
 31
0.0
  0
LINE
  5
304
330
2FA
100
AcDbEntity
  8
4
  6
Continuous
 62
    54
370
    50
100
AcDbLine
 10
64.49371567839803
 20
184.8000004119507
 30
0.0
 11
65.49671990719533
 21
185.6526581891356
 31
0.0
  0
LINE
  5
305
330
2FA
100
AcDbEntity
  8
4
  6
Continuous
 62
    54
370
    50
100
AcDbLine
 10
65.20530798080001
 20
186.0
 30
0.0
 11
65.33020928953341
 21
185.8511484168183
 31
0.0
  0
LINE
  5
306
330
2FA
100
AcDbEntity
  8
4
  6
Continuous
 62
    54
370
    50
100
AcDbLine
 10
65.50000000000001
 20
185.6487997279312
 30
0.0
 11
65.61848389268694
 21
185.5075961233669
 31
0.0
  0
LINE
  5
307
330
2FA
100
AcDbEntity
  8
4
  6
Continuous
 62
    54
370
    50
100
AcDbLine
 10
64.87657121450248
 20
181.3000002038399
 30
0.0
 11
64.38151623531309
 21
178.4924038766331
 31
0.0
  0
LINE
  5
308
330
2FA
100
AcDbEntity
  8
4
  6
Continuous
 62
    54
370
    50
100
AcDbLine
 10
63.87657117670438
 20
181.2999999894763
 30
0.0
 11
64.4647347775424
 21
181.8000002729938
 31
0.0
  0
LINE
  5
309
330
2FA
100
AcDbEntity
  8
4
  6
Continuous
 62
    54
370
    50
100
AcDbLine
 10
63.71183597308809
 20
181.4999995554575
 30
0.0
 11
64.30000016217441
 21
182.0000003390473
 31
0.0
  0
LINE
  5
30A
330
2FA
100
AcDbEntity
  8
4
  6
Continuous
 62
    54
370
    50
100
AcDbLine
 10
64.46473477754235
 20
181.8000002729938
 30
0.0
 11
64.87657121450248
 21
181.3000002038399
 31
0.0
  0
LINE
  5
30B
330
2FA
100
AcDbEntity
  8
4
  6
Continuous
 62
    54
370
    50
100
AcDbLine
 10
65.61848389268694
 20
185.5075961233669
 30
0.0
 11
65.12342905732318
 21
182.7000006118358
 31
0.0
  0
LINE
  5
30C
330
2FA
100
AcDbEntity
  8
4
  6
Continuous
 62
    54
370
    50
100
AcDbLine
 10
64.53526555734813
 20
182.2000004140623
 30
0.0
 11
65.12342905732318
 21
182.7000006118358
 31
0.0
  0
LINE
  5
30D
330
2FA
100
AcDbEntity
  8
4
  6
Continuous
 62
    54
370
    50
100
AcDbLine
 10
64.123429049763
 20
182.7000005689601
 30
0.0
 11
64.53526555734813
 21
182.2000004140623
 31
0.0
  0
LINE
  5
30E
330
2FA
100
AcDbEntity
  8
4
  6
Continuous
 62
    54
370
    50
100
AcDbLine
 10
64.123429049763
 20
182.7000005689601
 30
0.0
 11
64.49382138551063
 21
184.8005999067816
 31
0.0
  0
LINE
  5
30F
330
2FA
100
AcDbEntity
  8
4
  6
Continuous
 62
    54
370
    50
100
AcDbLine
 10
63.8881640704
 20
182.5
 30
0.0
 11
64.30000045039993
 21
182.0
 31
0.0
  0
LINE
  5
310
330
2FA
100
AcDbEntity
  8
4
  6
Continuous
 62
    54
370
    50
100
AcDbLine
 10
61.70000002641172
 20
182.0
 30
0.0
 11
62.11183659236338
 21
181.4999999156178
 31
0.0
  0
LINE
  5
311
330
2FA
100
AcDbEntity
  8
4
  6
Continuous
 62
    54
370
    50
100
AcDbLine
 10
60.8765711526225
 20
181.2999998529011
 30
0.0
 11
60.38151623531309
 21
178.4924038766331
 31
0.0
  0
LINE
  5
312
330
2FA
100
AcDbEntity
  8
4
  6
Continuous
 62
    54
370
    50
100
AcDbLine
 10
62.11183655557097
 20
181.5
 30
0.0
 11
63.71183649601517
 21
181.5
 31
0.0
  0
LINE
  5
313
330
2FA
100
AcDbEntity
  8
4
  6
Continuous
 62
    54
370
    50
100
AcDbLine
 10
61.69977952662629
 20
181.9998125818528
 30
0.0
 11
62.28816352799999
 21
182.5000001730823
 31
0.0
  0
LINE
  5
314
330
2FA
100
AcDbEntity
  8
4
  6
Continuous
 62
    54
370
    50
100
AcDbLine
 10
60.87609996301942
 20
181.2995992927363
 30
0.0
 11
61.46473459789843
 21
181.7999999485103
 31
0.0
  0
LINE
  5
315
330
2FA
100
AcDbEntity
  8
4
  6
Continuous
 62
    54
370
    50
100
AcDbLine
 10
62.28816332439869
 20
182.5
 30
0.0
 11
63.8881640704
 21
182.5
 31
0.0
  0
LINE
  5
316
330
2FA
100
AcDbEntity
  8
4
  6
Continuous
 62
    54
370
    50
100
AcDbLine
 10
61.46473459789843
 20
181.7999999485103
 30
0.0
 11
61.87657113514675
 21
181.2999998989761
 31
0.0
  0
LINE
  5
317
330
2FA
100
AcDbEntity
  8
4
  6
Continuous
 62
    54
370
    50
100
AcDbLine
 10
61.53526538536435
 20
182.2000000515593
 30
0.0
 11
62.12342897079908
 21
182.7000002663181
 31
0.0
  0
LINE
  5
318
330
2FA
100
AcDbEntity
  8
4
  6
Continuous
 62
    54
370
    50
100
AcDbLine
 10
61.12353629169304
 20
182.6998696566357
 30
0.0
 11
61.53526538536435
 21
182.2000000515593
 31
0.0
  0
LINE
  5
319
330
2FA
100
AcDbEntity
  8
4
  6
Continuous
 62
    54
370
    50
100
AcDbLine
 10
61.61848389268688
 20
185.5075961233669
 30
0.0
 11
61.12340989617702
 21
182.6998919435752
 31
0.0
  0
LINE
  5
31A
330
2FA
100
AcDbEntity
  8
4
  6
Continuous
 62
    54
370
    50
100
AcDbLine
 10
61.61848389268688
 20
185.5075961233669
 30
0.0
 11
61.79138659754001
 21
185.6526787194542
 31
0.0
  0
LINE
  5
31B
330
2FA
100
AcDbEntity
  8
4
  6
Continuous
 62
    54
370
    50
100
AcDbLine
 10
62.02791299981602
 20
185.8511479366625
 30
0.0
 11
62.72898067836395
 21
184.999999156011
 31
0.0
  0
LINE
  5
31C
330
2FA
100
AcDbEntity
  8
4
  6
Continuous
 62
    54
370
    50
100
AcDbLine
 10
62.02791299981608
 20
185.8511479366625
 30
0.0
 11
62.20530798080001
 21
186.0
 31
0.0
  0
LINE
  5
31D
330
2FA
100
AcDbEntity
  8
4
  6
Continuous
 62
    54
370
    50
100
AcDbLine
 10
62.72897998319361
 20
185.0
 30
0.0
 11
64.32898104636395
 21
185.0
 31
0.0
  0
LINE
  5
31E
330
2FA
100
AcDbEntity
  8
4
  6
Continuous
 62
    54
370
    50
100
AcDbLine
 10
62.12342897079908
 20
182.7000002663181
 30
0.0
 11
62.49357859334357
 21
184.7992231091516
 31
0.0
  0
LINE
  5
31F
330
2FA
100
AcDbEntity
  8
4
  6
Continuous
 62
    54
370
    50
100
AcDbLine
 10
61.79138659754001
 20
185.6526787194542
 30
0.0
 11
62.49404078219716
 21
184.7996038013103
 31
0.0
  0
LINE
  5
320
330
2FA
100
AcDbEntity
  8
4
  6
Continuous
 62
    54
370
    50
100
AcDbLine
 10
60.38151623531309
 20
178.4924038766331
 30
0.0
 11
60.50325526445233
 21
178.347320951513
 31
0.0
  0
LINE
  5
321
330
2FA
100
AcDbEntity
  8
4
  6
Continuous
 62
    54
370
    50
100
AcDbLine
 10
60.66979061384155
 20
178.1488518508793
 30
0.0
 11
61.67101954377552
 21
179.0
 31
0.0
  0
LINE
  5
322
330
2FA
100
AcDbEntity
  8
4
  6
Continuous
 62
    54
370
    50
100
AcDbLine
 10
60.66979061384155
 20
178.1488518508793
 30
0.0
 11
60.79469214720001
 21
178.0
 31
0.0
  0
LINE
  5
323
330
2FA
100
AcDbEntity
  8
4
  6
Continuous
 62
    54
370
    50
100
AcDbLine
 10
60.50325526445233
 20
178.347320951513
 30
0.0
 11
61.50625078188532
 21
179.1999708827287
 31
0.0
  0
LINE
  5
324
330
2FA
100
AcDbEntity
  8
4
  6
Continuous
 62
    54
370
    50
100
AcDbLine
 10
61.50627850066918
 20
179.1999659951593
 30
0.0
 11
61.87657113514678
 21
181.2999998989761
 31
0.0
  0
LINE
  5
325
330
2FA
100
AcDbEntity
  8
4
  6
Continuous
 62
    54
370
    50
100
AcDbLine
 10
63.27101931428775
 20
179.0
 30
0.0
 11
63.97208688960732
 21
178.1488518631479
 31
0.0
  0
LINE
  5
326
330
2FA
100
AcDbEntity
  8
4
  6
Continuous
 62
    54
370
    50
100
AcDbLine
 10
63.79469214720001
 20
178.0
 30
0.0
 11
63.97208688960732
 21
178.1488518631479
 31
0.0
  0
LINE
  5
327
330
2FA
100
AcDbEntity
  8
4
  6
Continuous
 62
    54
370
    50
100
AcDbLine
 10
64.20861323300065
 20
178.3473210309478
 30
0.0
 11
64.38151623531309
 21
178.4924038766331
 31
0.0
  0
LINE
  5
328
330
2FA
100
AcDbEntity
  8
4
  6
Continuous
 62
    54
370
    50
100
AcDbLine
 10
61.67101954377552
 20
179.0
 30
0.0
 11
63.27101931428775
 21
179.0
 31
0.0
  0
LINE
  5
329
330
2FA
100
AcDbEntity
  8
4
  6
Continuous
 62
    54
370
    50
100
AcDbLine
 10
63.50628456289844
 20
179.2000002305854
 30
0.0
 11
63.87657117670438
 21
181.2999999894763
 31
0.0
  0
LINE
  5
32A
330
2FA
100
AcDbEntity
  8
4
  6
Continuous
 62
    54
370
    50
100
AcDbLine
 10
63.50628456289841
 20
179.2000002305854
 30
0.0
 11
64.20861323300065
 21
178.3473210309478
 31
0.0
  0
LINE
  5
32B
330
2FA
100
AcDbEntity
  8
4
  6
DASHDOT
 62
    54
370
     9
100
AcDbLine
 10
65.5
 20
179.2300753860563
 30
0.0
 11
65.5
 21
177.5494438442292
 31
0.0
  0
LINE
  5
32C
330
2FA
100
AcDbEntity
  8
4
  6
DASHDOT
 62
    54
370
     9
100
AcDbLine
 10
64.92491814619692
 20
178.4
 30
0.0
 11
66.26917161611547
 21
178.4
 31
0.0
  0
ENDBLK
  5
2FC
330
2FA
100
AcDbEntity
  8
0
100
AcDbBlockEnd
  0
BLOCK
  5
32F
330
32E
100
AcDbEntity
  8
0
100
AcDbBlockBegin
  2
*G39
 70
     1
 10
0.0
 20
0.0
 30
0.0
  3
*G39
  1
*G39
  0
LINE
  5
331
330
32E
100
AcDbEntity
  8
4
  6
DASHDOT
 62
    54
370
     9
100
AcDbLine
 10
67.29469214720002
 20
182.0
 30
0.0
 11
73.00806646146323
 21
182.0
 31
0.0
  0
LINE
  5
332
330
32E
100
AcDbEntity
  8
4
  6
DASHDOT
 62
    54
370
     9
100
AcDbLine
 10
69.17280821842422
 20
177.3087620735168
 30
0.0
 11
70.80568878692857
 21
186.569287776947
 31
0.0
  0
LINE
  5
333
330
32E
100
AcDbEntity
  8
4
  6
DASHDOT
 62
    54
370
     9
100
AcDbLine
 10
70.00000000000001
 20
186.4269941919371
 30
0.0
 11
70.0
 21
177.3285483436999
 31
0.0
  0
CIRCLE
  5
334
330
32E
100
AcDbEntity
  8
4
  6
Continuous
 62
    54
370
    50
100
AcDbCircle
 10
72.5
 20
178.4
 30
0.0
 40
0.4
  0
LINE
  5
335
330
32E
100
AcDbEntity
  8
4
  6
Continuous
 62
    54
370
    50
100
AcDbLine
 10
72.20530798080001
 20
186.0
 30
0.0
 11
69.20530798080001
 21
186.0
 31
0.0
  0
LINE
  5
336
330
32E
100
AcDbEntity
  8
4
  6
Continuous
 62
    54
370
    50
100
AcDbLine
 10
67.79469214720001
 20
178.0
 30
0.0
 11
70.79469214720001
 21
178.0
 31
0.0
  0
LINE
  5
337
330
32E
100
AcDbEntity
  8
4
  6
Continuous
 62
    54
370
    50
100
AcDbLine
 10
71.32898115911276
 20
185.000000507738
 30
0.0
 11
72.33020928953341
 21
185.8511484168183
 31
0.0
  0
LINE
  5
338
330
32E
100
AcDbEntity
  8
4
  6
Continuous
 62
    54
370
    50
100
AcDbLine
 10
71.49371567839803
 20
184.8000004119507
 30
0.0
 11
72.49671990719538
 21
185.6526581891356
 31
0.0
  0
LINE
  5
339
330
32E
100
AcDbEntity
  8
4
  6
Continuous
 62
    54
370
    50
100
AcDbLine
 10
72.20530798080001
 20
186.0
 30
0.0
 11
72.33020928953341
 21
185.8511484168183
 31
0.0
  0
LINE
  5
33A
330
32E
100
AcDbEntity
  8
4
  6
Continuous
 62
    54
370
    50
100
AcDbLine
 10
72.50000000000001
 20
185.6487997279312
 30
0.0
 11
72.61848389268694
 21
185.5075961233669
 31
0.0
  0
LINE
  5
33B
330
32E
100
AcDbEntity
  8
4
  6
Continuous
 62
    54
370
    50
100
AcDbLine
 10
71.87657121450248
 20
181.3000002038399
 30
0.0
 11
71.38151623531309
 21
178.4924038766331
 31
0.0
  0
LINE
  5
33C
330
32E
100
AcDbEntity
  8
4
  6
Continuous
 62
    54
370
    50
100
AcDbLine
 10
70.87657117670439
 20
181.2999999894763
 30
0.0
 11
71.4647347775424
 21
181.8000002729938
 31
0.0
  0
LINE
  5
33D
330
32E
100
AcDbEntity
  8
4
  6
Continuous
 62
    54
370
    50
100
AcDbLine
 10
70.71183597308813
 20
181.4999995554575
 30
0.0
 11
71.30000016217441
 21
182.0000003390473
 31
0.0
  0
LINE
  5
33E
330
32E
100
AcDbEntity
  8
4
  6
Continuous
 62
    54
370
    50
100
AcDbLine
 10
71.4647347775424
 20
181.8000002729938
 30
0.0
 11
71.87657121450248
 21
181.3000002038399
 31
0.0
  0
LINE
  5
33F
330
32E
100
AcDbEntity
  8
4
  6
Continuous
 62
    54
370
    50
100
AcDbLine
 10
72.61848389268694
 20
185.5075961233669
 30
0.0
 11
72.12342905732318
 21
182.7000006118358
 31
0.0
  0
LINE
  5
340
330
32E
100
AcDbEntity
  8
4
  6
Continuous
 62
    54
370
    50
100
AcDbLine
 10
71.53526555734813
 20
182.2000004140623
 30
0.0
 11
72.12342905732318
 21
182.7000006118358
 31
0.0
  0
LINE
  5
341
330
32E
100
AcDbEntity
  8
4
  6
Continuous
 62
    54
370
    50
100
AcDbLine
 10
71.12342904976306
 20
182.7000005689601
 30
0.0
 11
71.53526555734813
 21
182.2000004140623
 31
0.0
  0
LINE
  5
342
330
32E
100
AcDbEntity
  8
4
  6
Continuous
 62
    54
370
    50
100
AcDbLine
 10
71.123429049763
 20
182.7000005689601
 30
0.0
 11
71.49382138551063
 21
184.8005999067816
 31
0.0
  0
LINE
  5
343
330
32E
100
AcDbEntity
  8
4
  6
Continuous
 62
    54
370
    50
100
AcDbLine
 10
70.88816407040004
 20
182.5
 30
0.0
 11
71.30000045039999
 21
182.0
 31
0.0
  0
LINE
  5
344
330
32E
100
AcDbEntity
  8
4
  6
Continuous
 62
    54
370
    50
100
AcDbLine
 10
68.70000002641173
 20
182.0
 30
0.0
 11
69.11183659236339
 21
181.4999999156178
 31
0.0
  0
LINE
  5
345
330
32E
100
AcDbEntity
  8
4
  6
Continuous
 62
    54
370
    50
100
AcDbLine
 10
67.8765711526225
 20
181.2999998529011
 30
0.0
 11
67.38151623531309
 21
178.4924038766331
 31
0.0
  0
LINE
  5
346
330
32E
100
AcDbEntity
  8
4
  6
Continuous
 62
    54
370
    50
100
AcDbLine
 10
69.11183655557097
 20
181.5
 30
0.0
 11
70.71183649601518
 21
181.5
 31
0.0
  0
LINE
  5
347
330
32E
100
AcDbEntity
  8
4
  6
Continuous
 62
    54
370
    50
100
AcDbLine
 10
68.6997795266263
 20
181.9998125818528
 30
0.0
 11
69.288163528
 21
182.5000001730823
 31
0.0
  0
LINE
  5
348
330
32E
100
AcDbEntity
  8
4
  6
Continuous
 62
    54
370
    50
100
AcDbLine
 10
67.87609996301946
 20
181.2995992927363
 30
0.0
 11
68.46473459789844
 21
181.7999999485103
 31
0.0
  0
LINE
  5
349
330
32E
100
AcDbEntity
  8
4
  6
Continuous
 62
    54
370
    50
100
AcDbLine
 10
69.2881633243987
 20
182.5
 30
0.0
 11
70.88816407040004
 21
182.5
 31
0.0
  0
LINE
  5
34A
330
32E
100
AcDbEntity
  8
4
  6
Continuous
 62
    54
370
    50
100
AcDbLine
 10
68.46473459789844
 20
181.7999999485103
 30
0.0
 11
68.87657113514679
 21
181.2999998989761
 31
0.0
  0
LINE
  5
34B
330
32E
100
AcDbEntity
  8
4
  6
Continuous
 62
    54
370
    50
100
AcDbLine
 10
68.53526538536433
 20
182.2000000515593
 30
0.0
 11
69.12342897079908
 21
182.7000002663181
 31
0.0
  0
LINE
  5
34C
330
32E
100
AcDbEntity
  8
4
  6
Continuous
 62
    54
370
    50
100
AcDbLine
 10
68.12353629169304
 20
182.6998696566357
 30
0.0
 11
68.53526538536438
 21
182.2000000515593
 31
0.0
  0
LINE
  5
34D
330
32E
100
AcDbEntity
  8
4
  6
Continuous
 62
    54
370
    50
100
AcDbLine
 10
68.61848389268694
 20
185.5075961233669
 30
0.0
 11
68.12340989617702
 21
182.6998919435752
 31
0.0
  0
LINE
  5
34E
330
32E
100
AcDbEntity
  8
4
  6
Continuous
 62
    54
370
    50
100
AcDbLine
 10
68.61848389268694
 20
185.5075961233669
 30
0.0
 11
68.79138659754001
 21
185.6526787194542
 31
0.0
  0
LINE
  5
34F
330
32E
100
AcDbEntity
  8
4
  6
Continuous
 62
    54
370
    50
100
AcDbLine
 10
69.02791299981608
 20
185.8511479366625
 30
0.0
 11
69.72898067836395
 21
184.999999156011
 31
0.0
  0
LINE
  5
350
330
32E
100
AcDbEntity
  8
4
  6
Continuous
 62
    54
370
    50
100
AcDbLine
 10
69.02791299981608
 20
185.8511479366625
 30
0.0
 11
69.20530798080001
 21
186.0
 31
0.0
  0
LINE
  5
351
330
32E
100
AcDbEntity
  8
4
  6
Continuous
 62
    54
370
    50
100
AcDbLine
 10
69.72897998319367
 20
185.0
 30
0.0
 11
71.32898104636395
 21
185.0
 31
0.0
  0
LINE
  5
352
330
32E
100
AcDbEntity
  8
4
  6
Continuous
 62
    54
370
    50
100
AcDbLine
 10
69.12342897079908
 20
182.7000002663181
 30
0.0
 11
69.49357859334357
 21
184.7992231091516
 31
0.0
  0
LINE
  5
353
330
32E
100
AcDbEntity
  8
4
  6
Continuous
 62
    54
370
    50
100
AcDbLine
 10
68.79138659754001
 20
185.6526787194542
 30
0.0
 11
69.49404078219716
 21
184.7996038013103
 31
0.0
  0
LINE
  5
354
330
32E
100
AcDbEntity
  8
4
  6
Continuous
 62
    54
370
    50
100
AcDbLine
 10
67.38151623531309
 20
178.4924038766331
 30
0.0
 11
67.50325526445232
 21
178.347320951513
 31
0.0
  0
LINE
  5
355
330
32E
100
AcDbEntity
  8
4
  6
Continuous
 62
    54
370
    50
100
AcDbLine
 10
67.66979061384157
 20
178.1488518508793
 30
0.0
 11
68.67101954377554
 21
179.0
 31
0.0
  0
LINE
  5
356
330
32E
100
AcDbEntity
  8
4
  6
Continuous
 62
    54
370
    50
100
AcDbLine
 10
67.66979061384154
 20
178.1488518508793
 30
0.0
 11
67.79469214720001
 21
178.0
 31
0.0
  0
LINE
  5
357
330
32E
100
AcDbEntity
  8
4
  6
Continuous
 62
    54
370
    50
100
AcDbLine
 10
67.50325526445232
 20
178.347320951513
 30
0.0
 11
68.50625078188531
 21
179.1999708827287
 31
0.0
  0
LINE
  5
358
330
32E
100
AcDbEntity
  8
4
  6
Continuous
 62
    54
370
    50
100
AcDbLine
 10
68.5062785006692
 20
179.1999659951593
 30
0.0
 11
68.87657113514679
 21
181.2999998989761
 31
0.0
  0
LINE
  5
359
330
32E
100
AcDbEntity
  8
4
  6
Continuous
 62
    54
370
    50
100
AcDbLine
 10
70.27101931428777
 20
179.0
 30
0.0
 11
70.97208688960734
 21
178.1488518631479
 31
0.0
  0
LINE
  5
35A
330
32E
100
AcDbEntity
  8
4
  6
Continuous
 62
    54
370
    50
100
AcDbLine
 10
70.79469214720001
 20
178.0
 30
0.0
 11
70.97208688960731
 21
178.1488518631479
 31
0.0
  0
LINE
  5
35B
330
32E
100
AcDbEntity
  8
4
  6
Continuous
 62
    54
370
    50
100
AcDbLine
 10
71.20861323300068
 20
178.3473210309478
 30
0.0
 11
71.38151623531309
 21
178.4924038766331
 31
0.0
  0
LINE
  5
35C
330
32E
100
AcDbEntity
  8
4
  6
Continuous
 62
    54
370
    50
100
AcDbLine
 10
68.67101954377554
 20
179.0
 30
0.0
 11
70.27101931428777
 21
179.0
 31
0.0
  0
LINE
  5
35D
330
32E
100
AcDbEntity
  8
4
  6
Continuous
 62
    54
370
    50
100
AcDbLine
 10
70.50628456289843
 20
179.2000002305854
 30
0.0
 11
70.87657117670439
 21
181.2999999894763
 31
0.0
  0
LINE
  5
35E
330
32E
100
AcDbEntity
  8
4
  6
Continuous
 62
    54
370
    50
100
AcDbLine
 10
70.50628456289843
 20
179.2000002305854
 30
0.0
 11
71.20861323300065
 21
178.3473210309478
 31
0.0
  0
LINE
  5
35F
330
32E
100
AcDbEntity
  8
4
  6
DASHDOT
 62
    54
370
     9
100
AcDbLine
 10
72.5
 20
179.2300753860563
 30
0.0
 11
72.5
 21
177.5494438442292
 31
0.0
  0
LINE
  5
360
330
32E
100
AcDbEntity
  8
4
  6
DASHDOT
 62
    54
370
     9
100
AcDbLine
 10
71.92491814619692
 20
178.4
 30
0.0
 11
73.26917161611547
 21
178.4
 31
0.0
  0
ENDBLK
  5
330
330
32E
100
AcDbEntity
  8
0
100
AcDbBlockEnd
  0
BLOCK
  5
363
330
362
100
AcDbEntity
  8
0
100
AcDbBlockBegin
  2
*G40
 70
     1
 10
0.0
 20
0.0
 30
0.0
  3
*G40
  1
*G40
  0
LINE
  5
365
330
362
100
AcDbEntity
  8
4
  6
DASHDOT
 62
    54
370
     9
100
AcDbLine
 10
74.29469214720002
 20
182.0
 30
0.0
 11
80.00806646146323
 21
182.0
 31
0.0
  0
LINE
  5
366
330
362
100
AcDbEntity
  8
4
  6
DASHDOT
 62
    54
370
     9
100
AcDbLine
 10
76.17280821842422
 20
177.3087620735168
 30
0.0
 11
77.80568878692857
 21
186.569287776947
 31
0.0
  0
LINE
  5
367
330
362
100
AcDbEntity
  8
4
  6
DASHDOT
 62
    54
370
     9
100
AcDbLine
 10
77.00000000000001
 20
186.4269941919371
 30
0.0
 11
77.0
 21
177.3285483436999
 31
0.0
  0
CIRCLE
  5
368
330
362
100
AcDbEntity
  8
4
  6
Continuous
 62
    54
370
    50
100
AcDbCircle
 10
79.5
 20
178.4
 30
0.0
 40
0.4
  0
LINE
  5
369
330
362
100
AcDbEntity
  8
4
  6
Continuous
 62
    54
370
    50
100
AcDbLine
 10
79.20530798080001
 20
186.0
 30
0.0
 11
76.20530798080001
 21
186.0
 31
0.0
  0
LINE
  5
36A
330
362
100
AcDbEntity
  8
4
  6
Continuous
 62
    54
370
    50
100
AcDbLine
 10
74.79469214720001
 20
178.0
 30
0.0
 11
77.79469214720001
 21
178.0
 31
0.0
  0
LINE
  5
36B
330
362
100
AcDbEntity
  8
4
  6
Continuous
 62
    54
370
    50
100
AcDbLine
 10
78.32898115911276
 20
185.000000507738
 30
0.0
 11
79.33020928953341
 21
185.8511484168183
 31
0.0
  0
LINE
  5
36C
330
362
100
AcDbEntity
  8
4
  6
Continuous
 62
    54
370
    50
100
AcDbLine
 10
78.49371567839803
 20
184.8000004119507
 30
0.0
 11
79.49671990719533
 21
185.6526581891356
 31
0.0
  0
LINE
  5
36D
330
362
100
AcDbEntity
  8
4
  6
Continuous
 62
    54
370
    50
100
AcDbLine
 10
79.20530798080001
 20
186.0
 30
0.0
 11
79.33020928953341
 21
185.8511484168183
 31
0.0
  0
LINE
  5
36E
330
362
100
AcDbEntity
  8
4
  6
Continuous
 62
    54
370
    50
100
AcDbLine
 10
79.50000000000001
 20
185.6487997279312
 30
0.0
 11
79.61848389268694
 21
185.5075961233669
 31
0.0
  0
LINE
  5
36F
330
362
100
AcDbEntity
  8
4
  6
Continuous
 62
    54
370
    50
100
AcDbLine
 10
78.87657121450248
 20
181.3000002038399
 30
0.0
 11
78.38151623531309
 21
178.4924038766331
 31
0.0
  0
LINE
  5
370
330
362
100
AcDbEntity
  8
4
  6
Continuous
 62
    54
370
    50
100
AcDbLine
 10
77.87657117670439
 20
181.2999999894763
 30
0.0
 11
78.4647347775424
 21
181.8000002729938
 31
0.0
  0
LINE
  5
371
330
362
100
AcDbEntity
  8
4
  6
Continuous
 62
    54
370
    50
100
AcDbLine
 10
77.71183597308807
 20
181.4999995554575
 30
0.0
 11
78.30000016217441
 21
182.0000003390473
 31
0.0
  0
LINE
  5
372
330
362
100
AcDbEntity
  8
4
  6
Continuous
 62
    54
370
    50
100
AcDbLine
 10
78.46473477754235
 20
181.8000002729938
 30
0.0
 11
78.87657121450248
 21
181.3000002038399
 31
0.0
  0
LINE
  5
373
330
362
100
AcDbEntity
  8
4
  6
Continuous
 62
    54
370
    50
100
AcDbLine
 10
79.61848389268694
 20
185.5075961233669
 30
0.0
 11
79.12342905732318
 21
182.7000006118358
 31
0.0
  0
LINE
  5
374
330
362
100
AcDbEntity
  8
4
  6
Continuous
 62
    54
370
    50
100
AcDbLine
 10
78.53526555734813
 20
182.2000004140623
 30
0.0
 11
79.12342905732318
 21
182.7000006118358
 31
0.0
  0
LINE
  5
375
330
362
100
AcDbEntity
  8
4
  6
Continuous
 62
    54
370
    50
100
AcDbLine
 10
78.123429049763
 20
182.7000005689601
 30
0.0
 11
78.53526555734813
 21
182.2000004140623
 31
0.0
  0
LINE
  5
376
330
362
100
AcDbEntity
  8
4
  6
Continuous
 62
    54
370
    50
100
AcDbLine
 10
78.123429049763
 20
182.7000005689601
 30
0.0
 11
78.49382138551063
 21
184.8005999067816
 31
0.0
  0
LINE
  5
377
330
362
100
AcDbEntity
  8
4
  6
Continuous
 62
    54
370
    50
100
AcDbLine
 10
77.88816407039998
 20
182.5
 30
0.0
 11
78.30000045039993
 21
182.0
 31
0.0
  0
LINE
  5
378
330
362
100
AcDbEntity
  8
4
  6
Continuous
 62
    54
370
    50
100
AcDbLine
 10
75.70000002641173
 20
182.0
 30
0.0
 11
76.11183659236339
 21
181.4999999156178
 31
0.0
  0
LINE
  5
379
330
362
100
AcDbEntity
  8
4
  6
Continuous
 62
    54
370
    50
100
AcDbLine
 10
74.8765711526225
 20
181.2999998529011
 30
0.0
 11
74.38151623531309
 21
178.4924038766331
 31
0.0
  0
LINE
  5
37A
330
362
100
AcDbEntity
  8
4
  6
Continuous
 62
    54
370
    50
100
AcDbLine
 10
76.11183655557097
 20
181.5
 30
0.0
 11
77.71183649601518
 21
181.5
 31
0.0
  0
LINE
  5
37B
330
362
100
AcDbEntity
  8
4
  6
Continuous
 62
    54
370
    50
100
AcDbLine
 10
75.6997795266263
 20
181.9998125818528
 30
0.0
 11
76.288163528
 21
182.5000001730823
 31
0.0
  0
LINE
  5
37C
330
362
100
AcDbEntity
  8
4
  6
Continuous
 62
    54
370
    50
100
AcDbLine
 10
74.87609996301946
 20
181.2995992927363
 30
0.0
 11
75.46473459789844
 21
181.7999999485103
 31
0.0
  0
LINE
  5
37D
330
362
100
AcDbEntity
  8
4
  6
Continuous
 62
    54
370
    50
100
AcDbLine
 10
76.2881633243987
 20
182.5
 30
0.0
 11
77.88816407039998
 21
182.5
 31
0.0
  0
LINE
  5
37E
330
362
100
AcDbEntity
  8
4
  6
Continuous
 62
    54
370
    50
100
AcDbLine
 10
75.46473459789844
 20
181.7999999485103
 30
0.0
 11
75.87657113514679
 21
181.2999998989761
 31
0.0
  0
LINE
  5
37F
330
362
100
AcDbEntity
  8
4
  6
Continuous
 62
    54
370
    50
100
AcDbLine
 10
75.53526538536433
 20
182.2000000515593
 30
0.0
 11
76.12342897079908
 21
182.7000002663181
 31
0.0
  0
LINE
  5
380
330
362
100
AcDbEntity
  8
4
  6
Continuous
 62
    54
370
    50
100
AcDbLine
 10
75.12353629169304
 20
182.6998696566357
 30
0.0
 11
75.53526538536438
 21
182.2000000515593
 31
0.0
  0
LINE
  5
381
330
362
100
AcDbEntity
  8
4
  6
Continuous
 62
    54
370
    50
100
AcDbLine
 10
75.61848389268694
 20
185.5075961233669
 30
0.0
 11
75.12340989617702
 21
182.6998919435752
 31
0.0
  0
LINE
  5
382
330
362
100
AcDbEntity
  8
4
  6
Continuous
 62
    54
370
    50
100
AcDbLine
 10
75.61848389268694
 20
185.5075961233669
 30
0.0
 11
75.79138659754001
 21
185.6526787194542
 31
0.0
  0
LINE
  5
383
330
362
100
AcDbEntity
  8
4
  6
Continuous
 62
    54
370
    50
100
AcDbLine
 10
76.02791299981602
 20
185.8511479366625
 30
0.0
 11
76.72898067836395
 21
184.999999156011
 31
0.0
  0
LINE
  5
384
330
362
100
AcDbEntity
  8
4
  6
Continuous
 62
    54
370
    50
100
AcDbLine
 10
76.02791299981608
 20
185.8511479366625
 30
0.0
 11
76.20530798080001
 21
186.0
 31
0.0
  0
LINE
  5
385
330
362
100
AcDbEntity
  8
4
  6
Continuous
 62
    54
370
    50
100
AcDbLine
 10
76.72897998319367
 20
185.0
 30
0.0
 11
78.32898104636395
 21
185.0
 31
0.0
  0
LINE
  5
386
330
362
100
AcDbEntity
  8
4
  6
Continuous
 62
    54
370
    50
100
AcDbLine
 10
76.12342897079908
 20
182.7000002663181
 30
0.0
 11
76.49357859334357
 21
184.7992231091516
 31
0.0
  0
LINE
  5
387
330
362
100
AcDbEntity
  8
4
  6
Continuous
 62
    54
370
    50
100
AcDbLine
 10
75.79138659754001
 20
185.6526787194542
 30
0.0
 11
76.49404078219716
 21
184.7996038013103
 31
0.0
  0
LINE
  5
388
330
362
100
AcDbEntity
  8
4
  6
Continuous
 62
    54
370
    50
100
AcDbLine
 10
74.38151623531309
 20
178.4924038766331
 30
0.0
 11
74.50325526445232
 21
178.347320951513
 31
0.0
  0
LINE
  5
389
330
362
100
AcDbEntity
  8
4
  6
Continuous
 62
    54
370
    50
100
AcDbLine
 10
74.66979061384154
 20
178.1488518508793
 30
0.0
 11
75.67101954377554
 21
179.0
 31
0.0
  0
LINE
  5
38A
330
362
100
AcDbEntity
  8
4
  6
Continuous
 62
    54
370
    50
100
AcDbLine
 10
74.66979061384154
 20
178.1488518508793
 30
0.0
 11
74.79469214720001
 21
178.0
 31
0.0
  0
LINE
  5
38B
330
362
100
AcDbEntity
  8
4
  6
Continuous
 62
    54
370
    50
100
AcDbLine
 10
74.50325526445232
 20
178.347320951513
 30
0.0
 11
75.50625078188531
 21
179.1999708827287
 31
0.0
  0
LINE
  5
38C
330
362
100
AcDbEntity
  8
4
  6
Continuous
 62
    54
370
    50
100
AcDbLine
 10
75.50627850066917
 20
179.1999659951593
 30
0.0
 11
75.87657113514679
 21
181.2999998989761
 31
0.0
  0
LINE
  5
38D
330
362
100
AcDbEntity
  8
4
  6
Continuous
 62
    54
370
    50
100
AcDbLine
 10
77.27101931428777
 20
179.0
 30
0.0
 11
77.97208688960731
 21
178.1488518631479
 31
0.0
  0
LINE
  5
38E
330
362
100
AcDbEntity
  8
4
  6
Continuous
 62
    54
370
    50
100
AcDbLine
 10
77.79469214720001
 20
178.0
 30
0.0
 11
77.97208688960731
 21
178.1488518631479
 31
0.0
  0
LINE
  5
38F
330
362
100
AcDbEntity
  8
4
  6
Continuous
 62
    54
370
    50
100
AcDbLine
 10
78.20861323300065
 20
178.3473210309478
 30
0.0
 11
78.38151623531309
 21
178.4924038766331
 31
0.0
  0
LINE
  5
390
330
362
100
AcDbEntity
  8
4
  6
Continuous
 62
    54
370
    50
100
AcDbLine
 10
75.67101954377554
 20
179.0
 30
0.0
 11
77.27101931428777
 21
179.0
 31
0.0
  0
LINE
  5
391
330
362
100
AcDbEntity
  8
4
  6
Continuous
 62
    54
370
    50
100
AcDbLine
 10
77.50628456289843
 20
179.2000002305854
 30
0.0
 11
77.87657117670439
 21
181.2999999894763
 31
0.0
  0
LINE
  5
392
330
362
100
AcDbEntity
  8
4
  6
Continuous
 62
    54
370
    50
100
AcDbLine
 10
77.50628456289843
 20
179.2000002305854
 30
0.0
 11
78.20861323300065
 21
178.3473210309478
 31
0.0
  0
LINE
  5
393
330
362
100
AcDbEntity
  8
4
  6
DASHDOT
 62
    54
370
     9
100
AcDbLine
 10
79.5
 20
179.2300753860563
 30
0.0
 11
79.5
 21
177.5494438442292
 31
0.0
  0
LINE
  5
394
330
362
100
AcDbEntity
  8
4
  6
DASHDOT
 62
    54
370
     9
100
AcDbLine
 10
78.92491814619692
 20
178.4
 30
0.0
 11
80.26917161611547
 21
178.4
 31
0.0
  0
ENDBLK
  5
364
330
362
100
AcDbEntity
  8
0
100
AcDbBlockEnd
  0
BLOCK
  5
397
330
396
100
AcDbEntity
  8
0
100
AcDbBlockBegin
  2
*G41
 70
     1
 10
0.0
 20
0.0
 30
0.0
  3
*G41
  1
*G41
  0
LINE
  5
399
330
396
100
AcDbEntity
  8
4
  6
Continuous
 62
    54
370
    50
100
AcDbLine
 10
41.75
 20
174.2499999999999
 30
0.0
 11
44.25000000000003
 21
174.2499999999999
 31
0.0
  0
LINE
  5
39A
330
396
100
AcDbEntity
  8
4
  6
Continuous
 62
    54
370
    50
100
AcDbLine
 10
44.25000000000003
 20
174.2499999999999
 30
0.0
 11
44.25000000000003
 21
175.7499999999999
 31
0.0
  0
LINE
  5
39B
330
396
100
AcDbEntity
  8
4
  6
Continuous
 62
    54
370
    50
100
AcDbLine
 10
44.25000000000003
 20
175.7499999999999
 30
0.0
 11
41.75
 21
175.7499999999999
 31
0.0
  0
LINE
  5
39C
330
396
100
AcDbEntity
  8
4
  6
Continuous
 62
    54
370
    50
100
AcDbLine
 10
41.75
 20
175.7499999999999
 30
0.0
 11
41.75
 21
174.2499999999999
 31
0.0
  0
ENDBLK
  5
398
330
396
100
AcDbEntity
  8
0
100
AcDbBlockEnd
  0
BLOCK
  5
39F
330
39E
100
AcDbEntity
  8
0
100
AcDbBlockBegin
  2
*G42
 70
     1
 10
0.0
 20
0.0
 30
0.0
  3
*G42
  1
*G42
  0
LINE
  5
3A1
330
39E
100
AcDbEntity
  8
4
  6
Continuous
 62
    54
370
    50
100
AcDbLine
 10
41.74999999999999
 20
171.2499999999999
 30
0.0
 11
44.25000000000002
 21
171.2499999999999
 31
0.0
  0
LINE
  5
3A2
330
39E
100
AcDbEntity
  8
4
  6
Continuous
 62
    54
370
    50
100
AcDbLine
 10
44.25000000000002
 20
171.2499999999999
 30
0.0
 11
44.25000000000002
 21
172.7499999999999
 31
0.0
  0
LINE
  5
3A3
330
39E
100
AcDbEntity
  8
4
  6
Continuous
 62
    54
370
    50
100
AcDbLine
 10
44.25000000000002
 20
172.7499999999999
 30
0.0
 11
41.74999999999999
 21
172.7499999999999
 31
0.0
  0
LINE
  5
3A4
330
39E
100
AcDbEntity
  8
4
  6
Continuous
 62
    54
370
    50
100
AcDbLine
 10
41.74999999999999
 20
172.7499999999999
 30
0.0
 11
41.74999999999999
 21
171.2499999999999
 31
0.0
  0
ENDBLK
  5
3A0
330
39E
100
AcDbEntity
  8
0
100
AcDbBlockEnd
  0
BLOCK
  5
3A7
330
3A6
100
AcDbEntity
  8
0
100
AcDbBlockBegin
  2
*G43
 70
     1
 10
0.0
 20
0.0
 30
0.0
  3
*G43
  1
*G43
  0
LINE
  5
3A9
330
3A6
100
AcDbEntity
  8
4
  6
Continuous
 62
    54
370
    50
100
AcDbLine
 10
41.74999999999999
 20
168.25
 30
0.0
 11
44.25000000000004
 21
168.2499999999999
 31
0.0
  0
LINE
  5
3AA
330
3A6
100
AcDbEntity
  8
4
  6
Continuous
 62
    54
370
    50
100
AcDbLine
 10
44.25000000000004
 20
168.2499999999999
 30
0.0
 11
44.25000000000002
 21
169.75
 31
0.0
  0
LINE
  5
3AB
330
3A6
100
AcDbEntity
  8
4
  6
Continuous
 62
    54
370
    50
100
AcDbLine
 10
44.25000000000002
 20
169.75
 30
0.0
 11
41.74999999999999
 21
169.75
 31
0.0
  0
LINE
  5
3AC
330
3A6
100
AcDbEntity
  8
4
  6
Continuous
 62
    54
370
    50
100
AcDbLine
 10
41.74999999999999
 20
169.75
 30
0.0
 11
41.74999999999999
 21
168.25
 31
0.0
  0
ENDBLK
  5
3A8
330
3A6
100
AcDbEntity
  8
0
100
AcDbBlockEnd
  0
BLOCK
  5
3B5
330
3B4
100
AcDbEntity
  8
0
100
AcDbBlockBegin
  2
*G44
 70
     1
 10
0.0
 20
0.0
 30
0.0
  3
*G44
  1
*G44
  0
LINE
  5
3B7
330
3B4
100
AcDbEntity
  8
4
  6
Continuous
 62
    54
370
    50
100
AcDbLine
 10
41.75000000000001
 20
179.75
 30
0.0
 11
44.25000000000004
 21
179.7499999999999
 31
0.0
  0
LINE
  5
3B8
330
3B4
100
AcDbEntity
  8
4
  6
Continuous
 62
    54
370
    50
100
AcDbLine
 10
44.25000000000004
 20
179.7499999999999
 30
0.0
 11
44.25000000000004
 21
181.25
 31
0.0
  0
LINE
  5
3B9
330
3B4
100
AcDbEntity
  8
4
  6
Continuous
 62
    54
370
    50
100
AcDbLine
 10
44.25000000000004
 20
181.25
 30
0.0
 11
41.75000000000001
 21
181.25
 31
0.0
  0
LINE
  5
3BA
330
3B4
100
AcDbEntity
  8
4
  6
Continuous
 62
    54
370
    50
100
AcDbLine
 10
41.75000000000001
 20
181.25
 30
0.0
 11
41.75000000000001
 21
179.75
 31
0.0
  0
ENDBLK
  5
3B6
330
3B4
100
AcDbEntity
  8
0
100
AcDbBlockEnd
  0
BLOCK
  5
3BD
330
3BC
100
AcDbEntity
  8
0
100
AcDbBlockBegin
  2
*G45
 70
     1
 10
0.0
 20
0.0
 30
0.0
  3
*G45
  1
*G45
  0
LINE
  5
3BF
330
3BC
100
AcDbEntity
  8
4
  6
Continuous
 62
    54
370
    50
100
AcDbLine
 10
41.75000000000001
 20
182.7499999999999
 30
0.0
 11
44.25000000000001
 21
182.7499999999999
 31
0.0
  0
LINE
  5
3C0
330
3BC
100
AcDbEntity
  8
4
  6
Continuous
 62
    54
370
    50
100
AcDbLine
 10
44.25000000000001
 20
182.7499999999999
 30
0.0
 11
44.25000000000001
 21
184.2499999999999
 31
0.0
  0
LINE
  5
3C1
330
3BC
100
AcDbEntity
  8
4
  6
Continuous
 62
    54
370
    50
100
AcDbLine
 10
44.25000000000001
 20
184.2499999999999
 30
0.0
 11
41.75000000000001
 21
184.2499999999999
 31
0.0
  0
LINE
  5
3C2
330
3BC
100
AcDbEntity
  8
4
  6
Continuous
 62
    54
370
    50
100
AcDbLine
 10
41.75000000000001
 20
184.2499999999999
 30
0.0
 11
41.75000000000001
 21
182.7499999999999
 31
0.0
  0
ENDBLK
  5
3BE
330
3BC
100
AcDbEntity
  8
0
100
AcDbBlockEnd
  0
BLOCK
  5
3CC
330
3CB
100
AcDbEntity
  8
0
100
AcDbBlockBegin
  2
*G46
 70
     1
 10
0.0
 20
0.0
 30
0.0
  3
*G46
  1
*G46
  0
LINE
  5
3CE
330
3CB
100
AcDbEntity
  8
1
  6
Continuous
 62
     7
370
    50
100
AcDbLine
 10
26.49999999999999
 20
241.7398282879487
 30
0.0
 11
93.5
 21
241.7398282879487
 31
0.0
  0
ARC
  5
3CF
330
3CB
100
AcDbEntity
  8
1
  6
Continuous
 62
     7
370
    50
100
AcDbCircle
 10
26.5
 20
246.7398282879487
 30
0.0
 40
5.0
100
AcDbArc
 50
179.9999999999998
 51
269.9999999999995
  0
LINE
  5
3D0
330
3CB
100
AcDbEntity
  8
1
  6
Continuous
 62
     7
370
    50
100
AcDbLine
 10
21.5
 20
246.7398282879487
 30
0.0
 11
21.5
 21
263.7398282879487
 31
0.0
  0
ARC
  5
3D1
330
3CB
100
AcDbEntity
  8
1
  6
Continuous
 62
     7
370
    50
100
AcDbCircle
 10
26.5
 20
263.7398282879487
 30
0.0
 40
5.0
100
AcDbArc
 50
89.99999999999991
 51
179.9999999999998
  0
LINE
  5
3D2
330
3CB
100
AcDbEntity
  8
1
  6
Continuous
 62
     7
370
    50
100
AcDbLine
 10
93.5
 20
268.7398282879487
 30
0.0
 11
26.50000000000001
 21
268.7398282879487
 31
0.0
  0
ARC
  5
3D3
330
3CB
100
AcDbEntity
  8
1
  6
Continuous
 62
     7
370
    50
100
AcDbCircle
 10
93.5
 20
246.7398282879487
 30
0.0
 40
5.0
100
AcDbArc
 50
269.9999999999998
 51
0.0
  0
LINE
  5
3D4
330
3CB
100
AcDbEntity
  8
1
  6
Continuous
 62
     7
370
    50
100
AcDbLine
 10
98.5
 20
263.7398282879487
 30
0.0
 11
98.5
 21
246.7398282879487
 31
0.0
  0
ARC
  5
3D5
330
3CB
100
AcDbEntity
  8
1
  6
Continuous
 62
     7
370
    50
100
AcDbCircle
 10
93.5
 20
263.7398282879487
 30
0.0
 40
5.0
100
AcDbArc
 50
0.0
 51
89.99999999999991
  0
ENDBLK
  5
3CD
330
3CB
100
AcDbEntity
  8
0
100
AcDbBlockEnd
  0
BLOCK
  5
3D8
330
3D7
100
AcDbEntity
  8
0
100
AcDbBlockBegin
  2
*G47
 70
     1
 10
0.0
 20
0.0
 30
0.0
  3
*G47
  1
*G47
  0
LINE
  5
3DA
330
3D7
100
AcDbEntity
  8
1
  6
Continuous
 62
     7
370
    50
100
AcDbLine
 10
26.5
 20
244.7398282879487
 30
0.0
 11
26.5
 21
265.7398282879487
 31
0.0
  0
LINE
  5
3DB
330
3D7
100
AcDbEntity
  8
1
  6
Continuous
 62
     7
370
    50
100
AcDbLine
 10
26.5
 20
265.7398282879487
 30
0.0
 11
93.5
 21
265.7398282879487
 31
0.0
  0
LINE
  5
3DC
330
3D7
100
AcDbEntity
  8
1
  6
Continuous
 62
     7
370
    50
100
AcDbLine
 10
93.5
 20
265.7398282879487
 30
0.0
 11
93.5
 21
244.7398282879487
 31
0.0
  0
LINE
  5
3DD
330
3D7
100
AcDbEntity
  8
1
  6
Continuous
 62
     7
370
    50
100
AcDbLine
 10
93.5
 20
244.7398282879487
 30
0.0
 11
26.5
 21
244.7398282879487
 31
0.0
  0
ENDBLK
  5
3D9
330
3D7
100
AcDbEntity
  8
0
100
AcDbBlockEnd
  0
BLOCK
  5
3E3
330
3E2
100
AcDbEntity
  8
0
100
AcDbBlockBegin
  2
*G48
 70
     1
 10
0.0
 20
0.0
 30
0.0
  3
*G48
  1
*G48
  0
ARC
  5
3E5
330
3E2
100
AcDbEntity
  8
1
  6
Continuous
 62
     7
370
    50
100
AcDbCircle
 10
219.450203957046
 20
205.0
 30
0.0
 40
5.0
100
AcDbArc
 50
89.99999999999991
 51
179.9999999999998
  0
LINE
  5
3E6
330
3E2
100
AcDbEntity
  8
1
  6
Continuous
 62
     7
370
    50
100
AcDbLine
 10
286.450203957046
 20
210.0
 30
0.0
 11
219.450203957046
 21
210.0
 31
0.0
  0
ARC
  5
3E7
330
3E2
100
AcDbEntity
  8
1
  6
Continuous
 62
     7
370
    50
100
AcDbCircle
 10
286.450203957046
 20
205.0
 30
0.0
 40
5.0
100
AcDbArc
 50
0.0
 51
89.99999999999991
  0
LINE
  5
3E8
330
3E2
100
AcDbEntity
  8
1
  6
Continuous
 62
     7
370
    50
100
AcDbLine
 10
214.450203957046
 20
205.0
 30
0.0
 11
214.450203957046
 21
75.0
 31
0.0
  0
ARC
  5
3E9
330
3E2
100
AcDbEntity
  8
1
  6
Continuous
 62
     7
370
    50
100
AcDbCircle
 10
219.450203957046
 20
75.0
 30
0.0
 40
5.0
100
AcDbArc
 50
179.9999999999998
 51
269.9999999999998
  0
LINE
  5
3EA
330
3E2
100
AcDbEntity
  8
1
  6
Continuous
 62
     7
370
    50
100
AcDbLine
 10
219.450203957046
 20
70.0
 30
0.0
 11
286.450203957046
 21
70.0
 31
0.0
  0
LINE
  5
3EB
330
3E2
100
AcDbEntity
  8
1
  6
Continuous
 62
     7
370
    50
100
AcDbLine
 10
291.450203957046
 20
75.0
 30
0.0
 11
291.450203957046
 21
205.0
 31
0.0
  0
ARC
  5
3EC
330
3E2
100
AcDbEntity
  8
1
  6
Continuous
 62
     7
370
    50
100
AcDbCircle
 10
286.450203957046
 20
75.0
 30
0.0
 40
5.0
100
AcDbArc
 50
269.9999999999998
 51
0.0
  0
ENDBLK
  5
3E4
330
3E2
100
AcDbEntity
  8
0
100
AcDbBlockEnd
  0
BLOCK
  5
402
330
401
100
AcDbEntity
  8
0
100
AcDbBlockBegin
  2
*G49
 70
     1
 10
0.0
 20
0.0
 30
0.0
  3
*G49
  1
*G49
  0
CIRCLE
  5
404
330
401
100
AcDbEntity
  8
1
  6
Continuous
 62
     7
370
    50
100
AcDbCircle
 10
222.450203957046
 20
199.0
 30
0.0
 40
3.0
  0
LINE
  5
405
330
401
100
AcDbEntity
  8
1
  6
Continuous
 62
     7
370
    50
100
AcDbLine
 10
220.950203957046
 20
199.3
 30
0.0
 11
220.950203957046
 21
198.7
 31
0.0
  0
LINE
  5
406
330
401
100
AcDbEntity
  8
1
  6
Continuous
 62
     7
370
    50
100
AcDbLine
 10
222.150203957046
 20
200.5
 30
0.0
 11
222.750203957046
 21
200.5
 31
0.0
  0
LINE
  5
407
330
401
100
AcDbEntity
  8
1
  6
Continuous
 62
     7
370
    50
100
AcDbLine
 10
223.950203957046
 20
199.3
 30
0.0
 11
223.950203957046
 21
198.7
 31
0.0
  0
LINE
  5
408
330
401
100
AcDbEntity
  8
1
  6
Continuous
 62
     7
370
    50
100
AcDbLine
 10
222.750203957046
 20
197.5
 30
0.0
 11
222.150203957046
 21
197.5
 31
0.0
  0
LINE
  5
409
330
401
100
AcDbEntity
  8
1
  6
Continuous
 62
     7
370
    50
100
AcDbLine
 10
222.750203957046
 20
197.8
 30
0.0
 11
222.750203957046
 21
197.5
 31
0.0
  0
LINE
  5
40A
330
401
100
AcDbEntity
  8
1
  6
Continuous
 62
     7
370
    50
100
AcDbLine
 10
223.950203957046
 20
198.7
 30
0.0
 11
223.650203957046
 21
198.7
 31
0.0
  0
ARC
  5
40B
330
401
100
AcDbEntity
  8
1
  6
Continuous
 62
     7
370
    50
100
AcDbCircle
 10
223.650203957046
 20
197.8
 30
0.0
 40
0.8999999999999999
100
AcDbArc
 50
89.99999999999991
 51
179.9999999999998
  0
LINE
  5
40C
330
401
100
AcDbEntity
  8
1
  6
Continuous
 62
     7
370
    50
100
AcDbLine
 10
223.6502039570459
 20
199.3
 30
0.0
 11
223.950203957046
 21
199.3
 31
0.0
  0
LINE
  5
40D
330
401
100
AcDbEntity
  8
1
  6
Continuous
 62
     7
370
    50
100
AcDbLine
 10
222.750203957046
 20
200.5
 30
0.0
 11
222.750203957046
 21
200.2
 31
0.0
  0
ARC
  5
40E
330
401
100
AcDbEntity
  8
1
  6
Continuous
 62
     7
370
    50
100
AcDbCircle
 10
223.650203957046
 20
200.2
 30
0.0
 40
0.8999999999999999
100
AcDbArc
 50
179.9999999999998
 51
269.999999999996
  0
LINE
  5
40F
330
401
100
AcDbEntity
  8
1
  6
Continuous
 62
     7
370
    50
100
AcDbLine
 10
220.950203957046
 20
199.3
 30
0.0
 11
221.2502039570459
 21
199.3
 31
0.0
  0
LINE
  5
410
330
401
100
AcDbEntity
  8
1
  6
Continuous
 62
     7
370
    50
100
AcDbLine
 10
222.150203957046
 20
200.2
 30
0.0
 11
222.150203957046
 21
200.5
 31
0.0
  0
ARC
  5
411
330
401
100
AcDbEntity
  8
1
  6
Continuous
 62
     7
370
    50
100
AcDbCircle
 10
221.250203957046
 20
200.2
 30
0.0
 40
0.8999999999999999
100
AcDbArc
 50
269.999999999996
 51
0.0
  0
LINE
  5
412
330
401
100
AcDbEntity
  8
1
  6
Continuous
 62
     7
370
    50
100
AcDbLine
 10
221.250203957046
 20
198.7
 30
0.0
 11
220.950203957046
 21
198.7
 31
0.0
  0
LINE
  5
413
330
401
100
AcDbEntity
  8
1
  6
Continuous
 62
     7
370
    50
100
AcDbLine
 10
222.150203957046
 20
197.5
 30
0.0
 11
222.150203957046
 21
197.8
 31
0.0
  0
ARC
  5
414
330
401
100
AcDbEntity
  8
1
  6
Continuous
 62
     7
370
    50
100
AcDbCircle
 10
221.250203957046
 20
197.8
 30
0.0
 40
0.8999999999999999
100
AcDbArc
 50
0.0
 51
89.99999999999991
  0
ENDBLK
  5
403
330
401
100
AcDbEntity
  8
0
100
AcDbBlockEnd
  0
BLOCK
  5
417
330
416
100
AcDbEntity
  8
0
100
AcDbBlockBegin
  2
*G50
 70
     1
 10
0.0
 20
0.0
 30
0.0
  3
*G50
  1
*G50
  0
CIRCLE
  5
419
330
416
100
AcDbEntity
  8
1
  6
Continuous
 62
     7
370
    50
100
AcDbCircle
 10
283.450203957046
 20
199.0
 30
0.0
 40
3.0
  0
LINE
  5
41A
330
416
100
AcDbEntity
  8
1
  6
Continuous
 62
     7
370
    50
100
AcDbLine
 10
281.950203957046
 20
199.3
 30
0.0
 11
281.950203957046
 21
198.7
 31
0.0
  0
LINE
  5
41B
330
416
100
AcDbEntity
  8
1
  6
Continuous
 62
     7
370
    50
100
AcDbLine
 10
283.150203957046
 20
200.5
 30
0.0
 11
283.750203957046
 21
200.5
 31
0.0
  0
LINE
  5
41C
330
416
100
AcDbEntity
  8
1
  6
Continuous
 62
     7
370
    50
100
AcDbLine
 10
284.950203957046
 20
199.3
 30
0.0
 11
284.950203957046
 21
198.7
 31
0.0
  0
LINE
  5
41D
330
416
100
AcDbEntity
  8
1
  6
Continuous
 62
     7
370
    50
100
AcDbLine
 10
283.750203957046
 20
197.5
 30
0.0
 11
283.150203957046
 21
197.5
 31
0.0
  0
LINE
  5
41E
330
416
100
AcDbEntity
  8
1
  6
Continuous
 62
     7
370
    50
100
AcDbLine
 10
283.750203957046
 20
197.8
 30
0.0
 11
283.750203957046
 21
197.5
 31
0.0
  0
LINE
  5
41F
330
416
100
AcDbEntity
  8
1
  6
Continuous
 62
     7
370
    50
100
AcDbLine
 10
284.950203957046
 20
198.7
 30
0.0
 11
284.650203957046
 21
198.7
 31
0.0
  0
ARC
  5
420
330
416
100
AcDbEntity
  8
1
  6
Continuous
 62
     7
370
    50
100
AcDbCircle
 10
284.650203957046
 20
197.8
 30
0.0
 40
0.8999999999999999
100
AcDbArc
 50
89.99999999999991
 51
179.9999999999998
  0
LINE
  5
421
330
416
100
AcDbEntity
  8
1
  6
Continuous
 62
     7
370
    50
100
AcDbLine
 10
284.6502039570459
 20
199.3
 30
0.0
 11
284.950203957046
 21
199.3
 31
0.0
  0
LINE
  5
422
330
416
100
AcDbEntity
  8
1
  6
Continuous
 62
     7
370
    50
100
AcDbLine
 10
283.750203957046
 20
200.5
 30
0.0
 11
283.750203957046
 21
200.2
 31
0.0
  0
ARC
  5
423
330
416
100
AcDbEntity
  8
1
  6
Continuous
 62
     7
370
    50
100
AcDbCircle
 10
284.650203957046
 20
200.2
 30
0.0
 40
0.8999999999999999
100
AcDbArc
 50
179.9999999999998
 51
269.999999999996
  0
LINE
  5
424
330
416
100
AcDbEntity
  8
1
  6
Continuous
 62
     7
370
    50
100
AcDbLine
 10
281.950203957046
 20
199.3
 30
0.0
 11
282.2502039570459
 21
199.3
 31
0.0
  0
LINE
  5
425
330
416
100
AcDbEntity
  8
1
  6
Continuous
 62
     7
370
    50
100
AcDbLine
 10
283.150203957046
 20
200.2
 30
0.0
 11
283.150203957046
 21
200.5
 31
0.0
  0
ARC
  5
426
330
416
100
AcDbEntity
  8
1
  6
Continuous
 62
     7
370
    50
100
AcDbCircle
 10
282.250203957046
 20
200.2
 30
0.0
 40
0.8999999999999999
100
AcDbArc
 50
269.999999999996
 51
0.0
  0
LINE
  5
427
330
416
100
AcDbEntity
  8
1
  6
Continuous
 62
     7
370
    50
100
AcDbLine
 10
282.250203957046
 20
198.7
 30
0.0
 11
281.950203957046
 21
198.7
 31
0.0
  0
LINE
  5
428
330
416
100
AcDbEntity
  8
1
  6
Continuous
 62
     7
370
    50
100
AcDbLine
 10
283.150203957046
 20
197.5
 30
0.0
 11
283.150203957046
 21
197.8
 31
0.0
  0
ARC
  5
429
330
416
100
AcDbEntity
  8
1
  6
Continuous
 62
     7
370
    50
100
AcDbCircle
 10
282.250203957046
 20
197.8
 30
0.0
 40
0.8999999999999999
100
AcDbArc
 50
0.0
 51
89.99999999999991
  0
ENDBLK
  5
418
330
416
100
AcDbEntity
  8
0
100
AcDbBlockEnd
  0
BLOCK
  5
43B
330
43A
100
AcDbEntity
  8
0
100
AcDbBlockBegin
  2
*G51
 70
     1
 10
0.0
 20
0.0
 30
0.0
  3
*G51
  1
*G51
  0
ARC
  5
43D
330
43A
100
AcDbEntity
  8
1
  6
Continuous
 62
     7
370
    50
100
AcDbCircle
 10
144.0
 20
222.2
 30
0.0
 40
1.0
100
AcDbArc
 50
89.99999999999991
 51
179.9999999999998
  0
LINE
  5
43E
330
43A
100
AcDbEntity
  8
1
  6
Continuous
 62
     7
370
    50
100
AcDbLine
 10
144.0
 20
223.2
 30
0.0
 11
156.0
 21
223.2
 31
0.0
  0
ARC
  5
43F
330
43A
100
AcDbEntity
  8
1
  6
Continuous
 62
     7
370
    50
100
AcDbCircle
 10
156.0
 20
222.2
 30
0.0
 40
1.0
100
AcDbArc
 50
0.0
 51
89.99999999999991
  0
LINE
  5
440
330
43A
100
AcDbEntity
  8
1
  6
DASHDOT
 62
     7
370
     9
100
AcDbLine
 10
150.0
 20
225.1202893073444
 30
0.0
 11
150.0
 21
188.56
 31
0.0
  0
LINE
  5
441
330
43A
100
AcDbEntity
  8
1
  6
Continuous
 62
     7
370
    50
100
AcDbLine
 10
142.9999999999999
 20
210.0
 30
0.0
 11
143.0
 21
222.2
 31
0.0
  0
LINE
  5
442
330
43A
100
AcDbEntity
  8
1
  6
Continuous
 62
     7
370
    50
100
AcDbLine
 10
157.0
 20
222.2
 30
0.0
 11
157.0
 21
210.0
 31
0.0
  0
ENDBLK
  5
43C
330
43A
100
AcDbEntity
  8
0
100
AcDbBlockEnd
  0
BLOCK
  5
445
330
444
100
AcDbEntity
  8
0
100
AcDbBlockBegin
  2
Dim1
 70
     0
 10
0.0
 20
0.0
 30
0.0
  3
Dim1
  1
Dim1
  0
LINE
  5
447
330
444
100
AcDbEntity
  8
2
  6
Continuous
 62
   134
370
     9
100
AcDbLine
 10
95.5
 20
70.0
 30
0.0
 11
113.4967865196584
 21
69.99999999999994
 31
0.0
  0
LINE
  5
448
330
444
100
AcDbEntity
  8
2
  6
Continuous
 62
   134
370
     9
100
AcDbLine
 10
92.79420202028447
 20
210.0
 30
0.0
 11
113.4967865196584
 21
209.9999999999999
 31
0.0
  0
LINE
  5
449
330
444
100
AcDbEntity
  8
2
  6
Continuous
 62
   134
370
     9
100
AcDbLine
 10
111.4967865196584
 20
69.99999999999994
 30
0.0
 11
111.4967865196584
 21
209.9999999999999
 31
0.0
  0
MTEXT
  5
44A
330
444
100
AcDbEntity
  8
2
  6
Continuous
 62
   134
370
     9
100
AcDbMText
 10
111.4967865196584
 20
140.331505193958
 30
0.0
 40
4.0
 41
48.57142857142858
 46
4.0
 71
     8
 72
     1
  1
140
 11
1.393499969507555E-15
 21
1.0
 31
0.0
 73
     1
 44
1.0
1001
ACAD
1000
ACAD_MTEXT_DEFINED_HEIGHT_BEGIN
1070
    46
1040
4.0
1000
ACAD_MTEXT_DEFINED_HEIGHT_END
  0
INSERT
  5
44B
330
444
100
AcDbEntity
  8
2
  6
Continuous
 62
   134
370
     9
100
AcDbBlockReference
  2
_ARROWFILLED
 10
111.4967865196584
 20
69.99999999999994
 30
0.0
 41
2.0
 42
2.0
 43
2.0
 50
269.9999999999998
  0
INSERT
  5
44C
330
444
100
AcDbEntity
  8
2
  6
Continuous
 62
   134
370
     9
100
AcDbBlockReference
  2
_ARROWFILLED
 10
111.4967865196584
 20
209.9999999999999
 30
0.0
 41
2.0
 42
2.0
 43
2.0
 50
89.99999999999959
  0
ENDBLK
  5
446
330
444
100
AcDbEntity
  8
0
100
AcDbBlockEnd
  0
BLOCK
  5
44F
330
44E
100
AcDbEntity
  8
0
100
AcDbBlockBegin
  2
Dim2
 70
     0
 10
0.0
 20
0.0
 30
0.0
  3
Dim2
  1
Dim2
  0
LINE
  5
451
330
44E
100
AcDbEntity
  8
2
  6
Continuous
 62
   134
370
     9
100
AcDbLine
 10
64.83999999999997
 20
210.0
 30
0.0
 11
113.4967865196584
 21
209.9999999999998
 31
0.0
  0
LINE
  5
452
330
44E
100
AcDbEntity
  8
2
  6
Continuous
 62
   134
370
     9
100
AcDbLine
 10
64.84
 20
223.2
 30
0.0
 11
113.4967865196584
 21
223.1999999999998
 31
0.0
  0
LINE
  5
453
330
44E
100
AcDbEntity
  8
2
  6
Continuous
 62
   134
370
     9
100
AcDbLine
 10
111.4967865196584
 20
209.9999999999998
 30
0.0
 11
111.4967865196584
 21
223.1999999999998
 31
0.0
  0
MTEXT
  5
454
330
44E
100
AcDbEntity
  8
2
  6
Continuous
 62
   134
370
     9
100
AcDbMText
 10
111.4967865196584
 20
216.4353721564452
 30
0.0
 40
4.0
 41
58.0952380952381
 46
4.0
 71
     8
 72
     1
  1
13.5
 11
1.393499969507555E-15
 21
1.0
 31
0.0
 73
     1
 44
1.0
1001
ACAD
1000
ACAD_MTEXT_DEFINED_HEIGHT_BEGIN
1070
    46
1040
4.0
1000
ACAD_MTEXT_DEFINED_HEIGHT_END
  0
INSERT
  5
455
330
44E
100
AcDbEntity
  8
2
  6
Continuous
 62
   134
370
     9
100
AcDbBlockReference
  2
_ARROWFILLED
 10
111.4967865196584
 20
209.9999999999998
 30
0.0
 41
2.0
 42
2.0
 43
2.0
 50
269.9999999999998
  0
INSERT
  5
456
330
44E
100
AcDbEntity
  8
2
  6
Continuous
 62
   134
370
     9
100
AcDbBlockReference
  2
_ARROWFILLED
 10
111.4967865196584
 20
223.1999999999998
 30
0.0
 41
2.0
 42
2.0
 43
2.0
 50
89.99999999999959
  0
ENDBLK
  5
450
330
44E
100
AcDbEntity
  8
0
100
AcDbBlockEnd
  0
BLOCK
  5
459
330
458
100
AcDbEntity
  8
0
100
AcDbBlockBegin
  2
Dim3
 70
     0
 10
0.0
 20
0.0
 30
0.0
  3
Dim3
  1
Dim3
  0
LINE
  5
45B
330
458
100
AcDbEntity
  8
2
  6
Continuous
 62
   134
370
     9
100
AcDbLine
 10
92.06421466963936
 20
241.7398282879487
 30
0.0
 11
113.4967865196584
 21
241.7398282879487
 31
0.0
  0
LINE
  5
45C
330
458
100
AcDbEntity
  8
2
  6
Continuous
 62
   134
370
     9
100
AcDbLine
 10
95.50000000000001
 20
268.7398282879486
 30
0.0
 11
113.4967865196584
 21
268.7398282879486
 31
0.0
  0
LINE
  5
45D
330
458
100
AcDbEntity
  8
2
  6
Continuous
 62
   134
370
     9
100
AcDbLine
 10
111.4967865196584
 20
241.7398282879487
 30
0.0
 11
111.4967865196584
 21
268.7398282879486
 31
0.0
  0
MTEXT
  5
45E
330
458
100
AcDbEntity
  8
2
  6
Continuous
 62
   134
370
     9
100
AcDbMText
 10
111.4967865196584
 20
254.7082969029156
 30
0.0
 40
4.0
 41
32.38095238095238
 46
4.0
 71
     8
 72
     1
  1
27
 11
1.393499969507555E-15
 21
1.0
 31
0.0
 73
     1
 44
1.0
1001
ACAD
1000
ACAD_MTEXT_DEFINED_HEIGHT_BEGIN
1070
    46
1040
4.0
1000
ACAD_MTEXT_DEFINED_HEIGHT_END
  0
INSERT
  5
45F
330
458
100
AcDbEntity
  8
2
  6
Continuous
 62
   134
370
     9
100
AcDbBlockReference
  2
_ARROWFILLED
 10
111.4967865196584
 20
241.7398282879487
 30
0.0
 41
2.0
 42
2.0
 43
2.0
 50
269.9999999999998
  0
INSERT
  5
460
330
458
100
AcDbEntity
  8
2
  6
Continuous
 62
   134
370
     9
100
AcDbBlockReference
  2
_ARROWFILLED
 10
111.4967865196584
 20
268.7398282879486
 30
0.0
 41
2.0
 42
2.0
 43
2.0
 50
89.99999999999959
  0
ENDBLK
  5
45A
330
458
100
AcDbEntity
  8
0
100
AcDbBlockEnd
  0
BLOCK
  5
463
330
462
100
AcDbEntity
  8
0
100
AcDbBlockBegin
  2
Dim4
 70
     0
 10
0.0
 20
0.0
 30
0.0
  3
Dim4
  1
Dim4
  0
LINE
  5
465
330
462
100
AcDbEntity
  8
2
  6
Continuous
 62
   134
370
     9
100
AcDbLine
 10
21.5
 20
74.60162040569483
 30
0.0
 11
21.49999999999994
 21
50.39935777708779
 31
0.0
  0
LINE
  5
466
330
462
100
AcDbEntity
  8
2
  6
Continuous
 62
   134
370
     9
100
AcDbLine
 10
98.49999999999989
 20
72.99999999999999
 30
0.0
 11
98.49999999999983
 21
50.39935777708779
 31
0.0
  0
LINE
  5
467
330
462
100
AcDbEntity
  8
2
  6
Continuous
 62
   134
370
     9
100
AcDbLine
 10
21.49999999999994
 20
52.39935777708779
 30
0.0
 11
98.49999999999983
 21
52.39935777708779
 31
0.0
  0
MTEXT
  5
468
330
462
100
AcDbEntity
  8
2
  6
Continuous
 62
   134
370
     9
100
AcDbMText
 10
59.92802903907074
 20
52.39935777708779
 30
0.0
 40
4.0
 41
32.38095238095238
 46
4.0
 71
     8
 72
     1
  1
77
 73
     1
 44
1.0
1001
ACAD
1000
ACAD_MTEXT_DEFINED_HEIGHT_BEGIN
1070
    46
1040
4.0
1000
ACAD_MTEXT_DEFINED_HEIGHT_END
  0
INSERT
  5
469
330
462
100
AcDbEntity
  8
2
  6
Continuous
 62
   134
370
     9
100
AcDbBlockReference
  2
_ARROWFILLED
 10
21.49999999999994
 20
52.39935777708779
 30
0.0
 41
2.0
 42
2.0
 43
2.0
 50
179.9999999999998
  0
INSERT
  5
46A
330
462
100
AcDbEntity
  8
2
  6
Continuous
 62
   134
370
     9
100
AcDbBlockReference
  2
_ARROWFILLED
 10
98.49999999999983
 20
52.39935777708779
 30
0.0
 41
2.0
 42
2.0
 43
2.0
 50
359.9999999999997
  0
ENDBLK
  5
464
330
462
100
AcDbEntity
  8
0
100
AcDbBlockEnd
  0
BLOCK
  5
46D
330
46C
100
AcDbEntity
  8
0
100
AcDbBlockBegin
  2
Dim5
 70
     0
 10
0.0
 20
0.0
 30
0.0
  3
Dim5
  1
Dim5
  0
LINE
  5
46F
330
46C
100
AcDbEntity
  8
2
  6
Continuous
 62
   134
370
     9
100
AcDbLine
 10
95.5
 20
70.0
 30
0.0
 11
124.3588655924093
 21
69.9999999999999
 31
0.0
  0
LINE
  5
470
330
46C
100
AcDbEntity
  8
2
  6
Continuous
 62
   134
370
     9
100
AcDbLine
 10
64.84
 20
223.2
 30
0.0
 11
124.3588655924093
 21
223.1999999999998
 31
0.0
  0
LINE
  5
471
330
46C
100
AcDbEntity
  8
2
  6
Continuous
 62
   134
370
     9
100
AcDbLine
 10
122.3588655924093
 20
69.9999999999999
 30
0.0
 11
122.3588655924093
 21
223.1999999999998
 31
0.0
  0
MTEXT
  5
472
330
46C
100
AcDbEntity
  8
2
  6
Continuous
 62
   134
370
     9
100
AcDbMText
 10
122.3588655924093
 20
140.1325598057883
 30
0.0
 40
4.0
 41
77.14285714285714
 46
4.0
 71
     8
 72
     1
  1
153.5
 11
1.393499969507555E-15
 21
1.0
 31
0.0
 73
     1
 44
1.0
1001
ACAD
1000
ACAD_MTEXT_DEFINED_HEIGHT_BEGIN
1070
    46
1040
4.0
1000
ACAD_MTEXT_DEFINED_HEIGHT_END
  0
INSERT
  5
473
330
46C
100
AcDbEntity
  8
2
  6
Continuous
 62
   134
370
     9
100
AcDbBlockReference
  2
_ARROWFILLED
 10
122.3588655924093
 20
69.9999999999999
 30
0.0
 41
2.0
 42
2.0
 43
2.0
 50
269.9999999999998
  0
INSERT
  5
474
330
46C
100
AcDbEntity
  8
2
  6
Continuous
 62
   134
370
     9
100
AcDbBlockReference
  2
_ARROWFILLED
 10
122.3588655924093
 20
223.1999999999998
 30
0.0
 41
2.0
 42
2.0
 43
2.0
 50
89.99999999999959
  0
ENDBLK
  5
46E
330
46C
100
AcDbEntity
  8
0
100
AcDbBlockEnd
  0
BLOCK
  5
478
330
477
100
AcDbEntity
  8
0
100
AcDbBlockBegin
  2
*G57
 70
     1
 10
0.0
 20
0.0
 30
0.0
  3
*G57
  1
*G57
  0
LINE
  5
47A
330
477
100
AcDbEntity
  8
1
  6
Continuous
 62
     7
370
    50
100
AcDbLine
 10
83.49999999999999
 20
220.7
 30
0.0
 11
86.5
 21
220.7
 31
0.0
  0
LINE
  5
47B
330
477
100
AcDbEntity
  8
1
  6
Continuous
 62
     7
370
    50
100
AcDbLine
 10
87.80000000000001
 20
219.1999999999999
 30
0.0
 11
87.80000000000001
 21
217.6999999999999
 31
0.0
  0
ARC
  5
47C
330
477
100
AcDbEntity
  8
1
  6
Continuous
 62
     7
370
    50
100
AcDbCircle
 10
86.30000000000001
 20
219.1999999999999
 30
0.0
 40
1.5
100
AcDbArc
 50
0.0
 51
89.99999999999991
  0
LINE
  5
47D
330
477
100
AcDbEntity
  8
1
  6
Continuous
 62
     7
370
    50
100
AcDbLine
 10
82.20000000000005
 20
217.7
 30
0.0
 11
82.20000000000005
 21
219.2
 31
0.0
  0
ARC
  5
47E
330
477
100
AcDbEntity
  8
1
  6
Continuous
 62
     7
370
    50
100
AcDbCircle
 10
83.70000000000005
 20
219.2
 30
0.0
 40
1.5
100
AcDbArc
 50
90.00000000000054
 51
179.9999999999978
  0
LINE
  5
47F
330
477
100
AcDbEntity
  8
1
  6
Continuous
 62
     7
370
    50
100
AcDbLine
 10
88.125
 20
216.7
 30
0.0
 11
81.87500000000001
 21
216.7
 31
0.0
  0
LINE
  5
480
330
477
100
AcDbEntity
  8
1
  6
Continuous
 62
     7
370
    50
100
AcDbLine
 10
88.125
 20
215.7
 30
0.0
 11
81.87500000000001
 21
215.7
 31
0.0
  0
LINE
  5
481
330
477
100
AcDbEntity
  8
1
  6
Continuous
 62
     7
370
    50
100
AcDbLine
 10
88.125
 20
223.2
 30
0.0
 11
88.125
 21
215.7
 31
0.0
  0
LINE
  5
482
330
477
100
AcDbEntity
  8
1
  6
Continuous
 62
     7
370
    50
100
AcDbLine
 10
81.87499999999999
 20
223.2
 30
0.0
 11
81.87500000000001
 21
215.7
 31
0.0
  0
LINE
  5
483
330
477
100
AcDbEntity
  8
1
  6
Continuous
 62
     7
370
    50
100
AcDbLine
 10
88.125
 20
217.7
 30
0.0
 11
81.87500000000001
 21
217.7
 31
0.0
  0
LINE
  5
484
330
477
100
AcDbEntity
  8
1
  6
Continuous
 62
     7
370
    50
100
AcDbLine
 10
75.88000000000001
 20
220.7
 30
0.0
 11
78.87999999999998
 21
220.7
 31
0.0
  0
LINE
  5
485
330
477
100
AcDbEntity
  8
1
  6
Continuous
 62
     7
370
    50
100
AcDbLine
 10
80.18000000000002
 20
219.1999999999999
 30
0.0
 11
80.18000000000002
 21
217.6999999999999
 31
0.0
  0
ARC
  5
486
330
477
100
AcDbEntity
  8
1
  6
Continuous
 62
     7
370
    50
100
AcDbCircle
 10
78.68000000000002
 20
219.1999999999999
 30
0.0
 40
1.5
100
AcDbArc
 50
0.0000000000010856
 51
89.99999999999991
  0
LINE
  5
487
330
477
100
AcDbEntity
  8
1
  6
Continuous
 62
     7
370
    50
100
AcDbLine
 10
74.58000000000006
 20
217.7
 30
0.0
 11
74.58000000000006
 21
219.2
 31
0.0
  0
ARC
  5
488
330
477
100
AcDbEntity
  8
1
  6
Continuous
 62
     7
370
    50
100
AcDbCircle
 10
76.08000000000006
 20
219.2
 30
0.0
 40
1.5
100
AcDbArc
 50
89.99999999999991
 51
179.9999999999998
  0
LINE
  5
489
330
477
100
AcDbEntity
  8
1
  6
Continuous
 62
     7
370
    50
100
AcDbLine
 10
80.50500000000001
 20
216.7
 30
0.0
 11
74.25500000000001
 21
216.7
 31
0.0
  0
LINE
  5
48A
330
477
100
AcDbEntity
  8
1
  6
Continuous
 62
     7
370
    50
100
AcDbLine
 10
80.50500000000001
 20
215.7
 30
0.0
 11
74.25500000000001
 21
215.7
 31
0.0
  0
LINE
  5
48B
330
477
100
AcDbEntity
  8
1
  6
Continuous
 62
     7
370
    50
100
AcDbLine
 10
80.50499999999998
 20
223.2
 30
0.0
 11
80.50500000000001
 21
215.7
 31
0.0
  0
LINE
  5
48C
330
477
100
AcDbEntity
  8
1
  6
Continuous
 62
     7
370
    50
100
AcDbLine
 10
74.25499999999998
 20
223.2
 30
0.0
 11
74.25500000000001
 21
215.7
 31
0.0
  0
LINE
  5
48D
330
477
100
AcDbEntity
  8
1
  6
Continuous
 62
     7
370
    50
100
AcDbLine
 10
80.50500000000001
 20
217.7
 30
0.0
 11
74.25500000000001
 21
217.7
 31
0.0
  0
LINE
  5
48E
330
477
100
AcDbEntity
  8
1
  6
Continuous
 62
     7
370
    50
100
AcDbLine
 10
68.26
 20
220.7
 30
0.0
 11
71.26
 21
220.7
 31
0.0
  0
LINE
  5
48F
330
477
100
AcDbEntity
  8
1
  6
Continuous
 62
     7
370
    50
100
AcDbLine
 10
72.56000000000002
 20
219.1999999999999
 30
0.0
 11
72.56000000000002
 21
217.6999999999999
 31
0.0
  0
ARC
  5
490
330
477
100
AcDbEntity
  8
1
  6
Continuous
 62
     7
370
    50
100
AcDbCircle
 10
71.06000000000002
 20
219.1999999999999
 30
0.0
 40
1.5
100
AcDbArc
 50
0.0
 51
89.99999999999991
  0
LINE
  5
491
330
477
100
AcDbEntity
  8
1
  6
Continuous
 62
     7
370
    50
100
AcDbLine
 10
66.96000000000005
 20
217.7
 30
0.0
 11
66.96000000000005
 21
219.2
 31
0.0
  0
ARC
  5
492
330
477
100
AcDbEntity
  8
1
  6
Continuous
 62
     7
370
    50
100
AcDbCircle
 10
68.46000000000005
 20
219.2
 30
0.0
 40
1.5
100
AcDbArc
 50
89.99999999999991
 51
179.9999999999998
  0
LINE
  5
493
330
477
100
AcDbEntity
  8
1
  6
Continuous
 62
     7
370
    50
100
AcDbLine
 10
72.88500000000006
 20
216.7
 30
0.0
 11
66.63500000000006
 21
216.7
 31
0.0
  0
LINE
  5
494
330
477
100
AcDbEntity
  8
1
  6
Continuous
 62
     7
370
    50
100
AcDbLine
 10
72.88500000000006
 20
215.7
 30
0.0
 11
66.63500000000006
 21
215.7
 31
0.0
  0
LINE
  5
495
330
477
100
AcDbEntity
  8
1
  6
Continuous
 62
     7
370
    50
100
AcDbLine
 10
72.88500000000003
 20
223.2
 30
0.0
 11
72.88500000000006
 21
215.7
 31
0.0
  0
LINE
  5
496
330
477
100
AcDbEntity
  8
1
  6
Continuous
 62
     7
370
    50
100
AcDbLine
 10
66.63500000000003
 20
223.2
 30
0.0
 11
66.63500000000006
 21
215.7
 31
0.0
  0
LINE
  5
497
330
477
100
AcDbEntity
  8
1
  6
Continuous
 62
     7
370
    50
100
AcDbLine
 10
72.88500000000006
 20
217.7
 30
0.0
 11
66.63500000000006
 21
217.7
 31
0.0
  0
LINE
  5
498
330
477
100
AcDbEntity
  8
1
  6
Continuous
 62
     7
370
    50
100
AcDbLine
 10
60.63999999999997
 20
220.7
 30
0.0
 11
63.64
 21
220.7
 31
0.0
  0
LINE
  5
499
330
477
100
AcDbEntity
  8
1
  6
Continuous
 62
     7
370
    50
100
AcDbLine
 10
64.94000000000001
 20
219.2
 30
0.0
 11
64.94000000000001
 21
217.7
 31
0.0
  0
ARC
  5
49A
330
477
100
AcDbEntity
  8
1
  6
Continuous
 62
     7
370
    50
100
AcDbCircle
 10
63.44000000000001
 20
219.2
 30
0.0
 40
1.5
100
AcDbArc
 50
0.0
 51
89.99999999999991
  0
LINE
  5
49B
330
477
100
AcDbEntity
  8
1
  6
Continuous
 62
     7
370
    50
100
AcDbLine
 10
59.33999999999998
 20
217.7
 30
0.0
 11
59.33999999999999
 21
219.2
 31
0.0
  0
ARC
  5
49C
330
477
100
AcDbEntity
  8
1
  6
Continuous
 62
     7
370
    50
100
AcDbCircle
 10
60.84000000000002
 20
219.2
 30
0.0
 40
1.5
100
AcDbArc
 50
89.99999999999991
 51
179.9999999999998
  0
LINE
  5
49D
330
477
100
AcDbEntity
  8
1
  6
Continuous
 62
     7
370
    50
100
AcDbLine
 10
65.265
 20
216.7
 30
0.0
 11
59.01499999999997
 21
216.7
 31
0.0
  0
LINE
  5
49E
330
477
100
AcDbEntity
  8
1
  6
Continuous
 62
     7
370
    50
100
AcDbLine
 10
65.265
 20
215.7
 30
0.0
 11
59.01499999999999
 21
215.7
 31
0.0
  0
LINE
  5
49F
330
477
100
AcDbEntity
  8
1
  6
Continuous
 62
     7
370
    50
100
AcDbLine
 10
65.26499999999997
 20
223.2
 30
0.0
 11
65.265
 21
215.7
 31
0.0
  0
LINE
  5
4A0
330
477
100
AcDbEntity
  8
1
  6
Continuous
 62
     7
370
    50
100
AcDbLine
 10
59.01500000000001
 20
223.2
 30
0.0
 11
59.01499999999999
 21
215.7
 31
0.0
  0
LINE
  5
4A1
330
477
100
AcDbEntity
  8
1
  6
Continuous
 62
     7
370
    50
100
AcDbLine
 10
65.265
 20
217.7
 30
0.0
 11
59.01499999999999
 21
217.7
 31
0.0
  0
LINE
  5
4A2
330
477
100
AcDbEntity
  8
1
  6
Continuous
 62
     7
370
    50
100
AcDbLine
 10
90.0
 20
223.2
 30
0.0
 11
88.125
 21
223.2
 31
0.0
  0
LINE
  5
4A3
330
477
100
AcDbEntity
  8
1
  6
Continuous
 62
     7
370
    50
100
AcDbLine
 10
81.87499999999999
 20
223.2
 30
0.0
 11
80.50499999999998
 21
223.2
 31
0.0
  0
LINE
  5
4A4
330
477
100
AcDbEntity
  8
1
  6
Continuous
 62
     7
370
    50
100
AcDbLine
 10
74.25499999999998
 20
223.2
 30
0.0
 11
72.88500000000003
 21
223.2
 31
0.0
  0
LINE
  5
4A5
330
477
100
AcDbEntity
  8
1
  6
Continuous
 62
     7
370
    50
100
AcDbLine
 10
66.63500000000003
 20
223.2
 30
0.0
 11
65.26499999999997
 21
223.2
 31
0.0
  0
LINE
  5
4A6
330
477
100
AcDbEntity
  8
1
  6
Continuous
 62
     7
370
    50
100
AcDbLine
 10
57.16000000000002
 20
223.2
 30
0.0
 11
59.01500000000001
 21
223.2
 31
0.0
  0
TEXT
  5
4A7
330
477
100
AcDbEntity
  8
1
  6
Continuous
 62
     7
370
     9
100
AcDbText
 10
84.9850311579238
 20
210.5180273531165
 30
0.0
 40
4.0
  1
4
 50
-0.0000000000001781
 41
0.5
100
AcDbText
  0
TEXT
  5
4A8
330
477
100
AcDbEntity
  8
1
  6
Continuous
 62
     7
370
     9
100
AcDbText
 10
77.3958461603205
 20
210.5180273531165
 30
0.0
 40
4.0
  1
3
 50
-0.0000000000001781
 41
0.5
100
AcDbText
  0
TEXT
  5
4A9
330
477
100
AcDbEntity
  8
1
  6
Continuous
 62
     7
370
     9
100
AcDbText
 10
69.75705864639298
 20
210.6172323857649
 30
0.0
 40
4.0
  1
2
 50
-0.0000000000001781
 41
0.5
100
AcDbText
  0
TEXT
  5
4AA
330
477
100
AcDbEntity
  8
1
  6
Continuous
 62
     7
370
     9
100
AcDbText
 10
62.1182711324654
 20
210.6172323857649
 30
0.0
 40
4.0
  1
1
 50
-0.0000000000001781
 41
0.5
100
AcDbText
  0
LINE
  5
4AB
330
477
100
AcDbEntity
  8
1
  6
Continuous
 62
     7
370
    50
100
AcDbLine
 10
90.0
 20
223.2
 30
0.0
 11
90.0
 21
210.0
 31
0.0
  0
LINE
  5
4AC
330
477
100
AcDbEntity
  8
1
  6
Continuous
 62
     7
370
    50
100
AcDbLine
 10
57.16000000000003
 20
210.0
 30
0.0
 11
57.16000000000002
 21
223.2
 31
0.0
  0
LINE
  5
4AD
330
477
100
AcDbEntity
  8
1
  6
DASHDOT
 62
     7
370
     9
100
AcDbLine
 10
62.13999999999997
 20
221.7603477599614
 30
0.0
 11
62.13999999999997
 21
214.6172323857649
 31
0.0
  0
LINE
  5
4AE
330
477
100
AcDbEntity
  8
1
  6
DASHDOT
 62
     7
370
     9
100
AcDbLine
 10
69.75999999999998
 20
221.7603477599614
 30
0.0
 11
69.75999999999999
 21
214.6172323857649
 31
0.0
  0
LINE
  5
4AF
330
477
100
AcDbEntity
  8
1
  6
DASHDOT
 62
     7
370
     9
100
AcDbLine
 10
77.37999999999998
 20
221.7603477599614
 30
0.0
 11
77.38
 21
214.5180273531165
 31
0.0
  0
LINE
  5
4B0
330
477
100
AcDbEntity
  8
1
  6
DASHDOT
 62
     7
370
     9
100
AcDbLine
 10
85.0
 20
221.5493243514302
 30
0.0
 11
85.0
 21
214.5180273531165
 31
0.0
  0
ENDBLK
  5
479
330
477
100
AcDbEntity
  8
0
100
AcDbBlockEnd
  0
BLOCK
  5
4B3
330
4B2
100
AcDbEntity
  8
0
100
AcDbBlockBegin
  2
*G58
 70
     1
 10
0.0
 20
0.0
 30
0.0
  3
*G58
  1
*G58
  0
INSERT
  5
50F
330
4B2
100
AcDbEntity
  8
0
100
AcDbBlockReference
  2
*G59
 10
0.0
 20
0.0
 30
0.0
  0
LINE
  5
510
330
4B2
100
AcDbEntity
  8
1
  6
DASHDOT
 62
     7
370
     9
100
AcDbLine
 10
85.0
 20
251.1615321419041
 30
0.0
 11
85.0
 21
259.5956092210116
 31
0.0
  0
LINE
  5
511
330
4B2
100
AcDbEntity
  8
1
  6
DASHDOT
 62
     7
370
     9
100
AcDbLine
 10
77.38000000000001
 20
251.0678201743585
 30
0.0
 11
77.38
 21
259.8767451236486
 31
0.0
  0
ENDBLK
  5
4B4
330
4B2
100
AcDbEntity
  8
0
100
AcDbBlockEnd
  0
BLOCK
  5
4B6
330
4B5
100
AcDbEntity
  8
0
100
AcDbBlockBegin
  2
*G59
 70
     1
 10
0.0
 20
0.0
 30
0.0
  3
*G59
  1
*G59
  0
CIRCLE
  5
4B8
330
4B5
100
AcDbEntity
  8
1
  6
Continuous
 62
     7
370
    50
100
AcDbCircle
 10
62.1600000000001
 20
255.2398282879487
 30
0.0
 40
3.0
  0
LINE
  5
4B9
330
4B5
100
AcDbEntity
  8
1
  6
Continuous
 62
     7
370
    50
100
AcDbLine
 10
62.46000000000011
 20
253.7398282879487
 30
0.0
 11
61.8600000000002
 21
253.7398282879487
 31
0.0
  0
LINE
  5
4BA
330
4B5
100
AcDbEntity
  8
1
  6
Continuous
 62
     7
370
    50
100
AcDbLine
 10
63.6600000000001
 20
254.9398282879487
 30
0.0
 11
63.6600000000001
 21
255.5398282879487
 31
0.0
  0
LINE
  5
4BB
330
4B5
100
AcDbEntity
  8
1
  6
Continuous
 62
     7
370
    50
100
AcDbLine
 10
62.46000000000005
 20
256.7398282879487
 30
0.0
 11
61.86000000000014
 21
256.7398282879487
 31
0.0
  0
LINE
  5
4BC
330
4B5
100
AcDbEntity
  8
1
  6
Continuous
 62
     7
370
    50
100
AcDbLine
 10
60.6600000000001
 20
255.5398282879487
 30
0.0
 11
60.6600000000001
 21
254.9398282879487
 31
0.0
  0
LINE
  5
4BD
330
4B5
100
AcDbEntity
  8
1
  6
Continuous
 62
     7
370
    50
100
AcDbLine
 10
60.96000000000011
 20
255.5398282879487
 30
0.0
 11
60.6600000000001
 21
255.5398282879487
 31
0.0
  0
LINE
  5
4BE
330
4B5
100
AcDbEntity
  8
1
  6
Continuous
 62
     7
370
    50
100
AcDbLine
 10
61.86000000000014
 20
256.7398282879487
 30
0.0
 11
61.86000000000014
 21
256.4398282879487
 31
0.0
  0
ARC
  5
4BF
330
4B5
100
AcDbEntity
  8
1
  6
Continuous
 62
     7
370
    50
100
AcDbCircle
 10
60.96000000000011
 20
256.4398282879487
 30
0.0
 40
0.8999999999999999
100
AcDbArc
 50
269.9999999999998
 51
0.0
  0
LINE
  5
4C0
330
4B5
100
AcDbEntity
  8
1
  6
Continuous
 62
     7
370
    50
100
AcDbLine
 10
62.46000000000005
 20
256.4398282879486
 30
0.0
 11
62.46000000000005
 21
256.7398282879487
 31
0.0
  0
LINE
  5
4C1
330
4B5
100
AcDbEntity
  8
1
  6
Continuous
 62
     7
370
    50
100
AcDbLine
 10
63.6600000000001
 20
255.5398282879487
 30
0.0
 11
63.36000000000008
 21
255.5398282879487
 31
0.0
  0
ARC
  5
4C2
330
4B5
100
AcDbEntity
  8
1
  6
Continuous
 62
     7
370
    50
100
AcDbCircle
 10
63.36000000000008
 20
256.4398282879487
 30
0.0
 40
0.8999999999999999
100
AcDbArc
 50
180.0000000000032
 51
269.9999999999998
  0
LINE
  5
4C3
330
4B5
100
AcDbEntity
  8
1
  6
Continuous
 62
     7
370
    50
100
AcDbLine
 10
62.46000000000016
 20
253.7398282879487
 30
0.0
 11
62.46000000000016
 21
254.0398282879486
 31
0.0
  0
LINE
  5
4C4
330
4B5
100
AcDbEntity
  8
1
  6
Continuous
 62
     7
370
    50
100
AcDbLine
 10
63.36000000000014
 20
254.9398282879487
 30
0.0
 11
63.6600000000001
 21
254.9398282879487
 31
0.0
  0
ARC
  5
4C5
330
4B5
100
AcDbEntity
  8
1
  6
Continuous
 62
     7
370
    50
100
AcDbCircle
 10
63.3600000000002
 20
254.0398282879487
 30
0.0
 40
0.8999999999999999
100
AcDbArc
 50
90.00000000000362
 51
180.0000000000032
  0
LINE
  5
4C6
330
4B5
100
AcDbEntity
  8
1
  6
Continuous
 62
     7
370
    50
100
AcDbLine
 10
61.8600000000002
 20
254.0398282879487
 30
0.0
 11
61.8600000000002
 21
253.7398282879487
 31
0.0
  0
LINE
  5
4C7
330
4B5
100
AcDbEntity
  8
1
  6
Continuous
 62
     7
370
    50
100
AcDbLine
 10
60.6600000000001
 20
254.9398282879487
 30
0.0
 11
60.96000000000011
 21
254.9398282879487
 31
0.0
  0
ARC
  5
4C8
330
4B5
100
AcDbEntity
  8
1
  6
Continuous
 62
     7
370
    50
100
AcDbCircle
 10
60.96000000000016
 20
254.0398282879487
 30
0.0
 40
0.8999999999999999
100
AcDbArc
 50
0.0
 51
90.00000000000362
  0
CIRCLE
  5
4C9
330
4B5
100
AcDbEntity
  8
1
  6
Continuous
 62
     7
370
    50
100
AcDbCircle
 10
69.7800000000001
 20
255.2398282879486
 30
0.0
 40
3.0
  0
LINE
  5
4CA
330
4B5
100
AcDbEntity
  8
1
  6
Continuous
 62
     7
370
    50
100
AcDbLine
 10
70.08000000000006
 20
253.7398282879486
 30
0.0
 11
69.48000000000015
 21
253.7398282879486
 31
0.0
  0
LINE
  5
4CB
330
4B5
100
AcDbEntity
  8
1
  6
Continuous
 62
     7
370
    50
100
AcDbLine
 10
71.2800000000001
 20
254.9398282879487
 30
0.0
 11
71.2800000000001
 21
255.5398282879487
 31
0.0
  0
LINE
  5
4CC
330
4B5
100
AcDbEntity
  8
1
  6
Continuous
 62
     7
370
    50
100
AcDbLine
 10
70.08000000000006
 20
256.7398282879486
 30
0.0
 11
69.48000000000015
 21
256.7398282879486
 31
0.0
  0
LINE
  5
4CD
330
4B5
100
AcDbEntity
  8
1
  6
Continuous
 62
     7
370
    50
100
AcDbLine
 10
68.2800000000001
 20
255.5398282879487
 30
0.0
 11
68.2800000000001
 21
254.9398282879487
 31
0.0
  0
LINE
  5
4CE
330
4B5
100
AcDbEntity
  8
1
  6
Continuous
 62
     7
370
    50
100
AcDbLine
 10
68.58000000000011
 20
255.5398282879487
 30
0.0
 11
68.2800000000001
 21
255.5398282879487
 31
0.0
  0
LINE
  5
4CF
330
4B5
100
AcDbEntity
  8
1
  6
Continuous
 62
     7
370
    50
100
AcDbLine
 10
69.48000000000015
 20
256.7398282879486
 30
0.0
 11
69.48000000000015
 21
256.4398282879487
 31
0.0
  0
ARC
  5
4D0
330
4B5
100
AcDbEntity
  8
1
  6
Continuous
 62
     7
370
    50
100
AcDbCircle
 10
68.58000000000017
 20
256.4398282879487
 30
0.0
 40
0.8999999999999999
100
AcDbArc
 50
269.999999999996
 51
0.0
  0
LINE
  5
4D1
330
4B5
100
AcDbEntity
  8
1
  6
Continuous
 62
     7
370
    50
100
AcDbLine
 10
70.08000000000006
 20
256.4398282879486
 30
0.0
 11
70.08000000000006
 21
256.7398282879486
 31
0.0
  0
LINE
  5
4D2
330
4B5
100
AcDbEntity
  8
1
  6
Continuous
 62
     7
370
    50
100
AcDbLine
 10
71.2800000000001
 20
255.5398282879487
 30
0.0
 11
70.98000000000009
 21
255.5398282879487
 31
0.0
  0
ARC
  5
4D3
330
4B5
100
AcDbEntity
  8
1
  6
Continuous
 62
     7
370
    50
100
AcDbCircle
 10
70.98000000000015
 20
256.4398282879487
 30
0.0
 40
0.8999999999999999
100
AcDbArc
 50
180.0000000000069
 51
269.999999999996
  0
LINE
  5
4D4
330
4B5
100
AcDbEntity
  8
1
  6
Continuous
 62
     7
370
    50
100
AcDbLine
 10
70.08000000000011
 20
253.7398282879486
 30
0.0
 11
70.08000000000011
 21
254.0398282879486
 31
0.0
  0
LINE
  5
4D5
330
4B5
100
AcDbEntity
  8
1
  6
Continuous
 62
     7
370
    50
100
AcDbLine
 10
70.98000000000015
 20
254.9398282879487
 30
0.0
 11
71.2800000000001
 21
254.9398282879487
 31
0.0
  0
ARC
  5
4D6
330
4B5
100
AcDbEntity
  8
1
  6
Continuous
 62
     7
370
    50
100
AcDbCircle
 10
70.98000000000015
 20
254.0398282879487
 30
0.0
 40
0.8999999999999999
100
AcDbArc
 50
89.99999999999991
 51
180.0000000000069
  0
LINE
  5
4D7
330
4B5
100
AcDbEntity
  8
1
  6
Continuous
 62
     7
370
    50
100
AcDbLine
 10
69.48000000000015
 20
254.0398282879487
 30
0.0
 11
69.48000000000015
 21
253.7398282879486
 31
0.0
  0
LINE
  5
4D8
330
4B5
100
AcDbEntity
  8
1
  6
Continuous
 62
     7
370
    50
100
AcDbLine
 10
68.2800000000001
 20
254.9398282879487
 30
0.0
 11
68.58000000000011
 21
254.9398282879487
 31
0.0
  0
ARC
  5
4D9
330
4B5
100
AcDbEntity
  8
1
  6
Continuous
 62
     7
370
    50
100
AcDbCircle
 10
68.58000000000011
 20
254.0398282879487
 30
0.0
 40
0.8999999999999999
100
AcDbArc
 50
0.0
 51
89.99999999999991
  0
CIRCLE
  5
4DA
330
4B5
100
AcDbEntity
  8
1
  6
Continuous
 62
     7
370
    50
100
AcDbCircle
 10
77.4000000000001
 20
255.2398282879487
 30
0.0
 40
3.0
  0
LINE
  5
4DB
330
4B5
100
AcDbEntity
  8
1
  6
Continuous
 62
     7
370
    50
100
AcDbLine
 10
77.70000000000006
 20
253.7398282879487
 30
0.0
 11
77.10000000000015
 21
253.7398282879487
 31
0.0
  0
LINE
  5
4DC
330
4B5
100
AcDbEntity
  8
1
  6
Continuous
 62
     7
370
    50
100
AcDbLine
 10
78.9000000000001
 20
254.9398282879488
 30
0.0
 11
78.9000000000001
 21
255.5398282879488
 31
0.0
  0
LINE
  5
4DD
330
4B5
100
AcDbEntity
  8
1
  6
Continuous
 62
     7
370
    50
100
AcDbLine
 10
77.70000000000006
 20
256.7398282879487
 30
0.0
 11
77.10000000000015
 21
256.7398282879487
 31
0.0
  0
LINE
  5
4DE
330
4B5
100
AcDbEntity
  8
1
  6
Continuous
 62
     7
370
    50
100
AcDbLine
 10
75.9000000000001
 20
255.5398282879488
 30
0.0
 11
75.9000000000001
 21
254.9398282879487
 31
0.0
  0
LINE
  5
4DF
330
4B5
100
AcDbEntity
  8
1
  6
Continuous
 62
     7
370
    50
100
AcDbLine
 10
76.20000000000012
 20
255.5398282879488
 30
0.0
 11
75.9000000000001
 21
255.5398282879488
 31
0.0
  0
LINE
  5
4E0
330
4B5
100
AcDbEntity
  8
1
  6
Continuous
 62
     7
370
    50
100
AcDbLine
 10
77.10000000000015
 20
256.7398282879487
 30
0.0
 11
77.10000000000015
 21
256.4398282879488
 31
0.0
  0
ARC
  5
4E1
330
4B5
100
AcDbEntity
  8
1
  6
Continuous
 62
     7
370
    50
100
AcDbCircle
 10
76.20000000000017
 20
256.4398282879487
 30
0.0
 40
0.8999999999999999
100
AcDbArc
 50
269.999999999996
 51
0.0000000000036188
  0
LINE
  5
4E2
330
4B5
100
AcDbEntity
  8
1
  6
Continuous
 62
     7
370
    50
100
AcDbLine
 10
77.70000000000006
 20
256.4398282879487
 30
0.0
 11
77.70000000000006
 21
256.7398282879487
 31
0.0
  0
LINE
  5
4E3
330
4B5
100
AcDbEntity
  8
1
  6
Continuous
 62
     7
370
    50
100
AcDbLine
 10
78.9000000000001
 20
255.5398282879488
 30
0.0
 11
78.6000000000001
 21
255.5398282879488
 31
0.0
  0
ARC
  5
4E4
330
4B5
100
AcDbEntity
  8
1
  6
Continuous
 62
     7
370
    50
100
AcDbCircle
 10
78.60000000000015
 20
256.4398282879488
 30
0.0
 40
0.8999999999999999
100
AcDbArc
 50
180.0000000000069
 51
269.999999999996
  0
LINE
  5
4E5
330
4B5
100
AcDbEntity
  8
1
  6
Continuous
 62
     7
370
    50
100
AcDbLine
 10
77.70000000000012
 20
253.7398282879487
 30
0.0
 11
77.70000000000012
 21
254.0398282879487
 31
0.0
  0
LINE
  5
4E6
330
4B5
100
AcDbEntity
  8
1
  6
Continuous
 62
     7
370
    50
100
AcDbLine
 10
78.60000000000015
 20
254.9398282879488
 30
0.0
 11
78.9000000000001
 21
254.9398282879488
 31
0.0
  0
ARC
  5
4E7
330
4B5
100
AcDbEntity
  8
1
  6
Continuous
 62
     7
370
    50
100
AcDbCircle
 10
78.60000000000015
 20
254.0398282879488
 30
0.0
 40
0.8999999999999999
100
AcDbArc
 50
89.99999999999991
 51
180.0000000000069
  0
LINE
  5
4E8
330
4B5
100
AcDbEntity
  8
1
  6
Continuous
 62
     7
370
    50
100
AcDbLine
 10
77.10000000000015
 20
254.0398282879488
 30
0.0
 11
77.10000000000015
 21
253.7398282879487
 31
0.0
  0
LINE
  5
4E9
330
4B5
100
AcDbEntity
  8
1
  6
Continuous
 62
     7
370
    50
100
AcDbLine
 10
75.9000000000001
 20
254.9398282879487
 30
0.0
 11
76.20000000000012
 21
254.9398282879487
 31
0.0
  0
ARC
  5
4EA
330
4B5
100
AcDbEntity
  8
1
  6
Continuous
 62
     7
370
    50
100
AcDbCircle
 10
76.20000000000012
 20
254.0398282879488
 30
0.0
 40
0.8999999999999999
100
AcDbArc
 50
0.0000000000018094
 51
89.99999999999991
  0
CIRCLE
  5
4EB
330
4B5
100
AcDbEntity
  8
1
  6
Continuous
 62
     7
370
    50
100
AcDbCircle
 10
85.0200000000001
 20
255.2398282879487
 30
0.0
 40
3.0
  0
LINE
  5
4EC
330
4B5
100
AcDbEntity
  8
1
  6
Continuous
 62
     7
370
    50
100
AcDbLine
 10
85.32000000000005
 20
253.7398282879487
 30
0.0
 11
84.72000000000014
 21
253.7398282879487
 31
0.0
  0
LINE
  5
4ED
330
4B5
100
AcDbEntity
  8
1
  6
Continuous
 62
     7
370
    50
100
AcDbLine
 10
86.5200000000001
 20
254.9398282879487
 30
0.0
 11
86.5200000000001
 21
255.5398282879487
 31
0.0
  0
LINE
  5
4EE
330
4B5
100
AcDbEntity
  8
1
  6
Continuous
 62
     7
370
    50
100
AcDbLine
 10
85.32000000000005
 20
256.7398282879487
 30
0.0
 11
84.72000000000014
 21
256.7398282879487
 31
0.0
  0
LINE
  5
4EF
330
4B5
100
AcDbEntity
  8
1
  6
Continuous
 62
     7
370
    50
100
AcDbLine
 10
83.5200000000001
 20
255.5398282879488
 30
0.0
 11
83.5200000000001
 21
254.9398282879488
 31
0.0
  0
LINE
  5
4F0
330
4B5
100
AcDbEntity
  8
1
  6
Continuous
 62
     7
370
    50
100
AcDbLine
 10
83.8200000000001
 20
255.5398282879487
 30
0.0
 11
83.5200000000001
 21
255.5398282879488
 31
0.0
  0
LINE
  5
4F1
330
4B5
100
AcDbEntity
  8
1
  6
Continuous
 62
     7
370
    50
100
AcDbLine
 10
84.72000000000014
 20
256.7398282879487
 30
0.0
 11
84.72000000000014
 21
256.4398282879487
 31
0.0
  0
ARC
  5
4F2
330
4B5
100
AcDbEntity
  8
1
  6
Continuous
 62
     7
370
    50
100
AcDbCircle
 10
83.82000000000016
 20
256.4398282879487
 30
0.0
 40
0.8999999999999999
100
AcDbArc
 50
269.999999999996
 51
0.0
  0
LINE
  5
4F3
330
4B5
100
AcDbEntity
  8
1
  6
Continuous
 62
     7
370
    50
100
AcDbLine
 10
85.32000000000005
 20
256.4398282879487
 30
0.0
 11
85.32000000000005
 21
256.7398282879487
 31
0.0
  0
LINE
  5
4F4
330
4B5
100
AcDbEntity
  8
1
  6
Continuous
 62
     7
370
    50
100
AcDbLine
 10
86.5200000000001
 20
255.5398282879487
 30
0.0
 11
86.22000000000008
 21
255.5398282879487
 31
0.0
  0
ARC
  5
4F5
330
4B5
100
AcDbEntity
  8
1
  6
Continuous
 62
     7
370
    50
100
AcDbCircle
 10
86.22000000000008
 20
256.4398282879487
 30
0.0
 40
0.8999999999999999
100
AcDbArc
 50
179.9999999999998
 51
269.9999999999998
  0
LINE
  5
4F6
330
4B5
100
AcDbEntity
  8
1
  6
Continuous
 62
     7
370
    50
100
AcDbLine
 10
85.3200000000001
 20
253.7398282879487
 30
0.0
 11
85.3200000000001
 21
254.0398282879487
 31
0.0
  0
LINE
  5
4F7
330
4B5
100
AcDbEntity
  8
1
  6
Continuous
 62
     7
370
    50
100
AcDbLine
 10
86.22000000000014
 20
254.9398282879487
 30
0.0
 11
86.5200000000001
 21
254.9398282879487
 31
0.0
  0
ARC
  5
4F8
330
4B5
100
AcDbEntity
  8
1
  6
Continuous
 62
     7
370
    50
100
AcDbCircle
 10
86.22000000000014
 20
254.0398282879487
 30
0.0
 40
0.8999999999999999
100
AcDbArc
 50
89.99999999999991
 51
180.0000000000032
  0
LINE
  5
4F9
330
4B5
100
AcDbEntity
  8
1
  6
Continuous
 62
     7
370
    50
100
AcDbLine
 10
84.72000000000014
 20
254.0398282879487
 30
0.0
 11
84.72000000000014
 21
253.7398282879487
 31
0.0
  0
LINE
  5
4FA
330
4B5
100
AcDbEntity
  8
1
  6
Continuous
 62
     7
370
    50
100
AcDbLine
 10
83.5200000000001
 20
254.9398282879488
 30
0.0
 11
83.8200000000001
 21
254.9398282879487
 31
0.0
  0
ARC
  5
4FB
330
4B5
100
AcDbEntity
  8
1
  6
Continuous
 62
     7
370
    50
100
AcDbCircle
 10
83.8200000000001
 20
254.0398282879487
 30
0.0
 40
0.8999999999999999
100
AcDbArc
 50
0.0
 51
89.99999999999991
  0
LINE
  5
4FC
330
4B5
100
AcDbEntity
  8
1
  6
Continuous
 62
     7
370
    50
100
AcDbLine
 10
65.28500000000008
 20
248.2398282879487
 30
0.0
 11
65.28500000000005
 21
262.2398282879487
 31
0.0
  0
LINE
  5
4FD
330
4B5
100
AcDbEntity
  8
1
  6
Continuous
 62
     7
370
    50
100
AcDbLine
 10
59.03500000000008
 20
248.2398282879487
 30
0.0
 11
59.03500000000005
 21
262.2398282879487
 31
0.0
  0
LINE
  5
4FE
330
4B5
100
AcDbEntity
  8
1
  6
Continuous
 62
     7
370
    50
100
AcDbLine
 10
72.90500000000014
 20
248.2398282879487
 30
0.0
 11
72.90500000000006
 21
262.2398282879487
 31
0.0
  0
LINE
  5
4FF
330
4B5
100
AcDbEntity
  8
1
  6
Continuous
 62
     7
370
    50
100
AcDbLine
 10
66.65500000000009
 20
248.2398282879487
 30
0.0
 11
66.65500000000006
 21
262.2398282879487
 31
0.0
  0
LINE
  5
500
330
4B5
100
AcDbEntity
  8
1
  6
Continuous
 62
     7
370
    50
100
AcDbLine
 10
80.52500000000015
 20
248.2398282879487
 30
0.0
 11
80.52500000000006
 21
262.2398282879487
 31
0.0
  0
LINE
  5
501
330
4B5
100
AcDbEntity
  8
1
  6
Continuous
 62
     7
370
    50
100
AcDbLine
 10
74.27500000000015
 20
248.2398282879487
 30
0.0
 11
74.27500000000006
 21
262.2398282879487
 31
0.0
  0
LINE
  5
502
330
4B5
100
AcDbEntity
  8
1
  6
Continuous
 62
     7
370
    50
100
AcDbLine
 10
88.1450000000001
 20
248.2398282879487
 30
0.0
 11
88.1450000000001
 21
262.2398282879487
 31
0.0
  0
LINE
  5
503
330
4B5
100
AcDbEntity
  8
1
  6
Continuous
 62
     7
370
    50
100
AcDbLine
 10
81.89500000000015
 20
248.2398282879487
 30
0.0
 11
81.89500000000007
 21
262.2398282879487
 31
0.0
  0
LINE
  5
504
330
4B5
100
AcDbEntity
  8
1
  6
DASHDOT
 62
     7
370
     9
100
AcDbLine
 10
62.16000000000009
 20
251.0592021766964
 30
0.0
 11
62.16000000000007
 21
259.0410452371567
 31
0.0
  0
LINE
  5
505
330
4B5
100
AcDbEntity
  8
1
  6
DASHDOT
 62
     7
370
     9
100
AcDbLine
 10
69.78000000000016
 20
251.0267556601905
 30
0.0
 11
69.78000000000009
 21
259.5601895012517
 31
0.0
  0
INSERT
  5
50D
330
4B5
100
AcDbEntity
  8
0
100
AcDbBlockReference
  2
*G60
 10
0.0
 20
0.0
 30
0.0
  0
LINE
  5
50E
330
4B5
100
AcDbEntity
  8
1
  6
DASHDOT
 62
     7
370
     9
100
AcDbLine
 10
93.59000000000015
 20
255.2398282879487
 30
0.0
 11
58.09625918703456
 21
255.2398282879487
 31
0.0
  0
ENDBLK
  5
4B7
330
4B5
100
AcDbEntity
  8
0
100
AcDbBlockEnd
  0
BLOCK
  5
507
330
506
100
AcDbEntity
  8
0
100
AcDbBlockBegin
  2
*G60
 70
     1
 10
0.0
 20
0.0
 30
0.0
  3
*G60
  1
*G60
  0
LINE
  5
509
330
506
100
AcDbEntity
  8
1
  6
Continuous
 62
     7
370
    50
100
AcDbLine
 10
90.00000000000011
 20
248.2398282879487
 30
0.0
 11
57.16000000000008
 21
248.2398282879487
 31
0.0
  0
LINE
  5
50A
330
506
100
AcDbEntity
  8
1
  6
Continuous
 62
     7
370
    50
100
AcDbLine
 10
57.16000000000008
 20
248.2398282879487
 30
0.0
 11
57.16000000000005
 21
262.2398282879486
 31
0.0
  0
LINE
  5
50B
330
506
100
AcDbEntity
  8
1
  6
Continuous
 62
     7
370
    50
100
AcDbLine
 10
57.16000000000005
 20
262.2398282879486
 30
0.0
 11
90.00000000000011
 21
262.2398282879487
 31
0.0
  0
LINE
  5
50C
330
506
100
AcDbEntity
  8
1
  6
Continuous
 62
     7
370
    50
100
AcDbLine
 10
90.00000000000011
 20
262.2398282879487
 30
0.0
 11
90.00000000000011
 21
248.2398282879487
 31
0.0
  0
ENDBLK
  5
508
330
506
100
AcDbEntity
  8
0
100
AcDbBlockEnd
  0
BLOCK
  5
519
330
518
100
AcDbEntity
  8
0
100
AcDbBlockBegin
  2
*G61
 70
     1
 10
0.0
 20
0.0
 30
0.0
  3
*G61
  1
*G61
  0
ARC
  5
51B
330
518
100
AcDbEntity
  8
1
  6
Continuous
 62
     7
370
    50
100
AcDbCircle
 10
48.49999999999999
 20
260.5398282879488
 30
0.0
 40
1.5
100
AcDbArc
 50
179.9999999999998
 51
269.9999999999998
  0
LINE
  5
51C
330
518
100
AcDbEntity
  8
1
  6
Continuous
 62
     7
370
    50
100
AcDbLine
 10
48.49999999999999
 20
259.0398282879488
 30
0.0
 11
51.49999999999999
 21
259.0398282879488
 31
0.0
  0
ARC
  5
51D
330
518
100
AcDbEntity
  8
1
  6
Continuous
 62
     7
370
    50
100
AcDbCircle
 10
51.49999999999999
 20
260.5398282879488
 30
0.0
 40
1.5
100
AcDbArc
 50
269.9999999999998
 51
0.0
  0
ARC
  5
51E
330
518
100
AcDbEntity
  8
1
  6
Continuous
 62
     7
370
    50
100
AcDbCircle
 10
48.49999999999999
 20
260.5398282879487
 30
0.0
 40
1.5
100
AcDbArc
 50
89.99999999999973
 51
179.9999999999998
  0
LINE
  5
51F
330
518
100
AcDbEntity
  8
1
  6
Continuous
 62
     7
370
    50
100
AcDbLine
 10
51.5
 20
262.0398282879487
 30
0.0
 11
48.5
 21
262.0398282879487
 31
0.0
  0
ARC
  5
520
330
518
100
AcDbEntity
  8
1
  6
Continuous
 62
     7
370
    50
100
AcDbCircle
 10
51.49999999999999
 20
260.5398282879487
 30
0.0
 40
1.5
100
AcDbArc
 50
0.0
 51
89.99999999999973
  0
ENDBLK
  5
51A
330
518
100
AcDbEntity
  8
0
100
AcDbBlockEnd
  0
BLOCK
  5
524
330
523
100
AcDbEntity
  8
0
100
AcDbBlockBegin
  2
*G62
 70
     1
 10
0.0
 20
0.0
 30
0.0
  3
*G62
  1
*G62
  0
LINE
  5
526
330
523
100
AcDbEntity
  8
1
  6
Continuous
 62
     7
370
    50
100
AcDbLine
 10
51.74999999999999
 20
261.3398282879486
 30
0.0
 11
48.25000000000002
 21
261.3398282879486
 31
0.0
  0
LINE
  5
527
330
523
100
AcDbEntity
  8
1
  6
Continuous
 62
     7
370
    50
100
AcDbLine
 10
48.25000000000002
 20
261.3398282879486
 30
0.0
 11
48.25000000000002
 21
259.5398282879487
 31
0.0
  0
LINE
  5
528
330
523
100
AcDbEntity
  8
1
  6
Continuous
 62
     7
370
    50
100
AcDbLine
 10
48.25000000000002
 20
259.5398282879487
 30
0.0
 11
51.74999999999999
 21
259.5398282879487
 31
0.0
  0
LINE
  5
529
330
523
100
AcDbEntity
  8
1
  6
Continuous
 62
     7
370
    50
100
AcDbLine
 10
51.74999999999999
 20
259.5398282879487
 30
0.0
 11
51.74999999999999
 21
261.3398282879486
 31
0.0
  0
ENDBLK
  5
525
330
523
100
AcDbEntity
  8
0
100
AcDbBlockEnd
  0
BLOCK
  5
52C
330
52B
100
AcDbEntity
  8
0
100
AcDbBlockBegin
  2
*G63
 70
     1
 10
0.0
 20
0.0
 30
0.0
  3
*G63
  1
*G63
  0
LINE
  5
52E
330
52B
100
AcDbEntity
  8
1
  6
Continuous
 62
     7
370
    50
100
AcDbLine
 10
51.74999999999996
 20
261.1398282879487
 30
0.0
 11
50.24999999999999
 21
261.1398282879487
 31
0.0
  0
LINE
  5
52F
330
52B
100
AcDbEntity
  8
1
  6
Continuous
 62
     7
370
    50
100
AcDbLine
 10
50.24999999999999
 20
261.1398282879487
 30
0.0
 11
50.24999999999999
 21
259.9398282879487
 31
0.0
  0
LINE
  5
530
330
52B
100
AcDbEntity
  8
1
  6
Continuous
 62
     7
370
    50
100
AcDbLine
 10
50.24999999999999
 20
259.9398282879487
 30
0.0
 11
51.74999999999996
 21
259.9398282879487
 31
0.0
  0
LINE
  5
531
330
52B
100
AcDbEntity
  8
1
  6
Continuous
 62
     7
370
    50
100
AcDbLine
 10
51.74999999999996
 20
259.9398282879487
 30
0.0
 11
51.74999999999996
 21
261.1398282879487
 31
0.0
  0
ENDBLK
  5
52D
330
52B
100
AcDbEntity
  8
0
100
AcDbBlockEnd
  0
BLOCK
  5
537
330
536
100
AcDbEntity
  8
0
100
AcDbBlockBegin
  2
*G64
 70
     1
 10
0.0
 20
0.0
 30
0.0
  3
*G64
  1
*G64
  0
LINE
  5
539
330
536
100
AcDbEntity
  8
1
  6
Continuous
 62
     7
370
    50
100
AcDbLine
 10
136.5
 20
191.9
 30
0.0
 11
136.5
 21
144.1
 31
0.0
  0
LINE
  5
53A
330
536
100
AcDbEntity
  8
1
  6
Continuous
 62
     7
370
    50
100
AcDbLine
 10
134.1000000000001
 20
191.7
 30
0.0
 11
134.1000000000001
 21
144.3
 31
0.0
  0
LINE
  5
53B
330
536
100
AcDbEntity
  8
1
  6
Continuous
 62
     7
370
    50
100
AcDbLine
 10
136.5
 20
144.1
 30
0.0
 11
134.1000000000001
 21
144.3
 31
0.0
  0
LINE
  5
53C
330
536
100
AcDbEntity
  8
1
  6
Continuous
 62
     7
370
    50
100
AcDbLine
 10
134.1000000000001
 20
191.7
 30
0.0
 11
136.5
 21
191.9
 31
0.0
  0
LINE
  5
53D
330
536
100
AcDbEntity
  8
1
  6
DASHDOT
 62
     7
370
     9
100
AcDbLine
 10
129.747397
 20
168.0
 30
0.0
 11
141.6752326482061
 21
168.0
 31
0.0
  0
ENDBLK
  5
538
330
536
100
AcDbEntity
  8
0
100
AcDbBlockEnd
  0
ENDSEC
  0
SECTION
  2
ENTITIES
  0
INSERT
  5
DD
330
1F
100
AcDbEntity
  8
0
100
AcDbBlockReference
  2
*G16
 10
0.0
 20
0.0
 30
0.0
  0
TEXT
  5
DE
330
1F
100
AcDbEntity
  8
5
  6
Continuous
 62
    94
370
     9
100
AcDbText
 10
127.543425208502
 20
25.77004472822807
 30
0.0
 40
3.5
  1
製図
 50
-0.0000000000000763
 41
0.8333333333333334
  7
T_STANDARD
100
AcDbText
  0
TEXT
  5
DF
330
1F
100
AcDbEntity
  8
5
  6
Continuous
 62
    94
370
     9
100
AcDbText
 10
147.3762066654556
 20
25.60613744345986
 30
0.0
 40
3.5
  1
図番
 50
-0.0000000000000763
 41
0.8333333333333334
  7
T_STANDARD
100
AcDbText
  0
TEXT
  5
E0
330
1F
100
AcDbEntity
  8
5
  6
Continuous
 62
    94
370
     9
100
AcDbText
 10
147.3762066654556
 20
38.88262750968501
 30
0.0
 40
3.5
  1
図　名
 50
-0.0000000000000763
 41
0.8333333333333334
  7
T_STANDARD
100
AcDbText
  0
TEXT
  5
E1
330
1F
100
AcDbEntity
  8
5
  6
Continuous
 62
    94
370
     9
100
AcDbText
 10
82.46892189724369
 20
33.47368711233402
 30
0.0
 40
3.5
  1
日付
 50
-0.0000000000000763
 41
0.8333333333333334
  7
T_STANDARD
100
AcDbText
  0
TEXT
  5
E2
330
1F
100
AcDbEntity
  8
5
  6
Continuous
 62
    94
370
     9
100
AcDbText
 10
117.545080837641
 20
33.63759439710223
 30
0.0
 40
3.5
  1
図法
 50
-0.0000000000000763
 41
0.8333333333333334
  7
T_STANDARD
100
AcDbText
  0
TEXT
  5
E3
330
1F
100
AcDbEntity
  8
5
  6
Continuous
 62
    94
370
     9
100
AcDbText
 10
117.3811735528728
 20
41.66905135074461
 30
0.0
 40
3.5
  1
尺度
 50
-0.0000000000000763
 41
0.8333333333333334
  7
T_STANDARD
100
AcDbText
  0
TEXT
  5
E4
330
1F
100
AcDbEntity
  8
5
  6
Continuous
 62
    94
370
     9
100
AcDbText
 10
82.46892189724369
 20
41.50514406597641
 30
0.0
 40
3.5
  1
公差
 50
-0.0000000000000763
 41
0.8333333333333334
  7
T_STANDARD
100
AcDbText
  0
TEXT
  5
E5
330
1F
100
AcDbEntity
  8
5
  6
Continuous
 62
    94
370
     9
100
AcDbText
 10
82.46892189724369
 20
25.60613744345986
 30
0.0
 40
3.5
  1
承認
 50
-0.0000000000000763
 41
0.8333333333333334
  7
T_STANDARD
100
AcDbText
  0
TEXT
  5
E6
330
1F
100
AcDbEntity
  8
5
  6
Continuous
 62
    94
370
     9
100
AcDbText
 10
107.5467364667801
 20
25.60613744345986
 30
0.0
 40
3.5
  1
設計
 50
-0.0000000000000763
 41
0.8333333333333334
  7
T_STANDARD
100
AcDbText
  0
TEXT
  5
E7
330
1F
100
AcDbEntity
  8
5
  6
Continuous
 62
    94
370
     9
100
AcDbText
 10
99.24044507605163
 20
11.67401823816185
 30
0.0
 40
4.5
  1
ジャパンセンサー株式会社
 41
0.8333333333333335
100
AcDbText
  0
LINE
  5
E8
330
1F
100
AcDbEntity
  8
5
  6
Continuous
 62
    94
370
    50
100
AcDbLine
 10
79.83067686413104
 20
42.11855466200292
 30
0.0
 11
199.830676864131
 21
42.11855466200292
 31
0.0
  0
LINE
  5
E9
330
1F
100
AcDbEntity
  8
5
  6
Continuous
 62
    94
370
    50
100
AcDbLine
 10
79.83067686413104
 20
10.11855466200292
 30
0.0
 11
79.83067686413104
 21
42.11855466200292
 31
0.0
  0
LINE
  5
EA
330
1F
100
AcDbEntity
  8
5
  6
Continuous
 62
    94
370
    50
100
AcDbLine
 10
199.830676864131
 20
18.11855466200292
 30
0.0
 11
79.83067686413102
 21
18.11855466200292
 31
0.0
  0
LINE
  5
EB
330
1F
100
AcDbEntity
  8
5
  6
Continuous
 62
    94
370
    50
100
AcDbLine
 10
144.830676864131
 20
42.11855466200292
 30
0.0
 11
144.830676864131
 21
18.11855466200292
 31
0.0
  0
LINE
  5
EC
330
1F
100
AcDbEntity
  8
5
  6
Continuous
 62
    94
370
    50
100
AcDbLine
 10
199.830676864131
 20
26.11855466200292
 30
0.0
 11
79.83067686413101
 21
26.11855466200292
 31
0.0
  0
LINE
  5
ED
330
1F
100
AcDbEntity
  8
5
  6
Continuous
 62
    94
370
    30
100
AcDbLine
 10
149.830676864131
 20
18.11855466200292
 30
0.0
 11
149.830676864131
 21
42.11855466200292
 31
0.0
  0
LINE
  5
EE
330
1F
100
AcDbEntity
  8
5
  6
Continuous
 62
    94
370
    30
100
AcDbLine
 10
119.830676864131
 20
42.11855466200292
 30
0.0
 11
119.830676864131
 21
26.11855466200292
 31
0.0
  0
LINE
  5
EF
330
1F
100
AcDbEntity
  8
5
  6
Continuous
 62
    94
370
    30
100
AcDbLine
 10
84.83067686413102
 20
18.11855466200292
 30
0.0
 11
84.83067686413102
 21
42.11855466200292
 31
0.0
  0
LINE
  5
F0
330
1F
100
AcDbEntity
  8
5
  6
Continuous
 62
    94
370
    50
100
AcDbLine
 10
79.83067686413102
 20
34.11855466200292
 30
0.0
 11
144.830676864131
 21
34.11855466200292
 31
0.0
  0
LINE
  5
F1
330
1F
100
AcDbEntity
  8
5
  6
Continuous
 62
    94
370
    50
100
AcDbLine
 10
114.830676864131
 20
42.11855466200292
 30
0.0
 11
114.830676864131
 21
26.11855466200292
 31
0.0
  0
LINE
  5
F2
330
1F
100
AcDbEntity
  8
5
  6
Continuous
 62
    94
370
    50
100
AcDbLine
 10
104.830676864131
 20
18.11855466200292
 30
0.0
 11
104.830676864131
 21
26.11855466200292
 31
0.0
  0
LINE
  5
F3
330
1F
100
AcDbEntity
  8
5
  6
Continuous
 62
    94
370
    50
100
AcDbLine
 10
124.830676864131
 20
18.11855466200292
 30
0.0
 11
124.830676864131
 21
26.11855466200292
 31
0.0
  0
LINE
  5
F4
330
1F
100
AcDbEntity
  8
5
  6
Continuous
 62
    94
370
    30
100
AcDbLine
 10
109.830676864131
 20
26.11855466200292
 30
0.0
 11
109.830676864131
 21
18.11855466200292
 31
0.0
  0
LINE
  5
F5
330
1F
100
AcDbEntity
  8
5
  6
Continuous
 62
    94
370
    30
100
AcDbLine
 10
129.830676864131
 20
26.11855466200292
 30
0.0
 11
129.830676864131
 21
18.11855466200292
 31
0.0
  0
TEXT
  5
F6
330
1F
100
AcDbEntity
  8
5
  6
Continuous
 62
    94
370
     9
100
AcDbText
 10
124.8099814998927
 20
35.76838909908899
 30
0.0
 40
4.0
  1
１／１
 41
0.8333333333333334
100
AcDbText
  0
TEXT
  5
F7
330
1F
100
AcDbEntity
  8
5
  6
Continuous
 62
    94
370
     9
100
AcDbText
 10
123.8265377912834
 20
27.40911757591019
 30
0.0
 40
4.0
  1
三角法
 41
0.8333333333333334
100
AcDbText
  0
TEXT
  5
F8
330
1F
100
AcDbEntity
  8
5
  6
Continuous
 62
    94
370
     9
100
AcDbText
 10
111.0417695793629
 20
19.86938247657244
 30
0.0
 40
4.0
  1
須藤
 50
0.8101491543286599
 41
0.8333333333333334
100
AcDbText
  0
TEXT
  5
F9
330
1F
100
AcDbEntity
  8
5
  6
Continuous
 62
    94
370
     9
100
AcDbText
 10
131.0384583210847
 20
20.03328976134065
 30
0.0
 40
4.0
  1
須藤
 50
-0.1128196649132964
 41
0.8333333333333334
100
AcDbText
  0
TEXT
  5
FA
330
1F
100
AcDbEntity
  8
5
  6
Continuous
 62
    94
370
     9
100
AcDbText
 10
154.477200042939
 20
35.44057452955256
 30
0.0
 40
4.0
  1
PWC1 ﾊﾟﾗﾒｰﾀ設定器
 41
0.5985915492957747
100
AcDbText
  0
TEXT
  5
FB
330
1F
100
AcDbEntity
  8
5
  6
Continuous
 62
    94
370
     9
100
AcDbText
 10
154.477200042939
 20
29.69826220501562
 30
0.0
 40
4.0
  1
外形図
 41
0.8333333333333334
100
AcDbText
  0
TEXT
  5
FC
330
1F
100
AcDbEntity
  8
5
  6
Continuous
 62
    94
370
     9
100
AcDbText
 10
152.0185907714159
 20
20.52501161564529
 30
0.0
 40
4.0
  1
００５－０５２－Ａ１
 41
0.8333333333333335
100
AcDbText
  0
TEXT
  5
FD
330
1F
100
AcDbEntity
  8
5
  6
Continuous
 62
    94
370
     9
100
AcDbText
 10
87.60302785750858
 20
27.90083943021482
 30
0.0
 40
4.0
  1
2006/01/25
 50
0.1609427775783316
 41
0.5
100
AcDbText
  0
LINE
  5
FE
330
1F
100
AcDbEntity
  8
1
  6
DASHDOT
 62
     7
370
     9
100
AcDbLine
 10
32.84834190954062
 20
168.0
 30
0.0
 11
90.0
 21
168.0
 31
0.0
  0
LINE
  5
FF
330
1F
100
AcDbEntity
  8
1
  6
DASHDOT
 62
     7
370
     9
100
AcDbLine
 10
23.42898814988791
 20
140.0
 30
0.0
 11
96.41310230952641
 21
140.0
 31
0.0
  0
LINE
  5
100
330
1F
100
AcDbEntity
  8
1
  6
DASHDOT
 62
     7
370
     9
100
AcDbLine
 10
60.00000000000001
 20
213.8035294117647
 30
0.0
 11
59.99999999999999
 21
60.0
 31
0.0
  0
INSERT
  5
10C
330
1F
100
AcDbEntity
  8
0
100
AcDbBlockReference
  2
*G17
 10
0.0
 20
0.0
 30
0.0
  0
INSERT
  5
114
330
1F
100
AcDbEntity
  8
0
100
AcDbBlockReference
  2
*G18
 10
0.0
 20
0.0
 30
0.0
  0
INSERT
  5
178
330
1F
100
AcDbEntity
  8
0
100
AcDbBlockReference
  2
*G19
 10
0.0
 20
0.0
 30
0.0
  0
LINE
  5
179
330
1F
100
AcDbEntity
  8
1
  6
Continuous
 62
     7
370
    50
100
AcDbLine
 10
37.00000000000001
 20
145.0
 30
0.0
 11
36.99999999999999
 21
191.0
 31
0.0
  0
LINE
  5
17A
330
1F
100
AcDbEntity
  8
1
  6
Continuous
 62
     7
370
    50
100
AcDbLine
 10
36.99999999999999
 20
191.0
 30
0.0
 11
83.0
 21
191.0
 31
0.0
  0
INSERT
  5
182
330
1F
100
AcDbEntity
  8
0
100
AcDbBlockReference
  2
*G28
 10
0.0
 20
0.0
 30
0.0
  0
INSERT
  5
18A
330
1F
100
AcDbEntity
  8
0
100
AcDbBlockReference
  2
*G29
 10
0.0
 20
0.0
 30
0.0
  0
INSERT
  5
3C8
330
1F
100
AcDbEntity
  8
0
100
AcDbBlockReference
  2
*G30
 10
0.0
 20
0.0
 30
0.0
  0
LINE
  5
3C9
330
1F
100
AcDbEntity
  8
1
  6
DASHDOT
 62
     7
370
     9
100
AcDbLine
 10
21.28778787026705
 20
255.2398282879487
 30
0.0
 11
100.2475303609837
 21
255.2398282879487
 31
0.0
  0
LINE
  5
3CA
330
1F
100
AcDbEntity
  8
1
  6
DASHDOT
 62
     7
370
     9
100
AcDbLine
 10
59.99999999999999
 20
241.218813760523
 30
0.0
 11
59.99999999999999
 21
271.085383024151
 31
0.0
  0
INSERT
  5
3D6
330
1F
100
AcDbEntity
  8
0
100
AcDbBlockReference
  2
*G46
 10
0.0
 20
0.0
 30
0.0
  0
INSERT
  5
3DE
330
1F
100
AcDbEntity
  8
0
100
AcDbBlockReference
  2
*G47
 10
0.0
 20
0.0
 30
0.0
  0
TEXT
  5
3DF
330
1F
100
AcDbEntity
  8
1
  6
Continuous
 62
     7
370
     9
100
AcDbText
 10
34.05418909469797
 20
196.7654214935432
 30
0.0
 40
5.0
  1
PARAMETER SETTER PWC1
 41
0.5198019801980198
100
AcDbText
  0
LINE
  5
3E0
330
1F
100
AcDbEntity
  8
1
  6
DASHDOT
 62
     7
370
     9
100
AcDbLine
 10
216.3791921069339
 20
140.0
 30
0.0
 11
289.3633062665724
 21
140.0
 31
0.0
  0
LINE
  5
3E1
330
1F
100
AcDbEntity
  8
1
  6
DASHDOT
 62
     7
370
     9
100
AcDbLine
 10
252.950203957046
 20
213.8035294117647
 30
0.0
 11
252.950203957046
 21
60.0
 31
0.0
  0
INSERT
  5
3ED
330
1F
100
AcDbEntity
  8
0
100
AcDbBlockReference
  2
*G48
 10
0.0
 20
0.0
 30
0.0
  0
LINE
  5
3EE
330
1F
100
AcDbEntity
  8
1
  6
Continuous
 62
     7
370
    50
100
AcDbLine
 10
220.950203957046
 20
139.5
 30
0.0
 11
284.950203957046
 21
139.5
 31
0.0
  0
LINE
  5
3EF
330
1F
100
AcDbEntity
  8
1
  6
Continuous
 62
     7
370
    50
100
AcDbLine
 10
243.950203957046
 20
127.0
 30
0.0
 11
243.950203957046
 21
136.5
 31
0.0
  0
LINE
  5
3F0
330
1F
100
AcDbEntity
  8
1
  6
Continuous
 62
     7
370
    50
100
AcDbLine
 10
243.950203957046
 20
136.5
 30
0.0
 11
261.950203957046
 21
136.5
 31
0.0
  0
LINE
  5
3F1
330
1F
100
AcDbEntity
  8
1
  6
Continuous
 62
     7
370
    50
100
AcDbLine
 10
261.950203957046
 20
136.5
 30
0.0
 11
261.950203957046
 21
127.0
 31
0.0
  0
LINE
  5
3F2
330
1F
100
AcDbEntity
  8
1
  6
Continuous
 62
     7
370
    50
100
AcDbLine
 10
252.950203957046
 20
125.0
 30
0.0
 11
243.950203957046
 21
127.0
 31
0.0
  0
LINE
  5
3F3
330
1F
100
AcDbEntity
  8
1
  6
Continuous
 62
     7
370
    50
100
AcDbLine
 10
252.950203957046
 20
125.0
 30
0.0
 11
261.950203957046
 21
127.0
 31
0.0
  0
TEXT
  5
3F4
330
1F
100
AcDbEntity
  8
1
  6
Continuous
 62
     7
370
     9
100
AcDbText
 10
258.872891738849
 20
132.0515522748215
 30
0.0
 40
6.0
  1
OPEN
 50
179.9999999999998
 41
0.5
100
AcDbText
  0
LINE
  5
3F5
330
1F
100
AcDbEntity
  8
1
  6
Continuous
 62
     7
370
    50
100
AcDbLine
 10
218.950203957046
 20
70.0
 30
0.0
 11
218.950203957046
 21
76.0
 31
0.0
  0
LINE
  5
3F6
330
1F
100
AcDbEntity
  8
1
  6
Continuous
 62
     7
370
    50
100
AcDbLine
 10
218.950203957046
 20
76.0
 30
0.0
 11
220.950203957046
 21
76.0
 31
0.0
  0
LINE
  5
3F7
330
1F
100
AcDbEntity
  8
1
  6
Continuous
 62
     7
370
    50
100
AcDbLine
 10
284.950203957046
 20
76.0
 30
0.0
 11
286.950203957046
 21
76.0
 31
0.0
  0
LINE
  5
3F8
330
1F
100
AcDbEntity
  8
1
  6
Continuous
 62
     7
370
    50
100
AcDbLine
 10
286.950203957046
 20
76.0
 30
0.0
 11
286.950203957046
 21
70.02506281446688
 31
0.0
  0
LINE
  5
3F9
330
1F
100
AcDbEntity
  8
1
  6
Continuous
 62
     7
370
    50
100
AcDbLine
 10
220.950203957046
 20
76.0
 30
0.0
 11
220.950203957046
 21
139.5
 31
0.0
  0
LINE
  5
3FA
330
1F
100
AcDbEntity
  8
1
  6
Continuous
 62
     7
370
    50
100
AcDbLine
 10
284.950203957046
 20
139.5
 30
0.0
 11
284.950203957046
 21
76.0
 31
0.0
  0
CIRCLE
  5
3FB
330
1F
100
AcDbEntity
  8
1
  6
Continuous
 62
     7
370
    50
100
AcDbCircle
 10
222.450203957046
 20
199.0
 30
0.0
 40
3.0
  0
LINE
  5
3FC
330
1F
100
AcDbEntity
  8
1
  6
DASHDOT
 62
     7
370
     9
100
AcDbLine
 10
218.2245201735508
 20
199.0
 30
0.0
 11
226.4712046331786
 21
199.0
 31
0.0
  0
LINE
  5
3FD
330
1F
100
AcDbEntity
  8
1
  6
DASHDOT
 62
     7
370
     9
100
AcDbLine
 10
222.450203957046
 20
202.660485391979
 30
0.0
 11
222.450203957046
 21
195.037564072453
 31
0.0
  0
CIRCLE
  5
3FE
330
1F
100
AcDbEntity
  8
1
  6
Continuous
 62
     7
370
    50
100
AcDbCircle
 10
283.450203957046
 20
199.0
 30
0.0
 40
3.0
  0
LINE
  5
3FF
330
1F
100
AcDbEntity
  8
1
  6
DASHDOT
 62
     7
370
     9
100
AcDbLine
 10
279.2245201735508
 20
199.0
 30
0.0
 11
287.4712046331786
 21
199.0
 31
0.0
  0
LINE
  5
400
330
1F
100
AcDbEntity
  8
1
  6
DASHDOT
 62
     7
370
     9
100
AcDbLine
 10
283.450203957046
 20
202.660485391979
 30
0.0
 11
283.450203957046
 21
195.037564072453
 31
0.0
  0
INSERT
  5
415
330
1F
100
AcDbEntity
  8
0
100
AcDbBlockReference
  2
*G49
 10
0.0
 20
0.0
 30
0.0
  0
INSERT
  5
42A
330
1F
100
AcDbEntity
  8
0
100
AcDbBlockReference
  2
*G50
 10
0.0
 20
0.0
 30
0.0
  0
LINE
  5
42B
330
1F
100
AcDbEntity
  8
1
  6
DASHDOT
 62
     7
370
     9
100
AcDbLine
 10
150.0
 20
218.224237519091
 30
0.0
 11
150.0
 21
57.34341356631779
 31
0.0
  0
LINE
  5
42C
330
1F
100
AcDbEntity
  8
1
  6
DASHDOT
 62
     7
370
     9
100
AcDbLine
 10
150.6105913568773
 20
177.0
 30
0.0
 11
159.0074937246793
 21
177.0
 31
0.0
  0
LINE
  5
42D
330
1F
100
AcDbEntity
  8
1
  6
DASHDOT
 62
     7
370
     9
100
AcDbLine
 10
155.2
 20
181.6776138277355
 30
0.0
 11
155.2
 21
172.8608663415435
 31
0.0
  0
CIRCLE
  5
42E
330
1F
100
AcDbEntity
  8
1
  6
Continuous
 62
     7
370
    50
100
AcDbCircle
 10
155.2
 20
177.0
 30
0.0
 40
3.0
  0
LINE
  5
42F
330
1F
100
AcDbEntity
  8
1
  6
Continuous
 62
     7
370
    50
100
AcDbLine
 10
150.0
 20
210.0
 30
0.0
 11
150.0
 21
70.0
 31
0.0
  0
LINE
  5
430
330
1F
100
AcDbEntity
  8
1
  6
Continuous
 62
     7
370
    50
100
AcDbLine
 10
161.5
 20
210.0
 30
0.0
 11
150.0
 21
210.0
 31
0.0
  0
ARC
  5
431
330
1F
100
AcDbEntity
  8
1
  6
Continuous
 62
     7
370
    50
100
AcDbCircle
 10
161.5
 20
208.0
 30
0.0
 40
2.0
100
AcDbArc
 50
0.0000000000008142
 51
89.99999999999919
  0
LINE
  5
432
330
1F
100
AcDbEntity
  8
1
  6
Continuous
 62
     7
370
    50
100
AcDbLine
 10
150.0
 20
70.0
 30
0.0
 11
161.5
 21
70.0
 31
0.0
  0
LINE
  5
433
330
1F
100
AcDbEntity
  8
1
  6
Continuous
 62
     7
370
    50
100
AcDbLine
 10
163.5
 20
72.0
 30
0.0
 11
163.5
 21
208.0
 31
0.0
  0
ARC
  5
434
330
1F
100
AcDbEntity
  8
1
  6
Continuous
 62
     7
370
    50
100
AcDbCircle
 10
161.5
 20
72.0
 30
0.0
 40
2.0
100
AcDbArc
 50
269.9999999999998
 51
0.0
  0
LINE
  5
435
330
1F
100
AcDbEntity
  8
1
  6
Continuous
 62
     7
370
    50
100
AcDbLine
 10
138.5
 20
210.0
 30
0.0
 11
150.0
 21
210.0
 31
0.0
  0
ARC
  5
436
330
1F
100
AcDbEntity
  8
1
  6
Continuous
 62
     7
370
    50
100
AcDbCircle
 10
138.5
 20
208.0
 30
0.0
 40
2.0
100
AcDbArc
 50
90.00000000000082
 51
179.9999999999992
  0
LINE
  5
437
330
1F
100
AcDbEntity
  8
1
  6
Continuous
 62
     7
370
    50
100
AcDbLine
 10
150.0
 20
70.0
 30
0.0
 11
138.5
 21
70.0
 31
0.0
  0
LINE
  5
438
330
1F
100
AcDbEntity
  8
1
  6
Continuous
 62
     7
370
    50
100
AcDbLine
 10
136.5
 20
72.0
 30
0.0
 11
136.5
 21
208.0
 31
0.0
  0
ARC
  5
439
330
1F
100
AcDbEntity
  8
1
  6
Continuous
 62
     7
370
    50
100
AcDbCircle
 10
138.5
 20
72.0
 30
0.0
 40
2.0
100
AcDbArc
 50
179.9999999999998
 51
269.9999999999998
  0
INSERT
  5
443
330
1F
100
AcDbEntity
  8
0
100
AcDbBlockReference
  2
*G51
 10
0.0
 20
0.0
 30
0.0
  0
DIMENSION
  5
44D
330
1F
100
AcDbEntity
  8
2
  6
Continuous
 62
   134
370
     9
100
AcDbDimension
280
     0
  2
Dim1
 10
111.4967865196584
 20
209.9999999999999
 30
0.0
 11
111.4967865196584
 21
140.331505193958
 31
0.0
 70
   160
  1
<>
 71
     8
 42
-1.0
 73
     0
 74
     0
 75
     0
  3
Standard
100
AcDbAlignedDimension
 13
93.5
 23
70.0
 33
0.0
 14
90.79420202028447
 24
210.0
 34
0.0
 50
89.99999999999991
100
AcDbRotatedDimension
1001
ACAD
1000
DSTYLE
1002
{
1070
   279
1070
     1
1070
   140
1040
4.0
1070
    40
1040
1.0
1070
   147
1040
0.0
1070
    76
1070
     0
1070
    75
1070
     0
1070
   344
1005
0
1070
   343
1005
0
1070
   173
1070
     1
1070
   289
1070
     2
1070
   288
1070
     1
1070
    77
1070
     1
1070
   172
1070
     1
1070
   174
1070
     0
1070
    74
1070
     0
1070
    73
1070
     0
1070
   284
1070
     8
1070
    78
1070
     8
1070
    42
1040
2.0
1070
    44
1040
2.0
1070
    43
1040
10.0
1070
   271
1070
     2
1070
    41
1040
2.0
1002
}
  0
DIMENSION
  5
457
330
1F
100
AcDbEntity
  8
2
  6
Continuous
 62
   134
370
     9
100
AcDbDimension
280
     0
  2
Dim2
 10
111.4967865196584
 20
223.1999999999998
 30
0.0
 11
111.4967865196584
 21
216.4353721564452
 31
0.0
 70
   160
  1
<>
 71
     8
 42
-1.0
 73
     0
 74
     0
 75
     0
  3
Standard
100
AcDbAlignedDimension
 13
62.83999999999997
 23
210.0
 33
0.0
 14
62.84
 24
223.2
 34
0.0
 50
89.99999999999991
100
AcDbRotatedDimension
1001
ACAD
1000
DSTYLE
1002
{
1070
   279
1070
     1
1070
   140
1040
4.0
1070
    40
1040
1.0
1070
   147
1040
0.0
1070
    76
1070
     0
1070
    75
1070
     0
1070
   344
1005
0
1070
   343
1005
0
1070
   173
1070
     1
1070
   289
1070
     2
1070
   288
1070
     1
1070
    77
1070
     1
1070
   172
1070
     1
1070
   174
1070
     0
1070
    74
1070
     0
1070
    73
1070
     0
1070
   284
1070
     8
1070
    78
1070
     8
1070
    42
1040
2.0
1070
    44
1040
2.0
1070
    43
1040
10.0
1070
   271
1070
     2
1070
    41
1040
2.0
1002
}
  0
DIMENSION
  5
461
330
1F
100
AcDbEntity
  8
2
  6
Continuous
 62
   134
370
     9
100
AcDbDimension
280
     0
  2
Dim3
 10
111.4967865196584
 20
268.7398282879486
 30
0.0
 11
111.4967865196584
 21
254.7082969029156
 31
0.0
 70
   160
  1
<>
 71
     8
 42
-1.0
 73
     0
 74
     0
 75
     0
  3
Standard
100
AcDbAlignedDimension
 13
90.06421466963936
 23
241.7398282879487
 33
0.0
 14
93.50000000000001
 24
268.7398282879486
 34
0.0
 50
89.99999999999991
100
AcDbRotatedDimension
1001
ACAD
1000
DSTYLE
1002
{
1070
   279
1070
     1
1070
   140
1040
4.0
1070
    40
1040
1.0
1070
   147
1040
0.0
1070
    76
1070
     0
1070
    75
1070
     0
1070
   344
1005
0
1070
   343
1005
0
1070
   173
1070
     1
1070
   289
1070
     2
1070
   288
1070
     1
1070
    77
1070
     1
1070
   172
1070
     1
1070
   174
1070
     0
1070
    74
1070
     0
1070
    73
1070
     0
1070
   284
1070
     8
1070
    78
1070
     8
1070
    42
1040
2.0
1070
    44
1040
2.0
1070
    43
1040
10.0
1070
   271
1070
     2
1070
    41
1040
2.0
1002
}
  0
DIMENSION
  5
46B
330
1F
100
AcDbEntity
  8
2
  6
Continuous
 62
   134
370
     9
100
AcDbDimension
280
     0
  2
Dim4
 10
98.49999999999983
 20
52.39935777708779
 30
0.0
 11
59.92802903907074
 21
52.39935777708779
 31
0.0
 70
   160
  1
<>
 71
     8
 42
-1.0
 73
     0
 74
     0
 75
     0
  3
Standard
100
AcDbAlignedDimension
 13
21.50000000000001
 23
76.60162040569483
 33
0.0
 14
98.49999999999989
 24
74.99999999999999
 34
0.0
100
AcDbRotatedDimension
1001
ACAD
1000
DSTYLE
1002
{
1070
   279
1070
     1
1070
   140
1040
4.0
1070
    40
1040
1.0
1070
   147
1040
0.0
1070
    76
1070
     0
1070
    75
1070
     0
1070
   344
1005
0
1070
   343
1005
0
1070
   173
1070
     1
1070
   289
1070
     2
1070
   288
1070
     1
1070
    77
1070
     1
1070
   172
1070
     1
1070
   174
1070
     0
1070
    74
1070
     0
1070
    73
1070
     0
1070
   284
1070
     8
1070
    78
1070
     8
1070
    42
1040
2.0
1070
    44
1040
2.0
1070
    43
1040
10.0
1070
   271
1070
     2
1070
    41
1040
2.0
1002
}
  0
DIMENSION
  5
475
330
1F
100
AcDbEntity
  8
2
  6
Continuous
 62
   134
370
     9
100
AcDbDimension
280
     0
  2
Dim5
 10
122.3588655924093
 20
223.1999999999998
 30
0.0
 11
122.3588655924093
 21
140.1325598057883
 31
0.0
 70
   160
  1
<>
 71
     8
 42
-1.0
 73
     0
 74
     0
 75
     0
  3
Standard
100
AcDbAlignedDimension
 13
93.5
 23
70.0
 33
0.0
 14
62.84
 24
223.2
 34
0.0
 50
89.99999999999991
100
AcDbRotatedDimension
1001
ACAD
1000
DSTYLE
1002
{
1070
   279
1070
     1
1070
   140
1040
4.0
1070
    40
1040
1.0
1070
   147
1040
0.0
1070
    76
1070
     0
1070
    75
1070
     0
1070
   344
1005
0
1070
   343
1005
0
1070
   173
1070
     1
1070
   289
1070
     2
1070
   288
1070
     1
1070
    77
1070
     1
1070
   172
1070
     1
1070
   174
1070
     0
1070
    74
1070
     0
1070
    73
1070
     0
1070
   284
1070
     8
1070
    78
1070
     8
1070
    42
1040
2.0
1070
    44
1040
2.0
1070
    43
1040
10.0
1070
   271
1070
     2
1070
    41
1040
2.0
1002
}
  0
TEXT
  5
476
330
1F
100
AcDbEntity
  8
2
  6
Continuous
 62
   134
370
     9
100
AcDbText
 10
159.5873752625909
 20
53.26260612204133
 30
0.0
 40
4.0
  1
重量：260g
 41
0.6578947368421053
100
AcDbText
  0
INSERT
  5
4B1
330
1F
100
AcDbEntity
  8
0
100
AcDbBlockReference
  2
*G57
 10
0.0
 20
0.0
 30
0.0
  0
INSERT
  5
512
330
1F
100
AcDbEntity
  8
0
100
AcDbBlockReference
  2
*G58
 10
0.0
 20
0.0
 30
0.0
  0
LINE
  5
513
330
1F
100
AcDbEntity
  8
1
  6
DASHDOT
 62
     7
370
     9
100
AcDbLine
 10
43.49514785309366
 20
259.0398282879488
 30
0.0
 11
32.9872657947491
 21
259.0398282879488
 31
0.0
  0
LINE
  5
514
330
1F
100
AcDbEntity
  8
1
  6
DASHDOT
 62
     7
370
     9
100
AcDbLine
 10
39.0
 20
262.6368618047394
 30
0.0
 11
39.00000000000001
 21
253.5831593074183
 31
0.0
  0
LINE
  5
515
330
1F
100
AcDbEntity
  8
1
  6
DASHDOT
 62
     7
370
     9
100
AcDbLine
 10
54.49514785309366
 20
260.5398282879487
 30
0.0
 11
43.9872657947491
 21
260.5398282879487
 31
0.0
  0
LINE
  5
516
330
1F
100
AcDbEntity
  8
1
  6
DASHDOT
 62
     7
370
     9
100
AcDbLine
 10
50.0
 20
263.408529297583
 30
0.0
 11
50.00000000000001
 21
253.5321211590772
 31
0.0
  0
LINE
  5
517
330
1F
100
AcDbEntity
  8
1
  6
DASHDOT
 62
     7
370
     9
100
AcDbLine
 10
50.00000000000001
 20
256.6561351142357
 30
0.0
 11
50.0
 21
264.8826006237825
 31
0.0
  0
INSERT
  5
521
330
1F
100
AcDbEntity
  8
0
100
AcDbBlockReference
  2
*G61
 10
0.0
 20
0.0
 30
0.0
  0
CIRCLE
  5
522
330
1F
100
AcDbEntity
  8
1
  6
Continuous
 62
     7
370
    50
100
AcDbCircle
 10
38.99999999999999
 20
259.0398282879488
 30
0.0
 40
3.25
  0
INSERT
  5
52A
330
1F
100
AcDbEntity
  8
0
100
AcDbBlockReference
  2
*G62
 10
0.0
 20
0.0
 30
0.0
  0
INSERT
  5
532
330
1F
100
AcDbEntity
  8
0
100
AcDbBlockReference
  2
*G63
 10
0.0
 20
0.0
 30
0.0
  0
TEXT
  5
533
330
1F
100
AcDbEntity
  8
1
  6
Continuous
 62
     7
370
     9
100
AcDbText
 10
53.66983880145161
 20
257.9559354968732
 30
0.0
 40
5.0
  1
A-R
 50
179.9999999999999
 41
0.5
100
AcDbText
  0
TEXT
  5
534
330
1F
100
AcDbEntity
  8
1
  6
Continuous
 62
     7
370
     9
100
AcDbText
 10
54.69424674014976
 20
83.31717543342187
 30
0.0
 40
11.0
  1
JS
 41
0.5
100
AcDbText
  0
LINE
  5
535
330
1F
100
AcDbEntity
  8
1
  6
DASHDOT
 62
     7
370
     9
100
AcDbLine
 10
93.91059135687735
 20
177.0
 30
0.0
 11
102.3074937246793
 21
177.0
 31
0.0
  0
INSERT
  5
53E
330
1F
100
AcDbEntity
  8
0
100
AcDbBlockReference
  2
*G64
 10
0.0
 20
0.0
 30
0.0
  0
LINE
  5
53F
330
1F
100
AcDbEntity
  8
1
  6
DASHDOT
 62
     7
370
     9
100
AcDbLine
 10
39.00000000000001
 20
213.5970335167906
 30
0.0
 11
39.00000000000002
 21
204.5433310194695
 31
0.0
  0
LINE
  5
540
330
1F
100
AcDbEntity
  8
1
  6
DOT
 62
     7
370
    50
100
AcDbLine
 10
163.5
 20
139.5
 30
0.0
 11
160.1993484540134
 21
139.5
 31
0.0
  0
LINE
  5
541
330
1F
100
AcDbEntity
  8
1
  6
DOT
 62
     7
370
    50
100
AcDbLine
 10
160.1993484540134
 20
139.5
 30
0.0
 11
160.1993484540134
 21
70.0
 31
0.0
  0
CIRCLE
  5
542
330
1F
100
AcDbEntity
  8
3
  6
Continuous
 62
   214
370
     9
100
AcDbCircle
 10
53.62453109014439
 20
230.321018529044
 30
0.0
 40
5.0
  0
INSERT
  5
543
330
1F
100
AcDbEntity
  8
3
  6
Continuous
 62
   214
370
     9
100
AcDbBlockReference
  2
_ARROWFILLED
 10
59.01500000000001
 20
223.2
 30
0.0
 41
2.0
 42
2.0
 43
2.0
 50
307.12499454307
  0
POLYLINE
  5
544
330
1F
100
AcDbEntity
  8
3
  6
Continuous
 62
   214
370
     9
100
AcDb2dPolyline
 66
     1
 10
0.0
 20
0.0
 30
0.0
  0
VERTEX
  5
545
330
544
100
AcDbEntity
  8
3
  6
Continuous
 62
   214
370
     9
100
AcDbVertex
100
AcDb2dVertex
 10
59.01500000000001
 20
223.2
 30
0.0
  0
VERTEX
  5
546
330
544
100
AcDbEntity
  8
3
  6
Continuous
 62
   214
370
     9
100
AcDbVertex
100
AcDb2dVertex
 10
56.64231042022259
 20
226.3344149727629
 30
0.0
  0
SEQEND
  5
547
330
544
100
AcDbEntity
  8
3
  6
Continuous
 62
   214
370
     9
  0
TEXT
  5
548
330
1F
100
AcDbEntity
  8
3
  6
Continuous
 62
   214
370
     9
100
AcDbText
 10
51.62453109014439
 20
228.321018529044
 30
0.0
 40
7.0
  1
16
 41
0.5
 51
14.99999999999999
100
AcDbText
  0
CIRCLE
  5
549
330
1F
100
AcDbEntity
  8
3
  6
Continuous
 62
   214
370
     9
100
AcDbCircle
 10
28.98988291463002
 20
229.8373309082642
 30
0.0
 40
5.0
  0
INSERT
  5
54A
330
1F
100
AcDbEntity
  8
3
  6
Continuous
 62
   214
370
     9
100
AcDbBlockReference
  2
_ARROWFILLED
 10
49.14550414914176
 20
187.2000000514896
 30
0.0
 41
2.0
 42
2.0
 43
2.0
 50
295.3011502814271
  0
POLYLINE
  5
54B
330
1F
100
AcDbEntity
  8
3
  6
Continuous
 62
   214
370
     9
100
AcDb2dPolyline
 66
     1
 10
0.0
 20
0.0
 30
0.0
  0
VERTEX
  5
54C
330
54B
100
AcDbEntity
  8
3
  6
Continuous
 62
   214
370
     9
100
AcDbVertex
100
AcDb2dVertex
 10
49.14550414914176
 20
187.2000000514896
 30
0.0
  0
VERTEX
  5
54D
330
54B
100
AcDbEntity
  8
3
  6
Continuous
 62
   214
370
     9
100
AcDbVertex
100
AcDb2dVertex
 10
31.12676298383777
 20
225.3169610594772
 30
0.0
  0
SEQEND
  5
54E
330
54B
100
AcDbEntity
  8
3
  6
Continuous
 62
   214
370
     9
  0
TEXT
  5
54F
330
1F
100
AcDbEntity
  8
3
  6
Continuous
 62
   214
370
     9
100
AcDbText
 10
26.98988291463002
 20
227.8373309082642
 30
0.0
 40
7.0
  1
15
 41
0.5
 51
14.99999999999999
100
AcDbText
  0
CIRCLE
  5
550
330
1F
100
AcDbEntity
  8
3
  6
Continuous
 62
   214
370
     9
100
AcDbCircle
 10
175.7725524286963
 20
134.0790848852578
 30
0.0
 40
5.0
  0
INSERT
  5
551
330
1F
100
AcDbEntity
  8
3
  6
Continuous
 62
   214
370
     9
100
AcDbBlockReference
  2
_ARROWFILLED
 10
163.5
 20
121.942061430497
 30
0.0
 41
2.0
 42
2.0
 43
2.0
 50
224.6818806499756
  0
POLYLINE
  5
552
330
1F
100
AcDbEntity
  8
3
  6
Continuous
 62
   214
370
     9
100
AcDb2dPolyline
 66
     1
 10
0.0
 20
0.0
 30
0.0
  0
VERTEX
  5
553
330
552
100
AcDbEntity
  8
3
  6
Continuous
 62
   214
370
     9
100
AcDbVertex
100
AcDb2dVertex
 10
163.5
 20
121.942061430497
 30
0.0
  0
VERTEX
  5
554
330
552
100
AcDbEntity
  8
3
  6
Continuous
 62
   214
370
     9
100
AcDbVertex
100
AcDb2dVertex
 10
172.2174430212158
 20
130.5632354714114
 30
0.0
  0
SEQEND
  5
555
330
552
100
AcDbEntity
  8
3
  6
Continuous
 62
   214
370
     9
  0
TEXT
  5
556
330
1F
100
AcDbEntity
  8
3
  6
Continuous
 62
   214
370
     9
100
AcDbText
 10
173.7725524286963
 20
132.0790848852578
 30
0.0
 40
7.0
  1
20
 41
0.5
 51
14.99999999999999
100
AcDbText
  0
CIRCLE
  5
557
330
1F
100
AcDbEntity
  8
3
  6
Continuous
 62
   214
370
     9
100
AcDbCircle
 10
176.0528140006106
 20
189.8851780482219
 30
0.0
 40
5.0
  0
INSERT
  5
558
330
1F
100
AcDbEntity
  8
3
  6
Continuous
 62
   214
370
     9
100
AcDbBlockReference
  2
_ARROWFILLED
 10
155.2
 20
177.0
 30
0.0
 41
2.0
 42
2.0
 43
2.0
 50
211.7123649163878
  0
POLYLINE
  5
559
330
1F
100
AcDbEntity
  8
3
  6
Continuous
 62
   214
370
     9
100
AcDb2dPolyline
 66
     1
 10
0.0
 20
0.0
 30
0.0
  0
VERTEX
  5
55A
330
559
100
AcDbEntity
  8
3
  6
Continuous
 62
   214
370
     9
100
AcDbVertex
100
AcDb2dVertex
 10
155.2
 20
177.0
 30
0.0
  0
VERTEX
  5
55B
330
559
100
AcDbEntity
  8
3
  6
Continuous
 62
   214
370
     9
100
AcDbVertex
100
AcDb2dVertex
 10
171.7993255587998
 20
187.256901792692
 30
0.0
  0
SEQEND
  5
55C
330
559
100
AcDbEntity
  8
3
  6
Continuous
 62
   214
370
     9
  0
TEXT
  5
55D
330
1F
100
AcDbEntity
  8
3
  6
Continuous
 62
   214
370
     9
100
AcDbText
 10
174.0528140006106
 20
187.8851780482219
 30
0.0
 40
7.0
  1
19
 41
0.5
 51
14.99999999999999
100
AcDbText
  0
CIRCLE
  5
55E
330
1F
100
AcDbEntity
  8
3
  6
Continuous
 62
   214
370
     9
100
AcDbCircle
 10
29.48755257474141
 20
280.5797998811894
 30
0.0
 40
5.0
  0
INSERT
  5
55F
330
1F
100
AcDbEntity
  8
3
  6
Continuous
 62
   214
370
     9
100
AcDbBlockReference
  2
_ARROWFILLED
 10
39.00000000000002
 20
259.0398282879488
 30
0.0
 41
2.0
 42
2.0
 43
2.0
 50
293.8271345508521
  0
POLYLINE
  5
560
330
1F
100
AcDbEntity
  8
3
  6
Continuous
 62
   214
370
     9
100
AcDb2dPolyline
 66
     1
 10
0.0
 20
0.0
 30
0.0
  0
VERTEX
  5
561
330
560
100
AcDbEntity
  8
3
  6
Continuous
 62
   214
370
     9
100
AcDbVertex
100
AcDb2dVertex
 10
39.00000000000002
 20
259.0398282879488
 30
0.0
  0
VERTEX
  5
562
330
560
100
AcDbEntity
  8
3
  6
Continuous
 62
   214
370
     9
100
AcDbVertex
100
AcDb2dVertex
 10
31.50744539633003
 20
276.0059576244763
 30
0.0
  0
SEQEND
  5
563
330
560
100
AcDbEntity
  8
3
  6
Continuous
 62
   214
370
     9
  0
TEXT
  5
564
330
1F
100
AcDbEntity
  8
3
  6
Continuous
 62
   214
370
     9
100
AcDbText
 10
27.48755257474141
 20
278.5797998811894
 30
0.0
 40
7.0
  1
17
 41
0.5
 51
14.99999999999999
100
AcDbText
  0
CIRCLE
  5
565
330
1F
100
AcDbEntity
  8
3
  6
Continuous
 62
   214
370
     9
100
AcDbCircle
 10
45.66181652836195
 20
280.8286347112452
 30
0.0
 40
5.0
  0
INSERT
  5
566
330
1F
100
AcDbEntity
  8
3
  6
Continuous
 62
   214
370
     9
100
AcDbBlockReference
  2
_ARROWFILLED
 10
49.99999999999999
 20
261.3398282879486
 30
0.0
 41
2.0
 42
2.0
 43
2.0
 50
282.5493629637785
  0
POLYLINE
  5
567
330
1F
100
AcDbEntity
  8
3
  6
Continuous
 62
   214
370
     9
100
AcDb2dPolyline
 66
     1
 10
0.0
 20
0.0
 30
0.0
  0
VERTEX
  5
568
330
567
100
AcDbEntity
  8
3
  6
Continuous
 62
   214
370
     9
100
AcDbVertex
100
AcDb2dVertex
 10
49.99999999999999
 20
261.3398282879486
 30
0.0
  0
VERTEX
  5
569
330
567
100
AcDbEntity
  8
3
  6
Continuous
 62
   214
370
     9
100
AcDbVertex
100
AcDb2dVertex
 10
46.74821981669691
 20
275.9480888508833
 30
0.0
  0
SEQEND
  5
56A
330
567
100
AcDbEntity
  8
3
  6
Continuous
 62
   214
370
     9
  0
TEXT
  5
56B
330
1F
100
AcDbEntity
  8
3
  6
Continuous
 62
   214
370
     9
100
AcDbText
 10
43.66181652836195
 20
278.8286347112452
 30
0.0
 40
7.0
  1
18
 41
0.5
 51
14.99999999999999
100
AcDbText
  0
TEXT
  5
56C
330
1F
100
AcDbEntity
  8
6
  6
Continuous
 62
    14
370
     9
100
AcDbText
 10
134.4443255392924
 20
280.4728233583581
 30
0.0
 40
4.0
  1
⑮フロントパネル
 41
0.8333333333333334
100
AcDbText
  0
TEXT
  5
56D
330
1F
100
AcDbEntity
  8
6
  6
Continuous
 62
    14
370
     9
100
AcDbText
 10
134.6381862921955
 20
276.1154925627869
 30
0.0
 40
4.0
  1
⑯端子台
 41
0.8333333333333334
100
AcDbText
  0
TEXT
  5
56E
330
1F
100
AcDbEntity
  8
6
  6
Continuous
 62
    14
370
     9
100
AcDbText
 10
134.5562614528761
 20
271.5774416419119
 30
0.0
 40
4.0
  1
⑰ミニジャック
 41
0.8333333333333333
100
AcDbText
  0
TEXT
  5
56F
330
1F
100
AcDbEntity
  8
6
  6
Continuous
 62
    14
370
     9
100
AcDbText
 10
134.5556762754523
 20
266.8849038811775
 30
0.0
 40
4.0
  1
⑱センサヘッドタイプ切換スイッチ
 41
0.8333333333333335
100
AcDbText
  0
TEXT
  5
570
330
1F
100
AcDbEntity
  8
6
  6
Continuous
 62
    14
370
     9
100
AcDbText
 10
134.5919572757224
 20
262.4287777996219
 30
0.0
 40
4.0
  1
⑲DCジャック
 41
0.75
100
AcDbText
  0
TEXT
  5
571
330
1F
100
AcDbEntity
  8
6
  6
Continuous
 62
    14
370
     9
100
AcDbText
 10
134.6100977758574
 20
257.945148379152
 30
0.0
 40
4.0
  1
⑳電池ケース
 41
0.8333333333333333
100
AcDbText
  0
VIEWPORT
  5
6A
330
1B
100
AcDbEntity
 67
     1
  8
0
100
AcDbViewport
 10
105.0
 20
148.5
 30
0.0
 40
210.0
 41
297.0
 68
     1
 69
     1
 12
105.0
 22
148.5
 13
0.0
 23
0.0
 14
0.5
 24
0.5
 15
0.5
 25
0.5
 16
0.0
 26
0.0
 36
1.0
 17
0.0
 27
0.0
 37
0.0
 42
50.0
 43
0.0
 44
0.0
 45
9.0
 50
0.0
 51
0.0
 72
   100
 90
   557152
  1

281
     0
 71
     1
 74
     0
110
0.0
120
0.0
130
0.0
111
1.0
121
0.0
131
0.0
112
0.0
122
1.0
132
0.0
 79
     0
146
0.0
170
     0
 61
     5
292
     1
282
     1
141
0.0
142
0.0
 63
   256
  0
ENDSEC
  0
SECTION
  2
OBJECTS
  0
DICTIONARY
  5
C
330
0
100
AcDbDictionary
281
     1
  3
ACAD_DETAILVIEWSTYLE
350
576
  3
ACAD_GROUP
350
D
  3
ACAD_LAYOUT
350
1A
  3
ACAD_MATERIAL
350
43
  3
ACAD_MLEADERSTYLE
350
575
  3
ACAD_MLINESTYLE
350
17
  3
ACAD_PLOTSETTINGS
350
19
  3
ACAD_PLOTSTYLENAME
350
E
  3
ACAD_SCALELIST
350
47
  3
ACAD_SECTIONVIEWSTYLE
350
577
  3
ACAD_TABLESTYLE
350
574
  3
ACAD_VISUALSTYLE
350
2A
  3
AcDbVariableDictionary
350
572
  0
SUN
  5
69
330
29
100
AcDbSun
 90
        1
290
     0
 63
     7
421
 16777215
 40
1.0
291
     1
 91
  2455826
 92
 54000000
292
     0
 70
     2
 71
   256
280
     1
  0
DICTIONARY
  5
576
102
{ACAD_REACTORS
330
C
102
}
330
C
100
AcDbDictionary
281
     1
  0
DICTIONARY
  5
D
102
{ACAD_REACTORS
330
C
102
}
330
C
100
AcDbDictionary
281
     1
  0
DICTIONARY
  5
1A
102
{ACAD_REACTORS
330
C
102
}
330
C
100
AcDbDictionary
281
     1
  3
Layout1
350
1E
  3
Layout2
350
26
  3
Model
350
22
  0
DICTIONARY
  5
43
102
{ACAD_REACTORS
330
C
102
}
330
C
100
AcDbDictionary
281
     1
  3
ByBlock
350
45
  3
ByLayer
350
44
  3
Global
350
46
  0
DICTIONARY
  5
575
102
{ACAD_REACTORS
330
C
102
}
330
C
100
AcDbDictionary
281
     1
  0
DICTIONARY
  5
17
102
{ACAD_REACTORS
330
C
102
}
330
C
100
AcDbDictionary
281
     1
  3
Standard
350
18
  0
DICTIONARY
  5
19
102
{ACAD_REACTORS
330
C
102
}
330
C
100
AcDbDictionary
281
     1
  0
ACDBDICTIONARYWDFLT
  5
E
102
{ACAD_REACTORS
330
C
102
}
330
C
100
AcDbDictionary
281
     1
  3
Normal
350
F
100
AcDbDictionaryWithDefault
340
F
  0
DICTIONARY
  5
47
102
{ACAD_REACTORS
330
C
102
}
330
C
100
AcDbDictionary
281
     1
  3
A0
350
48
  3
A1
350
49
  3
A2
350
4A
  3
A3
350
4B
  3
A4
350
4C
  3
A5
350
4D
  3
A6
350
4E
  3
A7
350
4F
  3
A8
350
50
  3
A9
350
51
  3
B0
350
52
  3
B1
350
53
  3
B2
350
54
  3
B3
350
55
  3
B4
350
56
  3
B5
350
57
  3
B6
350
58
  3
B7
350
59
  3
B8
350
5A
  3
B9
350
5B
  3
C0
350
5C
  3
C1
350
5D
  3
C2
350
5E
  3
C3
350
5F
  3
C4
350
60
  3
C5
350
61
  3
C6
350
62
  3
C7
350
63
  3
C8
350
64
  3
C9
350
65
  3
D0
350
66
  3
D1
350
67
  3
D2
350
68
  0
DICTIONARY
  5
577
102
{ACAD_REACTORS
330
C
102
}
330
C
100
AcDbDictionary
281
     1
  0
DICTIONARY
  5
574
102
{ACAD_REACTORS
330
C
102
}
330
C
100
AcDbDictionary
281
     1
  0
DICTIONARY
  5
2A
102
{ACAD_REACTORS
330
C
102
}
330
C
100
AcDbDictionary
281
     1
  3
2dWireframe
350
2F
  3
Basic
350
32
  3
Brighten
350
36
  3
ColorChange
350
3A
  3
Conceptual
350
34
  3
Dim
350
35
  3
EdgeColorOff
350
3D
  3
Facepattern
350
39
  3
Flat
350
2B
  3
FlatWithEdges
350
2C
  3
Gouraud
350
2D
  3
GouraudWithEdges
350
2E
  3
Hidden
350
31
  3
JitterOff
350
3B
  3
Linepattern
350
38
  3
OverhangOff
350
3C
  3
Realistic
350
33
  3
Shaded
350
42
  3
Shaded with edges
350
41
  3
Shades of Gray
350
3E
  3
Sketchy
350
3F
  3
Thicken
350
37
  3
Wireframe
350
30
  3
X-Ray
350
40
  0
DICTIONARY
  5
572
102
{ACAD_REACTORS
330
C
102
}
330
C
100
AcDbDictionary
281
     1
  3
CANNOSCALE
350
573
  0
LAYOUT
  5
1E
102
{ACAD_REACTORS
330
1A
102
}
330
1A
100
AcDbPlotSettings
  1

  2
none_device
  4

  6

 40
0.0
 41
0.0
 42
0.0
 43
0.0
 44
0.0
 45
0.0
 46
0.0
 47
0.0
 48
0.0
 49
0.0
140
0.0
141
0.0
142
1.0
143
1.0
 70
   688
 72
     0
 73
     0
 74
     5
  7

 75
    16
 76
     0
 77
     2
 78
   300
147
1.0
148
0.0
149
0.0
100
AcDbLayout
  1
Layout1
 70
     1
 71
     1
 10
0.0
 20
0.0
 11
210.0
 21
297.0
 12
0.0
 22
0.0
 32
0.0
 14
0.0
 24
0.0
 34
0.0
 15
210.0
 25
297.0
 35
0.0
146
0.0
 13
0.0
 23
0.0
 33
0.0
 16
1.0
 26
0.0
 36
0.0
 17
0.0
 27
1.0
 37
0.0
 76
     0
330
1B
331
6A
  0
LAYOUT
  5
26
102
{ACAD_REACTORS
330
1A
102
}
330
1A
100
AcDbPlotSettings
  1

  2
none_device
  4

  6

 40
0.0
 41
0.0
 42
0.0
 43
0.0
 44
0.0
 45
0.0
 46
0.0
 47
0.0
 48
0.0
 49
0.0
140
0.0
141
0.0
142
1.0
143
1.0
 70
   688
 72
     0
 73
     0
 74
     5
  7

 75
    16
 76
     0
 77
     2
 78
   300
147
1.0
148
0.0
149
0.0
100
AcDbLayout
  1
Layout2
 70
     1
 71
     2
 10
0.0
 20
0.0
 11
0.0
 21
0.0
 12
0.0
 22
0.0
 32
0.0
 14
0.0
 24
0.0
 34
0.0
 15
0.0
 25
0.0
 35
0.0
146
0.0
 13
0.0
 23
0.0
 33
0.0
 16
1.0
 26
0.0
 36
0.0
 17
0.0
 27
1.0
 37
0.0
 76
     0
330
23
  0
LAYOUT
  5
22
102
{ACAD_REACTORS
330
1A
102
}
330
1A
100
AcDbPlotSettings
  1

  2
none_device
  4
Letter_(8.50_x_11.00_Inches)
  6

 40
6.35
 41
6.35
 42
6.35000508
 43
6.35000508
 44
215.9
 45
279.4
 46
0.0
 47
0.0
 48
0.0
 49
0.0
140
0.0
141
0.0
142
1.0
143
1.0
 70
  1712
 72
     0
 73
     0
 74
     0
  7

 75
     0
 76
     0
 77
     2
 78
   300
147
1.0
148
0.0
149
0.0
100
AcDbLayout
  1
Model
 70
     1
 71
     0
 10
0.0
 20
0.0
 11
210.0
 21
297.0
 12
0.0
 22
0.0
 32
0.0
 14
10.69835590863275
 24
10.11855466200292
 34
0.0
 15
291.450203957046
 25
285.8286347112452
 35
0.0
146
0.0
 13
0.0
 23
0.0
 33
0.0
 16
1.0
 26
0.0
 36
0.0
 17
0.0
 27
1.0
 37
0.0
 76
     0
330
1F
331
29
  0
MATERIAL
  5
45
102
{ACAD_REACTORS
330
43
102
}
330
43
100
AcDbMaterial
  1
ByBlock
 72
     1
 94
      127
  0
MATERIAL
  5
44
102
{ACAD_REACTORS
330
43
102
}
330
43
100
AcDbMaterial
  1
ByLayer
 72
     1
 94
      127
  0
MATERIAL
  5
46
102
{ACAD_REACTORS
330
43
102
}
330
43
100
AcDbMaterial
  1
Global
 72
     1
 94
      127
  0
MLINESTYLE
  5
18
102
{ACAD_REACTORS
330
17
102
}
330
17
100
AcDbMlineStyle
  2
Standard
 70
     0
  3

 62
   256
 51
90.0
 52
90.0
 71
     2
 49
0.5
 62
   256
  6
BYLAYER
 49
-0.5
 62
   256
  6
BYLAYER
  0
ACDBPLACEHOLDER
  5
F
102
{ACAD_REACTORS
330
E
102
}
330
E
  0
SCALE
  5
48
102
{ACAD_REACTORS
330
47
102
}
330
47
100
AcDbScale
 70
     0
300
1:1
140
1.0
141
1.0
290
     1
  0
SCALE
  5
49
102
{ACAD_REACTORS
330
47
102
}
330
47
100
AcDbScale
 70
     0
300
1:2
140
1.0
141
2.0
290
     0
  0
SCALE
  5
4A
102
{ACAD_REACTORS
330
47
102
}
330
47
100
AcDbScale
 70
     0
300
1:4
140
1.0
141
4.0
290
     0
  0
SCALE
  5
4B
102
{ACAD_REACTORS
330
47
102
}
330
47
100
AcDbScale
 70
     0
300
1:5
140
1.0
141
5.0
290
     0
  0
SCALE
  5
4C
102
{ACAD_REACTORS
330
47
102
}
330
47
100
AcDbScale
 70
     0
300
1:8
140
1.0
141
8.0
290
     0
  0
SCALE
  5
4D
102
{ACAD_REACTORS
330
47
102
}
330
47
100
AcDbScale
 70
     0
300
1:10
140
1.0
141
10.0
290
     0
  0
SCALE
  5
4E
102
{ACAD_REACTORS
330
47
102
}
330
47
100
AcDbScale
 70
     0
300
1:16
140
1.0
141
16.0
290
     0
  0
SCALE
  5
4F
102
{ACAD_REACTORS
330
47
102
}
330
47
100
AcDbScale
 70
     0
300
1:20
140
1.0
141
20.0
290
     0
  0
SCALE
  5
50
102
{ACAD_REACTORS
330
47
102
}
330
47
100
AcDbScale
 70
     0
300
1:30
140
1.0
141
30.0
290
     0
  0
SCALE
  5
51
102
{ACAD_REACTORS
330
47
102
}
330
47
100
AcDbScale
 70
     0
300
1:40
140
1.0
141
40.0
290
     0
  0
SCALE
  5
52
102
{ACAD_REACTORS
330
47
102
}
330
47
100
AcDbScale
 70
     0
300
1:50
140
1.0
141
50.0
290
     0
  0
SCALE
  5
53
102
{ACAD_REACTORS
330
47
102
}
330
47
100
AcDbScale
 70
     0
300
1:100
140
1.0
141
100.0
290
     0
  0
SCALE
  5
54
102
{ACAD_REACTORS
330
47
102
}
330
47
100
AcDbScale
 70
     0
300
2:1
140
2.0
141
1.0
290
     0
  0
SCALE
  5
55
102
{ACAD_REACTORS
330
47
102
}
330
47
100
AcDbScale
 70
     0
300
4:1
140
4.0
141
1.0
290
     0
  0
SCALE
  5
56
102
{ACAD_REACTORS
330
47
102
}
330
47
100
AcDbScale
 70
     0
300
8:1
140
8.0
141
1.0
290
     0
  0
SCALE
  5
57
102
{ACAD_REACTORS
330
47
102
}
330
47
100
AcDbScale
 70
     0
300
10:1
140
10.0
141
1.0
290
     0
  0
SCALE
  5
58
102
{ACAD_REACTORS
330
47
102
}
330
47
100
AcDbScale
 70
     0
300
100:1
140
100.0
141
1.0
290
     0
  0
SCALE
  5
59
102
{ACAD_REACTORS
330
47
102
}
330
47
100
AcDbScale
 70
     0
300
1/128" = 1'-0"
140
0.0078125
141
12.0
290
     0
  0
SCALE
  5
5A
102
{ACAD_REACTORS
330
47
102
}
330
47
100
AcDbScale
 70
     0
300
1/64" = 1'-0"
140
0.015625
141
12.0
290
     0
  0
SCALE
  5
5B
102
{ACAD_REACTORS
330
47
102
}
330
47
100
AcDbScale
 70
     0
300
1/32" = 1'-0"
140
0.03125
141
12.0
290
     0
  0
SCALE
  5
5C
102
{ACAD_REACTORS
330
47
102
}
330
47
100
AcDbScale
 70
     0
300
1/16" = 1'-0"
140
0.0625
141
12.0
290
     0
  0
SCALE
  5
5D
102
{ACAD_REACTORS
330
47
102
}
330
47
100
AcDbScale
 70
     0
300
3/32" = 1'-0"
140
0.09375
141
12.0
290
     0
  0
SCALE
  5
5E
102
{ACAD_REACTORS
330
47
102
}
330
47
100
AcDbScale
 70
     0
300
1/8" = 1'-0"
140
0.125
141
12.0
290
     0
  0
SCALE
  5
5F
102
{ACAD_REACTORS
330
47
102
}
330
47
100
AcDbScale
 70
     0
300
3/16" = 1'-0"
140
0.1875
141
12.0
290
     0
  0
SCALE
  5
60
102
{ACAD_REACTORS
330
47
102
}
330
47
100
AcDbScale
 70
     0
300
1/4" = 1'-0"
140
0.25
141
12.0
290
     0
  0
SCALE
  5
61
102
{ACAD_REACTORS
330
47
102
}
330
47
100
AcDbScale
 70
     0
300
3/8" = 1'-0"
140
0.375
141
12.0
290
     0
  0
SCALE
  5
62
102
{ACAD_REACTORS
330
47
102
}
330
47
100
AcDbScale
 70
     0
300
1/2" = 1'-0"
140
0.5
141
12.0
290
     0
  0
SCALE
  5
63
102
{ACAD_REACTORS
330
47
102
}
330
47
100
AcDbScale
 70
     0
300
3/4" = 1'-0"
140
0.75
141
12.0
290
     0
  0
SCALE
  5
64
102
{ACAD_REACTORS
330
47
102
}
330
47
100
AcDbScale
 70
     0
300
1" = 1'-0"
140
1.0
141
12.0
290
     0
  0
SCALE
  5
65
102
{ACAD_REACTORS
330
47
102
}
330
47
100
AcDbScale
 70
     0
300
1-1/2" = 1'-0"
140
1.5
141
12.0
290
     0
  0
SCALE
  5
66
102
{ACAD_REACTORS
330
47
102
}
330
47
100
AcDbScale
 70
     0
300
3" = 1'-0"
140
3.0
141
12.0
290
     0
  0
SCALE
  5
67
102
{ACAD_REACTORS
330
47
102
}
330
47
100
AcDbScale
 70
     0
300
6" = 1'-0"
140
6.0
141
12.0
290
     0
  0
SCALE
  5
68
102
{ACAD_REACTORS
330
47
102
}
330
47
100
AcDbScale
 70
     0
300
1'-0" = 1'-0"
140
12.0
141
12.0
290
     0
  0
VISUALSTYLE
  5
2F
102
{ACAD_REACTORS
330
2A
102
}
330
2A
100
AcDbVisualStyle
  2
2dWireframe
 70
     4
177
     3
291
     0
 70
    58
 90
        0
176
     1
 90
        2
176
     1
 90
        0
176
     1
 90
        0
176
     1
 40
0.6
176
     1
 40
30.0
176
     1
 62
     7
420
 16777215
176
     1
 90
        1
176
     1
 90
        4
176
     1
 62
     7
176
     1
 62
   257
176
     1
 90
        1
176
     1
 90
        1
176
     1
 40
1.0
176
     1
 90
        0
176
     1
 62
   257
176
     1
 40
1.0
176
     1
 90
        1
176
     1
 90
        6
176
     1
 90
        2
176
     1
 62
     7
176
     1
 90
        5
176
     1
 90
        0
176
     1
 90
        0
176
     1
290
     0
176
     1
 90
        1
176
     1
 40
0.0
176
     1
 90
        0
176
     1
290
     1
176
     1
290
     1
176
     1
290
     0
176
     1
290
     0
176
     1
290
     0
176
     1
290
     0
176
     1
290
     0
176
     1
290
     0
176
     1
290
     0
176
     1
 90
       50
176
     1
 40
0.0
176
     1
 40
1.0
176
     1
 90
        0
176
     1
 62
    18
420
        0
176
     1
 90
       50
176
     1
 90
        3
176
     1
 62
     5
420
      255
176
     1
290
     0
176
     1
 90
       50
176
     1
 90
       50
176
     1
 90
       50
176
     1
290
     0
176
     1
 90
       50
176
     1
 62
   256
176
     0
 40
1.0
176
     0
 90
        2
176
     1
  1
strokes_ogs.tif
176
     1
290
     0
176
     1
 40
1.0
176
     1
 40
1.0
176
     1
  0
VISUALSTYLE
  5
32
102
{ACAD_REACTORS
330
2A
102
}
330
2A
100
AcDbVisualStyle
  2
Basic
 70
     7
177
     3
291
     1
 70
    58
 90
        1
176
     1
 90
        0
176
     1
 90
        1
176
     1
 90
        0
176
     1
 40
0.6
176
     1
 40
30.0
176
     1
 62
     7
420
 16777215
176
     1
 90
        0
176
     1
 90
        4
176
     1
 62
     7
176
     1
 62
   257
176
     1
 90
        1
176
     1
 90
        1
176
     1
 40
1.0
176
     1
 90
        8
176
     1
 62
     7
176
     1
 40
1.0
176
     1
 90
        1
176
     1
 90
        6
176
     1
 90
        2
176
     1
 62
     7
176
     1
 90
        5
176
     1
 90
        0
176
     1
 90
        0
176
     1
290
     0
176
     1
 90
        1
176
     1
 40
0.0
176
     1
 90
        0
176
     1
290
     0
176
     1
290
     1
176
     1
290
     1
176
     1
290
     0
176
     1
290
     0
176
     1
290
     0
176
     1
290
     0
176
     1
290
     0
176
     1
290
     0
176
     1
 90
       50
176
     1
 40
0.0
176
     1
 40
1.0
176
     1
 90
        0
176
     1
 62
    18
420
        0
176
     1
 90
       50
176
     1
 90
        3
176
     1
 62
     5
420
      255
176
     1
290
     0
176
     1
 90
       50
176
     1
 90
       50
176
     1
 90
       50
176
     1
290
     0
176
     1
 90
       50
176
     1
 62
   256
176
     0
 40
1.0
176
     0
 90
        2
176
     1
  1
strokes_ogs.tif
176
     1
290
     0
176
     1
 40
1.0
176
     1
 40
1.0
176
     1
  0
VISUALSTYLE
  5
36
102
{ACAD_REACTORS
330
2A
102
}
330
2A
100
AcDbVisualStyle
  2
Brighten
 70
    12
177
     3
291
     1
 70
    58
 90
        2
176
     1
 90
        2
176
     1
 90
        0
176
     1
 90
        0
176
     1
 40
0.6
176
     1
 40
30.0
176
     1
 62
     7
420
 16777215
176
     1
 90
        1
176
     1
 90
        4
176
     1
 62
     7
176
     1
 62
   257
176
     1
 90
        1
176
     1
 90
        1
176
     1
 40
1.0
176
     1
 90
        8
176
     1
 62
     7
176
     1
 40
1.0
176
     1
 90
        1
176
     1
 90
        6
176
     1
 90
        2
176
     1
 62
     7
176
     1
 90
        5
176
     1
 90
        0
176
     1
 90
        0
176
     1
290
     0
176
     1
 90
        1
176
     1
 40
50.0
176
     1
 90
        0
176
     1
290
     0
176
     1
290
     1
176
     1
290
     1
176
     1
290
     0
176
     1
290
     0
176
     1
290
     0
176
     1
290
     0
176
     1
290
     0
176
     1
290
     0
176
     1
 90
       50
176
     1
 40
0.0
176
     1
 40
1.0
176
     1
 90
        0
176
     1
 62
    18
420
        0
176
     1
 90
       50
176
     1
 90
        3
176
     1
 62
     5
420
      255
176
     1
290
     0
176
     1
 90
       50
176
     1
 90
       50
176
     1
 90
       50
176
     1
290
     0
176
     1
 90
       50
176
     1
 62
   256
176
     0
 40
1.0
176
     0
 90
        2
176
     1
  1
strokes_ogs.tif
176
     1
290
     0
176
     1
 40
1.0
176
     1
 40
1.0
176
     1
  0
VISUALSTYLE
  5
3A
102
{ACAD_REACTORS
330
2A
102
}
330
2A
100
AcDbVisualStyle
  2
ColorChange
 70
    16
177
     3
291
     1
 70
    58
 90
        2
176
     1
 90
        2
176
     1
 90
        3
176
     1
 90
        0
176
     1
 40
0.6
176
     1
 40
30.0
176
     1
 62
     8
420
  8421504
176
     1
 90
        1
176
     1
 90
        4
176
     1
 62
     7
176
     1
 62
   257
176
     1
 90
        1
176
     1
 90
        1
176
     1
 40
1.0
176
     1
 90
        8
176
     1
 62
     8
420
  8421504
176
     1
 40
1.0
176
     1
 90
        1
176
     1
 90
        6
176
     1
 90
        2
176
     1
 62
     7
176
     1
 90
        5
176
     1
 90
        0
176
     1
 90
        0
176
     1
290
     0
176
     1
 90
        1
176
     1
 40
0.0
176
     1
 90
        0
176
     1
290
     0
176
     1
290
     1
176
     1
290
     1
176
     1
290
     0
176
     1
290
     0
176
     1
290
     0
176
     1
290
     0
176
     1
290
     0
176
     1
290
     0
176
     1
 90
       50
176
     1
 40
0.0
176
     1
 40
1.0
176
     1
 90
        0
176
     1
 62
    18
420
        0
176
     1
 90
       50
176
     1
 90
        3
176
     1
 62
     5
420
      255
176
     1
290
     0
176
     1
 90
       50
176
     1
 90
       50
176
     1
 90
       50
176
     1
290
     0
176
     1
 90
       50
176
     1
 62
   256
176
     0
 40
1.0
176
     0
 90
        2
176
     1
  1
strokes_ogs.tif
176
     1
290
     0
176
     1
 40
1.0
176
     1
 40
1.0
176
     1
  0
VISUALSTYLE
  5
34
102
{ACAD_REACTORS
330
2A
102
}
330
2A
100
AcDbVisualStyle
  2
Conceptual
 70
     9
177
     3
291
     0
 70
    58
 90
        3
176
     1
 90
        2
176
     1
 90
        0
176
     1
 90
        0
176
     1
 40
0.6
176
     1
 40
30.0
176
     1
 62
     7
420
 16777215
176
     1
 90
        2
176
     1
 90
        2
176
     1
 62
     7
176
     1
 62
   257
176
     1
 90
        1
176
     1
 90
        1
176
     1
 40
179.0
176
     1
 90
        8
176
     1
 62
     7
176
     1
 40
1.0
176
     1
 90
        1
176
     1
 90
        6
176
     1
 90
        2
176
     1
 62
     7
176
     1
 90
        3
176
     1
 90
        0
176
     1
 90
        0
176
     1
290
     0
176
     1
 90
        1
176
     1
 40
0.0
176
     1
 90
        0
176
     1
290
     0
176
     1
290
     1
176
     1
290
     1
176
     1
290
     0
176
     1
290
     0
176
     1
290
     0
176
     1
290
     0
176
     1
290
     0
176
     1
290
     0
176
     1
 90
       50
176
     1
 40
0.0
176
     1
 40
1.0
176
     1
 90
        0
176
     1
 62
    18
420
        0
176
     1
 90
       50
176
     1
 90
        3
176
     1
 62
     5
420
      255
176
     1
290
     0
176
     1
 90
       50
176
     1
 90
       50
176
     1
 90
       50
176
     1
290
     0
176
     1
 90
       50
176
     1
 62
   256
176
     0
 40
1.0
176
     0
 90
        2
176
     1
  1
strokes_ogs.tif
176
     1
290
     0
176
     1
 40
1.0
176
     1
 40
1.0
176
     1
  0
VISUALSTYLE
  5
35
102
{ACAD_REACTORS
330
2A
102
}
330
2A
100
AcDbVisualStyle
  2
Dim
 70
    11
177
     3
291
     1
 70
    58
 90
        2
176
     1
 90
        2
176
     1
 90
        0
176
     1
 90
        0
176
     1
 40
0.6
176
     1
 40
30.0
176
     1
 62
     7
420
 16777215
176
     1
 90
        1
176
     1
 90
        4
176
     1
 62
     7
176
     1
 62
   257
176
     1
 90
        1
176
     1
 90
        1
176
     1
 40
1.0
176
     1
 90
        8
176
     1
 62
     7
176
     1
 40
1.0
176
     1
 90
        1
176
     1
 90
        6
176
     1
 90
        2
176
     1
 62
     7
176
     1
 90
        5
176
     1
 90
        0
176
     1
 90
        0
176
     1
290
     0
176
     1
 90
        1
176
     1
 40
-50.0
176
     1
 90
        0
176
     1
290
     0
176
     1
290
     1
176
     1
290
     1
176
     1
290
     0
176
     1
290
     0
176
     1
290
     0
176
     1
290
     0
176
     1
290
     0
176
     1
290
     0
176
     1
 90
       50
176
     1
 40
0.0
176
     1
 40
1.0
176
     1
 90
        0
176
     1
 62
    18
420
        0
176
     1
 90
       50
176
     1
 90
        3
176
     1
 62
     5
420
      255
176
     1
290
     0
176
     1
 90
       50
176
     1
 90
       50
176
     1
 90
       50
176
     1
290
     0
176
     1
 90
       50
176
     1
 62
   256
176
     0
 40
1.0
176
     0
 90
        2
176
     1
  1
strokes_ogs.tif
176
     1
290
     0
176
     1
 40
1.0
176
     1
 40
1.0
176
     1
  0
VISUALSTYLE
  5
3D
102
{ACAD_REACTORS
330
2A
102
}
330
2A
100
AcDbVisualStyle
  2
EdgeColorOff
 70
    22
177
     3
291
     1
 70
    58
 90
        2
176
     0
 90
        2
176
     0
 90
        0
176
     0
 90
        0
176
     0
 40
0.6
176
     0
 40
30.0
176
     0
 62
     7
420
 16777215
176
     0
 90
        1
176
     0
 90
        4
176
     0
 62
     7
176
     0
 62
   257
176
     0
 90
        1
176
     0
 90
        1
176
     0
 40
1.0
176
     0
 90
        8
176
     2
 62
     7
176
     0
 40
1.0
176
     0
 90
        1
176
     0
 90
        6
176
     0
 90
        2
176
     0
 62
     7
176
     0
 90
        5
176
     0
 90
        0
176
     0
 90
        0
176
     0
290
     0
176
     0
 90
        1
176
     0
 40
0.0
176
     0
 90
        0
176
     0
290
     0
176
     0
290
     1
176
     0
290
     1
176
     0
290
     0
176
     0
290
     0
176
     0
290
     0
176
     0
290
     0
176
     0
290
     0
176
     0
290
     0
176
     0
 90
       50
176
     0
 40
0.0
176
     0
 40
1.0
176
     0
 90
        0
176
     0
 62
    18
420
        0
176
     0
 90
       50
176
     0
 90
        3
176
     0
 62
     5
420
      255
176
     0
290
     0
176
     0
 90
       50
176
     0
 90
       50
176
     0
 90
       50
176
     0
290
     0
176
     0
 90
       50
176
     0
 62
   256
176
     0
 40
1.0
176
     0
 90
        2
176
     0
  1
strokes_ogs.tif
176
     0
290
     0
176
     0
 40
1.0
176
     0
 40
1.0
176
     0
  0
VISUALSTYLE
  5
39
102
{ACAD_REACTORS
330
2A
102
}
330
2A
100
AcDbVisualStyle
  2
Facepattern
 70
    15
177
     3
291
     1
 70
    58
 90
        2
176
     1
 90
        2
176
     1
 90
        0
176
     1
 90
        0
176
     1
 40
0.6
176
     1
 40
30.0
176
     1
 62
     7
420
 16777215
176
     1
 90
        1
176
     1
 90
        4
176
     1
 62
     7
176
     1
 62
   257
176
     1
 90
        1
176
     1
 90
        1
176
     1
 40
1.0
176
     1
 90
        8
176
     1
 62
     7
176
     1
 40
1.0
176
     1
 90
        1
176
     1
 90
        6
176
     1
 90
        2
176
     1
 62
     7
176
     1
 90
        5
176
     1
 90
        0
176
     1
 90
        0
176
     1
290
     0
176
     1
 90
        1
176
     1
 40
0.0
176
     1
 90
        0
176
     1
290
     0
176
     1
290
     1
176
     1
290
     1
176
     1
290
     0
176
     1
290
     0
176
     1
290
     0
176
     1
290
     0
176
     1
290
     0
176
     1
290
     0
176
     1
 90
       50
176
     1
 40
0.0
176
     1
 40
1.0
176
     1
 90
        0
176
     1
 62
    18
420
        0
176
     1
 90
       50
176
     1
 90
        3
176
     1
 62
     5
420
      255
176
     1
290
     0
176
     1
 90
       50
176
     1
 90
       50
176
     1
 90
       50
176
     1
290
     0
176
     1
 90
       50
176
     1
 62
   256
176
     0
 40
1.0
176
     0
 90
        2
176
     1
  1
strokes_ogs.tif
176
     1
290
     0
176
     1
 40
1.0
176
     1
 40
1.0
176
     1
  0
VISUALSTYLE
  5
2B
102
{ACAD_REACTORS
330
2A
102
}
330
2A
100
AcDbVisualStyle
  2
Flat
 70
     0
177
     3
291
     1
 70
    58
 90
        2
176
     1
 90
        1
176
     1
 90
        1
176
     1
 90
        2
176
     1
 40
0.6
176
     1
 40
30.0
176
     1
 62
     7
420
 16777215
176
     1
 90
        0
176
     1
 90
        0
176
     1
 62
     7
176
     1
 62
   257
176
     1
 90
        1
176
     1
 90
        1
176
     1
 40
1.0
176
     1
 90
        8
176
     1
 62
     7
176
     1
 40
1.0
176
     1
 90
        1
176
     1
 90
        6
176
     1
 90
        2
176
     1
 62
     7
176
     1
 90
        5
176
     1
 90
        0
176
     1
 90
        0
176
     1
290
     0
176
     1
 90
       13
176
     1
 40
0.0
176
     1
 90
        0
176
     1
290
     0
176
     1
290
     1
176
     1
290
     1
176
     1
290
     0
176
     1
290
     0
176
     1
290
     0
176
     1
290
     0
176
     1
290
     0
176
     1
290
     0
176
     1
 90
       50
176
     1
 40
0.0
176
     1
 40
1.0
176
     1
 90
        0
176
     1
 62
    18
420
        0
176
     1
 90
       50
176
     1
 90
        3
176
     1
 62
     5
420
      255
176
     1
290
     0
176
     1
 90
       50
176
     1
 90
       50
176
     1
 90
       50
176
     1
290
     0
176
     1
 90
       50
176
     1
 62
   256
176
     0
 40
1.0
176
     0
 90
        2
176
     1
  1
strokes_ogs.tif
176
     1
290
     0
176
     1
 40
1.0
176
     1
 40
1.0
176
     1
  0
VISUALSTYLE
  5
2C
102
{ACAD_REACTORS
330
2A
102
}
330
2A
100
AcDbVisualStyle
  2
FlatWithEdges
 70
     1
177
     3
291
     1
 70
    58
 90
        2
176
     1
 90
        1
176
     1
 90
        1
176
     1
 90
        2
176
     1
 40
0.6
176
     1
 40
30.0
176
     1
 62
     7
420
 16777215
176
     1
 90
        1
176
     1
 90
        0
176
     1
 62
     7
176
     1
 62
   257
176
     1
 90
        1
176
     1
 90
        1
176
     1
 40
1.0
176
     1
 90
        0
176
     1
 62
   257
176
     1
 40
1.0
176
     1
 90
        1
176
     1
 90
        6
176
     1
 90
        2
176
     1
 62
     7
176
     1
 90
        5
176
     1
 90
        0
176
     1
 90
        0
176
     1
290
     0
176
     1
 90
       13
176
     1
 40
0.0
176
     1
 90
        0
176
     1
290
     0
176
     1
290
     1
176
     1
290
     1
176
     1
290
     0
176
     1
290
     0
176
     1
290
     0
176
     1
290
     0
176
     1
290
     0
176
     1
290
     0
176
     1
 90
       50
176
     1
 40
0.0
176
     1
 40
1.0
176
     1
 90
        0
176
     1
 62
    18
420
        0
176
     1
 90
       50
176
     1
 90
        3
176
     1
 62
     5
420
      255
176
     1
290
     0
176
     1
 90
       50
176
     1
 90
       50
176
     1
 90
       50
176
     1
290
     0
176
     1
 90
       50
176
     1
 62
   256
176
     0
 40
1.0
176
     0
 90
        2
176
     1
  1
strokes_ogs.tif
176
     1
290
     0
176
     1
 40
1.0
176
     1
 40
1.0
176
     1
  0
VISUALSTYLE
  5
2D
102
{ACAD_REACTORS
330
2A
102
}
330
2A
100
AcDbVisualStyle
  2
Gouraud
 70
     2
177
     3
291
     1
 70
    58
 90
        2
176
     1
 90
        2
176
     1
 90
        1
176
     1
 90
        2
176
     1
 40
0.6
176
     1
 40
30.0
176
     1
 62
     7
420
 16777215
176
     1
 90
        0
176
     1
 90
        0
176
     1
 62
     7
176
     1
 62
   257
176
     1
 90
        1
176
     1
 90
        1
176
     1
 40
1.0
176
     1
 90
        0
176
     1
 62
     7
176
     1
 40
1.0
176
     1
 90
        1
176
     1
 90
        6
176
     1
 90
        2
176
     1
 62
     7
176
     1
 90
        5
176
     1
 90
        0
176
     1
 90
        0
176
     1
290
     0
176
     1
 90
       13
176
     1
 40
0.0
176
     1
 90
        0
176
     1
290
     0
176
     1
290
     1
176
     1
290
     1
176
     1
290
     0
176
     1
290
     0
176
     1
290
     0
176
     1
290
     0
176
     1
290
     0
176
     1
290
     0
176
     1
 90
       50
176
     1
 40
0.0
176
     1
 40
1.0
176
     1
 90
        0
176
     1
 62
    18
420
        0
176
     1
 90
       50
176
     1
 90
        3
176
     1
 62
     5
420
      255
176
     1
290
     0
176
     1
 90
       50
176
     1
 90
       50
176
     1
 90
       50
176
     1
290
     0
176
     1
 90
       50
176
     1
 62
   256
176
     0
 40
1.0
176
     0
 90
        2
176
     1
  1
strokes_ogs.tif
176
     1
290
     0
176
     1
 40
1.0
176
     1
 40
1.0
176
     1
  0
VISUALSTYLE
  5
2E
102
{ACAD_REACTORS
330
2A
102
}
330
2A
100
AcDbVisualStyle
  2
GouraudWithEdges
 70
     3
177
     3
291
     1
 70
    58
 90
        2
176
     1
 90
        2
176
     1
 90
        1
176
     1
 90
        2
176
     1
 40
0.6
176
     1
 40
30.0
176
     1
 62
     7
420
 16777215
176
     1
 90
        1
176
     1
 90
        0
176
     1
 62
     7
176
     1
 62
   257
176
     1
 90
        1
176
     1
 90
        1
176
     1
 40
1.0
176
     1
 90
        0
176
     1
 62
   257
176
     1
 40
1.0
176
     1
 90
        1
176
     1
 90
        6
176
     1
 90
        2
176
     1
 62
     7
176
     1
 90
        5
176
     1
 90
        0
176
     1
 90
        0
176
     1
290
     0
176
     1
 90
       13
176
     1
 40
0.0
176
     1
 90
        0
176
     1
290
     0
176
     1
290
     1
176
     1
290
     1
176
     1
290
     0
176
     1
290
     0
176
     1
290
     0
176
     1
290
     0
176
     1
290
     0
176
     1
290
     0
176
     1
 90
       50
176
     1
 40
0.0
176
     1
 40
1.0
176
     1
 90
        0
176
     1
 62
    18
420
        0
176
     1
 90
       50
176
     1
 90
        3
176
     1
 62
     5
420
      255
176
     1
290
     0
176
     1
 90
       50
176
     1
 90
       50
176
     1
 90
       50
176
     1
290
     0
176
     1
 90
       50
176
     1
 62
   256
176
     0
 40
1.0
176
     0
 90
        2
176
     1
  1
strokes_ogs.tif
176
     1
290
     0
176
     1
 40
1.0
176
     1
 40
1.0
176
     1
  0
VISUALSTYLE
  5
31
102
{ACAD_REACTORS
330
2A
102
}
330
2A
100
AcDbVisualStyle
  2
Hidden
 70
     6
177
     3
291
     0
 70
    58
 90
        1
176
     1
 90
        2
176
     1
 90
        2
176
     1
 90
        0
176
     1
 40
0.6
176
     1
 40
30.0
176
     1
 62
     7
420
 16777215
176
     1
 90
        2
176
     1
 90
        2
176
     1
 62
     7
176
     1
 62
   257
176
     1
 90
        2
176
     1
 90
        1
176
     1
 40
40.0
176
     1
 90
        0
176
     1
 62
   257
176
     1
 40
1.0
176
     1
 90
        1
176
     1
 90
        6
176
     1
 90
        2
176
     1
 62
     7
176
     1
 90
        3
176
     1
 90
        0
176
     1
 90
        0
176
     1
290
     0
176
     1
 90
        1
176
     1
 40
0.0
176
     1
 90
        0
176
     1
290
     0
176
     1
290
     1
176
     1
290
     1
176
     1
290
     0
176
     1
290
     0
176
     1
290
     0
176
     1
290
     0
176
     1
290
     0
176
     1
290
     0
176
     1
 90
       50
176
     1
 40
0.0
176
     1
 40
1.0
176
     1
 90
        0
176
     1
 62
    18
420
        0
176
     1
 90
       50
176
     1
 90
        3
176
     1
 62
     5
420
      255
176
     1
290
     0
176
     1
 90
       50
176
     1
 90
       50
176
     1
 90
       50
176
     1
290
     0
176
     1
 90
       50
176
     1
 62
   256
176
     0
 40
1.0
176
     0
 90
        2
176
     1
  1
strokes_ogs.tif
176
     1
290
     0
176
     1
 40
1.0
176
     1
 40
1.0
176
     1
  0
VISUALSTYLE
  5
3B
102
{ACAD_REACTORS
330
2A
102
}
330
2A
100
AcDbVisualStyle
  2
JitterOff
 70
    20
177
     3
291
     1
 70
    58
 90
        2
176
     0
 90
        2
176
     0
 90
        0
176
     0
 90
        0
176
     0
 40
0.6
176
     0
 40
30.0
176
     0
 62
     7
420
 16777215
176
     0
 90
        1
176
     0
 90
        4
176
     0
 62
     7
176
     0
 62
   257
176
     0
 90
        1
176
     0
 90
        1
176
     0
 40
1.0
176
     0
 90
       10
176
     2
 62
     7
176
     0
 40
1.0
176
     0
 90
        1
176
     0
 90
        6
176
     0
 90
        2
176
     0
 62
     7
176
     0
 90
        5
176
     0
 90
        0
176
     0
 90
        0
176
     0
290
     0
176
     0
 90
        1
176
     0
 40
0.0
176
     0
 90
        0
176
     0
290
     0
176
     0
290
     1
176
     0
290
     1
176
     0
290
     0
176
     0
290
     0
176
     0
290
     0
176
     0
290
     0
176
     0
290
     0
176
     0
290
     0
176
     0
 90
       50
176
     0
 40
0.0
176
     0
 40
1.0
176
     0
 90
        0
176
     0
 62
    18
420
        0
176
     0
 90
       50
176
     0
 90
        3
176
     0
 62
     5
420
      255
176
     0
290
     0
176
     0
 90
       50
176
     0
 90
       50
176
     0
 90
       50
176
     0
290
     0
176
     0
 90
       50
176
     0
 62
   256
176
     0
 40
1.0
176
     0
 90
        2
176
     0
  1
strokes_ogs.tif
176
     0
290
     0
176
     0
 40
1.0
176
     0
 40
1.0
176
     0
  0
VISUALSTYLE
  5
38
102
{ACAD_REACTORS
330
2A
102
}
330
2A
100
AcDbVisualStyle
  2
Linepattern
 70
    14
177
     3
291
     1
 70
    58
 90
        2
176
     1
 90
        2
176
     1
 90
        0
176
     1
 90
        0
176
     1
 40
0.6
176
     1
 40
30.0
176
     1
 62
     7
420
 16777215
176
     1
 90
        1
176
     1
 90
        4
176
     1
 62
     7
176
     1
 62
   257
176
     1
 90
        7
176
     1
 90
        7
176
     1
 40
1.0
176
     1
 90
        8
176
     1
 62
     7
176
     1
 40
1.0
176
     1
 90
        1
176
     1
 90
        6
176
     1
 90
        2
176
     1
 62
     7
176
     1
 90
        5
176
     1
 90
        0
176
     1
 90
        0
176
     1
290
     0
176
     1
 90
        1
176
     1
 40
0.0
176
     1
 90
        0
176
     1
290
     0
176
     1
290
     1
176
     1
290
     1
176
     1
290
     0
176
     1
290
     0
176
     1
290
     0
176
     1
290
     0
176
     1
290
     0
176
     1
290
     0
176
     1
 90
       50
176
     1
 40
0.0
176
     1
 40
1.0
176
     1
 90
        0
176
     1
 62
    18
420
        0
176
     1
 90
       50
176
     1
 90
        3
176
     1
 62
     5
420
      255
176
     1
290
     0
176
     1
 90
       50
176
     1
 90
       50
176
     1
 90
       50
176
     1
290
     0
176
     1
 90
       50
176
     1
 62
   256
176
     0
 40
1.0
176
     0
 90
        2
176
     1
  1
strokes_ogs.tif
176
     1
290
     0
176
     1
 40
1.0
176
     1
 40
1.0
176
     1
  0
VISUALSTYLE
  5
3C
102
{ACAD_REACTORS
330
2A
102
}
330
2A
100
AcDbVisualStyle
  2
OverhangOff
 70
    21
177
     3
291
     1
 70
    58
 90
        2
176
     0
 90
        2
176
     0
 90
        0
176
     0
 90
        0
176
     0
 40
0.6
176
     0
 40
30.0
176
     0
 62
     7
420
 16777215
176
     0
 90
        1
176
     0
 90
        4
176
     0
 62
     7
176
     0
 62
   257
176
     0
 90
        1
176
     0
 90
        1
176
     0
 40
1.0
176
     0
 90
        9
176
     2
 62
     7
176
     0
 40
1.0
176
     0
 90
        1
176
     0
 90
        6
176
     0
 90
        2
176
     0
 62
     7
176
     0
 90
        5
176
     0
 90
        0
176
     0
 90
        0
176
     0
290
     0
176
     0
 90
        1
176
     0
 40
0.0
176
     0
 90
        0
176
     0
290
     0
176
     0
290
     1
176
     0
290
     1
176
     0
290
     0
176
     0
290
     0
176
     0
290
     0
176
     0
290
     0
176
     0
290
     0
176
     0
290
     0
176
     0
 90
       50
176
     0
 40
0.0
176
     0
 40
1.0
176
     0
 90
        0
176
     0
 62
    18
420
        0
176
     0
 90
       50
176
     0
 90
        3
176
     0
 62
     5
420
      255
176
     0
290
     0
176
     0
 90
       50
176
     0
 90
       50
176
     0
 90
       50
176
     0
290
     0
176
     0
 90
       50
176
     0
 62
   256
176
     0
 40
1.0
176
     0
 90
        2
176
     0
  1
strokes_ogs.tif
176
     0
290
     0
176
     0
 40
1.0
176
     0
 40
1.0
176
     0
  0
VISUALSTYLE
  5
33
102
{ACAD_REACTORS
330
2A
102
}
330
2A
100
AcDbVisualStyle
  2
Realistic
 70
     8
177
     3
291
     0
 70
    58
 90
        2
176
     1
 90
        3
176
     1
 90
        0
176
     1
 90
        2
176
     1
 40
0.6
176
     1
 40
30.0
176
     1
 62
     7
420
 16777215
176
     1
 90
        0
176
     1
 90
        0
176
     1
 62
     7
176
     1
 62
   257
176
     1
 90
        1
176
     1
 90
        1
176
     1
 40
1.0
176
     1
 90
        8
176
     1
 62
   257
176
     1
 40
1.0
176
     1
 90
        1
176
     1
 90
        6
176
     1
 90
        2
176
     1
 62
     7
176
     1
 90
        3
176
     1
 90
        0
176
     1
 90
        0
176
     1
290
     0
176
     1
 90
       13
176
     1
 40
0.0
176
     1
 90
        0
176
     1
290
     0
176
     1
290
     1
176
     1
290
     1
176
     1
290
     0
176
     1
290
     0
176
     1
290
     0
176
     1
290
     0
176
     1
290
     0
176
     1
290
     0
176
     1
 90
       50
176
     1
 40
0.0
176
     1
 40
1.0
176
     1
 90
        0
176
     1
 62
    18
420
        0
176
     1
 90
       50
176
     1
 90
        3
176
     1
 62
     5
420
      255
176
     1
290
     0
176
     1
 90
       50
176
     1
 90
       50
176
     1
 90
       50
176
     1
290
     0
176
     1
 90
       50
176
     1
 62
   256
176
     0
 40
1.0
176
     0
 90
        2
176
     1
  1
strokes_ogs.tif
176
     1
290
     0
176
     1
 40
1.0
176
     1
 40
1.0
176
     1
  0
VISUALSTYLE
  5
42
102
{ACAD_REACTORS
330
2A
102
}
330
2A
100
AcDbVisualStyle
  2
Shaded
 70
    27
177
     3
291
     0
 70
    58
 90
        2
176
     1
 90
        2
176
     1
 90
        1
176
     1
 90
        2
176
     1
 40
0.6
176
     1
 40
30.0
176
     1
 62
     7
420
 16777215
176
     1
 90
        0
176
     1
 90
        4
176
     1
 62
     7
176
     1
 62
   257
176
     1
 90
        1
176
     1
 90
        1
176
     1
 40
1.0
176
     1
 90
        8
176
     1
 62
   257
176
     1
 40
1.0
176
     1
 90
        1
176
     1
 90
        6
176
     1
 90
        2
176
     1
 62
     8
420
  7895160
176
     1
 90
        3
176
     1
 90
        0
176
     1
 90
        0
176
     1
290
     0
176
     1
 90
        5
176
     1
 40
0.0
176
     1
 90
        0
176
     1
290
     0
176
     1
290
     1
176
     1
290
     1
176
     1
290
     0
176
     1
290
     0
176
     1
290
     0
176
     1
290
     0
176
     1
290
     0
176
     1
290
     0
176
     1
 90
       50
176
     1
 40
0.0
176
     1
 40
1.0
176
     1
 90
        0
176
     1
 62
    18
420
        0
176
     1
 90
       50
176
     1
 90
        3
176
     1
 62
     5
420
      255
176
     1
290
     0
176
     1
 90
       50
176
     1
 90
       50
176
     1
 90
       50
176
     1
290
     0
176
     1
 90
       50
176
     1
 62
   256
176
     0
 40
1.0
176
     0
 90
        2
176
     1
  1
strokes_ogs.tif
176
     1
290
     0
176
     1
 40
1.0
176
     1
 40
1.0
176
     1
  0
VISUALSTYLE
  5
41
102
{ACAD_REACTORS
330
2A
102
}
330
2A
100
AcDbVisualStyle
  2
Shaded with edges
 70
    26
177
     3
291
     0
 70
    58
 90
        2
176
     1
 90
        2
176
     1
 90
        1
176
     1
 90
        2
176
     1
 40
0.6
176
     1
 40
30.0
176
     1
 62
     7
420
 16777215
176
     1
 90
        1
176
     1
 90
       10
176
     1
 62
     7
176
     1
 62
   257
176
     1
 90
        2
176
     1
 90
        1
176
     1
 40
1.0
176
     1
 90
        8
176
     1
 62
   257
176
     1
 40
1.0
176
     1
 90
        1
176
     1
 90
        6
176
     1
 90
        2
176
     1
 62
     7
176
     1
 90
        3
176
     1
 90
        0
176
     1
 90
        0
176
     1
290
     0
176
     1
 90
        5
176
     1
 40
0.0
176
     1
 90
        0
176
     1
290
     0
176
     1
290
     1
176
     1
290
     1
176
     1
290
     0
176
     1
290
     0
176
     1
290
     0
176
     1
290
     0
176
     1
290
     0
176
     1
290
     0
176
     1
 90
       50
176
     1
 40
0.0
176
     1
 40
1.0
176
     1
 90
        0
176
     1
 62
    18
420
        0
176
     1
 90
       50
176
     1
 90
        3
176
     1
 62
     5
420
      255
176
     1
290
     0
176
     1
 90
       50
176
     1
 90
       50
176
     1
 90
       50
176
     1
290
     0
176
     1
 90
       50
176
     1
 62
   256
176
     0
 40
1.0
176
     0
 90
        2
176
     1
  1
strokes_ogs.tif
176
     1
290
     0
176
     1
 40
1.0
176
     1
 40
1.0
176
     1
  0
VISUALSTYLE
  5
3E
102
{ACAD_REACTORS
330
2A
102
}
330
2A
100
AcDbVisualStyle
  2
Shades of Gray
 70
    23
177
     3
291
     0
 70
    58
 90
        2
176
     1
 90
        2
176
     1
 90
        3
176
     1
 90
        0
176
     1
 40
0.6
176
     1
 40
30.0
176
     1
 62
     7
420
 16777215
176
     1
 90
        2
176
     1
 90
        2
176
     1
 62
     7
176
     1
 62
     7
176
     1
 90
        1
176
     1
 90
        1
176
     1
 40
40.0
176
     1
 90
        8
176
     1
 62
     7
176
     1
 40
1.0
176
     1
 90
        1
176
     1
 90
        6
176
     1
 90
        2
176
     1
 62
     7
176
     1
 90
        3
176
     1
 90
        0
176
     1
 90
        0
176
     1
290
     0
176
     1
 90
        1
176
     1
 40
0.0
176
     1
 90
        0
176
     1
290
     0
176
     1
290
     1
176
     1
290
     1
176
     1
290
     0
176
     1
290
     0
176
     1
290
     0
176
     1
290
     0
176
     1
290
     0
176
     1
290
     0
176
     1
 90
       50
176
     1
 40
0.0
176
     1
 40
1.0
176
     1
 90
        0
176
     1
 62
    18
420
        0
176
     1
 90
       50
176
     1
 90
        3
176
     1
 62
     5
420
      255
176
     1
290
     0
176
     1
 90
       50
176
     1
 90
       50
176
     1
 90
       50
176
     1
290
     0
176
     1
 90
       50
176
     1
 62
   256
176
     0
 40
1.0
176
     0
 90
        2
176
     1
  1
strokes_ogs.tif
176
     1
290
     0
176
     1
 40
1.0
176
     1
 40
1.0
176
     1
  0
VISUALSTYLE
  5
3F
102
{ACAD_REACTORS
330
2A
102
}
330
2A
100
AcDbVisualStyle
  2
Sketchy
 70
    24
177
     3
291
     0
 70
    58
 90
        1
176
     1
 90
        2
176
     1
 90
        2
176
     1
 90
        0
176
     1
 40
0.6
176
     1
 40
30.0
176
     1
 62
     7
420
 16777215
176
     1
 90
        2
176
     1
 90
        2
176
     1
 62
     7
176
     1
 62
     7
176
     1
 90
        1
176
     1
 90
        1
176
     1
 40
40.0
176
     1
 90
       11
176
     1
 62
     7
176
     1
 40
1.0
176
     1
 90
        1
176
     1
 90
        6
176
     1
 90
        2
176
     1
 62
     7
176
     1
 90
        6
176
     1
 90
        0
176
     1
 90
        0
176
     1
290
     0
176
     1
 90
        1
176
     1
 40
0.0
176
     1
 90
        0
176
     1
290
     0
176
     1
290
     1
176
     1
290
     1
176
     1
290
     0
176
     1
290
     0
176
     1
290
     0
176
     1
290
     0
176
     1
290
     0
176
     1
290
     0
176
     1
 90
       50
176
     1
 40
0.0
176
     1
 40
1.0
176
     1
 90
        0
176
     1
 62
    18
420
        0
176
     1
 90
       50
176
     1
 90
        3
176
     1
 62
     5
420
      255
176
     1
290
     0
176
     1
 90
       50
176
     1
 90
       50
176
     1
 90
       50
176
     1
290
     0
176
     1
 90
       50
176
     1
 62
   256
176
     0
 40
1.0
176
     0
 90
        2
176
     1
  1
strokes_ogs.tif
176
     1
290
     0
176
     1
 40
1.0
176
     1
 40
1.0
176
     1
  0
VISUALSTYLE
  5
37
102
{ACAD_REACTORS
330
2A
102
}
330
2A
100
AcDbVisualStyle
  2
Thicken
 70
    13
177
     3
291
     1
 70
    58
 90
        2
176
     1
 90
        2
176
     1
 90
        0
176
     1
 90
        0
176
     1
 40
0.6
176
     1
 40
30.0
176
     1
 62
     7
420
 16777215
176
     1
 90
        1
176
     1
 90
        4
176
     1
 62
     7
176
     1
 62
   257
176
     1
 90
        1
176
     1
 90
        1
176
     1
 40
1.0
176
     1
 90
       12
176
     1
 62
     7
176
     1
 40
1.0
176
     1
 90
        1
176
     1
 90
        6
176
     1
 90
        2
176
     1
 62
     7
176
     1
 90
        5
176
     1
 90
        0
176
     1
 90
        0
176
     1
290
     0
176
     1
 90
        1
176
     1
 40
0.0
176
     1
 90
        0
176
     1
290
     0
176
     1
290
     1
176
     1
290
     1
176
     1
290
     0
176
     1
290
     0
176
     1
290
     0
176
     1
290
     0
176
     1
290
     0
176
     1
290
     0
176
     1
 90
       50
176
     1
 40
0.0
176
     1
 40
1.0
176
     1
 90
        0
176
     1
 62
    18
420
        0
176
     1
 90
       50
176
     1
 90
        3
176
     1
 62
     5
420
      255
176
     1
290
     0
176
     1
 90
       50
176
     1
 90
       50
176
     1
 90
       50
176
     1
290
     0
176
     1
 90
       50
176
     1
 62
   256
176
     0
 40
1.0
176
     0
 90
        2
176
     1
  1
strokes_ogs.tif
176
     1
290
     0
176
     1
 40
1.0
176
     1
 40
1.0
176
     1
  0
VISUALSTYLE
  5
30
102
{ACAD_REACTORS
330
2A
102
}
330
2A
100
AcDbVisualStyle
  2
Wireframe
 70
     5
177
     3
291
     0
 70
    58
 90
        0
176
     1
 90
        2
176
     1
 90
        0
176
     1
 90
        0
176
     1
 40
0.6
176
     1
 40
30.0
176
     1
 62
     7
420
 16777215
176
     1
 90
        1
176
     1
 90
        4
176
     1
 62
     7
176
     1
 62
   257
176
     1
 90
        1
176
     1
 90
        1
176
     1
 40
1.0
176
     1
 90
        0
176
     1
 62
   257
176
     1
 40
1.0
176
     1
 90
        1
176
     1
 90
        6
176
     1
 90
        2
176
     1
 62
     7
176
     1
 90
        3
176
     1
 90
        0
176
     1
 90
        0
176
     1
290
     0
176
     1
 90
        1
176
     1
 40
0.0
176
     1
 90
        0
176
     1
290
     0
176
     1
290
     1
176
     1
290
     1
176
     1
290
     0
176
     1
290
     0
176
     1
290
     0
176
     1
290
     0
176
     1
290
     0
176
     1
290
     0
176
     1
 90
       50
176
     1
 40
0.0
176
     1
 40
1.0
176
     1
 90
        0
176
     1
 62
    18
420
        0
176
     1
 90
       50
176
     1
 90
        3
176
     1
 62
     5
420
      255
176
     1
290
     0
176
     1
 90
       50
176
     1
 90
       50
176
     1
 90
       50
176
     1
290
     0
176
     1
 90
       50
176
     1
 62
   256
176
     0
 40
1.0
176
     0
 90
        2
176
     1
  1
strokes_ogs.tif
176
     1
290
     0
176
     1
 40
1.0
176
     1
 40
1.0
176
     1
  0
VISUALSTYLE
  5
40
102
{ACAD_REACTORS
330
2A
102
}
330
2A
100
AcDbVisualStyle
  2
X-Ray
 70
    25
177
     3
291
     0
 70
    58
 90
        2
176
     1
 90
        2
176
     1
 90
        1
176
     1
 90
        1
176
     1
 40
0.5
176
     1
 40
30.0
176
     1
 62
     7
420
 16777215
176
     1
 90
        1
176
     1
 90
        0
176
     1
 62
     7
176
     1
 62
   257
176
     1
 90
        1
176
     1
 90
        1
176
     1
 40
1.0
176
     1
 90
        8
176
     1
 62
     7
176
     1
 40
1.0
176
     1
 90
        1
176
     1
 90
        6
176
     1
 90
        2
176
     1
 62
     7
176
     1
 90
        3
176
     1
 90
        0
176
     1
 90
        0
176
     1
290
     0
176
     1
 90
       13
176
     1
 40
0.0
176
     1
 90
        0
176
     1
290
     0
176
     1
290
     1
176
     1
290
     1
176
     1
290
     0
176
     1
290
     0
176
     1
290
     0
176
     1
290
     0
176
     1
290
     0
176
     1
290
     0
176
     1
 90
       50
176
     1
 40
0.0
176
     1
 40
1.0
176
     1
 90
        0
176
     1
 62
    18
420
        0
176
     1
 90
       50
176
     1
 90
        3
176
     1
 62
     5
420
      255
176
     1
290
     0
176
     1
 90
       50
176
     1
 90
       50
176
     1
 90
       50
176
     1
290
     0
176
     1
 90
       50
176
     1
 62
   256
176
     0
 40
1.0
176
     0
 90
        2
176
     1
  1
strokes_ogs.tif
176
     1
290
     0
176
     1
 40
1.0
176
     1
 40
1.0
176
     1
  0
DICTIONARYVAR
  5
573
102
{ACAD_REACTORS
330
572
102
}
330
572
100
DictionaryVariables
280
     0
  1
1:1
  0
ENDSEC
  0
EOF
