  0
SECTION
  2
HEADER
  9
$ACADVER
  1
AC1009
  9
$INSBASE
 10
0.000000
 20
0.000000
  9
$EXTMIN
 10
0.000000
 20
0.000000
  9
$EXTMAX
 10
297.000000
 20
210.000000
  9
$LIMMIN
 10
0.000000
 20
0.000000
  9
$LIMMAX
 10
297.000000
 20
210.000000
  9
$VIEWCTR
 10
148.500000
 20
105.000000
  9
$VIEWSIZE
 40
210.000000
  9
$PEXTMIN
 10
0.000000
 20
0.000000
 30
0.000000
  9
$PEXTMAX
 10
297.000000
 20
210.000000
 30
0.000000
  9
$SNAPMODE
 70
     0
  9
$SNAPUNIT
 10
1.000000
 20
1.000000
  9
$SNAPBASE
 10
0.000000
 20
0.000000
  9
$SNAPANG
 50
0.000000
  9
$SNAPISOPAIR
 70
     0
  9
$SNAPSTYLE
 70
     0
  9
$GRIDMODE
 70
     0
  9
$GRIDUNIT
 10
0.000000
 20
0.000000
  9
$ORTHOMODE
 70
     0
  9
$REGENMODE
 70
     1
  9
$FILLMODE
 70
     1
  9
$QTEXTMODE
 70
     0
  9
$DRAGMODE
 70
     2
  9
$LTSCALE
 40
0.250000
  9
$OSMODE
 70
     0
  9
$ATTMODE
 70
     1
  9
$TEXTSIZE
 40
4.000000
  9
$TRACEWID
 40
0.050000
  9
$TEXTSTYLE
  7
STANDARD
  9
$CLAYER
  8
0
  9
$CELTYPE
  6
BYLAYER
  9
$CECOLOR
 62
   256
  9
$DIMSCALE
 40
1.000000
  9
$DIMASZ
 40
1.000000
  9
$DIMEXO
 40
0.000000
  9
$DIMDLI
 40
0.500000
  9
$DIMRND
 40
0.000000
  9
$DIMDLE
 40
0.000000
  9
$DIMEXE
 40
0.000000
  9
$DIMTP
 40
0.000000
  9
$DIMTM
 40
0.000000
  9
$DIMTXT
 40
4.000000
  9
$DIMCEN
 40
0.000000
  9
$DIMTSZ
 40
0.000000
  9
$DIMTOL
 70
     0
  9
$DIMLIM
 70
     0
  9
$DIMTIH
 70
     1
  9
$DIMTOH
 70
     1
  9
$DIMSE1
 70
     0
  9
$DIMSE2
 70
     0
  9
$DIMTAD
 70
     0
  9
$DIMZIN
 70
     0
  9
$DIMBLK
  1

  9
$DIMASO
 70
     0
  9
$DIMSHO
 70
     0
  9
$DIMPOST
  1

  9
$DIMAPOST
  1

  9
$DIMALT
 70
     0
  9
$DIMALTD
 70
     0
  9
$DIMALTF
 40
25.400000
  9
$DIMLFAC
 40
1.000000
  9
$DIMTOFL
 70
     0
  9
$DIMTVP
 40
0.000000
  9
$DIMTIX
 70
     0
  9
$DIMSOXD
 70
     0
  9
$DIMSAH
 70
     0
  9
$DIMBLKL
  1

  9
$DIMBLKR
  1

  9
$LUNITS
 70
     2
  9
$LUPREC
 70
     2
  9
$AXISMODE
 70
     0
  9
$AXISUNIT
 10
1.000000
 20
1.000000
  9
$SKETCHINC
 40
0.000000
  9
$FILLETRAD
 40
0.000000
  9
$AUNITS
 70
     1
  9
$AUPREC
 70
     2
  9
$MENU
  1
ACAD
  9
$ELEVATION
 40
0.000000
  9
$THICKNESS
 40
0.000000
  9
$VIEWDIR
 10
0.000000
 20
0.000000
 30
1.000000
  9
$LIMCHECK
 70
     1
  9
$BLIPMODE
 70
     1
  9
$CHAMFERA
 40
0.000000
  9
$CHAMFERB
 40
0.000000
  9
$FASTZOOM
 70
     1
  9
$SKPOLY
 70
     0
  9
$TDCREATE
 40
0.000000
  9
$TDUPDATE
 40
0.000000
  9
$TDINDWG
 40
0.000000
  9
$TDUSRTIMER
 40
0.000000
  9
$USRTIMER
 70
     1
  9
$ANGBASE
 50
0.000000
  9
$ANGDIR
 70
     0
  9
$PDMODE
 70
     0
  9
$PDSIZE
 40
0.000000
  9
$PLINEWID
 40
0.000000
  9
$COORDS
 70
     2
  9
$USERI1
 70
     0
  9
$USERI2
 70
     0
  9
$USERI3
 70
     0
  9
$USERI4
 70
     0
  9
$USERI5
 70
     0
  9
$USERR1
 40
0.000000
  9
$USERR2
 40
0.000000
  9
$USERR3
 40
0.000000
  9
$USERR4
 40
0.000000
  9
$USERR5
 40
0.000000
  0
ENDSEC
  0
SECTION
  2
TABLES
  0
TABLE
  2
LTYPE
 70
     5
  0
LTYPE
  2
CONTINUOUS
 70
    64
  3
Solid line
 72
    65
 73
     0
 40
0.0
  0
LTYPE
  2
HIDDEN
 70
    64
  3
------------------------
 72
    65
 73
     2
 40
12.6
 49
8.4
 49
-4.2
  0
LTYPE
  2
DOT
 70
    64
  3
････････････････････････
 72
    65
 73
     2
 40
8.0
 49
6.0
 49
-2.0
  0
LTYPE
  2
DASHDOT
 70
    64
  3
--･--･--･--･--･--･--･--
 72
    65
 73
     4
 40
50.5
 49
30.0
 49
-9.0
 49
2.5
 49
-9.0
  0
LTYPE
  2
DIVIDE
 70
    64
  3
--･･--･･--･･--･･--･･--
 72
    65
 73
     6
 40
58.0
 49
30.0
 49
-9.0
 49
2.5
 49
-5.0
 49
2.5
 49
-9.0
  0
LTYPE
  2
ACAD_ISO06W100
 70
    64
  3
____ ... ____ ... ____
 72
    65
 73
     8
 40
37.5
 49
24.0
 49
-3.0
 49
0.5
 49
-3.0
 49
0.5
 49
-3.0
 49
0.5
 49
-3.0
  0
LTYPE
  2
ACAD_ISO14W100
 70
    64
  3
__ . . . __ . . . __ . . . 
 72
    65
 73
     8
 40
25.5
 49
12.0
 49
-3.0
 49
0.5
 49
-3.0
 49
0.5
 49
-3.0
 49
0.5
 49
-3.0
  0
ENDTAB
  0
TABLE
  2
LAYER
 70
4
  0
LAYER
  2
1
 70
64
 62
7
  6
CONTINUOUS
  0
LAYER
  2
2
 70
64
 62
134
  6
CONTINUOUS
  0
LAYER
  2
5
 70
64
 62
94
  6
CONTINUOUS
  0
LAYER
  2
10
 70
64
 62
3
  6
CONTINUOUS
  0
ENDTAB
  0
TABLE
  2
STYLE
 70
     2
  0
STYLE
  2
STANDARD
 70
    64
 40
0.0
 41
1.0
 50
0.0
 71
     0
 42
0.2
  3
TXT
  4

  0
STYLE
  2
KANJI
 70
    64
 40
0.0
 41
1.0
 50
0.0
 71
     0
 42
0.2
  3
TXT
  4
BIGFONT
  0
ENDTAB
  0
TABLE
  2
VIEW
 70
     0
  0
ENDTAB
  0
ENDSEC
  0
SECTION
  2
BLOCKS
  0
BLOCK
  8
2
 62
134
  6
CONTINUOUS
  2
*D1
 70
    65
 10
0.0
 20
0.0
  0
LINE
  8
2
 62
134
  6
CONTINUOUS
 10
242.598093
 20
160.000000
 11
254.598093
 21
160.000000
  0
LINE
  8
2
 62
134
  6
CONTINUOUS
 10
242.598093
 20
162.000000
 11
242.598093
 21
146.700000
  0
LINE
  8
2
 62
134
  6
CONTINUOUS
 10
254.598093
 20
162.000000
 11
254.598093
 21
149.141228
  0
LINE
  8
2
 62
134
  6
CONTINUOUS
 10
242.598093
 20
160.000000
 11
244.529944
 21
160.517638
  0
LINE
  8
2
 62
134
  6
CONTINUOUS
 10
242.598093
 20
160.000000
 11
244.529944
 21
159.482362
  0
LINE
  8
2
 62
134
  6
CONTINUOUS
 10
244.529944
 20
160.517638
 11
244.529944
 21
159.482362
  0
LINE
  8
2
 62
134
  6
CONTINUOUS
 10
243.081055
 20
160.000000
 11
244.046981
 21
160.258819
  0
LINE
  8
2
 62
134
  6
CONTINUOUS
 10
243.081055
 20
160.000000
 11
244.046981
 21
159.741181
  0
LINE
  8
2
 62
134
  6
CONTINUOUS
 10
244.046981
 20
160.258819
 11
244.046981
 21
159.741181
  0
LINE
  8
2
 62
134
  6
CONTINUOUS
 10
254.598093
 20
160.000000
 11
252.666241
 21
159.482362
  0
LINE
  8
2
 62
134
  6
CONTINUOUS
 10
254.598093
 20
160.000000
 11
252.666241
 21
160.517638
  0
LINE
  8
2
 62
134
  6
CONTINUOUS
 10
252.666241
 20
159.482362
 11
252.666241
 21
160.517638
  0
LINE
  8
2
 62
134
  6
CONTINUOUS
 10
254.115130
 20
160.000000
 11
253.149204
 21
159.741181
  0
LINE
  8
2
 62
134
  6
CONTINUOUS
 10
254.115130
 20
160.000000
 11
253.149204
 21
160.258819
  0
LINE
  8
2
 62
134
  6
CONTINUOUS
 10
253.149204
 20
159.741181
 11
253.149204
 21
160.258819
  0
TEXT
  8
2
 62
134
  6
CONTINUOUS
 10
246.598093
 20
160.000000
 40
4.000000
 41
1.000000
  1
12
  7
KANJI
 50
0.000000
 51
30.000000
  0
ENDBLK
  0
BLOCK
  8
2
 62
134
  6
CONTINUOUS
  2
*D2
 70
    65
 10
0.0
 20
0.0
  0
LINE
  8
2
 62
134
  6
CONTINUOUS
 10
254.598093
 20
160.000000
 11
266.598093
 21
160.000000
  0
LINE
  8
2
 62
134
  6
CONTINUOUS
 10
266.598093
 20
162.000000
 11
266.598093
 21
146.700000
  0
LINE
  8
2
 62
134
  6
CONTINUOUS
 10
254.598093
 20
160.000000
 11
256.529944
 21
160.517638
  0
LINE
  8
2
 62
134
  6
CONTINUOUS
 10
254.598093
 20
160.000000
 11
256.529944
 21
159.482362
  0
LINE
  8
2
 62
134
  6
CONTINUOUS
 10
256.529944
 20
160.517638
 11
256.529944
 21
159.482362
  0
LINE
  8
2
 62
134
  6
CONTINUOUS
 10
255.081055
 20
160.000000
 11
256.046981
 21
160.258819
  0
LINE
  8
2
 62
134
  6
CONTINUOUS
 10
255.081055
 20
160.000000
 11
256.046981
 21
159.741181
  0
LINE
  8
2
 62
134
  6
CONTINUOUS
 10
256.046981
 20
160.258819
 11
256.046981
 21
159.741181
  0
LINE
  8
2
 62
134
  6
CONTINUOUS
 10
266.598093
 20
160.000000
 11
264.666241
 21
159.482362
  0
LINE
  8
2
 62
134
  6
CONTINUOUS
 10
266.598093
 20
160.000000
 11
264.666241
 21
160.517638
  0
LINE
  8
2
 62
134
  6
CONTINUOUS
 10
264.666241
 20
159.482362
 11
264.666241
 21
160.517638
  0
LINE
  8
2
 62
134
  6
CONTINUOUS
 10
266.115130
 20
160.000000
 11
265.149204
 21
159.741181
  0
LINE
  8
2
 62
134
  6
CONTINUOUS
 10
266.115130
 20
160.000000
 11
265.149204
 21
160.258819
  0
LINE
  8
2
 62
134
  6
CONTINUOUS
 10
265.149204
 20
159.741181
 11
265.149204
 21
160.258819
  0
TEXT
  8
2
 62
134
  6
CONTINUOUS
 10
258.598093
 20
160.000000
 40
4.000000
 41
1.000000
  1
12
  7
KANJI
 50
0.000000
 51
30.000000
  0
ENDBLK
  0
BLOCK
  8
2
 62
134
  6
CONTINUOUS
  2
*D3
 70
    65
 10
0.0
 20
0.0
  0
LINE
  8
2
 62
134
  6
CONTINUOUS
 10
242.598093
 20
170.000000
 11
266.598093
 21
170.000000
  0
LINE
  8
2
 62
134
  6
CONTINUOUS
 10
242.598093
 20
172.000000
 11
242.598093
 21
146.700000
  0
LINE
  8
2
 62
134
  6
CONTINUOUS
 10
266.598093
 20
172.000000
 11
266.598093
 21
146.700000
  0
LINE
  8
2
 62
134
  6
CONTINUOUS
 10
242.598093
 20
170.000000
 11
244.529944
 21
170.517638
  0
LINE
  8
2
 62
134
  6
CONTINUOUS
 10
242.598093
 20
170.000000
 11
244.529944
 21
169.482362
  0
LINE
  8
2
 62
134
  6
CONTINUOUS
 10
244.529944
 20
170.517638
 11
244.529944
 21
169.482362
  0
LINE
  8
2
 62
134
  6
CONTINUOUS
 10
243.081055
 20
170.000000
 11
244.046981
 21
170.258819
  0
LINE
  8
2
 62
134
  6
CONTINUOUS
 10
243.081055
 20
170.000000
 11
244.046981
 21
169.741181
  0
LINE
  8
2
 62
134
  6
CONTINUOUS
 10
244.046981
 20
170.258819
 11
244.046981
 21
169.741181
  0
LINE
  8
2
 62
134
  6
CONTINUOUS
 10
266.598093
 20
170.000000
 11
264.666241
 21
169.482362
  0
LINE
  8
2
 62
134
  6
CONTINUOUS
 10
266.598093
 20
170.000000
 11
264.666241
 21
170.517638
  0
LINE
  8
2
 62
134
  6
CONTINUOUS
 10
264.666241
 20
169.482362
 11
264.666241
 21
170.517638
  0
LINE
  8
2
 62
134
  6
CONTINUOUS
 10
266.115130
 20
170.000000
 11
265.149204
 21
169.741181
  0
LINE
  8
2
 62
134
  6
CONTINUOUS
 10
266.115130
 20
170.000000
 11
265.149204
 21
170.258819
  0
LINE
  8
2
 62
134
  6
CONTINUOUS
 10
265.149204
 20
169.741181
 11
265.149204
 21
170.258819
  0
TEXT
  8
2
 62
134
  6
CONTINUOUS
 10
254.260391
 20
170.000000
 40
4.000000
 41
1.000000
  1
24
  7
KANJI
 50
0.000000
 51
30.000000
  0
ENDBLK
  0
BLOCK
  8
2
 62
134
  6
CONTINUOUS
  2
*D4
 70
    65
 10
0.0
 20
0.0
  0
LINE
  8
2
 62
134
  6
CONTINUOUS
 10
246.598093
 20
99.620666
 11
262.598093
 21
99.620666
  0
LINE
  8
2
 62
134
  6
CONTINUOUS
 10
246.598093
 20
97.620666
 11
246.598093
 21
124.256406
  0
LINE
  8
2
 62
134
  6
CONTINUOUS
 10
262.598093
 20
97.620666
 11
262.598093
 21
124.256406
  0
LINE
  8
2
 62
134
  6
CONTINUOUS
 10
246.598093
 20
99.620666
 11
248.529944
 21
100.138304
  0
LINE
  8
2
 62
134
  6
CONTINUOUS
 10
246.598093
 20
99.620666
 11
248.529944
 21
99.103028
  0
LINE
  8
2
 62
134
  6
CONTINUOUS
 10
248.529944
 20
100.138304
 11
248.529944
 21
99.103028
  0
LINE
  8
2
 62
134
  6
CONTINUOUS
 10
247.081055
 20
99.620666
 11
248.046981
 21
99.879485
  0
LINE
  8
2
 62
134
  6
CONTINUOUS
 10
247.081055
 20
99.620666
 11
248.046981
 21
99.361847
  0
LINE
  8
2
 62
134
  6
CONTINUOUS
 10
248.046981
 20
99.879485
 11
248.046981
 21
99.361847
  0
LINE
  8
2
 62
134
  6
CONTINUOUS
 10
262.598093
 20
99.620666
 11
260.666241
 21
99.103028
  0
LINE
  8
2
 62
134
  6
CONTINUOUS
 10
262.598093
 20
99.620666
 11
260.666241
 21
100.138304
  0
LINE
  8
2
 62
134
  6
CONTINUOUS
 10
260.666241
 20
99.103028
 11
260.666241
 21
100.138304
  0
LINE
  8
2
 62
134
  6
CONTINUOUS
 10
262.115130
 20
99.620666
 11
261.149204
 21
99.361847
  0
LINE
  8
2
 62
134
  6
CONTINUOUS
 10
262.115130
 20
99.620666
 11
261.149204
 21
99.879485
  0
LINE
  8
2
 62
134
  6
CONTINUOUS
 10
261.149204
 20
99.361847
 11
261.149204
 21
99.879485
  0
TEXT
  8
2
 62
134
  6
CONTINUOUS
 10
252.598093
 20
99.620666
 40
4.000000
 41
1.000000
  1
16
  7
KANJI
 50
0.000000
 51
30.000000
  0
ENDBLK
  0
BLOCK
  8
2
 62
134
  6
CONTINUOUS
  2
*D5
 70
    65
 10
0.0
 20
0.0
  0
LINE
  8
2
 62
134
  6
CONTINUOUS
 10
124.239408
 20
151.480847
 11
189.705265
 21
151.480847
  0
LINE
  8
2
 62
134
  6
CONTINUOUS
 10
124.239408
 20
153.480847
 11
124.239408
 21
136.850000
  0
LINE
  8
2
 62
134
  6
CONTINUOUS
 10
189.705265
 20
153.480847
 11
189.705265
 21
143.650000
  0
LINE
  8
2
 62
134
  6
CONTINUOUS
 10
124.239408
 20
151.480847
 11
126.171259
 21
151.998485
  0
LINE
  8
2
 62
134
  6
CONTINUOUS
 10
124.239408
 20
151.480847
 11
126.171259
 21
150.963209
  0
LINE
  8
2
 62
134
  6
CONTINUOUS
 10
126.171259
 20
151.998485
 11
126.171259
 21
150.963209
  0
LINE
  8
2
 62
134
  6
CONTINUOUS
 10
124.722371
 20
151.480847
 11
125.688296
 21
151.739666
  0
LINE
  8
2
 62
134
  6
CONTINUOUS
 10
124.722371
 20
151.480847
 11
125.688296
 21
151.222028
  0
LINE
  8
2
 62
134
  6
CONTINUOUS
 10
125.688296
 20
151.739666
 11
125.688296
 21
151.222028
  0
LINE
  8
2
 62
134
  6
CONTINUOUS
 10
189.705265
 20
151.480847
 11
187.773414
 21
150.963209
  0
LINE
  8
2
 62
134
  6
CONTINUOUS
 10
189.705265
 20
151.480847
 11
187.773414
 21
151.998485
  0
LINE
  8
2
 62
134
  6
CONTINUOUS
 10
187.773414
 20
150.963209
 11
187.773414
 21
151.998485
  0
LINE
  8
2
 62
134
  6
CONTINUOUS
 10
189.222303
 20
151.480847
 11
188.256377
 21
151.222028
  0
LINE
  8
2
 62
134
  6
CONTINUOUS
 10
189.222303
 20
151.480847
 11
188.256377
 21
151.739666
  0
LINE
  8
2
 62
134
  6
CONTINUOUS
 10
188.256377
 20
151.222028
 11
188.256377
 21
151.739666
  0
TEXT
  8
2
 62
134
  6
CONTINUOUS
 10
135.691588
 20
151.480847
 40
4.000000
 41
1.000000
  1
ｹｰﾌﾞﾙ長（標準2m）
  7
KANJI
 50
0.000000
 51
30.000000
  0
ENDBLK
  0
BLOCK
  8
2
 62
134
  6
CONTINUOUS
  2
*D6
 70
    65
 10
0.0
 20
0.0
  0
LINE
  8
2
 62
134
  6
CONTINUOUS
 10
169.899981
 20
118.500000
 11
169.899981
 21
142.712028
  0
LINE
  8
2
 62
134
  6
CONTINUOUS
 10
169.899981
 20
126.500000
 11
170.417619
 21
124.568148
  0
LINE
  8
2
 62
134
  6
CONTINUOUS
 10
169.899981
 20
126.500000
 11
169.382343
 21
124.568148
  0
LINE
  8
2
 62
134
  6
CONTINUOUS
 10
170.417619
 20
124.568148
 11
169.382343
 21
124.568148
  0
LINE
  8
2
 62
134
  6
CONTINUOUS
 10
169.899981
 20
126.017037
 11
170.158800
 21
125.051111
  0
LINE
  8
2
 62
134
  6
CONTINUOUS
 10
169.899981
 20
126.017037
 11
169.641162
 21
125.051111
  0
LINE
  8
2
 62
134
  6
CONTINUOUS
 10
170.158800
 20
125.051111
 11
169.641162
 21
125.051111
  0
LINE
  8
2
 62
134
  6
CONTINUOUS
 10
169.899981
 20
133.500000
 11
169.382343
 21
135.431852
  0
LINE
  8
2
 62
134
  6
CONTINUOUS
 10
169.899981
 20
133.500000
 11
170.417619
 21
135.431852
  0
LINE
  8
2
 62
134
  6
CONTINUOUS
 10
169.382343
 20
135.431852
 11
170.417619
 21
135.431852
  0
LINE
  8
2
 62
134
  6
CONTINUOUS
 10
169.899981
 20
133.982963
 11
169.641162
 21
134.948889
  0
LINE
  8
2
 62
134
  6
CONTINUOUS
 10
169.899981
 20
133.982963
 11
170.158800
 21
134.948889
  0
LINE
  8
2
 62
134
  6
CONTINUOUS
 10
169.641162
 20
134.948889
 11
170.158800
 21
134.948889
  0
TEXT
  8
2
 62
134
  6
CONTINUOUS
 10
169.899981
 20
136.712028
 40
4.000000
 41
1.000000
  1
φ7
  7
KANJI
 50
90.000000
 51
0.000000
  0
ENDBLK
  0
BLOCK
  8
2
 62
134
  6
CONTINUOUS
  2
*D7
 70
    65
 10
0.0
 20
0.0
  0
LINE
  8
2
 62
134
  6
CONTINUOUS
 10
221.263117
 20
151.459765
 11
227.263117
 21
151.459765
  0
LINE
  8
2
 62
134
  6
CONTINUOUS
 10
221.263117
 20
153.459765
 11
221.263117
 21
144.750000
  0
LINE
  8
2
 62
134
  6
CONTINUOUS
 10
227.263117
 20
153.459765
 11
227.263117
 21
144.750000
  0
LINE
  8
2
 62
134
  6
CONTINUOUS
 10
221.263117
 20
151.459765
 11
223.194968
 21
151.977403
  0
LINE
  8
2
 62
134
  6
CONTINUOUS
 10
221.263117
 20
151.459765
 11
223.194968
 21
150.942126
  0
LINE
  8
2
 62
134
  6
CONTINUOUS
 10
223.194968
 20
151.977403
 11
223.194968
 21
150.942126
  0
LINE
  8
2
 62
134
  6
CONTINUOUS
 10
221.746080
 20
151.459765
 11
222.712006
 21
151.718584
  0
LINE
  8
2
 62
134
  6
CONTINUOUS
 10
221.746080
 20
151.459765
 11
222.712006
 21
151.200945
  0
LINE
  8
2
 62
134
  6
CONTINUOUS
 10
222.712006
 20
151.718584
 11
222.712006
 21
151.200945
  0
LINE
  8
2
 62
134
  6
CONTINUOUS
 10
227.263117
 20
151.459765
 11
225.331265
 21
150.942126
  0
LINE
  8
2
 62
134
  6
CONTINUOUS
 10
227.263117
 20
151.459765
 11
225.331265
 21
151.977403
  0
LINE
  8
2
 62
134
  6
CONTINUOUS
 10
225.331265
 20
150.942126
 11
225.331265
 21
151.977403
  0
LINE
  8
2
 62
134
  6
CONTINUOUS
 10
226.780154
 20
151.459765
 11
225.814228
 21
151.200945
  0
LINE
  8
2
 62
134
  6
CONTINUOUS
 10
226.780154
 20
151.459765
 11
225.814228
 21
151.718584
  0
LINE
  8
2
 62
134
  6
CONTINUOUS
 10
225.814228
 20
151.200945
 11
225.814228
 21
151.718584
  0
TEXT
  8
2
 62
134
  6
CONTINUOUS
 10
223.263117
 20
151.459765
 40
4.000000
 41
1.000000
  1
6
  7
KANJI
 50
0.000000
 51
30.000000
  0
ENDBLK
  0
BLOCK
  8
2
 62
134
  6
CONTINUOUS
  2
*D8
 70
    65
 10
0.0
 20
0.0
  0
LINE
  8
2
 62
134
  6
CONTINUOUS
 10
107.239408
 20
160.000000
 11
124.239408
 21
160.000000
  0
LINE
  8
2
 62
134
  6
CONTINUOUS
 10
107.239408
 20
162.000000
 11
107.239408
 21
146.700000
  0
LINE
  8
2
 62
134
  6
CONTINUOUS
 10
124.239408
 20
162.000000
 11
124.239408
 21
136.850000
  0
LINE
  8
2
 62
134
  6
CONTINUOUS
 10
107.239408
 20
160.000000
 11
109.171259
 21
160.517638
  0
LINE
  8
2
 62
134
  6
CONTINUOUS
 10
107.239408
 20
160.000000
 11
109.171259
 21
159.482362
  0
LINE
  8
2
 62
134
  6
CONTINUOUS
 10
109.171259
 20
160.517638
 11
109.171259
 21
159.482362
  0
LINE
  8
2
 62
134
  6
CONTINUOUS
 10
107.722371
 20
160.000000
 11
108.688296
 21
160.258819
  0
LINE
  8
2
 62
134
  6
CONTINUOUS
 10
107.722371
 20
160.000000
 11
108.688296
 21
159.741181
  0
LINE
  8
2
 62
134
  6
CONTINUOUS
 10
108.688296
 20
160.258819
 11
108.688296
 21
159.741181
  0
LINE
  8
2
 62
134
  6
CONTINUOUS
 10
124.239408
 20
160.000000
 11
122.307556
 21
159.482362
  0
LINE
  8
2
 62
134
  6
CONTINUOUS
 10
124.239408
 20
160.000000
 11
122.307556
 21
160.517638
  0
LINE
  8
2
 62
134
  6
CONTINUOUS
 10
122.307556
 20
159.482362
 11
122.307556
 21
160.517638
  0
LINE
  8
2
 62
134
  6
CONTINUOUS
 10
123.756445
 20
160.000000
 11
122.790519
 21
159.741181
  0
LINE
  8
2
 62
134
  6
CONTINUOUS
 10
123.756445
 20
160.000000
 11
122.790519
 21
160.258819
  0
LINE
  8
2
 62
134
  6
CONTINUOUS
 10
122.790519
 20
159.741181
 11
122.790519
 21
160.258819
  0
TEXT
  8
2
 62
134
  6
CONTINUOUS
 10
113.739408
 20
160.000000
 40
4.000000
 41
1.000000
  1
17
  7
KANJI
 50
0.000000
 51
30.000000
  0
ENDBLK
  0
BLOCK
  8
2
 62
134
  6
CONTINUOUS
  2
*D9
 70
    65
 10
0.0
 20
0.0
  0
LINE
  8
2
 62
134
  6
CONTINUOUS
 10
58.739408
 20
160.000000
 11
107.239408
 21
160.000000
  0
LINE
  8
2
 62
134
  6
CONTINUOUS
 10
58.739408
 20
162.000000
 11
58.739408
 21
142.719254
  0
LINE
  8
2
 62
134
  6
CONTINUOUS
 10
107.239408
 20
162.000000
 11
107.239408
 21
146.700000
  0
LINE
  8
2
 62
134
  6
CONTINUOUS
 10
58.739408
 20
160.000000
 11
60.671259
 21
160.517638
  0
LINE
  8
2
 62
134
  6
CONTINUOUS
 10
58.739408
 20
160.000000
 11
60.671259
 21
159.482362
  0
LINE
  8
2
 62
134
  6
CONTINUOUS
 10
60.671259
 20
160.517638
 11
60.671259
 21
159.482362
  0
LINE
  8
2
 62
134
  6
CONTINUOUS
 10
59.222371
 20
160.000000
 11
60.188296
 21
160.258819
  0
LINE
  8
2
 62
134
  6
CONTINUOUS
 10
59.222371
 20
160.000000
 11
60.188296
 21
159.741181
  0
LINE
  8
2
 62
134
  6
CONTINUOUS
 10
60.188296
 20
160.258819
 11
60.188296
 21
159.741181
  0
LINE
  8
2
 62
134
  6
CONTINUOUS
 10
107.239408
 20
160.000000
 11
105.307556
 21
159.482362
  0
LINE
  8
2
 62
134
  6
CONTINUOUS
 10
107.239408
 20
160.000000
 11
105.307556
 21
160.517638
  0
LINE
  8
2
 62
134
  6
CONTINUOUS
 10
105.307556
 20
159.482362
 11
105.307556
 21
160.517638
  0
LINE
  8
2
 62
134
  6
CONTINUOUS
 10
106.756445
 20
160.000000
 11
105.790519
 21
159.741181
  0
LINE
  8
2
 62
134
  6
CONTINUOUS
 10
106.756445
 20
160.000000
 11
105.790519
 21
160.258819
  0
LINE
  8
2
 62
134
  6
CONTINUOUS
 10
105.790519
 20
159.741181
 11
105.790519
 21
160.258819
  0
TEXT
  8
2
 62
134
  6
CONTINUOUS
 10
78.989408
 20
160.000000
 40
4.000000
 41
1.000000
  1
48.5
  7
KANJI
 50
0.000000
 51
30.000000
  0
ENDBLK
  0
BLOCK
  8
2
 62
134
  6
CONTINUOUS
  2
*D10
 70
    65
 10
0.0
 20
0.0
  0
LINE
  8
2
 62
134
  6
CONTINUOUS
 10
80.609624
 20
140.000000
 11
80.609624
 21
120.000000
  0
LINE
  8
2
 62
134
  6
CONTINUOUS
 10
82.609624
 20
140.000000
 11
67.402445
 21
140.000000
  0
LINE
  8
2
 62
134
  6
CONTINUOUS
 10
82.609624
 20
120.000000
 11
67.659157
 21
120.000000
  0
LINE
  8
2
 62
134
  6
CONTINUOUS
 10
80.609624
 20
140.000000
 11
81.127262
 21
138.068148
  0
LINE
  8
2
 62
134
  6
CONTINUOUS
 10
80.609624
 20
140.000000
 11
80.091986
 21
138.068148
  0
LINE
  8
2
 62
134
  6
CONTINUOUS
 10
81.127262
 20
138.068148
 11
80.091986
 21
138.068148
  0
LINE
  8
2
 62
134
  6
CONTINUOUS
 10
80.609624
 20
139.517037
 11
80.868443
 21
138.551111
  0
LINE
  8
2
 62
134
  6
CONTINUOUS
 10
80.609624
 20
139.517037
 11
80.350805
 21
138.551111
  0
LINE
  8
2
 62
134
  6
CONTINUOUS
 10
80.868443
 20
138.551111
 11
80.350805
 21
138.551111
  0
LINE
  8
2
 62
134
  6
CONTINUOUS
 10
80.609624
 20
120.000000
 11
80.091986
 21
121.931852
  0
LINE
  8
2
 62
134
  6
CONTINUOUS
 10
80.609624
 20
120.000000
 11
81.127262
 21
121.931852
  0
LINE
  8
2
 62
134
  6
CONTINUOUS
 10
80.091986
 20
121.931852
 11
81.127262
 21
121.931852
  0
LINE
  8
2
 62
134
  6
CONTINUOUS
 10
80.609624
 20
120.482963
 11
80.350805
 21
121.448889
  0
LINE
  8
2
 62
134
  6
CONTINUOUS
 10
80.609624
 20
120.482963
 11
80.868443
 21
121.448889
  0
LINE
  8
2
 62
134
  6
CONTINUOUS
 10
80.350805
 20
121.448889
 11
80.868443
 21
121.448889
  0
TEXT
  8
2
 62
134
  6
CONTINUOUS
 10
80.609624
 20
131.500000
 40
4.000000
 41
1.000000
  1
20
  7
KANJI
 50
90.000000
 51
30.000000
  0
ENDBLK
  0
BLOCK
  8
2
 62
134
  6
CONTINUOUS
  2
*D11
 70
    65
 10
0.0
 20
0.0
  0
LINE
  8
2
 62
134
  6
CONTINUOUS
 10
54.739408
 20
150.283266
 11
66.739408
 21
150.283266
  0
LINE
  8
2
 62
134
  6
CONTINUOUS
 10
58.739408
 20
152.283266
 11
58.739408
 21
143.000000
  0
LINE
  8
2
 62
134
  6
CONTINUOUS
 10
62.739408
 20
152.283266
 11
62.739408
 21
144.720706
  0
LINE
  8
2
 62
134
  6
CONTINUOUS
 10
58.739408
 20
150.283266
 11
56.807556
 21
149.765628
  0
LINE
  8
2
 62
134
  6
CONTINUOUS
 10
58.739408
 20
150.283266
 11
56.807556
 21
150.800904
  0
LINE
  8
2
 62
134
  6
CONTINUOUS
 10
56.807556
 20
149.765628
 11
56.807556
 21
150.800904
  0
LINE
  8
2
 62
134
  6
CONTINUOUS
 10
58.256445
 20
150.283266
 11
57.290519
 21
150.024447
  0
LINE
  8
2
 62
134
  6
CONTINUOUS
 10
58.256445
 20
150.283266
 11
57.290519
 21
150.542085
  0
LINE
  8
2
 62
134
  6
CONTINUOUS
 10
57.290519
 20
150.024447
 11
57.290519
 21
150.542085
  0
LINE
  8
2
 62
134
  6
CONTINUOUS
 10
62.739408
 20
150.283266
 11
64.671259
 21
150.800904
  0
LINE
  8
2
 62
134
  6
CONTINUOUS
 10
62.739408
 20
150.283266
 11
64.671259
 21
149.765628
  0
LINE
  8
2
 62
134
  6
CONTINUOUS
 10
64.671259
 20
150.800904
 11
64.671259
 21
149.765628
  0
LINE
  8
2
 62
134
  6
CONTINUOUS
 10
63.222371
 20
150.283266
 11
64.188296
 21
150.542085
  0
LINE
  8
2
 62
134
  6
CONTINUOUS
 10
63.222371
 20
150.283266
 11
64.188296
 21
150.024447
  0
LINE
  8
2
 62
134
  6
CONTINUOUS
 10
64.188296
 20
150.542085
 11
64.188296
 21
150.024447
  0
TEXT
  8
2
 62
134
  6
CONTINUOUS
 10
59.671259
 20
150.283266
 40
4.000000
 41
1.000000
  1
4
  7
KANJI
 50
0.000000
 51
30.000000
  0
ENDBLK
  0
BLOCK
  8
2
 62
134
  6
CONTINUOUS
  2
*D12
 70
    65
 10
0.0
 20
0.0
  0
LINE
  8
2
 62
134
  6
CONTINUOUS
 10
50.393132
 20
115.000000
 11
50.393132
 21
130.000000
  0
LINE
  8
2
 62
134
  6
CONTINUOUS
 10
48.393132
 20
115.000000
 11
60.739408
 21
115.000000
  0
LINE
  8
2
 62
134
  6
CONTINUOUS
 10
48.393132
 20
130.000000
 11
56.238446
 21
130.000000
  0
LINE
  8
2
 62
134
  6
CONTINUOUS
 10
50.393132
 20
115.000000
 11
49.875494
 21
116.931852
  0
LINE
  8
2
 62
134
  6
CONTINUOUS
 10
50.393132
 20
115.000000
 11
50.910770
 21
116.931852
  0
LINE
  8
2
 62
134
  6
CONTINUOUS
 10
49.875494
 20
116.931852
 11
50.910770
 21
116.931852
  0
LINE
  8
2
 62
134
  6
CONTINUOUS
 10
50.393132
 20
115.482963
 11
50.134313
 21
116.448889
  0
LINE
  8
2
 62
134
  6
CONTINUOUS
 10
50.393132
 20
115.482963
 11
50.651951
 21
116.448889
  0
LINE
  8
2
 62
134
  6
CONTINUOUS
 10
50.134313
 20
116.448889
 11
50.651951
 21
116.448889
  0
LINE
  8
2
 62
134
  6
CONTINUOUS
 10
50.393132
 20
130.000000
 11
50.910770
 21
128.068148
  0
LINE
  8
2
 62
134
  6
CONTINUOUS
 10
50.393132
 20
130.000000
 11
49.875494
 21
128.068148
  0
LINE
  8
2
 62
134
  6
CONTINUOUS
 10
50.910770
 20
128.068148
 11
49.875494
 21
128.068148
  0
LINE
  8
2
 62
134
  6
CONTINUOUS
 10
50.393132
 20
129.517037
 11
50.651951
 21
128.551111
  0
LINE
  8
2
 62
134
  6
CONTINUOUS
 10
50.393132
 20
129.517037
 11
50.134313
 21
128.551111
  0
LINE
  8
2
 62
134
  6
CONTINUOUS
 10
50.651951
 20
128.551111
 11
50.134313
 21
128.551111
  0
TEXT
  8
2
 62
134
  6
CONTINUOUS
 10
50.393132
 20
120.500000
 40
4.000000
 41
1.000000
  1
15
  7
KANJI
 50
90.000000
 51
30.000000
  0
ENDBLK
  0
BLOCK
  8
2
 62
134
  6
CONTINUOUS
  2
*D13
 70
    65
 10
0.0
 20
0.0
  0
LINE
  8
2
 62
134
  6
CONTINUOUS
 10
280.961644
 20
145.000000
 11
280.961644
 21
115.000000
  0
LINE
  8
2
 62
134
  6
CONTINUOUS
 10
282.961644
 20
145.000000
 11
268.298093
 21
145.000000
  0
LINE
  8
2
 62
134
  6
CONTINUOUS
 10
282.961644
 20
115.000000
 11
268.298093
 21
115.000000
  0
LINE
  8
2
 62
134
  6
CONTINUOUS
 10
280.961644
 20
145.000000
 11
281.479282
 21
143.068148
  0
LINE
  8
2
 62
134
  6
CONTINUOUS
 10
280.961644
 20
145.000000
 11
280.444006
 21
143.068148
  0
LINE
  8
2
 62
134
  6
CONTINUOUS
 10
281.479282
 20
143.068148
 11
280.444006
 21
143.068148
  0
LINE
  8
2
 62
134
  6
CONTINUOUS
 10
280.961644
 20
144.517037
 11
281.220463
 21
143.551111
  0
LINE
  8
2
 62
134
  6
CONTINUOUS
 10
280.961644
 20
144.517037
 11
280.702825
 21
143.551111
  0
LINE
  8
2
 62
134
  6
CONTINUOUS
 10
281.220463
 20
143.551111
 11
280.702825
 21
143.551111
  0
LINE
  8
2
 62
134
  6
CONTINUOUS
 10
280.961644
 20
115.000000
 11
280.444006
 21
116.931852
  0
LINE
  8
2
 62
134
  6
CONTINUOUS
 10
280.961644
 20
115.000000
 11
281.479282
 21
116.931852
  0
LINE
  8
2
 62
134
  6
CONTINUOUS
 10
280.444006
 20
116.931852
 11
281.479282
 21
116.931852
  0
LINE
  8
2
 62
134
  6
CONTINUOUS
 10
280.961644
 20
115.482963
 11
280.702825
 21
116.448889
  0
LINE
  8
2
 62
134
  6
CONTINUOUS
 10
280.961644
 20
115.482963
 11
281.220463
 21
116.448889
  0
LINE
  8
2
 62
134
  6
CONTINUOUS
 10
280.702825
 20
116.448889
 11
281.220463
 21
116.448889
  0
TEXT
  8
2
 62
134
  6
CONTINUOUS
 10
280.961644
 20
128.000000
 40
4.000000
 41
1.000000
  1
30
  7
KANJI
 50
90.000000
 51
30.000000
  0
ENDBLK
  0
BLOCK
  8
2
 62
134
  6
CONTINUOUS
  2
*D14
 70
    65
 10
0.0
 20
0.0
  0
LINE
  8
2
 62
134
  6
CONTINUOUS
 10
274.284495
 20
138.800000
 11
274.284495
 21
121.200000
  0
LINE
  8
2
 62
134
  6
CONTINUOUS
 10
276.284495
 20
138.800000
 11
257.481962
 21
138.800000
  0
LINE
  8
2
 62
134
  6
CONTINUOUS
 10
276.284495
 20
121.200000
 11
257.356045
 21
121.200000
  0
LINE
  8
2
 62
134
  6
CONTINUOUS
 10
274.284495
 20
138.800000
 11
274.802134
 21
136.868148
  0
LINE
  8
2
 62
134
  6
CONTINUOUS
 10
274.284495
 20
138.800000
 11
273.766857
 21
136.868148
  0
LINE
  8
2
 62
134
  6
CONTINUOUS
 10
274.802134
 20
136.868148
 11
273.766857
 21
136.868148
  0
LINE
  8
2
 62
134
  6
CONTINUOUS
 10
274.284495
 20
138.317037
 11
274.543315
 21
137.351111
  0
LINE
  8
2
 62
134
  6
CONTINUOUS
 10
274.284495
 20
138.317037
 11
274.025676
 21
137.351111
  0
LINE
  8
2
 62
134
  6
CONTINUOUS
 10
274.543315
 20
137.351111
 11
274.025676
 21
137.351111
  0
LINE
  8
2
 62
134
  6
CONTINUOUS
 10
274.284495
 20
121.200000
 11
273.766857
 21
123.131852
  0
LINE
  8
2
 62
134
  6
CONTINUOUS
 10
274.284495
 20
121.200000
 11
274.802134
 21
123.131852
  0
LINE
  8
2
 62
134
  6
CONTINUOUS
 10
273.766857
 20
123.131852
 11
274.802134
 21
123.131852
  0
LINE
  8
2
 62
134
  6
CONTINUOUS
 10
274.284495
 20
121.682963
 11
274.025676
 21
122.648889
  0
LINE
  8
2
 62
134
  6
CONTINUOUS
 10
274.284495
 20
121.682963
 11
274.543315
 21
122.648889
  0
LINE
  8
2
 62
134
  6
CONTINUOUS
 10
274.025676
 20
122.648889
 11
274.543315
 21
122.648889
  0
TEXT
  8
2
 62
134
  6
CONTINUOUS
 10
274.284495
 20
126.000000
 40
4.000000
 41
1.000000
  1
17.6
  7
KANJI
 50
90.000000
 51
30.000000
  0
ENDBLK
  0
BLOCK
  8
2
 62
14
  6
CONTINUOUS
  2
*D15
 70
    65
 10
0.0
 20
0.0
  0
LINE
  8
2
 62
14
  6
CONTINUOUS
 10
34.739408
 20
179.468226
 11
107.239408
 21
179.468226
  0
LINE
  8
2
 62
14
  6
CONTINUOUS
 10
34.739408
 20
181.468226
 11
34.739408
 21
141.500032
  0
LINE
  8
2
 62
14
  6
CONTINUOUS
 10
107.239408
 20
181.468226
 11
107.239408
 21
146.700000
  0
LINE
  8
2
 62
14
  6
CONTINUOUS
 10
34.739408
 20
179.468226
 11
36.671259
 21
179.985864
  0
LINE
  8
2
 62
14
  6
CONTINUOUS
 10
34.739408
 20
179.468226
 11
36.671259
 21
178.950588
  0
LINE
  8
2
 62
14
  6
CONTINUOUS
 10
36.671259
 20
179.985864
 11
36.671259
 21
178.950588
  0
LINE
  8
2
 62
14
  6
CONTINUOUS
 10
35.222371
 20
179.468226
 11
36.188296
 21
179.727045
  0
LINE
  8
2
 62
14
  6
CONTINUOUS
 10
35.222371
 20
179.468226
 11
36.188296
 21
179.209407
  0
LINE
  8
2
 62
14
  6
CONTINUOUS
 10
36.188296
 20
179.727045
 11
36.188296
 21
179.209407
  0
LINE
  8
2
 62
14
  6
CONTINUOUS
 10
107.239408
 20
179.468226
 11
105.307556
 21
178.950588
  0
LINE
  8
2
 62
14
  6
CONTINUOUS
 10
107.239408
 20
179.468226
 11
105.307556
 21
179.985864
  0
LINE
  8
2
 62
14
  6
CONTINUOUS
 10
105.307556
 20
178.950588
 11
105.307556
 21
179.985864
  0
LINE
  8
2
 62
14
  6
CONTINUOUS
 10
106.756445
 20
179.468226
 11
105.790519
 21
179.209407
  0
LINE
  8
2
 62
14
  6
CONTINUOUS
 10
106.756445
 20
179.468226
 11
105.790519
 21
179.727045
  0
LINE
  8
2
 62
14
  6
CONTINUOUS
 10
105.790519
 20
179.209407
 11
105.790519
 21
179.727045
  0
TEXT
  8
2
 62
14
  6
CONTINUOUS
 10
66.989408
 20
179.468226
 40
4.000000
 41
1.000000
  1
72.5
  7
KANJI
 50
0.000000
 51
30.000000
  0
ENDBLK
  0
BLOCK
  8
2
 62
14
  6
CONTINUOUS
  2
*D16
 70
    65
 10
0.0
 20
0.0
  0
LINE
  8
2
 62
14
  6
CONTINUOUS
 10
34.739408
 20
160.000000
 11
58.738473
 21
160.000000
  0
LINE
  8
2
 62
14
  6
CONTINUOUS
 10
34.739408
 20
162.000000
 11
34.739408
 21
141.500032
  0
LINE
  8
2
 62
14
  6
CONTINUOUS
 10
58.738473
 20
162.000000
 11
58.738473
 21
141.500032
  0
LINE
  8
2
 62
14
  6
CONTINUOUS
 10
34.739408
 20
160.000000
 11
36.671259
 21
160.517638
  0
LINE
  8
2
 62
14
  6
CONTINUOUS
 10
34.739408
 20
160.000000
 11
36.671259
 21
159.482362
  0
LINE
  8
2
 62
14
  6
CONTINUOUS
 10
36.671259
 20
160.517638
 11
36.671259
 21
159.482362
  0
LINE
  8
2
 62
14
  6
CONTINUOUS
 10
35.222371
 20
160.000000
 11
36.188296
 21
160.258819
  0
LINE
  8
2
 62
14
  6
CONTINUOUS
 10
35.222371
 20
160.000000
 11
36.188296
 21
159.741181
  0
LINE
  8
2
 62
14
  6
CONTINUOUS
 10
36.188296
 20
160.258819
 11
36.188296
 21
159.741181
  0
LINE
  8
2
 62
14
  6
CONTINUOUS
 10
58.738473
 20
160.000000
 11
56.806622
 21
159.482362
  0
LINE
  8
2
 62
14
  6
CONTINUOUS
 10
58.738473
 20
160.000000
 11
56.806622
 21
160.517638
  0
LINE
  8
2
 62
14
  6
CONTINUOUS
 10
56.806622
 20
159.482362
 11
56.806622
 21
160.517638
  0
LINE
  8
2
 62
14
  6
CONTINUOUS
 10
58.255510
 20
160.000000
 11
57.289585
 21
159.741181
  0
LINE
  8
2
 62
14
  6
CONTINUOUS
 10
58.255510
 20
160.000000
 11
57.289585
 21
160.258819
  0
LINE
  8
2
 62
14
  6
CONTINUOUS
 10
57.289585
 20
159.741181
 11
57.289585
 21
160.258819
  0
TEXT
  8
2
 62
14
  6
CONTINUOUS
 10
44.738940
 20
160.000000
 40
4.000000
 41
1.000000
  1
24
  7
KANJI
 50
0.000000
 51
30.000000
  0
ENDBLK
  0
BLOCK
  8
2
 62
134
  6
CONTINUOUS
  2
*D17
 70
    65
 10
0.0
 20
0.0
  0
LINE
  8
2
 62
134
  6
CONTINUOUS
 10
21.609624
 20
120.000032
 11
21.609624
 21
140.000032
  0
LINE
  8
2
 62
134
  6
CONTINUOUS
 10
19.609624
 20
120.000032
 11
33.255081
 21
120.000032
  0
LINE
  8
2
 62
134
  6
CONTINUOUS
 10
19.609624
 20
140.000032
 11
33.255081
 21
140.000032
  0
LINE
  8
2
 62
134
  6
CONTINUOUS
 10
21.609624
 20
120.000032
 11
21.091986
 21
121.931883
  0
LINE
  8
2
 62
134
  6
CONTINUOUS
 10
21.609624
 20
120.000032
 11
22.127262
 21
121.931883
  0
LINE
  8
2
 62
134
  6
CONTINUOUS
 10
21.091986
 20
121.931883
 11
22.127262
 21
121.931883
  0
LINE
  8
2
 62
134
  6
CONTINUOUS
 10
21.609624
 20
120.482994
 11
21.350805
 21
121.448920
  0
LINE
  8
2
 62
134
  6
CONTINUOUS
 10
21.609624
 20
120.482994
 11
21.868443
 21
121.448920
  0
LINE
  8
2
 62
134
  6
CONTINUOUS
 10
21.350805
 20
121.448920
 11
21.868443
 21
121.448920
  0
LINE
  8
2
 62
134
  6
CONTINUOUS
 10
21.609624
 20
140.000032
 11
22.127262
 21
138.068180
  0
LINE
  8
2
 62
134
  6
CONTINUOUS
 10
21.609624
 20
140.000032
 11
21.091986
 21
138.068180
  0
LINE
  8
2
 62
134
  6
CONTINUOUS
 10
22.127262
 20
138.068180
 11
21.091986
 21
138.068180
  0
LINE
  8
2
 62
134
  6
CONTINUOUS
 10
21.609624
 20
139.517069
 11
21.868443
 21
138.551143
  0
LINE
  8
2
 62
134
  6
CONTINUOUS
 10
21.609624
 20
139.517069
 11
21.350805
 21
138.551143
  0
LINE
  8
2
 62
134
  6
CONTINUOUS
 10
21.868443
 20
138.551143
 11
21.350805
 21
138.551143
  0
TEXT
  8
2
 62
134
  6
CONTINUOUS
 10
21.609624
 20
126.000032
 40
4.000000
 41
1.000000
  1
φ20
  7
KANJI
 50
90.000000
 51
30.000000
  0
ENDBLK
  0
ENDSEC
  0
SECTION
  2
ENTITIES
  0
LINE
  8
5
 62
7
  6
CONTINUOUS
 10
285.000000
 20
195.000000
 11
10.000000
 21
195.000000
  0
LINE
  8
5
 62
7
  6
CONTINUOUS
 10
10.000000
 20
195.000000
 11
10.000000
 21
10.000000
  0
LINE
  8
5
 62
7
  6
CONTINUOUS
 10
10.000000
 20
10.000000
 11
285.000000
 21
10.000000
  0
LINE
  8
5
 62
7
  6
CONTINUOUS
 10
285.000000
 20
10.000000
 11
285.000000
 21
195.000000
  0
TEXT
  8
5
 62
7
  6
CONTINUOUS
 10
210.962748
 20
25.651490
 40
1.750000
 41
4.000000
  1
製図
  7
KANJI
 50
-90.000000
 51
0.000000
  0
TEXT
  8
5
 62
7
  6
CONTINUOUS
 10
230.795530
 20
25.487583
 40
1.750000
 41
4.000000
  1
図番
  7
KANJI
 50
-90.000000
 51
0.000000
  0
TEXT
  8
5
 62
7
  6
CONTINUOUS
 10
230.795530
 20
38.764073
 40
1.750000
 41
4.000000
  1
図　名
  7
KANJI
 50
-90.000000
 51
0.000000
  0
TEXT
  8
5
 62
7
  6
CONTINUOUS
 10
165.888245
 20
33.355132
 40
1.750000
 41
4.000000
  1
日付
  7
KANJI
 50
-90.000000
 51
0.000000
  0
TEXT
  8
5
 62
7
  6
CONTINUOUS
 10
200.964404
 20
33.519040
 40
1.750000
 41
4.000000
  1
図法
  7
KANJI
 50
-90.000000
 51
0.000000
  0
TEXT
  8
5
 62
7
  6
CONTINUOUS
 10
200.800497
 20
41.550497
 40
1.750000
 41
4.000000
  1
尺度
  7
KANJI
 50
-90.000000
 51
0.000000
  0
TEXT
  8
5
 62
7
  6
CONTINUOUS
 10
165.888245
 20
41.386589
 40
1.750000
 41
4.000000
  1
公差
  7
KANJI
 50
-90.000000
 51
0.000000
  0
TEXT
  8
5
 62
7
  6
CONTINUOUS
 10
165.888245
 20
25.487583
 40
1.750000
 41
4.000000
  1
承認
  7
KANJI
 50
-90.000000
 51
0.000000
  0
TEXT
  8
5
 62
7
  6
CONTINUOUS
 10
190.966060
 20
25.487583
 40
1.750000
 41
4.000000
  1
設計
  7
KANJI
 50
-90.000000
 51
0.000000
  0
TEXT
  8
5
 62
7
  6
CONTINUOUS
 10
184.409768
 20
11.555464
 40
4.500000
 41
1.888889
  1
ジャパンセンサー株式会社
  7
KANJI
 50
0.000000
 51
0.000000
  0
LINE
  8
5
 62
7
  6
CONTINUOUS
 10
165.000000
 20
42.000000
 11
285.000000
 21
42.000000
  0
LINE
  8
5
 62
7
  6
CONTINUOUS
 10
165.000000
 20
10.000000
 11
165.000000
 21
42.000000
  0
LINE
  8
5
 62
7
  6
CONTINUOUS
 10
285.000000
 20
18.000000
 11
165.000000
 21
18.000000
  0
LINE
  8
5
 62
7
  6
CONTINUOUS
 10
230.000000
 20
42.000000
 11
230.000000
 21
18.000000
  0
LINE
  8
5
 62
7
  6
CONTINUOUS
 10
285.000000
 20
26.000000
 11
165.000000
 21
26.000000
  0
LINE
  8
5
 62
7
  6
CONTINUOUS
 10
235.000000
 20
18.000000
 11
235.000000
 21
42.000000
  0
LINE
  8
5
 62
7
  6
CONTINUOUS
 10
205.000000
 20
42.000000
 11
205.000000
 21
26.000000
  0
LINE
  8
5
 62
7
  6
CONTINUOUS
 10
170.000000
 20
18.000000
 11
170.000000
 21
42.000000
  0
LINE
  8
5
 62
7
  6
CONTINUOUS
 10
165.000000
 20
34.000000
 11
230.000000
 21
34.000000
  0
LINE
  8
5
 62
7
  6
CONTINUOUS
 10
200.000000
 20
42.000000
 11
200.000000
 21
26.000000
  0
LINE
  8
5
 62
7
  6
CONTINUOUS
 10
190.000000
 20
18.000000
 11
190.000000
 21
26.000000
  0
LINE
  8
5
 62
7
  6
CONTINUOUS
 10
210.000000
 20
18.000000
 11
210.000000
 21
26.000000
  0
LINE
  8
5
 62
7
  6
CONTINUOUS
 10
195.000000
 20
26.000000
 11
195.000000
 21
18.000000
  0
LINE
  8
5
 62
7
  6
CONTINUOUS
 10
215.000000
 20
26.000000
 11
215.000000
 21
18.000000
  0
TEXT
  8
5
 62
7
  6
CONTINUOUS
 10
209.979305
 20
35.649834
 40
4.000000
 41
1.000000
  1
１／１
  7
KANJI
 50
0.000000
 51
0.000000
  0
TEXT
  8
5
 62
7
  6
CONTINUOUS
 10
208.995861
 20
27.290563
 40
4.000000
 41
1.000000
  1
三角法
  7
KANJI
 50
0.000000
 51
0.000000
  0
TEXT
  8
5
 62
7
  6
CONTINUOUS
 10
196.211093
 20
19.750828
 40
4.000000
 41
1.000000
  1
保田
  7
KANJI
 50
0.810149
 51
0.000000
  0
TEXT
  8
5
 62
7
  6
CONTINUOUS
 10
216.207781
 20
19.914735
 40
4.000000
 41
1.000000
  1
保田
  7
KANJI
 50
-0.112820
 51
0.000000
  0
TEXT
  8
5
 62
7
  6
CONTINUOUS
 10
239.646523
 20
27.426947
 40
4.000000
 41
1.000000
  1
ＨＸ－Ｃ２ａ
  7
KANJI
 50
0.000000
 51
0.000000
  0
LINE
  8
1
 62
4
  6
DASHDOT
 10
254.598093
 20
140.000000
 11
254.598093
 21
121.299488
  0
LINE
  8
1
 62
4
  6
DASHDOT
 10
247.227223
 20
130.000000
 11
262.573573
 21
130.000000
  0
LINE
  8
1
 62
4
  6
DASHDOT
 10
254.598093
 20
112.340948
 11
254.598093
 21
147.141228
  0
LINE
  8
1
 62
4
  6
DASHDOT
 10
268.014995
 20
130.000000
 11
240.117413
 21
130.000000
  0
LINE
  8
1
 62
7
  6
CONTINUOUS
 10
266.298093
 20
115.000000
 11
266.598093
 21
115.300000
  0
LINE
  8
1
 62
7
  6
CONTINUOUS
 10
266.598093
 20
144.700000
 11
266.598093
 21
115.300000
  0
LINE
  8
1
 62
7
  6
CONTINUOUS
 10
242.898093
 20
115.000000
 11
266.298093
 21
115.000000
  0
LINE
  8
1
 62
7
  6
CONTINUOUS
 10
242.598093
 20
115.300000
 11
242.898093
 21
115.000000
  0
LINE
  8
1
 62
7
  6
CONTINUOUS
 10
242.598093
 20
144.700000
 11
242.598093
 21
115.300000
  0
LINE
  8
1
 62
7
  6
CONTINUOUS
 10
242.898093
 20
145.000000
 11
242.598093
 21
144.700000
  0
LINE
  8
1
 62
7
  6
CONTINUOUS
 10
266.298093
 20
145.000000
 11
242.898093
 21
145.000000
  0
LINE
  8
1
 62
7
  6
CONTINUOUS
 10
266.298093
 20
145.000000
 11
266.598093
 21
144.700000
  0
CIRCLE
  8
1
 62
7
  6
CONTINUOUS
 10
264.098093
 20
117.500000
 40
2.100000
  0
CIRCLE
  8
1
 62
7
  6
CONTINUOUS
 10
264.098093
 20
117.500002
 40
1.100000
  0
LINE
  8
1
 62
214
  6
DASHDOT
 10
264.098093
 20
119.980090
 11
264.098093
 21
114.560034
  0
LINE
  8
1
 62
214
  6
DASHDOT
 10
266.927809
 20
117.500000
 11
261.537370
 21
117.500000
  0
LINE
  8
1
 62
214
  6
DASHDOT
 10
265.920768
 20
117.500002
 11
261.453906
 21
117.500002
  0
LINE
  8
1
 62
214
  6
DASHDOT
 10
264.098093
 20
119.283175
 11
264.098093
 21
115.727419
  0
CIRCLE
  8
1
 62
7
  6
CONTINUOUS
 10
245.098093
 20
142.500002
 40
2.100000
  0
CIRCLE
  8
1
 62
7
  6
CONTINUOUS
 10
245.098093
 20
142.500000
 40
1.100000
  0
LINE
  8
1
 62
214
  6
DASHDOT
 10
245.098093
 20
140.019911
 11
245.098093
 21
145.439968
  0
LINE
  8
1
 62
214
  6
DASHDOT
 10
242.268376
 20
142.500002
 11
247.658815
 21
142.500002
  0
LINE
  8
1
 62
214
  6
DASHDOT
 10
243.275417
 20
142.500000
 11
247.742279
 21
142.500000
  0
LINE
  8
1
 62
214
  6
DASHDOT
 10
245.098093
 20
140.716827
 11
245.098093
 21
144.272583
  0
DIMENSION
  8
2
 62
134
  6
CONTINUOUS
  2
*D1
 10
242.598093
 20
160.000000
 11
248.598093
 21
160.000000
 70
     0
  1
12
 13
242.598093
 23
146.700000
 14
254.598093
 24
149.141228
 50
0.000000
  0
DIMENSION
  8
2
 62
134
  6
CONTINUOUS
  2
*D2
 10
254.598093
 20
160.000000
 11
260.598093
 21
160.000000
 70
     0
  1
12
 13
254.598093
 23
160.000000
 14
266.598093
 24
146.700000
 50
0.000000
  0
DIMENSION
  8
2
 62
134
  6
CONTINUOUS
  2
*D3
 10
242.598093
 20
170.000000
 11
256.260391
 21
170.000000
 70
     0
  1
24
 13
242.598093
 23
146.700000
 14
266.598093
 24
146.700000
 50
0.000000
  0
LINE
  8
1
 62
96
  6
CONTINUOUS
 10
247.356045
 20
124.943594
 11
253.840140
 21
121.200000
  0
LINE
  8
1
 62
96
  6
CONTINUOUS
 10
246.598093
 20
133.743594
 11
246.598093
 21
126.256406
  0
LINE
  8
1
 62
96
  6
CONTINUOUS
 10
253.840140
 20
138.800000
 11
247.356045
 21
135.056406
  0
LINE
  8
1
 62
96
  6
CONTINUOUS
 10
261.840140
 20
135.056406
 11
255.356045
 21
138.800000
  0
LINE
  8
1
 62
96
  6
CONTINUOUS
 10
262.598093
 20
126.256406
 11
262.598093
 21
133.743594
  0
LINE
  8
1
 62
96
  6
CONTINUOUS
 10
255.356045
 20
121.200000
 11
261.840140
 21
124.943594
  0
LINE
  8
1
 62
96
  6
CONTINUOUS
 10
261.840140
 20
124.943594
 11
262.598093
 21
126.256406
  0
LINE
  8
1
 62
96
  6
CONTINUOUS
 10
262.598093
 20
133.743594
 11
261.840140
 21
135.056406
  0
LINE
  8
1
 62
96
  6
CONTINUOUS
 10
247.356045
 20
135.056406
 11
246.598093
 21
133.743594
  0
LINE
  8
1
 62
96
  6
CONTINUOUS
 10
246.598093
 20
126.256406
 11
247.356045
 21
124.943594
  0
LINE
  8
1
 62
96
  6
CONTINUOUS
 10
247.356045
 20
135.056406
 11
246.598093
 21
133.743594
  0
LINE
  8
1
 62
96
  6
CONTINUOUS
 10
246.598093
 20
126.256406
 11
247.356045
 21
124.943594
  0
LINE
  8
1
 62
96
  6
CONTINUOUS
 10
261.840140
 20
124.943594
 11
262.598093
 21
126.256406
  0
LINE
  8
1
 62
96
  6
CONTINUOUS
 10
262.598093
 20
133.743594
 11
261.840140
 21
135.056406
  0
LINE
  8
1
 62
96
  6
CONTINUOUS
 10
262.598093
 20
133.743594
 11
261.840140
 21
135.056406
  0
LINE
  8
1
 62
96
  6
CONTINUOUS
 10
262.598093
 20
133.743594
 11
261.840140
 21
135.056406
  0
LINE
  8
1
 62
96
  6
CONTINUOUS
 10
253.840140
 20
121.200000
 11
255.356045
 21
121.200000
  0
LINE
  8
1
 62
96
  6
CONTINUOUS
 10
261.840140
 20
124.943594
 11
262.598093
 21
126.256406
  0
LINE
  8
1
 62
96
  6
CONTINUOUS
 10
253.840140
 20
121.200000
 11
255.356045
 21
121.200000
  0
LINE
  8
1
 62
96
  6
CONTINUOUS
 10
253.840140
 20
138.800000
 11
255.356045
 21
138.800000
  0
CIRCLE
  8
1
 62
7
  6
CONTINUOUS
 10
254.598093
 20
130.000000
 40
3.500000
  0
CIRCLE
  8
1
 62
7
  6
CONTINUOUS
 10
254.598093
 20
130.000000
 40
8.000000
  0
DIMENSION
  8
2
 62
134
  6
CONTINUOUS
  2
*D4
 10
246.598093
 20
99.620666
 11
254.598093
 21
99.620666
 70
     0
  1
16
 13
246.598093
 23
124.256406
 14
262.598093
 24
124.256406
 50
0.000000
  0
LINE
  8
1
 62
7
  6
CONTINUOUS
 10
224.463117
 20
123.370000
 11
224.063117
 21
123.370000
  0
LINE
  8
1
 62
7
  6
CONTINUOUS
 10
224.463117
 20
122.630000
 11
224.463117
 21
123.370000
  0
LINE
  8
1
 62
7
  6
CONTINUOUS
 10
224.063117
 20
122.630000
 11
224.463117
 21
122.630000
  0
LINE
  8
1
 62
7
  6
CONTINUOUS
 10
224.063117
 20
123.370000
 11
224.063117
 21
122.630000
  0
LINE
  8
1
 62
7
  6
CONTINUOUS
 10
224.463117
 20
125.370000
 11
224.063117
 21
125.370000
  0
LINE
  8
1
 62
7
  6
CONTINUOUS
 10
224.463117
 20
124.630000
 11
224.463117
 21
125.370000
  0
LINE
  8
1
 62
7
  6
CONTINUOUS
 10
224.063117
 20
124.630000
 11
224.463117
 21
124.630000
  0
LINE
  8
1
 62
7
  6
CONTINUOUS
 10
224.063117
 20
125.370000
 11
224.063117
 21
124.630000
  0
LINE
  8
1
 62
7
  6
CONTINUOUS
 10
224.463117
 20
127.370000
 11
224.063117
 21
127.370000
  0
LINE
  8
1
 62
7
  6
CONTINUOUS
 10
224.463117
 20
126.630000
 11
224.463117
 21
127.370000
  0
LINE
  8
1
 62
7
  6
CONTINUOUS
 10
224.063117
 20
126.630000
 11
224.463117
 21
126.630000
  0
LINE
  8
1
 62
7
  6
CONTINUOUS
 10
224.063117
 20
127.370000
 11
224.063117
 21
126.630000
  0
LINE
  8
1
 62
7
  6
CONTINUOUS
 10
224.463117
 20
129.370000
 11
224.063117
 21
129.370000
  0
LINE
  8
1
 62
7
  6
CONTINUOUS
 10
224.463117
 20
128.630000
 11
224.463117
 21
129.370000
  0
LINE
  8
1
 62
7
  6
CONTINUOUS
 10
224.063117
 20
128.630000
 11
224.463117
 21
128.630000
  0
LINE
  8
1
 62
7
  6
CONTINUOUS
 10
224.063117
 20
129.370000
 11
224.063117
 21
128.630000
  0
LINE
  8
1
 62
7
  6
CONTINUOUS
 10
224.463117
 20
131.370000
 11
224.063117
 21
131.370000
  0
LINE
  8
1
 62
7
  6
CONTINUOUS
 10
224.463117
 20
130.630000
 11
224.463117
 21
131.370000
  0
LINE
  8
1
 62
7
  6
CONTINUOUS
 10
224.063117
 20
130.630000
 11
224.463117
 21
130.630000
  0
LINE
  8
1
 62
7
  6
CONTINUOUS
 10
224.063117
 20
131.370000
 11
224.063117
 21
130.630000
  0
LINE
  8
1
 62
7
  6
CONTINUOUS
 10
224.463117
 20
133.370000
 11
224.063117
 21
133.370000
  0
LINE
  8
1
 62
7
  6
CONTINUOUS
 10
224.463117
 20
132.630000
 11
224.463117
 21
133.370000
  0
LINE
  8
1
 62
7
  6
CONTINUOUS
 10
224.063117
 20
132.630000
 11
224.463117
 21
132.630000
  0
LINE
  8
1
 62
7
  6
CONTINUOUS
 10
224.063117
 20
133.370000
 11
224.063117
 21
132.630000
  0
LINE
  8
1
 62
7
  6
CONTINUOUS
 10
224.463117
 20
135.370000
 11
224.063117
 21
135.370000
  0
LINE
  8
1
 62
7
  6
CONTINUOUS
 10
224.463117
 20
134.630000
 11
224.463117
 21
135.370000
  0
LINE
  8
1
 62
7
  6
CONTINUOUS
 10
224.063117
 20
134.630000
 11
224.463117
 21
134.630000
  0
LINE
  8
1
 62
7
  6
CONTINUOUS
 10
224.063117
 20
135.370000
 11
224.063117
 21
134.630000
  0
LINE
  8
1
 62
7
  6
CONTINUOUS
 10
224.463117
 20
137.370000
 11
224.063117
 21
137.370000
  0
LINE
  8
1
 62
7
  6
CONTINUOUS
 10
224.463117
 20
136.630000
 11
224.463117
 21
137.370000
  0
LINE
  8
1
 62
7
  6
CONTINUOUS
 10
224.063117
 20
136.630000
 11
224.463117
 21
136.630000
  0
LINE
  8
1
 62
7
  6
CONTINUOUS
 10
224.063117
 20
137.370000
 11
224.063117
 21
136.630000
  0
LINE
  8
1
 62
7
  6
CONTINUOUS
 10
222.563117
 20
138.600000
 11
225.963117
 21
138.600000
  0
LINE
  8
1
 62
7
  6
CONTINUOUS
 10
222.563117
 20
121.400000
 11
222.563117
 21
138.600000
  0
LINE
  8
1
 62
7
  6
CONTINUOUS
 10
225.963117
 20
121.400000
 11
222.563117
 21
121.400000
  0
LINE
  8
1
 62
7
  6
CONTINUOUS
 10
225.963117
 20
138.600000
 11
225.963117
 21
121.400000
  0
LINE
  8
1
 62
7
  6
CONTINUOUS
 10
225.963117
 20
144.523092
 11
222.563117
 21
144.523092
  0
LINE
  8
1
 62
7
  6
CONTINUOUS
 10
225.963117
 20
140.550000
 11
225.963117
 21
144.523092
  0
LINE
  8
1
 62
7
  6
CONTINUOUS
 10
222.563117
 20
140.550000
 11
222.563117
 21
144.523092
  0
LINE
  8
1
 62
7
  6
DASHDOT
 10
223.165857
 20
123.000000
 11
225.355487
 21
123.000000
  0
LINE
  8
1
 62
7
  6
DASHDOT
 10
223.165857
 20
125.000000
 11
225.355487
 21
125.000000
  0
LINE
  8
1
 62
7
  6
DASHDOT
 10
223.165857
 20
127.000000
 11
225.355487
 21
127.000000
  0
LINE
  8
1
 62
7
  6
DASHDOT
 10
223.165857
 20
129.000000
 11
225.355487
 21
129.000000
  0
LINE
  8
1
 62
7
  6
DASHDOT
 10
223.165857
 20
131.000000
 11
225.355487
 21
131.000000
  0
LINE
  8
1
 62
7
  6
DASHDOT
 10
223.165857
 20
133.000000
 11
225.355487
 21
133.000000
  0
LINE
  8
1
 62
7
  6
DASHDOT
 10
223.165857
 20
135.000000
 11
225.355487
 21
135.000000
  0
LINE
  8
1
 62
7
  6
DASHDOT
 10
223.165857
 20
137.000000
 11
225.355487
 21
137.000000
  0
LINE
  8
1
 62
7
  6
CONTINUOUS
 10
227.263117
 20
120.050000
 11
227.263117
 21
142.750000
  0
LINE
  8
1
 62
7
  6
CONTINUOUS
 10
221.263117
 20
142.750000
 11
221.263117
 21
120.050000
  0
LINE
  8
1
 62
7
  6
CONTINUOUS
 10
225.963117
 20
142.750000
 11
227.263117
 21
142.750000
  0
LINE
  8
1
 62
7
  6
CONTINUOUS
 10
222.563117
 20
142.750000
 11
221.263117
 21
142.750000
  0
LINE
  8
1
 62
7
  6
CONTINUOUS
 10
227.263117
 20
140.550000
 11
225.963117
 21
140.550000
  0
LINE
  8
1
 62
7
  6
CONTINUOUS
 10
221.263117
 20
140.550000
 11
222.563117
 21
140.550000
  0
LINE
  8
1
 62
7
  6
CONTINUOUS
 10
183.019763
 20
128.572504
 11
186.493549
 21
127.600000
  0
LINE
  8
1
 62
7
  6
CONTINUOUS
 10
183.068625
 20
127.355416
 11
186.469057
 21
126.400000
  0
LINE
  8
1
 62
7
  6
CONTINUOUS
 10
180.159419
 20
128.773224
 11
186.493549
 21
125.600000
  0
LINE
  8
1
 62
7
  6
CONTINUOUS
 10
182.755128
 20
126.267314
 11
186.469057
 21
124.400000
  0
LINE
  8
1
 62
7
  6
CONTINUOUS
 10
179.706747
 20
130.000000
 11
186.493549
 21
129.600000
  0
LINE
  8
1
 62
7
  6
CONTINUOUS
 10
179.706747
 20
128.800000
 11
186.469057
 21
128.400000
  0
LINE
  8
1
 62
7
  6
CONTINUOUS
 10
179.706747
 20
128.800000
 11
178.239095
 21
128.800000
  0
LINE
  8
1
 62
7
  6
CONTINUOUS
 10
183.019763
 20
131.427496
 11
186.493549
 21
132.400000
  0
LINE
  8
1
 62
7
  6
CONTINUOUS
 10
183.068625
 20
132.644584
 11
186.469057
 21
133.600000
  0
LINE
  8
1
 62
7
  6
CONTINUOUS
 10
180.159419
 20
131.226776
 11
186.493549
 21
134.400000
  0
LINE
  8
1
 62
7
  6
CONTINUOUS
 10
182.755128
 20
133.732686
 11
186.469057
 21
135.600000
  0
LINE
  8
1
 62
7
  6
CONTINUOUS
 10
179.706747
 20
130.000000
 11
186.493549
 21
130.400000
  0
LINE
  8
1
 62
7
  6
CONTINUOUS
 10
179.706747
 20
131.200000
 11
186.469057
 21
131.600000
  0
LINE
  8
1
 62
7
  6
CONTINUOUS
 10
179.706747
 20
131.200000
 11
178.239095
 21
131.200000
  0
LINE
  8
1
 62
7
  6
CONTINUOUS
 10
179.706747
 20
128.400000
 11
186.493549
 21
123.600000
  0
LINE
  8
1
 62
7
  6
CONTINUOUS
 10
179.706747
 20
127.200000
 11
186.469057
 21
122.400000
  0
LINE
  8
1
 62
7
  6
CONTINUOUS
 10
179.706747
 20
128.400000
 11
178.239095
 21
128.400000
  0
LINE
  8
1
 62
7
  6
CONTINUOUS
 10
179.706747
 20
127.200000
 11
178.239095
 21
127.200000
  0
LINE
  8
1
 62
7
  6
CONTINUOUS
 10
179.706747
 20
131.600000
 11
186.493549
 21
136.400000
  0
LINE
  8
1
 62
7
  6
CONTINUOUS
 10
179.706747
 20
132.800000
 11
186.469057
 21
137.600000
  0
LINE
  8
1
 62
7
  6
CONTINUOUS
 10
179.706747
 20
131.600000
 11
178.239095
 21
131.600000
  0
LINE
  8
1
 62
7
  6
CONTINUOUS
 10
179.706747
 20
132.800000
 11
178.239095
 21
132.800000
  0
LINE
  8
1
 62
7
  6
CONTINUOUS
 10
178.239095
 20
133.500000
 11
178.239095
 21
126.500000
  0
LINE
  8
1
 62
7
  6
DASHDOT
 10
218.615171
 20
130.000000
 11
229.609752
 21
130.000000
  0
LINE
  8
1
 62
7
  6
CONTINUOUS
 10
221.263117
 20
120.050000
 11
227.263117
 21
120.050000
  0
LINE
  8
1
 62
7
  6
DASHDOT
 10
224.263117
 20
149.230845
 11
224.263117
 21
116.203584
  0
LINE
  8
1
 62
7
  6
CONTINUOUS
 10
179.706747
 20
130.000000
 11
178.239095
 21
130.000000
  0
LINE
  8
1
 62
7
  6
CONTINUOUS
 10
146.690478
 20
133.500000
 11
124.239408
 21
133.500000
  0
LINE
  8
1
 62
7
  6
CONTINUOUS
 10
124.239408
 20
126.500000
 11
144.257145
 21
126.500000
  0
LINE
  8
1
 62
7
  6
CONTINUOUS
 10
178.239095
 20
126.500000
 11
146.374190
 21
126.500000
  0
LINE
  8
1
 62
7
  6
CONTINUOUS
 10
148.807523
 20
133.500000
 11
178.239095
 21
133.500000
  0
LINE
  8
1
 62
7
  6
DASHDOT
 10
147.590857
 20
130.000000
 11
211.551681
 21
130.000000
  0
LINE
  8
1
 62
7
  6
CONTINUOUS
 10
149.618780
 20
136.083769
 11
145.666963
 21
124.228318
  0
LINE
  8
1
 62
7
  6
CONTINUOUS
 10
147.501735
 20
136.083769
 11
143.549918
 21
124.228318
  0
DIMENSION
  8
2
 62
134
  6
CONTINUOUS
  2
*D5
 10
124.239408
 20
151.480847
 11
152.691588
 21
151.480847
 70
     0
  1
ｹｰﾌﾞﾙ長（標準2m）
 13
124.239408
 23
136.850000
 14
189.705265
 24
143.650000
 50
0.000000
  0
DIMENSION
  8
2
 62
134
  6
CONTINUOUS
  2
*D6
 10
169.899981
 20
126.500000
 11
169.899981
 21
139.712028
 70
     0
  1
φ7
 13
169.899981
 23
126.500000
 14
169.899981
 24
133.500000
 50
90.000000
  0
LINE
  8
2
 62
134
  6
CONTINUOUS
 10
131.102591
 20
126.350000
 11
138.409367
 21
115.571869
  0
LINE
  8
2
 62
134
  6
CONTINUOUS
 10
138.409367
 20
115.571869
 11
161.891775
 21
115.571869
  0
TEXT
  8
2
 62
134
  6
CONTINUOUS
 10
139.891775
 20
115.571869
 40
4.000000
 41
1.000000
  1
　接続ｹｰﾌﾞﾙ
  7
KANJI
 50
0.000000
 51
30.000000
  0
LINE
  8
2
 62
134
  6
CONTINUOUS
 10
131.102591
 20
126.350000
 11
132.615084
 21
125.041425
  0
LINE
  8
2
 62
134
  6
CONTINUOUS
 10
131.102591
 20
126.350000
 11
131.758161
 21
124.460495
  0
LINE
  8
2
 62
134
  6
CONTINUOUS
 10
132.615084
 20
125.041425
 11
131.758161
 21
124.460495
  0
LINE
  8
2
 62
134
  6
CONTINUOUS
 10
131.373599
 20
125.950240
 11
132.129845
 21
125.295953
  0
LINE
  8
2
 62
134
  6
CONTINUOUS
 10
131.373599
 20
125.950240
 11
131.701384
 21
125.005488
  0
LINE
  8
2
 62
134
  6
CONTINUOUS
 10
132.129845
 20
125.295953
 11
131.701384
 21
125.005488
  0
DIMENSION
  8
2
 62
134
  6
CONTINUOUS
  2
*D7
 10
221.263117
 20
151.459765
 11
224.263117
 21
151.459765
 70
     0
  1
6
 13
221.263117
 23
144.750000
 14
227.263117
 24
144.750000
 50
0.000000
  0
LINE
  8
1
 62
4
  6
CONTINUOUS
 10
107.239408
 20
136.350853
 11
107.239408
 21
123.649147
  0
LINE
  8
1
 62
7
  6
CONTINUOUS
 10
106.939408
 20
145.000000
 11
107.239408
 21
144.700000
  0
LINE
  8
1
 62
7
  6
CONTINUOUS
 10
107.239408
 20
115.300000
 11
107.239408
 21
144.700000
  0
LINE
  8
1
 62
7
  6
CONTINUOUS
 10
107.239408
 20
115.300000
 11
106.939408
 21
115.000000
  0
DIMENSION
  8
2
 62
134
  6
CONTINUOUS
  2
*D8
 10
107.239408
 20
160.000000
 11
115.739408
 21
160.000000
 70
     0
  1
17
 13
107.239408
 23
146.700000
 14
124.239408
 24
136.850000
 50
0.000000
  0
LINE
  8
1
 62
4
  6
DASHDOT
 10
85.583283
 20
130.000000
 11
127.678599
 21
130.000000
  0
LINE
  8
1
 62
7
  6
DASHDOT
 10
64.325696
 20
130.000000
 11
109.642114
 21
130.000000
  0
CIRCLE
  8
1
 62
7
  6
DASHDOT
 10
62.739408
 20
120.000000
 40
3.000000
  0
CIRCLE
  8
1
 62
7
  6
DASHDOT
 10
62.739408
 20
140.000000
 40
3.000000
  0
LINE
  8
1
 62
7
  6
CONTINUOUS
 10
68.239408
 20
145.000000
 11
68.239408
 21
115.000000
  0
LINE
  8
1
 62
7
  6
CONTINUOUS
 10
68.239408
 20
145.000000
 11
106.939408
 21
145.000000
  0
LINE
  8
1
 62
7
  6
CONTINUOUS
 10
68.239408
 20
115.000000
 11
106.939408
 21
115.000000
  0
CIRCLE
  8
1
 62
7
  6
CONTINUOUS
 10
62.739408
 20
140.000000
 40
1.750000
  0
CIRCLE
  8
1
 62
7
  6
CONTINUOUS
 10
62.739408
 20
120.000000
 40
1.750000
  0
CIRCLE
  8
1
 62
7
  6
CONTINUOUS
 10
62.739408
 20
140.000000
 40
1.750000
  0
LINE
  8
1
 62
7
  6
CONTINUOUS
 10
58.739408
 20
119.000000
 11
58.739408
 21
141.000000
  0
LINE
  8
1
 62
7
  6
CONTINUOUS
 10
68.239408
 20
115.000000
 11
62.739407
 21
115.000000
  0
ARC
  8
1
 62
7
  6
CONTINUOUS
 10
62.739408
 20
119.000000
 40
4.000000
 50
180.000000
 51
-90.000005
  0
LINE
  8
1
 62
7
  6
CONTINUOUS
 10
68.239408
 20
145.000000
 11
62.739408
 21
145.000000
  0
ARC
  8
1
 62
7
  6
CONTINUOUS
 10
62.739408
 20
141.000000
 40
4.000000
 50
90.000000
 51
180.000000
  0
LINE
  8
1
 62
214
  6
DASHDOT
 10
60.100169
 20
140.000000
 11
65.402445
 21
140.000000
  0
LINE
  8
1
 62
214
  6
DASHDOT
 10
62.739408
 20
137.763825
 11
62.739408
 21
142.720706
  0
LINE
  8
1
 62
214
  6
DASHDOT
 10
59.890132
 20
140.000000
 11
65.402445
 21
140.000000
  0
LINE
  8
1
 62
214
  6
DASHDOT
 10
60.170181
 20
120.000000
 11
65.659157
 21
120.000000
  0
LINE
  8
1
 62
214
  6
DASHDOT
 10
62.739408
 20
117.402292
 11
62.739408
 21
122.197724
  0
LINE
  8
1
 62
7
  6
CONTINUOUS
 10
68.239408
 20
143.401342
 11
68.239408
 21
145.000000
  0
LINE
  8
1
 62
7
  6
CONTINUOUS
 10
68.239408
 20
115.000000
 11
68.239408
 21
117.100000
  0
LINE
  8
1
 62
7
  6
CONTINUOUS
 10
68.239408
 20
117.100000
 11
68.239408
 21
140.500001
  0
LINE
  8
1
 62
7
  6
CONTINUOUS
 10
68.239408
 20
143.401342
 11
68.239408
 21
117.100000
  0
LINE
  8
1
 62
7
  6
CONTINUOUS
 10
68.238651
 20
133.200000
 11
68.238651
 21
133.500000
  0
LINE
  8
1
 62
7
  6
CONTINUOUS
 10
68.238651
 20
126.800000
 11
68.238651
 21
126.500000
  0
LINE
  8
1
 62
7
  6
CONTINUOUS
 10
68.238651
 20
126.800000
 11
68.238651
 21
130.000000
  0
LINE
  8
1
 62
11
  6
CONTINUOUS
 10
58.738583
 20
136.500000
 11
58.738473
 21
138.500000
  0
LINE
  8
1
 62
11
  6
CONTINUOUS
 10
58.738938
 20
130.000032
 11
58.738473
 21
121.500000
  0
TEXT
  8
2
 62
134
  6
CONTINUOUS
 10
83.972527
 20
96.000000
 40
4.000000
 41
1.000000
  1
2-φ3.5ザグリφ6深さ3
  7
KANJI
 50
0.000000
 51
30.000000
  0
DIMENSION
  8
2
 62
134
  6
CONTINUOUS
  2
*D9
 10
58.739408
 20
160.000000
 11
82.989408
 21
160.000000
 70
     0
  1
48.5
 13
58.739408
 23
142.719254
 14
107.239408
 24
146.700000
 50
0.000000
  0
DIMENSION
  8
2
 62
134
  6
CONTINUOUS
  2
*D10
 10
80.609624
 20
140.000000
 11
80.609624
 21
133.500000
 70
     0
  1
20
 13
67.402445
 23
140.000000
 14
67.659157
 24
120.000000
 50
-90.000000
  0
DIMENSION
  8
2
 62
134
  6
CONTINUOUS
  2
*D11
 10
58.739408
 20
150.283266
 11
60.671259
 21
150.283266
 70
     0
  1
4
 13
58.739408
 23
143.000000
 14
62.739408
 24
144.720706
 50
0.000000
  0
LINE
  8
2
 62
134
  6
CONTINUOUS
 10
64.900695
 20
117.919415
 11
81.972527
 21
100.000000
  0
LINE
  8
2
 62
134
  6
CONTINUOUS
 10
81.972527
 20
100.000000
 11
99.972527
 21
100.000000
  0
TEXT
  8
2
 62
134
  6
CONTINUOUS
 10
83.972527
 20
100.000000
 40
4.000000
 41
1.000000
  1
　取付穴
  7
KANJI
 50
0.000000
 51
30.000000
  0
LINE
  8
2
 62
134
  6
CONTINUOUS
 10
64.900695
 20
117.919415
 11
66.608023
 21
116.877765
  0
LINE
  8
2
 62
134
  6
CONTINUOUS
 10
64.900695
 20
117.919415
 11
65.858460
 21
116.163656
  0
LINE
  8
2
 62
134
  6
CONTINUOUS
 10
66.608023
 20
116.877765
 11
65.858460
 21
116.163656
  0
LINE
  8
2
 62
134
  6
CONTINUOUS
 10
65.233832
 20
117.569739
 11
66.087496
 21
117.048914
  0
LINE
  8
2
 62
134
  6
CONTINUOUS
 10
65.233832
 20
117.569739
 11
65.712714
 21
116.691859
  0
LINE
  8
2
 62
134
  6
CONTINUOUS
 10
66.087496
 20
117.048914
 11
65.712714
 21
116.691859
  0
LINE
  8
1
 62
7
  6
CONTINUOUS
 10
124.239408
 20
134.850000
 11
124.239408
 21
125.150000
  0
TEXT
  8
2
 62
7
  6
CONTINUOUS
 10
196.356397
 20
103.824258
 40
3.999900
 41
1.000000
  1
e-CON コネクタ　8ピン
  7
KANJI
 50
0.000000
 51
0.000000
  0
LINE
  8
1
 62
7
  6
CONTINUOUS
 10
110.239408
 20
136.350853
 11
110.239408
 21
123.649147
  0
LINE
  8
1
 62
7
  6
CONTINUOUS
 10
110.239408
 20
138.800000
 11
110.239408
 21
121.200000
  0
LINE
  8
1
 62
7
  6
CONTINUOUS
 10
115.239408
 20
138.800000
 11
115.239408
 21
121.200000
  0
LINE
  8
1
 62
7
  6
CONTINUOUS
 10
118.239408
 20
121.200000
 11
118.239408
 21
138.800000
  0
LINE
  8
1
 62
7
  6
CONTINUOUS
 10
110.239408
 20
136.000000
 11
112.239408
 21
136.000000
  0
LINE
  8
1
 62
7
  6
CONTINUOUS
 10
110.239408
 20
124.000000
 11
112.239408
 21
124.000000
  0
LINE
  8
1
 62
4
  6
CONTINUOUS
 10
110.239408
 20
138.800000
 11
107.239408
 21
138.800000
  0
LINE
  8
1
 62
4
  6
CONTINUOUS
 10
107.239408
 20
121.200000
 11
110.239408
 21
121.200000
  0
LINE
  8
1
 62
7
  6
CONTINUOUS
 10
115.239408
 20
135.056406
 11
118.239408
 21
135.056406
  0
LINE
  8
1
 62
7
  6
CONTINUOUS
 10
115.239408
 20
133.743594
 11
118.239408
 21
133.743594
  0
LINE
  8
1
 62
7
  6
CONTINUOUS
 10
115.239408
 20
126.256406
 11
118.239408
 21
126.256406
  0
LINE
  8
1
 62
7
  6
CONTINUOUS
 10
115.239408
 20
124.943594
 11
118.239408
 21
124.943594
  0
LINE
  8
1
 62
7
  6
CONTINUOUS
 10
107.239408
 20
135.056406
 11
110.239408
 21
135.056406
  0
LINE
  8
1
 62
7
  6
CONTINUOUS
 10
107.239408
 20
133.743594
 11
110.239408
 21
133.743594
  0
LINE
  8
1
 62
7
  6
CONTINUOUS
 10
107.239408
 20
126.256406
 11
110.239408
 21
126.256406
  0
LINE
  8
1
 62
7
  6
CONTINUOUS
 10
107.239408
 20
124.943594
 11
110.239408
 21
124.943594
  0
LINE
  8
1
 62
7
  6
CONTINUOUS
 10
115.239408
 20
138.800000
 11
118.239408
 21
138.800000
  0
LINE
  8
1
 62
7
  6
CONTINUOUS
 10
115.239408
 20
121.200000
 11
118.239408
 21
121.200000
  0
LINE
  8
1
 62
7
  6
CONTINUOUS
 10
112.239408
 20
138.000000
 11
112.239408
 21
122.000000
  0
LINE
  8
1
 62
4
  6
CONTINUOUS
 10
122.239408
 20
138.000000
 11
118.239408
 21
138.000000
  0
LINE
  8
1
 62
4
  6
CONTINUOUS
 10
115.239408
 20
138.000000
 11
112.239408
 21
138.000000
  0
LINE
  8
1
 62
4
  6
CONTINUOUS
 10
112.239408
 20
122.000000
 11
115.239408
 21
122.000000
  0
LINE
  8
1
 62
4
  6
CONTINUOUS
 10
118.239408
 20
122.000000
 11
122.239408
 21
122.000000
  0
ARC
  8
1
 62
4
  6
CONTINUOUS
 10
122.239408
 20
124.000000
 40
2.000000
 50
-90.000000
 51
0.000000
  0
LINE
  8
1
 62
4
  6
CONTINUOUS
 10
124.239408
 20
124.000000
 11
124.239408
 21
136.000000
  0
ARC
  8
1
 62
4
  6
CONTINUOUS
 10
122.239408
 20
136.000000
 40
2.000000
 50
0.000000
 51
90.000000
  0
LINE
  8
1
 62
7
  6
DOT
 10
42.037390
 20
122.500032
 11
42.633442
 21
122.500032
  0
LINE
  8
1
 62
7
  6
DOT
 10
42.037390
 20
137.500032
 11
42.633442
 21
137.500032
  0
ARC
  8
1
 62
7
  6
DOT
 10
19.835416
 20
130.000032
 40
24.000000
 50
-18.209957
 51
18.209957
  0
ARC
  8
1
 62
7
  6
DOT
 10
64.835416
 20
130.000032
 40
24.000000
 50
161.790039
 51
-161.790039
  0
LINE
  8
1
 62
214
  6
CONTINUOUS
 10
58.238446
 20
140.000032
 11
58.738473
 21
139.500032
  0
LINE
  8
1
 62
214
  6
CONTINUOUS
 10
34.739408
 20
139.500032
 11
35.239408
 21
140.000032
  0
LINE
  8
1
 62
214
  6
CONTINUOUS
 10
35.239408
 20
140.000032
 11
58.238446
 21
140.000032
  0
LINE
  8
1
 62
11
  6
CONTINUOUS
 10
58.738473
 20
120.500032
 11
58.238446
 21
120.000032
  0
LINE
  8
1
 62
214
  6
CONTINUOUS
 10
34.739408
 20
120.500032
 11
35.239408
 21
120.000032
  0
LINE
  8
1
 62
214
  6
CONTINUOUS
 10
35.239408
 20
120.000032
 11
58.238446
 21
120.000032
  0
LINE
  8
1
 62
134
  6
CONTINUOUS
 10
58.238446
 20
120.000032
 11
58.238446
 21
140.000032
  0
LINE
  8
1
 62
134
  6
CONTINUOUS
 10
35.255081
 20
120.000032
 11
35.255081
 21
140.000032
  0
LINE
  8
1
 62
214
  6
CONTINUOUS
 10
34.739408
 20
120.500032
 11
34.739408
 21
139.500032
  0
LINE
  8
2
 62
7
  6
CONTINUOUS
 10
42.633442
 20
122.500032
 11
58.090730
 21
95.886127
  0
LINE
  8
2
 62
7
  6
CONTINUOUS
 10
58.090730
 20
95.886127
 11
72.090730
 21
95.886127
  0
TEXT
  8
2
 62
7
  6
CONTINUOUS
 10
64.090730
 20
95.886127
 40
4.000000
 41
1.000000
  1
ﾚﾝｽﾞ
  7
KANJI
 50
360.000000
 51
30.000000
  0
LINE
  8
2
 62
7
  6
CONTINUOUS
 10
42.633442
 20
122.500032
 11
44.051302
 21
121.089474
  0
LINE
  8
2
 62
7
  6
CONTINUOUS
 10
42.633442
 20
122.500032
 11
43.156066
 21
120.569523
  0
LINE
  8
2
 62
7
  6
CONTINUOUS
 10
44.051302
 20
121.089474
 11
43.156066
 21
120.569523
  0
LINE
  8
2
 62
7
  6
CONTINUOUS
 10
42.876003
 20
122.082398
 11
43.584932
 21
121.377119
  0
LINE
  8
2
 62
7
  6
CONTINUOUS
 10
42.876003
 20
122.082398
 11
43.137314
 21
121.117144
  0
LINE
  8
2
 62
7
  6
CONTINUOUS
 10
43.584932
 20
121.377119
 11
43.137314
 21
121.117144
  0
DIMENSION
  8
2
 62
134
  6
CONTINUOUS
  2
*D12
 10
50.393132
 20
115.000000
 11
50.393132
 21
122.500000
 70
     0
  1
15
 13
60.739408
 23
115.000000
 14
56.238446
 24
130.000000
 50
90.000000
  0
LINE
  8
1
 62
7
  6
DASHDOT
 10
29.475067
 20
130.000000
 11
145.473812
 21
130.000000
  0
DIMENSION
  8
2
 62
134
  6
CONTINUOUS
  2
*D13
 10
280.961644
 20
145.000000
 11
280.961644
 21
130.000000
 70
     0
  1
30
 13
268.298093
 23
145.000000
 14
268.298093
 24
115.000000
 50
-90.000000
  0
DIMENSION
  8
2
 62
134
  6
CONTINUOUS
  2
*D14
 10
274.284495
 20
138.800000
 11
274.284495
 21
130.000000
 70
     0
  1
17.6
 13
257.481962
 23
138.800000
 14
257.356045
 24
121.200000
 50
-90.000000
  0
DIMENSION
  8
2
 62
14
  6
CONTINUOUS
  2
*D15
 10
34.739408
 20
179.468226
 11
70.989408
 21
179.468226
 70
     0
  1
72.5
 13
34.739408
 23
141.500032
 14
107.239408
 24
146.700000
 50
0.000000
  0
DIMENSION
  8
2
 62
14
  6
CONTINUOUS
  2
*D16
 10
34.739408
 20
160.000000
 11
46.738940
 21
160.000000
 70
     0
  1
24
 13
34.739408
 23
141.500032
 14
58.738473
 24
141.500032
 50
0.000000
  0
DIMENSION
  8
2
 62
134
  6
CONTINUOUS
  2
*D17
 10
21.609624
 20
120.000032
 11
21.609624
 21
130.000032
 70
     0
  1
φ20
 13
33.255081
 23
120.000032
 14
33.255081
 24
140.000032
 50
90.000000
  0
LINE
  8
2
 62
7
  6
CONTINUOUS
 10
34.739408
 20
179.468226
 11
32.807556
 21
178.950588
  0
LINE
  8
2
 62
7
  6
CONTINUOUS
 10
34.739408
 20
179.468226
 11
32.807556
 21
179.985864
  0
LINE
  8
2
 62
7
  6
CONTINUOUS
 10
32.807556
 20
178.950588
 11
32.807556
 21
179.985864
  0
LINE
  8
2
 62
7
  6
CONTINUOUS
 10
34.256445
 20
179.468226
 11
33.290519
 21
179.209407
  0
LINE
  8
2
 62
7
  6
CONTINUOUS
 10
34.256445
 20
179.468226
 11
33.290519
 21
179.727045
  0
LINE
  8
2
 62
7
  6
CONTINUOUS
 10
33.290519
 20
179.209407
 11
33.290519
 21
179.727045
  0
LINE
  8
2
 62
7
  6
CONTINUOUS
 10
34.739408
 20
179.468226
 11
11.497873
 21
179.468226
  0
TEXT
  8
2
 62
7
  6
CONTINUOUS
 10
11.497873
 20
179.468226
 40
4.000000
 41
1.000000
  1
測定距離
  7
KANJI
 50
0.000000
 51
30.000000
  0
TEXT
  8
5
 62
7
  6
CONTINUOUS
 10
235.690938
 20
20.406457
 40
4.000000
 41
1.000000
  1
００５－０６５－Ａ０１５
  7
KANJI
 50
0.000000
 51
0.000000
  0
TEXT
  8
5
 62
7
  6
CONTINUOUS
 10
172.772351
 20
27.782285
 40
4.000000
 41
1.000000
  1
2015/1/14
  7
KANJI
 50
0.000000
 51
0.000000
  0
LINE
  8
10
 62
7
  6
CONTINUOUS
 10
86.524538
 20
50.017501
 11
19.025227
 21
50.017501
  0
LINE
  8
10
 62
7
  6
CONTINUOUS
 10
19.025227
 20
54.684051
 11
86.524538
 21
54.684051
  0
LINE
  8
10
 62
7
  6
CONTINUOUS
 10
19.025227
 20
59.350601
 11
86.524538
 21
59.350601
  0
TEXT
  8
10
 62
7
  6
CONTINUOUS
 10
19.310498
 20
60.081450
 40
3.999900
 41
1.000000
  1
該当機種
  7
KANJI
 50
0.000000
 51
0.000000
  0
TEXT
  8
10
 62
7
  6
CONTINUOUS
 10
21.293582
 20
54.672117
 40
3.999900
 41
1.000000
  1
TMHX-CHE0500-0100B3.5
  7
KANJI
 50
0.000000
 51
0.000000
  0
TEXT
  8
10
 62
7
  6
CONTINUOUS
 10
21.293582
 20
50.005567
 40
3.999900
 41
1.000000
  1
TMHX-CHE0500-0200B007
  7
KANJI
 50
0.000000
 51
0.000000
  0
TEXT
  8
10
 62
7
  6
CONTINUOUS
 10
21.293582
 20
45.339017
 40
3.999900
 41
1.000000
  1
TMHX-CSE0500-0100E001
  7
KANJI
 50
0.000000
 51
0.000000
  0
LINE
  8
10
 62
7
  6
CONTINUOUS
 10
19.025227
 20
59.350601
 11
19.025227
 21
45.350951
  0
LINE
  8
10
 62
7
  6
CONTINUOUS
 10
19.025227
 20
45.350951
 11
86.524538
 21
45.350951
  0
LINE
  8
10
 62
134
  6
CONTINUOUS
 10
86.524538
 20
59.350601
 11
86.524538
 21
45.350951
  0
TEXT
  8
5
 62
7
  6
CONTINUOUS
 10
239.646523
 20
34.938808
 40
4.000000
 41
1.000000
  1
ＴＭＨＸ　外形図
  7
KANJI
 50
0.000000
 51
0.000000
  0
ARC
  8
1
 62
7
  6
CONTINUOUS
 10
206.005265
 20
140.450487
 40
0.200000
 50
49.347308
 51
86.000000
  0
ARC
  8
1
 62
7
  6
CONTINUOUS
 10
192.405265
 20
142.100000
 40
0.200000
 50
-90.000000
 51
0.000000
  0
ARC
  8
1
 62
7
  6
CONTINUOUS
 10
190.105265
 20
141.500000
 40
0.400000
 50
90.000000
 51
180.000000
  0
ARC
  8
1
 62
7
  6
CONTINUOUS
 10
191.302949
 20
143.600000
 40
0.500000
 50
90.000000
 51
162.817149
  0
ARC
  8
1
 62
7
  6
CONTINUOUS
 10
191.505265
 20
143.600000
 40
0.500000
 50
33.507719
 51
90.000000
  0
ARC
  8
1
 62
7
  6
CONTINUOUS
 10
192.605265
 20
143.750000
 40
0.500000
 50
-146.492281
 51
-90.000000
  0
ARC
  8
1
 62
7
  6
CONTINUOUS
 10
190.205265
 20
140.700000
 40
0.500000
 50
180.000000
 51
-109.144553
  0
ARC
  8
1
 62
7
  6
CONTINUOUS
 10
197.605265
 20
141.100000
 40
0.500000
 50
180.000000
 51
-90.000000
  0
ARC
  8
1
 62
7
  6
CONTINUOUS
 10
207.605265
 20
120.850000
 40
0.600000
 50
-90.000000
 51
0.000000
  0
ARC
  8
1
 62
7
  6
CONTINUOUS
 10
207.605265
 20
140.000000
 40
0.600000
 50
0.000000
 51
90.000000
  0
ARC
  8
1
 62
7
  6
CONTINUOUS
 10
193.505265
 20
142.350000
 40
0.900000
 50
90.000000
 51
180.000000
  0
ARC
  8
1
 62
7
  6
CONTINUOUS
 10
207.205265
 20
140.800000
 40
1.000000
 50
0.000000
 51
90.000000
  0
ARC
  8
1
 62
7
  6
CONTINUOUS
 10
196.105265
 20
142.250000
 40
1.000000
 50
0.000000
 51
90.000000
  0
ARC
  8
1
 62
7
  6
CONTINUOUS
 10
204.076534
 20
146.480000
 40
4.680000
 50
-109.747638
 51
-90.000000
  0
LINE
  8
1
 62
7
  6
CONTINUOUS
 10
194.005265
 20
120.050000
 11
192.605265
 21
120.050000
  0
LINE
  8
1
 62
7
  6
CONTINUOUS
 10
207.605265
 20
120.250000
 11
194.005265
 21
120.250000
  0
LINE
  8
1
 62
7
  6
CONTINUOUS
 10
208.205265
 20
120.950000
 11
192.605265
 21
120.950000
  0
LINE
  8
1
 62
7
  6
CONTINUOUS
 10
192.605265
 20
121.300000
 11
202.605265
 21
121.300000
  0
LINE
  8
1
 62
7
  6
CONTINUOUS
 10
189.705265
 20
140.700000
 11
189.705265
 21
141.500000
  0
LINE
  8
1
 62
7
  6
CONTINUOUS
 10
191.705265
 20
139.250000
 11
191.705265
 21
139.650000
  0
LINE
  8
1
 62
7
  6
CONTINUOUS
 10
192.605265
 20
138.750000
 11
192.605265
 21
120.050000
  0
LINE
  8
1
 62
7
  6
CONTINUOUS
 10
192.605265
 20
142.100000
 11
192.605265
 21
142.350000
  0
LINE
  8
1
 62
7
  6
CONTINUOUS
 10
194.005265
 20
120.250000
 11
194.005265
 21
120.050000
  0
LINE
  8
1
 62
7
  6
CONTINUOUS
 10
197.105265
 20
142.250000
 11
197.105265
 21
141.100000
  0
LINE
  8
1
 62
7
  6
CONTINUOUS
 10
191.922171
 20
143.876025
 11
192.188360
 21
143.473975
  0
LINE
  8
1
 62
7
  6
CONTINUOUS
 10
199.055265
 20
140.600000
 11
199.055265
 21
138.700000
  0
LINE
  8
1
 62
7
  6
CONTINUOUS
 10
200.035265
 20
142.321672
 11
200.035265
 21
142.771672
  0
LINE
  8
1
 62
7
  6
CONTINUOUS
 10
192.605265
 20
138.750000
 11
191.705265
 21
139.250000
  0
LINE
  8
1
 62
7
  6
CONTINUOUS
 10
202.605265
 20
122.560577
 11
202.605265
 21
121.300000
  0
LINE
  8
1
 62
7
  6
CONTINUOUS
 10
202.605265
 20
123.422115
 11
202.605265
 21
122.577885
  0
LINE
  8
1
 62
7
  6
CONTINUOUS
 10
202.605265
 20
124.560577
 11
202.605265
 21
123.439423
  0
LINE
  8
1
 62
7
  6
CONTINUOUS
 10
202.605265
 20
125.422115
 11
202.605265
 21
124.577885
  0
LINE
  8
1
 62
7
  6
CONTINUOUS
 10
202.605265
 20
126.560577
 11
202.605265
 21
125.439423
  0
LINE
  8
1
 62
7
  6
CONTINUOUS
 10
202.605265
 20
127.422115
 11
202.605265
 21
126.577885
  0
LINE
  8
1
 62
7
  6
CONTINUOUS
 10
202.605265
 20
128.560577
 11
202.605265
 21
127.439423
  0
LINE
  8
1
 62
7
  6
CONTINUOUS
 10
202.605265
 20
129.422115
 11
202.605265
 21
128.577885
  0
LINE
  8
1
 62
7
  6
CONTINUOUS
 10
202.605265
 20
130.560577
 11
202.605265
 21
129.439423
  0
LINE
  8
1
 62
7
  6
CONTINUOUS
 10
202.605265
 20
131.422115
 11
202.605265
 21
130.577885
  0
LINE
  8
1
 62
7
  6
CONTINUOUS
 10
202.605265
 20
132.560577
 11
202.605265
 21
131.439423
  0
LINE
  8
1
 62
7
  6
CONTINUOUS
 10
202.605265
 20
133.422115
 11
202.605265
 21
132.577885
  0
LINE
  8
1
 62
7
  6
CONTINUOUS
 10
202.605265
 20
134.560577
 11
202.605265
 21
133.439423
  0
LINE
  8
1
 62
7
  6
CONTINUOUS
 10
202.605265
 20
135.422115
 11
202.605265
 21
134.577885
  0
LINE
  8
1
 62
7
  6
CONTINUOUS
 10
202.605265
 20
136.560577
 11
202.605265
 21
135.439423
  0
LINE
  8
1
 62
7
  6
CONTINUOUS
 10
202.605265
 20
137.422115
 11
202.605265
 21
136.577885
  0
LINE
  8
1
 62
7
  6
CONTINUOUS
 10
202.605265
 20
138.700000
 11
202.605265
 21
137.439423
  0
LINE
  8
1
 62
7
  6
CONTINUOUS
 10
191.705265
 20
139.650000
 11
190.041289
 21
140.227653
  0
LINE
  8
1
 62
7
  6
CONTINUOUS
 10
192.605265
 20
138.700000
 11
202.605265
 21
138.700000
  0
LINE
  8
1
 62
7
  6
CONTINUOUS
 10
199.055265
 20
139.050000
 11
192.065265
 21
139.050000
  0
LINE
  8
1
 62
7
  6
CONTINUOUS
 10
208.205265
 20
139.300000
 11
199.055265
 21
139.300000
  0
LINE
  8
1
 62
7
  6
CONTINUOUS
 10
207.605265
 20
140.600000
 11
197.605265
 21
140.600000
  0
LINE
  8
1
 62
7
  6
CONTINUOUS
 10
197.051495
 20
142.556369
 11
197.705265
 21
142.321672
  0
LINE
  8
1
 62
7
  6
CONTINUOUS
 10
208.205265
 20
140.800000
 11
208.205265
 21
120.850000
  0
LINE
  8
1
 62
7
  6
CONTINUOUS
 10
204.076534
 20
141.800000
 11
207.205265
 21
141.800000
  0
LINE
  8
1
 62
7
  6
CONTINUOUS
 10
190.105265
 20
141.900000
 11
192.405265
 21
141.900000
  0
LINE
  8
1
 62
7
  6
CONTINUOUS
 10
206.019217
 20
140.650000
 11
197.105265
 21
141.273324
  0
LINE
  8
1
 62
7
  6
CONTINUOUS
 10
200.555265
 20
142.771672
 11
202.495265
 21
142.075231
  0
LINE
  8
1
 62
7
  6
CONTINUOUS
 10
197.705265
 20
142.321672
 11
200.035265
 21
142.321672
  0
LINE
  8
1
 62
7
  6
CONTINUOUS
 10
200.035265
 20
142.771672
 11
200.555265
 21
142.771672
  0
LINE
  8
1
 62
7
  6
CONTINUOUS
 10
190.253909
 20
141.900000
 11
190.825265
 21
143.747711
  0
LINE
  8
1
 62
7
  6
CONTINUOUS
 10
192.605265
 20
143.250000
 11
196.105265
 21
143.250000
  0
LINE
  8
1
 62
7
  6
CONTINUOUS
 10
191.302949
 20
144.100000
 11
191.505265
 21
144.100000
  0
LINE
  8
1
 62
7
  6
CONTINUOUS
 10
192.605265
 20
125.600000
 11
186.493549
 21
125.600000
  0
LINE
  8
1
 62
7
  6
CONTINUOUS
 10
192.605265
 20
124.400000
 11
186.469057
 21
124.400000
  0
LINE
  8
1
 62
7
  6
CONTINUOUS
 10
192.605265
 20
127.600000
 11
186.493549
 21
127.600000
  0
LINE
  8
1
 62
7
  6
CONTINUOUS
 10
192.605265
 20
126.400000
 11
186.469057
 21
126.400000
  0
LINE
  8
1
 62
7
  6
CONTINUOUS
 10
192.605265
 20
129.600000
 11
186.493549
 21
129.600000
  0
LINE
  8
1
 62
7
  6
CONTINUOUS
 10
192.605265
 20
128.400000
 11
186.469057
 21
128.400000
  0
LINE
  8
1
 62
7
  6
CONTINUOUS
 10
192.605265
 20
134.400000
 11
186.493549
 21
134.400000
  0
LINE
  8
1
 62
7
  6
CONTINUOUS
 10
192.605265
 20
135.600000
 11
186.469057
 21
135.600000
  0
LINE
  8
1
 62
7
  6
CONTINUOUS
 10
192.605265
 20
132.400000
 11
186.493549
 21
132.400000
  0
LINE
  8
1
 62
7
  6
CONTINUOUS
 10
192.605265
 20
133.600000
 11
186.469057
 21
133.600000
  0
LINE
  8
1
 62
7
  6
CONTINUOUS
 10
192.605265
 20
130.400000
 11
186.493549
 21
130.400000
  0
LINE
  8
1
 62
7
  6
CONTINUOUS
 10
192.605265
 20
131.600000
 11
186.469057
 21
131.600000
  0
LINE
  8
1
 62
7
  6
CONTINUOUS
 10
192.605265
 20
123.600000
 11
186.493549
 21
123.600000
  0
LINE
  8
1
 62
7
  6
CONTINUOUS
 10
192.605265
 20
122.400000
 11
186.469057
 21
122.400000
  0
LINE
  8
1
 62
7
  6
CONTINUOUS
 10
192.605265
 20
136.400000
 11
186.493549
 21
136.400000
  0
LINE
  8
1
 62
7
  6
CONTINUOUS
 10
192.605265
 20
137.600000
 11
186.469057
 21
137.600000
  0
TEXT
  8
2
 62
7
  6
DOT
 10
183.621873
 20
42.952127
 40
5.000000
 41
1.000000
  1
1
  7
KANJI
 50
0.000000
 51
0.000000
  0
LINE
  8
2
 62
134
  6
CONTINUOUS
 10
184.822375
 20
47.737309
 11
182.426524
 21
43.587574
  0
LINE
  8
2
 62
134
  6
CONTINUOUS
 10
182.426524
 20
43.587574
 11
187.218226
 21
43.587574
  0
LINE
  8
2
 62
134
  6
CONTINUOUS
 10
187.218226
 20
43.587574
 11
184.822375
 21
47.737309
  0
TEXT
  8
2
 62
7
  6
DOT
 10
187.027021
 20
98.204203
 40
5.000000
 41
1.000000
  1
1
  7
KANJI
 50
0.000000
 51
0.000000
  0
LINE
  8
2
 62
134
  6
CONTINUOUS
 10
188.227523
 20
102.989386
 11
185.831672
 21
98.839650
  0
LINE
  8
2
 62
134
  6
CONTINUOUS
 10
185.831672
 20
98.839650
 11
190.623374
 21
98.839650
  0
LINE
  8
2
 62
134
  6
CONTINUOUS
 10
190.623374
 20
98.839650
 11
188.227523
 21
102.989386
  0
TEXT
  8
2
 62
134
  6
CONTINUOUS
 10
190.742135
 20
44.254931
 40
4.000000
 41
1.000000
  1
XN2A-1870（オムロン）表記削除　2021/7/7　保田
  7
KANJI
 50
0.000000
 51
30.000000
  0
LINE
  8
2
 62
134
  6
CONTINUOUS
 10
197.330997
 20
120.050000
 11
205.669689
 21
110.000000
  0
LINE
  8
2
 62
134
  6
CONTINUOUS
 10
205.669689
 20
110.000000
 11
226.007895
 21
110.000000
  0
TEXT
  8
2
 62
134
  6
CONTINUOUS
 10
206.007895
 20
110.000000
 40
4.000000
 41
1.000000
  1
　出力ｺﾈｸﾀ
  7
KANJI
 50
0.000000
 51
30.000000
  0
LINE
  8
2
 62
134
  6
CONTINUOUS
 10
197.330997
 20
120.050000
 11
198.962933
 21
118.893806
  0
LINE
  8
2
 62
134
  6
CONTINUOUS
 10
197.330997
 20
120.050000
 11
198.166198
 21
118.232739
  0
LINE
  8
2
 62
134
  6
CONTINUOUS
 10
198.962933
 20
118.893806
 11
198.166198
 21
118.232739
  0
LINE
  8
2
 62
134
  6
CONTINUOUS
 10
197.639389
 20
119.678318
 11
198.455357
 21
119.100221
  0
LINE
  8
2
 62
134
  6
CONTINUOUS
 10
197.639389
 20
119.678318
 11
198.056990
 21
118.769687
  0
LINE
  8
2
 62
134
  6
CONTINUOUS
 10
198.455357
 20
119.100221
 11
198.056990
 21
118.769687
  0
ENDSEC
  0
EOF
