  0
SECTION
  2
HEADER
  9
$ACADVER
  1
AC1003
  9
$INSBASE
 10
0.000000
 20
0.000000
  9
$EXTMIN
 10
0.000000
 20
0.000000
  9
$EXTMAX
 10
297.000000
 20
210.000000
  9
$LIMMIN
 10
0.000000
 20
0.000000
  9
$LIMMAX
 10
297.000000
 20
210.000000
  9
$VIEWCTR
 10
148.500000
 20
105.000000
  9
$VIEWSIZE
 40
210.000000
  9
$PEXTMIN
 10
0.000000
 20
0.000000
 30
0.000000
  9
$PEXTMAX
 10
297.000000
 20
210.000000
 30
0.000000
  9
$SNAPMODE
 70
     0
  9
$SNAPUNIT
 10
1.000000
 20
1.000000
  9
$SNAPBASE
 10
0.000000
 20
0.000000
  9
$SNAPANG
 50
0.000000
  9
$SNAPISOPAIR
 70
     0
  9
$SNAPSTYLE
 70
     0
  9
$GRIDMODE
 70
     0
  9
$GRIDUNIT
 10
0.000000
 20
0.000000
  9
$ORTHOMODE
 70
     0
  9
$REGENMODE
 70
     1
  9
$FILLMODE
 70
     1
  9
$QTEXTMODE
 70
     0
  9
$DRAGMODE
 70
     2
  9
$LTSCALE
 40
0.250000
  9
$OSMODE
 70
     0
  9
$ATTMODE
 70
     1
  9
$TEXTSIZE
 40
0.200000
  9
$TRACEWID
 40
0.050000
  9
$TEXTSTYLE
  7
STANDARD
  9
$CLAYER
  8
0
  9
$CELTYPE
  6
BYLAYER
  9
$CECOLOR
 62
   256
  9
$DIMSCALE
 40
1.000000
  9
$DIMASZ
 40
1.000000
  9
$DIMEXO
 40
0.000000
  9
$DIMDLI
 40
0.500000
  9
$DIMRND
 40
0.000000
  9
$DIMDLE
 40
0.000000
  9
$DIMEXE
 40
0.000000
  9
$DIMTP
 40
0.000000
  9
$DIMTM
 40
0.000000
  9
$DIMTXT
 40
0.180000
  9
$DIMCEN
 40
0.000000
  9
$DIMTSZ
 40
0.000000
  9
$DIMTOL
 70
     0
  9
$DIMLIM
 70
     0
  9
$DIMTIH
 70
     1
  9
$DIMTOH
 70
     1
  9
$DIMSE1
 70
     0
  9
$DIMSE2
 70
     0
  9
$DIMTAD
 70
     0
  9
$DIMZIN
 70
     0
  9
$DIMBLK
  1

  9
$DIMASO
 70
     0
  9
$DIMSHO
 70
     0
  9
$DIMPOST
  1

  9
$DIMAPOST
  1

  9
$DIMALT
 70
     0
  9
$DIMALTD
 70
     0
  9
$DIMALTF
 40
25.400000
  9
$DIMLFAC
 40
1.000000
  9
$DIMTOFL
 70
     0
  9
$DIMTVP
 40
0.000000
  9
$DIMTIX
 70
     0
  9
$DIMSOXD
 70
     0
  9
$DIMSAH
 70
     0
  9
$DIMBLKL
  1

  9
$DIMBLKR
  1

  9
$LUNITS
 70
     2
  9
$LUPREC
 70
     2
  9
$AXISMODE
 70
     0
  9
$AXISUNIT
 10
1.000000
 20
1.000000
  9
$SKETCHINC
 40
0.000000
  9
$FILLETRAD
 40
0.000000
  9
$AUNITS
 70
     1
  9
$AUPREC
 70
     2
  9
$MENU
  1
ACAD
  9
$ELEVATION
 40
0.000000
  9
$THICKNESS
 40
0.000000
  9
$VIEWDIR
 10
0.000000
 20
0.000000
 30
1.000000
  9
$LIMCHECK
 70
     1
  9
$BLIPMODE
 70
     1
  9
$CHAMFERA
 40
0.000000
  9
$CHAMFERB
 40
0.000000
  9
$FASTZOOM
 70
     1
  9
$SKPOLY
 70
     0
  9
$TDCREATE
 40
0.000000
  9
$TDUPDATE
 40
0.000000
  9
$TDINDWG
 40
0.000000
  9
$TDUSRTIMER
 40
0.000000
  9
$USRTIMER
 70
     1
  9
$ANGBASE
 50
0.000000
  9
$ANGDIR
 70
     0
  9
$PDMODE
 70
     0
  9
$PDSIZE
 40
0.000000
  9
$PLINEWID
 40
0.000000
  9
$COORDS
 70
     2
  9
$USERI1
 70
     0
  9
$USERI2
 70
     0
  9
$USERI3
 70
     0
  9
$USERI4
 70
     0
  9
$USERI5
 70
     0
  9
$USERR1
 40
0.000000
  9
$USERR2
 40
0.000000
  9
$USERR3
 40
0.000000
  9
$USERR4
 40
0.000000
  9
$USERR5
 40
0.000000
  0
ENDSEC
  0
SECTION
  2
TABLES
  0
TABLE
  2
LTYPE
 70
     5
  0
LTYPE
  2
CONTINUOUS
 70
    64
  3
Solid line
 72
    65
 73
     0
 40
0.0
  0
LTYPE
  2
HIDDEN
 70
    64
  3
------------------------
 72
    65
 73
     2
 40
12.6
 49
8.4
 49
-4.2
  0
LTYPE
  2
DOT
 70
    64
  3
････････････････････････
 72
    65
 73
     2
 40
8.0
 49
6.0
 49
-2.0
  0
LTYPE
  2
DASHDOT
 70
    64
  3
--･--･--･--･--･--･--･--
 72
    65
 73
     4
 40
50.5
 49
30.0
 49
-9.0
 49
2.5
 49
-9.0
  0
LTYPE
  2
DIVIDE
 70
    64
  3
--･･--･･--･･--･･--･･--
 72
    65
 73
     6
 40
58.0
 49
30.0
 49
-9.0
 49
2.5
 49
-5.0
 49
2.5
 49
-9.0
  0
LTYPE
  2
ACAD_ISO06W100
 70
    64
  3
____ ... ____ ... ____
 72
    65
 73
     8
 40
37.5
 49
24.0
 49
-3.0
 49
0.5
 49
-3.0
 49
0.5
 49
-3.0
 49
0.5
 49
-3.0
  0
LTYPE
  2
ACAD_ISO14W100
 70
    64
  3
__ . . . __ . . . __ . . . 
 72
    65
 73
     8
 40
25.5
 49
12.0
 49
-3.0
 49
0.5
 49
-3.0
 49
0.5
 49
-3.0
 49
0.5
 49
-3.0
  0
ENDTAB
  0
TABLE
  2
LAYER
 70
4
  0
LAYER
  2
1
 70
64
 62
7
  6
CONTINUOUS
  0
LAYER
  2
2
 70
64
 62
134
  6
CONTINUOUS
  0
LAYER
  2
3
 70
64
 62
214
  6
CONTINUOUS
  0
LAYER
  2
5
 70
64
 62
94
  6
CONTINUOUS
  0
ENDTAB
  0
TABLE
  2
STYLE
 70
     2
  0
STYLE
  2
STANDARD
 70
    64
 40
0.0
 41
1.0
 50
0.0
 71
     0
 42
0.2
  3
TXT
  4

  0
STYLE
  2
KANJI
 70
    64
 40
0.0
 41
1.0
 50
0.0
 71
     0
 42
0.2
  3
TXT
  4
BIGFONT
  0
ENDTAB
  0
TABLE
  2
VIEW
 70
     0
  0
ENDTAB
  0
ENDSEC
  0
SECTION
  2
BLOCKS
  0
BLOCK
  8
2
 62
134
  6
CONTINUOUS
  2
*D1
 70
    65
 10
0.0
 20
0.0
  0
LINE
  8
2
 62
134
  6
CONTINUOUS
 10
74.584074
 20
99.997101
 11
74.584074
 21
130.000000
  0
LINE
  8
2
 62
134
  6
CONTINUOUS
 10
76.584074
 20
99.997101
 11
66.000000
 21
99.997101
  0
LINE
  8
2
 62
134
  6
CONTINUOUS
 10
76.584074
 20
130.000000
 11
64.628256
 21
130.000000
  0
LINE
  8
2
 62
134
  6
CONTINUOUS
 10
74.584074
 20
99.997101
 11
74.066436
 21
101.928953
  0
LINE
  8
2
 62
134
  6
CONTINUOUS
 10
74.584074
 20
99.997101
 11
75.101712
 21
101.928953
  0
LINE
  8
2
 62
134
  6
CONTINUOUS
 10
74.066436
 20
101.928953
 11
75.101712
 21
101.928953
  0
LINE
  8
2
 62
134
  6
CONTINUOUS
 10
74.584074
 20
100.480064
 11
74.325255
 21
101.445990
  0
LINE
  8
2
 62
134
  6
CONTINUOUS
 10
74.584074
 20
100.480064
 11
74.842893
 21
101.445990
  0
LINE
  8
2
 62
134
  6
CONTINUOUS
 10
74.325255
 20
101.445990
 11
74.842893
 21
101.445990
  0
LINE
  8
2
 62
134
  6
CONTINUOUS
 10
74.584074
 20
130.000000
 11
75.101712
 21
128.068148
  0
LINE
  8
2
 62
134
  6
CONTINUOUS
 10
74.584074
 20
130.000000
 11
74.066436
 21
128.068148
  0
LINE
  8
2
 62
134
  6
CONTINUOUS
 10
75.101712
 20
128.068148
 11
74.066436
 21
128.068148
  0
LINE
  8
2
 62
134
  6
CONTINUOUS
 10
74.584074
 20
129.517037
 11
74.842893
 21
128.551111
  0
LINE
  8
2
 62
134
  6
CONTINUOUS
 10
74.584074
 20
129.517037
 11
74.325255
 21
128.551111
  0
LINE
  8
2
 62
134
  6
CONTINUOUS
 10
74.842893
 20
128.551111
 11
74.325255
 21
128.551111
  0
TEXT
  8
2
 62
134
  6
CONTINUOUS
 10
74.084074
 20
112.998550
 40
4.000000
 41
0.500000
  1
30
  7
KANJI
 50
90.000000
 51
30.000000
  0
ENDBLK
  0
BLOCK
  8
2
 62
134
  6
CONTINUOUS
  2
*D2
 70
    65
 10
0.0
 20
0.0
  0
LINE
  8
2
 62
134
  6
CONTINUOUS
 10
74.584074
 20
130.000000
 11
74.584074
 21
144.997101
  0
LINE
  8
2
 62
134
  6
CONTINUOUS
 10
76.584074
 20
130.000000
 11
64.998331
 21
130.000000
  0
LINE
  8
2
 62
134
  6
CONTINUOUS
 10
76.584074
 20
144.997101
 11
66.000000
 21
144.997101
  0
LINE
  8
2
 62
134
  6
CONTINUOUS
 10
74.584074
 20
130.000000
 11
74.066436
 21
131.931852
  0
LINE
  8
2
 62
134
  6
CONTINUOUS
 10
74.584074
 20
130.000000
 11
75.101712
 21
131.931852
  0
LINE
  8
2
 62
134
  6
CONTINUOUS
 10
74.066436
 20
131.931852
 11
75.101712
 21
131.931852
  0
LINE
  8
2
 62
134
  6
CONTINUOUS
 10
74.584074
 20
130.482963
 11
74.325255
 21
131.448889
  0
LINE
  8
2
 62
134
  6
CONTINUOUS
 10
74.584074
 20
130.482963
 11
74.842893
 21
131.448889
  0
LINE
  8
2
 62
134
  6
CONTINUOUS
 10
74.325255
 20
131.448889
 11
74.842893
 21
131.448889
  0
LINE
  8
2
 62
134
  6
CONTINUOUS
 10
74.584074
 20
144.997101
 11
75.101712
 21
143.065249
  0
LINE
  8
2
 62
134
  6
CONTINUOUS
 10
74.584074
 20
144.997101
 11
74.066436
 21
143.065249
  0
LINE
  8
2
 62
134
  6
CONTINUOUS
 10
75.101712
 20
143.065249
 11
74.066436
 21
143.065249
  0
LINE
  8
2
 62
134
  6
CONTINUOUS
 10
74.584074
 20
144.514138
 11
74.842893
 21
143.548212
  0
LINE
  8
2
 62
134
  6
CONTINUOUS
 10
74.584074
 20
144.514138
 11
74.325255
 21
143.548212
  0
LINE
  8
2
 62
134
  6
CONTINUOUS
 10
74.842893
 20
143.548212
 11
74.325255
 21
143.548212
  0
TEXT
  8
2
 62
134
  6
CONTINUOUS
 10
74.084074
 20
135.498550
 40
4.000000
 41
0.500000
  1
15
  7
KANJI
 50
90.000000
 51
30.000000
  0
ENDBLK
  0
BLOCK
  8
2
 62
134
  6
CONTINUOUS
  2
*D3
 70
    65
 10
0.0
 20
0.0
  0
LINE
  8
2
 62
134
  6
CONTINUOUS
 10
35.000000
 20
86.683265
 11
65.000000
 21
86.683265
  0
LINE
  8
2
 62
134
  6
CONTINUOUS
 10
35.000000
 20
84.683265
 11
35.000000
 21
98.997101
  0
LINE
  8
2
 62
134
  6
CONTINUOUS
 10
65.000000
 20
84.683265
 11
65.000000
 21
98.997101
  0
LINE
  8
2
 62
134
  6
CONTINUOUS
 10
35.000000
 20
86.683265
 11
36.931852
 21
87.200904
  0
LINE
  8
2
 62
134
  6
CONTINUOUS
 10
35.000000
 20
86.683265
 11
36.931852
 21
86.165627
  0
LINE
  8
2
 62
134
  6
CONTINUOUS
 10
36.931852
 20
87.200904
 11
36.931852
 21
86.165627
  0
LINE
  8
2
 62
134
  6
CONTINUOUS
 10
35.482963
 20
86.683265
 11
36.448889
 21
86.942085
  0
LINE
  8
2
 62
134
  6
CONTINUOUS
 10
35.482963
 20
86.683265
 11
36.448889
 21
86.424446
  0
LINE
  8
2
 62
134
  6
CONTINUOUS
 10
36.448889
 20
86.942085
 11
36.448889
 21
86.424446
  0
LINE
  8
2
 62
134
  6
CONTINUOUS
 10
65.000000
 20
86.683265
 11
63.068148
 21
86.165627
  0
LINE
  8
2
 62
134
  6
CONTINUOUS
 10
65.000000
 20
86.683265
 11
63.068148
 21
87.200904
  0
LINE
  8
2
 62
134
  6
CONTINUOUS
 10
63.068148
 20
86.165627
 11
63.068148
 21
87.200904
  0
LINE
  8
2
 62
134
  6
CONTINUOUS
 10
64.517037
 20
86.683265
 11
63.551111
 21
86.424446
  0
LINE
  8
2
 62
134
  6
CONTINUOUS
 10
64.517037
 20
86.683265
 11
63.551111
 21
86.942085
  0
LINE
  8
2
 62
134
  6
CONTINUOUS
 10
63.551111
 20
86.424446
 11
63.551111
 21
86.942085
  0
TEXT
  8
2
 62
134
  6
CONTINUOUS
 10
48.000000
 20
87.183265
 40
4.000000
 41
0.500000
  1
30
  7
KANJI
 50
0.000000
 51
30.000000
  0
ENDBLK
  0
BLOCK
  8
2
 62
134
  6
CONTINUOUS
  2
*D4
 70
    65
 10
0.0
 20
0.0
  0
LINE
  8
2
 62
134
  6
CONTINUOUS
 10
90.089568
 20
100.000000
 11
90.089568
 21
113.000000
  0
LINE
  8
2
 62
134
  6
CONTINUOUS
 10
88.089568
 20
100.000000
 11
98.000000
 21
100.000000
  0
LINE
  8
2
 62
134
  6
CONTINUOUS
 10
88.089568
 20
113.000000
 11
98.798474
 21
113.000000
  0
LINE
  8
2
 62
134
  6
CONTINUOUS
 10
90.089568
 20
100.000000
 11
89.571930
 21
101.931852
  0
LINE
  8
2
 62
134
  6
CONTINUOUS
 10
90.089568
 20
100.000000
 11
90.607207
 21
101.931852
  0
LINE
  8
2
 62
134
  6
CONTINUOUS
 10
89.571930
 20
101.931852
 11
90.607207
 21
101.931852
  0
LINE
  8
2
 62
134
  6
CONTINUOUS
 10
90.089568
 20
100.482963
 11
89.830749
 21
101.448889
  0
LINE
  8
2
 62
134
  6
CONTINUOUS
 10
90.089568
 20
100.482963
 11
90.348388
 21
101.448889
  0
LINE
  8
2
 62
134
  6
CONTINUOUS
 10
89.830749
 20
101.448889
 11
90.348388
 21
101.448889
  0
LINE
  8
2
 62
134
  6
CONTINUOUS
 10
90.089568
 20
113.000000
 11
90.607207
 21
111.068148
  0
LINE
  8
2
 62
134
  6
CONTINUOUS
 10
90.089568
 20
113.000000
 11
89.571930
 21
111.068148
  0
LINE
  8
2
 62
134
  6
CONTINUOUS
 10
90.607207
 20
111.068148
 11
89.571930
 21
111.068148
  0
LINE
  8
2
 62
134
  6
CONTINUOUS
 10
90.089568
 20
112.517037
 11
90.348388
 21
111.551111
  0
LINE
  8
2
 62
134
  6
CONTINUOUS
 10
90.089568
 20
112.517037
 11
89.830749
 21
111.551111
  0
LINE
  8
2
 62
134
  6
CONTINUOUS
 10
90.348388
 20
111.551111
 11
89.830749
 21
111.551111
  0
TEXT
  8
2
 62
134
  6
CONTINUOUS
 10
89.589568
 20
104.500000
 40
4.000000
 41
0.500000
  1
13
  7
KANJI
 50
90.000000
 51
30.000000
  0
ENDBLK
  0
BLOCK
  8
2
 62
134
  6
CONTINUOUS
  2
*D5
 70
    65
 10
0.0
 20
0.0
  0
LINE
  8
2
 62
134
  6
CONTINUOUS
 10
92.000000
 20
87.959716
 11
112.000000
 21
87.959716
  0
LINE
  8
2
 62
134
  6
CONTINUOUS
 10
100.000000
 20
85.959716
 11
100.000000
 21
98.000000
  0
LINE
  8
2
 62
134
  6
CONTINUOUS
 10
104.000000
 20
85.959716
 11
104.000000
 21
108.121642
  0
LINE
  8
2
 62
134
  6
CONTINUOUS
 10
100.000000
 20
87.959716
 11
98.068148
 21
87.442078
  0
LINE
  8
2
 62
134
  6
CONTINUOUS
 10
100.000000
 20
87.959716
 11
98.068148
 21
88.477354
  0
LINE
  8
2
 62
134
  6
CONTINUOUS
 10
98.068148
 20
87.442078
 11
98.068148
 21
88.477354
  0
LINE
  8
2
 62
134
  6
CONTINUOUS
 10
99.517037
 20
87.959716
 11
98.551111
 21
87.700897
  0
LINE
  8
2
 62
134
  6
CONTINUOUS
 10
99.517037
 20
87.959716
 11
98.551111
 21
88.218535
  0
LINE
  8
2
 62
134
  6
CONTINUOUS
 10
98.551111
 20
87.700897
 11
98.551111
 21
88.218535
  0
LINE
  8
2
 62
134
  6
CONTINUOUS
 10
104.000000
 20
87.959716
 11
105.931852
 21
88.477354
  0
LINE
  8
2
 62
134
  6
CONTINUOUS
 10
104.000000
 20
87.959716
 11
105.931852
 21
87.442078
  0
LINE
  8
2
 62
134
  6
CONTINUOUS
 10
105.931852
 20
88.477354
 11
105.931852
 21
87.442078
  0
LINE
  8
2
 62
134
  6
CONTINUOUS
 10
104.482963
 20
87.959716
 11
105.448889
 21
88.218535
  0
LINE
  8
2
 62
134
  6
CONTINUOUS
 10
104.482963
 20
87.959716
 11
105.448889
 21
87.700897
  0
LINE
  8
2
 62
134
  6
CONTINUOUS
 10
105.448889
 20
88.218535
 11
105.448889
 21
87.700897
  0
TEXT
  8
2
 62
134
  6
CONTINUOUS
 10
100.867049
 20
88.459716
 40
4.000000
 41
0.500000
  1
4
  7
KANJI
 50
0.000000
 51
30.000000
  0
ENDBLK
  0
BLOCK
  8
2
 62
134
  6
CONTINUOUS
  2
*D6
 70
    65
 10
0.0
 20
0.0
  0
LINE
  8
2
 62
134
  6
CONTINUOUS
 10
104.000000
 20
87.959716
 11
124.000000
 21
87.959716
  0
LINE
  8
2
 62
134
  6
CONTINUOUS
 10
104.000000
 20
85.959716
 11
104.000000
 21
107.995002
  0
LINE
  8
2
 62
134
  6
CONTINUOUS
 10
124.000000
 20
85.959716
 11
124.000000
 21
107.500000
  0
LINE
  8
2
 62
134
  6
CONTINUOUS
 10
104.000000
 20
87.959716
 11
105.931852
 21
88.477354
  0
LINE
  8
2
 62
134
  6
CONTINUOUS
 10
104.000000
 20
87.959716
 11
105.931852
 21
87.442078
  0
LINE
  8
2
 62
134
  6
CONTINUOUS
 10
105.931852
 20
88.477354
 11
105.931852
 21
87.442078
  0
LINE
  8
2
 62
134
  6
CONTINUOUS
 10
104.482963
 20
87.959716
 11
105.448889
 21
88.218535
  0
LINE
  8
2
 62
134
  6
CONTINUOUS
 10
104.482963
 20
87.959716
 11
105.448889
 21
87.700897
  0
LINE
  8
2
 62
134
  6
CONTINUOUS
 10
105.448889
 20
88.218535
 11
105.448889
 21
87.700897
  0
LINE
  8
2
 62
134
  6
CONTINUOUS
 10
124.000000
 20
87.959716
 11
122.068148
 21
87.442078
  0
LINE
  8
2
 62
134
  6
CONTINUOUS
 10
124.000000
 20
87.959716
 11
122.068148
 21
88.477354
  0
LINE
  8
2
 62
134
  6
CONTINUOUS
 10
122.068148
 20
87.442078
 11
122.068148
 21
88.477354
  0
LINE
  8
2
 62
134
  6
CONTINUOUS
 10
123.517037
 20
87.959716
 11
122.551111
 21
87.700897
  0
LINE
  8
2
 62
134
  6
CONTINUOUS
 10
123.517037
 20
87.959716
 11
122.551111
 21
88.218535
  0
LINE
  8
2
 62
134
  6
CONTINUOUS
 10
122.551111
 20
87.700897
 11
122.551111
 21
88.218535
  0
TEXT
  8
2
 62
134
  6
CONTINUOUS
 10
112.000000
 20
88.459716
 40
4.000000
 41
0.500000
  1
20
  7
KANJI
 50
0.000000
 51
30.000000
  0
ENDBLK
  0
BLOCK
  8
2
 62
134
  6
CONTINUOUS
  2
*D7
 70
    65
 10
0.0
 20
0.0
  0
LINE
  8
2
 62
134
  6
CONTINUOUS
 10
124.000000
 20
87.959716
 11
144.000000
 21
87.959716
  0
LINE
  8
2
 62
134
  6
CONTINUOUS
 10
144.000000
 20
85.959716
 11
144.000000
 21
109.250000
  0
LINE
  8
2
 62
134
  6
CONTINUOUS
 10
124.000000
 20
87.959716
 11
125.931852
 21
88.477354
  0
LINE
  8
2
 62
134
  6
CONTINUOUS
 10
124.000000
 20
87.959716
 11
125.931852
 21
87.442078
  0
LINE
  8
2
 62
134
  6
CONTINUOUS
 10
125.931852
 20
88.477354
 11
125.931852
 21
87.442078
  0
LINE
  8
2
 62
134
  6
CONTINUOUS
 10
124.482963
 20
87.959716
 11
125.448889
 21
88.218535
  0
LINE
  8
2
 62
134
  6
CONTINUOUS
 10
124.482963
 20
87.959716
 11
125.448889
 21
87.700897
  0
LINE
  8
2
 62
134
  6
CONTINUOUS
 10
125.448889
 20
88.218535
 11
125.448889
 21
87.700897
  0
LINE
  8
2
 62
134
  6
CONTINUOUS
 10
144.000000
 20
87.959716
 11
142.068148
 21
87.442078
  0
LINE
  8
2
 62
134
  6
CONTINUOUS
 10
144.000000
 20
87.959716
 11
142.068148
 21
88.477354
  0
LINE
  8
2
 62
134
  6
CONTINUOUS
 10
142.068148
 20
87.442078
 11
142.068148
 21
88.477354
  0
LINE
  8
2
 62
134
  6
CONTINUOUS
 10
143.517037
 20
87.959716
 11
142.551111
 21
87.700897
  0
LINE
  8
2
 62
134
  6
CONTINUOUS
 10
143.517037
 20
87.959716
 11
142.551111
 21
88.218535
  0
LINE
  8
2
 62
134
  6
CONTINUOUS
 10
142.551111
 20
87.700897
 11
142.551111
 21
88.218535
  0
TEXT
  8
2
 62
134
  6
CONTINUOUS
 10
132.000000
 20
88.459716
 40
4.000000
 41
0.500000
  1
20
  7
KANJI
 50
0.000000
 51
30.000000
  0
ENDBLK
  0
BLOCK
  8
2
 62
134
  6
CONTINUOUS
  2
*D8
 70
    65
 10
0.0
 20
0.0
  0
LINE
  8
2
 62
134
  6
CONTINUOUS
 10
144.000000
 20
87.959716
 11
164.000000
 21
87.959716
  0
LINE
  8
2
 62
134
  6
CONTINUOUS
 10
164.000000
 20
85.959716
 11
164.000000
 21
109.250000
  0
LINE
  8
2
 62
134
  6
CONTINUOUS
 10
144.000000
 20
87.959716
 11
145.931852
 21
88.477354
  0
LINE
  8
2
 62
134
  6
CONTINUOUS
 10
144.000000
 20
87.959716
 11
145.931852
 21
87.442078
  0
LINE
  8
2
 62
134
  6
CONTINUOUS
 10
145.931852
 20
88.477354
 11
145.931852
 21
87.442078
  0
LINE
  8
2
 62
134
  6
CONTINUOUS
 10
144.482963
 20
87.959716
 11
145.448889
 21
88.218535
  0
LINE
  8
2
 62
134
  6
CONTINUOUS
 10
144.482963
 20
87.959716
 11
145.448889
 21
87.700897
  0
LINE
  8
2
 62
134
  6
CONTINUOUS
 10
145.448889
 20
88.218535
 11
145.448889
 21
87.700897
  0
LINE
  8
2
 62
134
  6
CONTINUOUS
 10
164.000000
 20
87.959716
 11
162.068148
 21
87.442078
  0
LINE
  8
2
 62
134
  6
CONTINUOUS
 10
164.000000
 20
87.959716
 11
162.068148
 21
88.477354
  0
LINE
  8
2
 62
134
  6
CONTINUOUS
 10
162.068148
 20
87.442078
 11
162.068148
 21
88.477354
  0
LINE
  8
2
 62
134
  6
CONTINUOUS
 10
163.517037
 20
87.959716
 11
162.551111
 21
87.700897
  0
LINE
  8
2
 62
134
  6
CONTINUOUS
 10
163.517037
 20
87.959716
 11
162.551111
 21
88.218535
  0
LINE
  8
2
 62
134
  6
CONTINUOUS
 10
162.551111
 20
87.700897
 11
162.551111
 21
88.218535
  0
TEXT
  8
2
 62
134
  6
CONTINUOUS
 10
152.000000
 20
88.459716
 40
4.000000
 41
0.500000
  1
20
  7
KANJI
 50
0.000000
 51
30.000000
  0
ENDBLK
  0
BLOCK
  8
2
 62
134
  6
CONTINUOUS
  2
*D9
 70
    65
 10
0.0
 20
0.0
  0
LINE
  8
2
 62
134
  6
CONTINUOUS
 10
164.000000
 20
87.959716
 11
184.000000
 21
87.959716
  0
LINE
  8
2
 62
134
  6
CONTINUOUS
 10
184.000000
 20
85.959716
 11
184.000000
 21
109.250000
  0
LINE
  8
2
 62
134
  6
CONTINUOUS
 10
164.000000
 20
87.959716
 11
165.931852
 21
88.477354
  0
LINE
  8
2
 62
134
  6
CONTINUOUS
 10
164.000000
 20
87.959716
 11
165.931852
 21
87.442078
  0
LINE
  8
2
 62
134
  6
CONTINUOUS
 10
165.931852
 20
88.477354
 11
165.931852
 21
87.442078
  0
LINE
  8
2
 62
134
  6
CONTINUOUS
 10
164.482963
 20
87.959716
 11
165.448889
 21
88.218535
  0
LINE
  8
2
 62
134
  6
CONTINUOUS
 10
164.482963
 20
87.959716
 11
165.448889
 21
87.700897
  0
LINE
  8
2
 62
134
  6
CONTINUOUS
 10
165.448889
 20
88.218535
 11
165.448889
 21
87.700897
  0
LINE
  8
2
 62
134
  6
CONTINUOUS
 10
184.000000
 20
87.959716
 11
182.068148
 21
87.442078
  0
LINE
  8
2
 62
134
  6
CONTINUOUS
 10
184.000000
 20
87.959716
 11
182.068148
 21
88.477354
  0
LINE
  8
2
 62
134
  6
CONTINUOUS
 10
182.068148
 20
87.442078
 11
182.068148
 21
88.477354
  0
LINE
  8
2
 62
134
  6
CONTINUOUS
 10
183.517037
 20
87.959716
 11
182.551111
 21
87.700897
  0
LINE
  8
2
 62
134
  6
CONTINUOUS
 10
183.517037
 20
87.959716
 11
182.551111
 21
88.218535
  0
LINE
  8
2
 62
134
  6
CONTINUOUS
 10
182.551111
 20
87.700897
 11
182.551111
 21
88.218535
  0
TEXT
  8
2
 62
134
  6
CONTINUOUS
 10
172.000000
 20
88.459716
 40
4.000000
 41
0.500000
  1
20
  7
KANJI
 50
0.000000
 51
30.000000
  0
ENDBLK
  0
BLOCK
  8
2
 62
134
  6
CONTINUOUS
  2
*D10
 70
    65
 10
0.0
 20
0.0
  0
LINE
  8
2
 62
134
  6
CONTINUOUS
 10
226.369867
 20
100.000000
 11
226.369867
 21
107.000000
  0
LINE
  8
2
 62
134
  6
CONTINUOUS
 10
228.369867
 20
100.000000
 11
212.000000
 21
100.000000
  0
LINE
  8
2
 62
134
  6
CONTINUOUS
 10
228.369867
 20
107.000000
 11
212.000000
 21
107.000000
  0
LINE
  8
2
 62
134
  6
CONTINUOUS
 10
226.369867
 20
100.000000
 11
225.852229
 21
101.931852
  0
LINE
  8
2
 62
134
  6
CONTINUOUS
 10
226.369867
 20
100.000000
 11
226.887505
 21
101.931852
  0
LINE
  8
2
 62
134
  6
CONTINUOUS
 10
225.852229
 20
101.931852
 11
226.887505
 21
101.931852
  0
LINE
  8
2
 62
134
  6
CONTINUOUS
 10
226.369867
 20
100.482963
 11
226.111048
 21
101.448889
  0
LINE
  8
2
 62
134
  6
CONTINUOUS
 10
226.369867
 20
100.482963
 11
226.628686
 21
101.448889
  0
LINE
  8
2
 62
134
  6
CONTINUOUS
 10
226.111048
 20
101.448889
 11
226.628686
 21
101.448889
  0
LINE
  8
2
 62
134
  6
CONTINUOUS
 10
226.369867
 20
107.000000
 11
226.887505
 21
105.068148
  0
LINE
  8
2
 62
134
  6
CONTINUOUS
 10
226.369867
 20
107.000000
 11
225.852229
 21
105.068148
  0
LINE
  8
2
 62
134
  6
CONTINUOUS
 10
226.887505
 20
105.068148
 11
225.852229
 21
105.068148
  0
LINE
  8
2
 62
134
  6
CONTINUOUS
 10
226.369867
 20
106.517037
 11
226.628686
 21
105.551111
  0
LINE
  8
2
 62
134
  6
CONTINUOUS
 10
226.369867
 20
106.517037
 11
226.111048
 21
105.551111
  0
LINE
  8
2
 62
134
  6
CONTINUOUS
 10
226.628686
 20
105.551111
 11
226.111048
 21
105.551111
  0
TEXT
  8
2
 62
134
  6
CONTINUOUS
 10
225.869867
 20
102.500000
 40
4.000000
 41
0.500000
  1
7
  7
KANJI
 50
90.000000
 51
30.000000
  0
ENDBLK
  0
BLOCK
  8
2
 62
134
  6
CONTINUOUS
  2
*D11
 70
    65
 10
0.0
 20
0.0
  0
LINE
  8
2
 62
134
  6
CONTINUOUS
 10
100.000000
 20
156.312326
 11
210.000000
 21
156.312326
  0
LINE
  8
2
 62
134
  6
CONTINUOUS
 10
100.000000
 20
158.312326
 11
100.000000
 21
147.000000
  0
LINE
  8
2
 62
134
  6
CONTINUOUS
 10
210.000000
 20
158.312326
 11
210.000000
 21
147.000000
  0
LINE
  8
2
 62
134
  6
CONTINUOUS
 10
100.000000
 20
156.312326
 11
101.931852
 21
156.829964
  0
LINE
  8
2
 62
134
  6
CONTINUOUS
 10
100.000000
 20
156.312326
 11
101.931852
 21
155.794688
  0
LINE
  8
2
 62
134
  6
CONTINUOUS
 10
101.931852
 20
156.829964
 11
101.931852
 21
155.794688
  0
LINE
  8
2
 62
134
  6
CONTINUOUS
 10
100.482963
 20
156.312326
 11
101.448889
 21
156.571145
  0
LINE
  8
2
 62
134
  6
CONTINUOUS
 10
100.482963
 20
156.312326
 11
101.448889
 21
156.053507
  0
LINE
  8
2
 62
134
  6
CONTINUOUS
 10
101.448889
 20
156.571145
 11
101.448889
 21
156.053507
  0
LINE
  8
2
 62
134
  6
CONTINUOUS
 10
210.000000
 20
156.312326
 11
208.068148
 21
155.794688
  0
LINE
  8
2
 62
134
  6
CONTINUOUS
 10
210.000000
 20
156.312326
 11
208.068148
 21
156.829964
  0
LINE
  8
2
 62
134
  6
CONTINUOUS
 10
208.068148
 20
155.794688
 11
208.068148
 21
156.829964
  0
LINE
  8
2
 62
134
  6
CONTINUOUS
 10
209.517037
 20
156.312326
 11
208.551111
 21
156.053507
  0
LINE
  8
2
 62
134
  6
CONTINUOUS
 10
209.517037
 20
156.312326
 11
208.551111
 21
156.571145
  0
LINE
  8
2
 62
134
  6
CONTINUOUS
 10
208.551111
 20
156.053507
 11
208.551111
 21
156.571145
  0
TEXT
  8
2
 62
134
  6
CONTINUOUS
 10
152.000000
 20
156.812326
 40
4.000000
 41
0.500000
  1
110
  7
KANJI
 50
0.000000
 51
30.000000
  0
ENDBLK
  0
BLOCK
  8
2
 62
134
  6
CONTINUOUS
  2
*D12
 70
    65
 10
0.0
 20
0.0
  0
LINE
  8
2
 62
134
  6
CONTINUOUS
 10
218.686257
 20
116.990513
 11
218.686257
 21
143.944721
  0
LINE
  8
2
 62
134
  6
CONTINUOUS
 10
216.686257
 20
134.990513
 11
218.877419
 21
134.990513
  0
LINE
  8
2
 62
134
  6
CONTINUOUS
 10
218.686257
 20
124.990513
 11
219.203895
 21
123.058662
  0
LINE
  8
2
 62
134
  6
CONTINUOUS
 10
218.686257
 20
124.990513
 11
218.168619
 21
123.058662
  0
LINE
  8
2
 62
134
  6
CONTINUOUS
 10
219.203895
 20
123.058662
 11
218.168619
 21
123.058662
  0
LINE
  8
2
 62
134
  6
CONTINUOUS
 10
218.686257
 20
124.507551
 11
218.945076
 21
123.541625
  0
LINE
  8
2
 62
134
  6
CONTINUOUS
 10
218.686257
 20
124.507551
 11
218.427438
 21
123.541625
  0
LINE
  8
2
 62
134
  6
CONTINUOUS
 10
218.945076
 20
123.541625
 11
218.427438
 21
123.541625
  0
LINE
  8
2
 62
134
  6
CONTINUOUS
 10
218.686257
 20
134.990513
 11
218.168619
 21
136.922365
  0
LINE
  8
2
 62
134
  6
CONTINUOUS
 10
218.686257
 20
134.990513
 11
219.203895
 21
136.922365
  0
LINE
  8
2
 62
134
  6
CONTINUOUS
 10
218.168619
 20
136.922365
 11
219.203895
 21
136.922365
  0
LINE
  8
2
 62
134
  6
CONTINUOUS
 10
218.686257
 20
135.473476
 11
218.427438
 21
136.439402
  0
LINE
  8
2
 62
134
  6
CONTINUOUS
 10
218.686257
 20
135.473476
 11
218.945076
 21
136.439402
  0
LINE
  8
2
 62
134
  6
CONTINUOUS
 10
218.427438
 20
136.439402
 11
218.945076
 21
136.439402
  0
TEXT
  8
2
 62
134
  6
CONTINUOUS
 10
218.686257
 20
134.944721
 40
4.000000
 41
0.666667
  1
φ10
  7
KANJI
 50
90.000000
 51
30.000000
  0
ENDBLK
  0
BLOCK
  8
2
 62
134
  6
CONTINUOUS
  2
*D13
 70
    65
 10
0.0
 20
0.0
  0
LINE
  8
2
 62
134
  6
CONTINUOUS
 10
243.000000
 20
118.990513
 11
243.000000
 21
143.171980
  0
LINE
  8
2
 62
134
  6
CONTINUOUS
 10
241.000000
 20
126.990513
 11
244.000000
 21
126.990513
  0
LINE
  8
2
 62
134
  6
CONTINUOUS
 10
241.000000
 20
132.990513
 11
243.000000
 21
132.990513
  0
LINE
  8
2
 62
134
  6
CONTINUOUS
 10
243.000000
 20
126.990513
 11
243.517638
 21
125.058662
  0
LINE
  8
2
 62
134
  6
CONTINUOUS
 10
243.000000
 20
126.990513
 11
242.482362
 21
125.058662
  0
LINE
  8
2
 62
134
  6
CONTINUOUS
 10
243.517638
 20
125.058662
 11
242.482362
 21
125.058662
  0
LINE
  8
2
 62
134
  6
CONTINUOUS
 10
243.000000
 20
126.507551
 11
243.258819
 21
125.541625
  0
LINE
  8
2
 62
134
  6
CONTINUOUS
 10
243.000000
 20
126.507551
 11
242.741181
 21
125.541625
  0
LINE
  8
2
 62
134
  6
CONTINUOUS
 10
243.258819
 20
125.541625
 11
242.741181
 21
125.541625
  0
LINE
  8
2
 62
134
  6
CONTINUOUS
 10
243.000000
 20
132.990513
 11
242.482362
 21
134.922365
  0
LINE
  8
2
 62
134
  6
CONTINUOUS
 10
243.000000
 20
132.990513
 11
243.517638
 21
134.922365
  0
LINE
  8
2
 62
134
  6
CONTINUOUS
 10
242.482362
 20
134.922365
 11
243.517638
 21
134.922365
  0
LINE
  8
2
 62
134
  6
CONTINUOUS
 10
243.000000
 20
133.473476
 11
242.741181
 21
134.439402
  0
LINE
  8
2
 62
134
  6
CONTINUOUS
 10
243.000000
 20
133.473476
 11
243.258819
 21
134.439402
  0
LINE
  8
2
 62
134
  6
CONTINUOUS
 10
242.741181
 20
134.439402
 11
243.258819
 21
134.439402
  0
TEXT
  8
2
 62
134
  6
CONTINUOUS
 10
243.000000
 20
136.171980
 40
4.000000
 41
0.750000
  1
φ6
  7
KANJI
 50
90.000000
 51
30.000000
  0
ENDBLK
  0
BLOCK
  8
2
 62
134
  6
CONTINUOUS
  2
*D14
 70
    65
 10
0.0
 20
0.0
  0
LINE
  8
2
 62
134
  6
CONTINUOUS
 10
210.000000
 20
156.312326
 11
232.000000
 21
156.312326
  0
LINE
  8
2
 62
134
  6
CONTINUOUS
 10
210.000000
 20
158.312326
 11
210.000000
 21
136.990513
  0
LINE
  8
2
 62
134
  6
CONTINUOUS
 10
232.000000
 20
158.312326
 11
232.000000
 21
136.990513
  0
LINE
  8
2
 62
134
  6
CONTINUOUS
 10
210.000000
 20
156.312326
 11
211.931852
 21
156.829964
  0
LINE
  8
2
 62
134
  6
CONTINUOUS
 10
210.000000
 20
156.312326
 11
211.931852
 21
155.794688
  0
LINE
  8
2
 62
134
  6
CONTINUOUS
 10
211.931852
 20
156.829964
 11
211.931852
 21
155.794688
  0
LINE
  8
2
 62
134
  6
CONTINUOUS
 10
210.482963
 20
156.312326
 11
211.448889
 21
156.571145
  0
LINE
  8
2
 62
134
  6
CONTINUOUS
 10
210.482963
 20
156.312326
 11
211.448889
 21
156.053507
  0
LINE
  8
2
 62
134
  6
CONTINUOUS
 10
211.448889
 20
156.571145
 11
211.448889
 21
156.053507
  0
LINE
  8
2
 62
134
  6
CONTINUOUS
 10
232.000000
 20
156.312326
 11
230.068148
 21
155.794688
  0
LINE
  8
2
 62
134
  6
CONTINUOUS
 10
232.000000
 20
156.312326
 11
230.068148
 21
156.829964
  0
LINE
  8
2
 62
134
  6
CONTINUOUS
 10
230.068148
 20
155.794688
 11
230.068148
 21
156.829964
  0
LINE
  8
2
 62
134
  6
CONTINUOUS
 10
231.517037
 20
156.312326
 11
230.551111
 21
156.053507
  0
LINE
  8
2
 62
134
  6
CONTINUOUS
 10
231.517037
 20
156.312326
 11
230.551111
 21
156.571145
  0
LINE
  8
2
 62
134
  6
CONTINUOUS
 10
230.551111
 20
156.053507
 11
230.551111
 21
156.571145
  0
TEXT
  8
2
 62
134
  6
CONTINUOUS
 10
218.830380
 20
156.312326
 40
4.000000
 41
0.500000
  1
22
  7
KANJI
 50
0.000000
 51
30.000000
  0
ENDBLK
  0
ENDSEC
  0
SECTION
  2
ENTITIES
  0
CIRCLE
  8
1
 62
7
  6
CONTINUOUS
 10
104.000000
 20
113.000000
 40
1.750000
  0
CIRCLE
  8
1
 62
7
  6
CONTINUOUS
 10
124.000000
 20
113.000000
 40
1.750000
  0
CIRCLE
  8
1
 62
7
  6
CONTINUOUS
 10
144.000000
 20
113.000000
 40
1.750000
  0
LINE
  8
1
 62
7
  6
CONTINUOUS
 10
100.000000
 20
145.000000
 11
100.000000
 21
100.000000
  0
LINE
  8
1
 62
7
  6
CONTINUOUS
 10
100.000000
 20
100.000000
 11
210.000000
 21
100.000000
  0
LINE
  8
1
 62
7
  6
CONTINUOUS
 10
210.000000
 20
100.000000
 11
210.000000
 21
145.000000
  0
LINE
  8
1
 62
7
  6
CONTINUOUS
 10
210.000000
 20
145.000000
 11
100.000000
 21
145.000000
  0
CIRCLE
  8
1
 62
7
  6
CONTINUOUS
 10
164.000000
 20
113.000000
 40
1.750000
  0
CIRCLE
  8
1
 62
7
  6
CONTINUOUS
 10
184.000000
 20
113.000000
 40
1.750000
  0
LINE
  8
1
 62
7
  6
CONTINUOUS
 10
197.000000
 20
110.000000
 11
196.833333
 21
109.500000
  0
LINE
  8
1
 62
7
  6
CONTINUOUS
 10
196.833333
 20
104.500000
 11
197.000000
 21
104.000000
  0
LINE
  8
1
 62
7
  6
DASHDOT
 10
179.814222
 20
113.000000
 11
188.598671
 21
113.000000
  0
LINE
  8
1
 62
7
  6
DASHDOT
 10
159.814222
 20
113.000000
 11
168.598671
 21
113.000000
  0
LINE
  8
1
 62
7
  6
DASHDOT
 10
139.814222
 20
113.000000
 11
148.598671
 21
113.000000
  0
LINE
  8
1
 62
7
  6
DASHDOT
 10
120.798474
 20
113.000000
 11
128.136073
 21
113.000000
  0
LINE
  8
1
 62
7
  6
DASHDOT
 10
100.798474
 20
113.000000
 11
108.136073
 21
113.000000
  0
LINE
  8
1
 62
7
  6
DOT
 10
183.148780
 20
138.500000
 11
150.000000
 21
138.500000
  0
LINE
  8
1
 62
7
  6
DOT
 10
186.000000
 20
133.561540
 11
186.000000
 21
126.511540
  0
LINE
  8
1
 62
7
  6
DOT
 10
183.106586
 20
121.500000
 11
150.000000
 21
121.500000
  0
LINE
  8
1
 62
7
  6
DOT
 10
183.148780
 20
138.500000
 11
183.148780
 21
121.500000
  0
LINE
  8
1
 62
7
  6
DOT
 10
183.106586
 20
121.500000
 11
186.000000
 21
126.511540
  0
LINE
  8
1
 62
7
  6
DOT
 10
183.148780
 20
138.500000
 11
186.000001
 21
133.561540
  0
LINE
  8
1
 62
7
  6
DOT
 10
186.000000
 20
133.561540
 11
210.000000
 21
133.561540
  0
LINE
  8
1
 62
7
  6
DOT
 10
186.000000
 20
126.511540
 11
210.000000
 21
126.511540
  0
LINE
  8
1
 62
7
  6
DOT
 10
148.900000
 20
117.000000
 11
149.993750
 21
117.372816
  0
LINE
  8
1
 62
7
  6
DOT
 10
148.900000
 20
143.000000
 11
148.900000
 21
117.000000
  0
LINE
  8
1
 62
7
  6
DOT
 10
100.000000
 20
117.000000
 11
148.900000
 21
117.000000
  0
LINE
  8
1
 62
7
  6
DOT
 10
148.900000
 20
143.000000
 11
150.000000
 21
142.558075
  0
LINE
  8
1
 62
7
  6
DOT
 10
100.000000
 20
143.000000
 11
148.900000
 21
143.000000
  0
LINE
  8
1
 62
7
  6
DOT
 10
150.000000
 20
142.558075
 11
150.000000
 21
117.381951
  0
LINE
  8
1
 62
7
  6
DOT
 10
100.000000
 20
142.558075
 11
150.000000
 21
142.558075
  0
LINE
  8
1
 62
7
  6
DOT
 10
100.000000
 20
117.370075
 11
150.000000
 21
117.370075
  0
LINE
  8
1
 62
7
  6
DOT
 10
111.500000
 20
117.370075
 11
111.500000
 21
109.500000
  0
LINE
  8
1
 62
7
  6
DOT
 10
196.833333
 20
109.500000
 11
111.500000
 21
109.500000
  0
LINE
  8
1
 62
7
  6
DOT
 10
196.833333
 20
104.500000
 11
108.500000
 21
104.500000
  0
LINE
  8
1
 62
7
  6
DOT
 10
108.500000
 20
117.370075
 11
108.500000
 21
104.500000
  0
LINE
  8
1
 62
7
  6
DASHDOT
 10
110.000000
 20
117.000000
 11
110.000000
 21
103.736509
  0
LINE
  8
1
 62
7
  6
DASHDOT
 10
124.000000
 20
115.716043
 11
124.000000
 21
109.500000
  0
LINE
  8
1
 62
7
  6
DASHDOT
 10
144.000000
 20
115.406004
 11
144.000000
 21
110.104164
  0
LINE
  8
1
 62
7
  6
DASHDOT
 10
164.000000
 20
115.406004
 11
164.000000
 21
110.252249
  0
LINE
  8
1
 62
7
  6
DASHDOT
 10
184.000000
 20
115.406004
 11
184.000000
 21
110.326291
  0
LINE
  8
1
 62
7
  6
DOT
 10
196.833333
 20
109.500000
 11
196.833333
 21
104.500000
  0
LINE
  8
1
 62
7
  6
DOT
 10
200.000000
 20
110.500000
 11
210.000000
 21
110.500000
  0
LINE
  8
1
 62
7
  6
DOT
 10
198.000000
 20
110.000000
 11
198.000000
 21
104.000000
  0
LINE
  8
1
 62
7
  6
DOT
 10
200.000000
 20
110.500000
 11
200.000000
 21
103.500000
  0
LINE
  8
1
 62
7
  6
DOT
 10
200.000000
 20
103.500000
 11
210.000000
 21
103.500000
  0
LINE
  8
1
 62
7
  6
DOT
 10
200.000000
 20
103.500000
 11
198.000000
 21
104.000000
  0
LINE
  8
1
 62
7
  6
DOT
 10
200.000000
 20
110.500000
 11
198.000000
 21
110.000000
  0
LINE
  8
1
 62
7
  6
DOT
 10
197.000000
 20
104.000000
 11
198.000000
 21
104.000000
  0
LINE
  8
1
 62
7
  6
DOT
 10
198.000000
 20
104.000000
 11
210.000000
 21
104.000000
  0
LINE
  8
1
 62
7
  6
DOT
 10
197.000000
 20
110.000000
 11
197.000000
 21
104.000000
  0
LINE
  8
1
 62
7
  6
DOT
 10
197.000000
 20
110.000000
 11
198.000000
 21
110.000000
  0
LINE
  8
1
 62
7
  6
DOT
 10
198.000000
 20
110.000000
 11
210.000000
 21
110.000000
  0
LINE
  8
1
 62
7
  6
DASHDOT
 10
127.090000
 20
118.500000
 11
210.000000
 21
130.000000
  0
LINE
  8
1
 62
7
  6
DASHDOT
 10
127.090000
 20
141.500000
 11
210.000000
 21
130.000000
  0
LINE
  8
1
 62
7
  6
DASHDOT
 10
105.399852
 20
107.000000
 11
213.225006
 21
107.000000
  0
LINE
  8
1
 62
7
  6
CONTINUOUS
 10
64.000000
 20
144.997101
 11
65.000000
 21
143.997101
  0
LINE
  8
1
 62
7
  6
CONTINUOUS
 10
65.000000
 20
143.997101
 11
65.000000
 21
100.997101
  0
LINE
  8
1
 62
7
  6
CONTINUOUS
 10
65.000000
 20
100.997101
 11
64.000000
 21
99.997101
  0
LINE
  8
1
 62
7
  6
CONTINUOUS
 10
64.000000
 20
99.997101
 11
36.000000
 21
99.997101
  0
LINE
  8
1
 62
7
  6
CONTINUOUS
 10
36.000000
 20
99.997101
 11
35.000000
 21
100.997101
  0
LINE
  8
1
 62
7
  6
CONTINUOUS
 10
35.000000
 20
100.997101
 11
35.000000
 21
143.997101
  0
LINE
  8
1
 62
7
  6
CONTINUOUS
 10
64.000000
 20
144.997101
 11
36.000000
 21
144.997101
  0
LINE
  8
1
 62
7
  6
CONTINUOUS
 10
35.000000
 20
143.997101
 11
36.000000
 21
144.997101
  0
LINE
  8
1
 62
7
  6
DASHDOT
 10
50.000000
 20
148.578548
 11
50.000000
 21
94.552957
  0
LINE
  8
1
 62
7
  6
DASHDOT
 10
35.591043
 20
129.998331
 11
66.169291
 21
129.998331
  0
CIRCLE
  8
1
 62
7
  6
CONTINUOUS
 10
50.000000
 20
129.998331
 40
12.998331
  0
CIRCLE
  8
1
 62
7
  6
CONTINUOUS
 10
50.000000
 20
129.998331
 40
12.628256
  0
CIRCLE
  8
1
 62
7
  6
CONTINUOUS
 10
50.000000
 20
129.998331
 40
11.500000
  0
DIMENSION
  8
2
 62
134
  6
CONTINUOUS
  2
*D1
 10
74.584074
 20
99.997101
 11
74.084074
 21
114.998550
 70
     0
  1
30
 13
66.000000
 23
99.997101
 14
64.628256
 24
130.000000
 50
90.000000
  0
DIMENSION
  8
2
 62
134
  6
CONTINUOUS
  2
*D2
 10
74.584074
 20
130.000000
 11
74.084074
 21
137.498550
 70
     0
  1
15
 13
64.998331
 23
130.000000
 14
66.000000
 24
144.997101
 50
90.000000
  0
DIMENSION
  8
2
 62
134
  6
CONTINUOUS
  2
*D3
 10
35.000000
 20
86.683265
 11
50.000000
 21
87.183265
 70
     0
  1
30
 13
35.000000
 23
98.997101
 14
65.000000
 24
98.997101
 50
0.000000
  0
DIMENSION
  8
2
 62
134
  6
CONTINUOUS
  2
*D4
 10
90.089568
 20
100.000000
 11
89.589568
 21
106.500000
 70
     0
  1
13
 13
98.000000
 23
100.000000
 14
98.798474
 24
113.000000
 50
90.000000
  0
LINE
  8
1
 62
7
  6
DASHDOT
 10
104.000000
 20
116.026083
 11
104.000000
 21
108.475327
  0
DIMENSION
  8
2
 62
134
  6
CONTINUOUS
  2
*D5
 10
100.000000
 20
87.959716
 11
101.867049
 21
88.459716
 70
     0
  1
4
 13
100.000000
 23
98.000000
 14
104.000000
 24
108.121642
 50
0.000000
  0
DIMENSION
  8
2
 62
134
  6
CONTINUOUS
  2
*D6
 10
104.000000
 20
87.959716
 11
114.000000
 21
88.459716
 70
     0
  1
20
 13
104.000000
 23
107.995002
 14
124.000000
 24
107.500000
 50
0.000000
  0
DIMENSION
  8
2
 62
134
  6
CONTINUOUS
  2
*D7
 10
124.000000
 20
87.959716
 11
134.000000
 21
88.459716
 70
     0
  1
20
 13
124.000000
 23
87.959716
 14
144.000000
 24
109.250000
 50
0.000000
  0
DIMENSION
  8
2
 62
134
  6
CONTINUOUS
  2
*D8
 10
144.000000
 20
87.959716
 11
154.000000
 21
88.459716
 70
     0
  1
20
 13
144.000000
 23
87.959716
 14
164.000000
 24
109.250000
 50
0.000000
  0
DIMENSION
  8
2
 62
134
  6
CONTINUOUS
  2
*D9
 10
164.000000
 20
87.959716
 11
174.000000
 21
88.459716
 70
     0
  1
20
 13
164.000000
 23
87.959716
 14
184.000000
 24
109.250000
 50
0.000000
  0
DIMENSION
  8
2
 62
134
  6
CONTINUOUS
  2
*D10
 10
226.369867
 20
100.000000
 11
225.869867
 21
103.500000
 70
     0
  1
7
 13
212.000000
 23
100.000000
 14
212.000000
 24
107.000000
 50
90.000000
  0
DIMENSION
  8
2
 62
134
  6
CONTINUOUS
  2
*D11
 10
100.000000
 20
156.312326
 11
155.000000
 21
156.812326
 70
     0
  1
110
 13
100.000000
 23
147.000000
 14
210.000000
 24
147.000000
 50
0.000000
  0
ARC
  8
1
 62
7
  6
DOT
 10
49.649456
 20
130.000000
 40
73.000000
 50
-9.859595
 51
9.853684
  0
ARC
  8
1
 62
7
  6
DOT
 10
146.649456
 20
130.000000
 40
30.000000
 50
155.376603
 51
-155.374356
  0
LINE
  8
1
 62
7
  6
DOT
 10
119.377474
 20
142.500000
 11
121.572559
 21
142.500000
  0
LINE
  8
1
 62
7
  6
DOT
 10
121.571288
 20
117.500000
 11
119.377675
 21
117.500000
  0
LINE
  8
5
 62
94
  6
CONTINUOUS
 10
10.000000
 20
10.000000
 11
285.000000
 21
10.000000
  0
LINE
  8
5
 62
94
  6
CONTINUOUS
 10
285.000000
 20
10.000000
 11
285.000000
 21
195.000000
  0
LINE
  8
5
 62
94
  6
CONTINUOUS
 10
285.000000
 20
195.000000
 11
10.000000
 21
195.000000
  0
LINE
  8
5
 62
94
  6
CONTINUOUS
 10
10.000000
 20
195.000000
 11
10.000000
 21
10.000000
  0
TEXT
  8
5
 62
94
  6
CONTINUOUS
 10
210.962748
 20
25.651490
 40
1.750000
 41
4.000000
  1
製図
  7
KANJI
 50
-90.000000
 51
0.000000
  0
TEXT
  8
5
 62
94
  6
CONTINUOUS
 10
230.795530
 20
25.487583
 40
1.750000
 41
4.000000
  1
図番
  7
KANJI
 50
-90.000000
 51
0.000000
  0
TEXT
  8
5
 62
94
  6
CONTINUOUS
 10
230.795530
 20
38.764073
 40
1.750000
 41
4.000000
  1
図　名
  7
KANJI
 50
-90.000000
 51
0.000000
  0
TEXT
  8
5
 62
94
  6
CONTINUOUS
 10
165.888245
 20
33.355132
 40
1.750000
 41
4.000000
  1
日付
  7
KANJI
 50
-90.000000
 51
0.000000
  0
TEXT
  8
5
 62
94
  6
CONTINUOUS
 10
200.964404
 20
33.519040
 40
1.750000
 41
4.000000
  1
図法
  7
KANJI
 50
-90.000000
 51
0.000000
  0
TEXT
  8
5
 62
94
  6
CONTINUOUS
 10
200.800497
 20
41.550497
 40
1.750000
 41
4.000000
  1
尺度
  7
KANJI
 50
-90.000000
 51
0.000000
  0
TEXT
  8
5
 62
94
  6
CONTINUOUS
 10
165.888245
 20
41.386589
 40
1.750000
 41
4.000000
  1
公差
  7
KANJI
 50
-90.000000
 51
0.000000
  0
TEXT
  8
5
 62
94
  6
CONTINUOUS
 10
165.888245
 20
25.487583
 40
1.750000
 41
4.000000
  1
承認
  7
KANJI
 50
-90.000000
 51
0.000000
  0
TEXT
  8
5
 62
94
  6
CONTINUOUS
 10
190.966060
 20
25.487583
 40
1.750000
 41
4.000000
  1
設計
  7
KANJI
 50
-90.000000
 51
0.000000
  0
TEXT
  8
5
 62
94
  6
CONTINUOUS
 10
184.409768
 20
11.555464
 40
4.500000
 41
1.888889
  1
ジャパンセンサー株式会社
  7
KANJI
 50
0.000000
 51
0.000000
  0
LINE
  8
5
 62
94
  6
CONTINUOUS
 10
165.000000
 20
42.000000
 11
285.000000
 21
42.000000
  0
LINE
  8
5
 62
94
  6
CONTINUOUS
 10
165.000000
 20
10.000000
 11
165.000000
 21
42.000000
  0
LINE
  8
5
 62
94
  6
CONTINUOUS
 10
285.000000
 20
18.000000
 11
165.000000
 21
18.000000
  0
LINE
  8
5
 62
94
  6
CONTINUOUS
 10
230.000000
 20
42.000000
 11
230.000000
 21
18.000000
  0
LINE
  8
5
 62
94
  6
CONTINUOUS
 10
285.000000
 20
26.000000
 11
165.000000
 21
26.000000
  0
LINE
  8
5
 62
94
  6
CONTINUOUS
 10
235.000000
 20
18.000000
 11
235.000000
 21
42.000000
  0
LINE
  8
5
 62
94
  6
CONTINUOUS
 10
205.000000
 20
42.000000
 11
205.000000
 21
26.000000
  0
LINE
  8
5
 62
94
  6
CONTINUOUS
 10
170.000000
 20
18.000000
 11
170.000000
 21
42.000000
  0
LINE
  8
5
 62
94
  6
CONTINUOUS
 10
165.000000
 20
34.000000
 11
230.000000
 21
34.000000
  0
LINE
  8
5
 62
94
  6
CONTINUOUS
 10
200.000000
 20
42.000000
 11
200.000000
 21
26.000000
  0
LINE
  8
5
 62
94
  6
CONTINUOUS
 10
190.000000
 20
18.000000
 11
190.000000
 21
26.000000
  0
LINE
  8
5
 62
94
  6
CONTINUOUS
 10
210.000000
 20
18.000000
 11
210.000000
 21
26.000000
  0
LINE
  8
5
 62
94
  6
CONTINUOUS
 10
195.000000
 20
26.000000
 11
195.000000
 21
18.000000
  0
LINE
  8
5
 62
94
  6
CONTINUOUS
 10
215.000000
 20
26.000000
 11
215.000000
 21
18.000000
  0
TEXT
  8
5
 62
94
  6
CONTINUOUS
 10
209.979305
 20
35.649834
 40
4.000000
 41
1.000000
  1
１／１
  7
KANJI
 50
0.000000
 51
0.000000
  0
TEXT
  8
5
 62
94
  6
CONTINUOUS
 10
208.995861
 20
27.290563
 40
4.000000
 41
1.000000
  1
三角法
  7
KANJI
 50
0.000000
 51
0.000000
  0
TEXT
  8
5
 62
94
  6
DOT
 10
242.320866
 20
28.197096
 40
4.000000
 41
1.000000
  1
センサヘッド外形図
  7
KANJI
 50
0.000000
 51
0.000000
  0
TEXT
  8
5
 62
94
  6
DOT
 10
198.508981
 20
19.961814
 40
4.000000
 41
1.000000
  1
須藤
  7
KANJI
 50
0.000000
 51
0.000000
  0
LINE
  8
5
 62
94
  6
CONTINUOUS
 10
237.095595
 20
33.993310
 11
282.697958
 21
33.993310
  0
TEXT
  8
5
 62
94
  6
DOT
 10
218.508981
 20
19.961814
 40
4.000000
 41
1.000000
  1
須藤
  7
KANJI
 50
0.000000
 51
0.000000
  0
TEXT
  8
5
 62
94
  6
DOT
 10
241.806875
 20
35.302417
 40
4.000000
 41
0.625000
  1
FTH9-□H φ25角
  7
KANJI
 50
0.000000
 51
0.000000
  0
TEXT
  8
5
 62
94
  6
DOT
 10
235.743602
 20
19.865896
 40
4.000000
 41
1.000000
  1
０１５－８７７－Ａ１０７
  7
KANJI
 50
0.000000
 51
0.000000
  0
TEXT
  8
5
 62
94
  6
DOT
 10
174.830832
 20
28.000692
 40
4.000000
 41
0.500000
  1
2006/9/4
  7
KANJI
 50
0.000000
 51
0.000000
  0
LINE
  8
1
 62
7
  6
DASHDOT
 10
94.002477
 20
130.000000
 11
201.658357
 21
130.000000
  0
DIMENSION
  8
2
 62
134
  6
CONTINUOUS
  2
*D12
 10
218.686257
 20
124.990513
 11
218.686257
 21
138.944721
 70
     0
  1
φ10
 13
218.686257
 23
124.990513
 14
218.877419
 24
134.990513
 50
90.000000
  0
DIMENSION
  8
2
 62
134
  6
CONTINUOUS
  2
*D13
 10
243.000000
 20
126.990513
 11
243.000000
 21
139.171980
 70
     0
  1
φ6
 13
244.000000
 23
126.990513
 14
243.000000
 24
132.990513
 50
90.000000
  0
LINE
  8
1
 62
7
  6
DASHDOT
 10
228.250000
 20
131.527602
 11
228.250000
 21
128.489512
  0
CIRCLE
  8
1
 62
7
  6
CONTINUOUS
 10
228.250000
 20
129.990513
 40
1.000000
  0
CIRCLE
  8
1
 62
7
  6
CONTINUOUS
 10
228.250000
 20
129.990513
 40
0.782631
  0
LINE
  8
1
 62
7
  6
CONTINUOUS
 10
215.500000
 20
134.990513
 11
232.000000
 21
134.990513
  0
LINE
  8
1
 62
7
  6
CONTINUOUS
 10
232.000000
 20
134.990513
 11
232.000000
 21
129.990513
  0
LINE
  8
1
 62
7
  6
CONTINUOUS
 10
215.500000
 20
125.990513
 11
215.500000
 21
124.990513
  0
LINE
  8
1
 62
7
  6
CONTINUOUS
 10
215.500000
 20
124.990513
 11
232.000000
 21
124.990513
  0
LINE
  8
1
 62
7
  6
CONTINUOUS
 10
232.000000
 20
124.990513
 11
232.000000
 21
129.990513
  0
LINE
  8
1
 62
7
  6
CONTINUOUS
 10
232.000000
 20
125.490513
 11
232.000000
 21
134.490513
  0
LINE
  8
1
 62
7
  6
CONTINUOUS
 10
233.000000
 20
132.990513
 11
234.000000
 21
132.990513
  0
LINE
  8
1
 62
7
  6
CONTINUOUS
 10
235.000000
 20
132.990513
 11
236.000000
 21
132.990513
  0
LINE
  8
1
 62
7
  6
CONTINUOUS
 10
237.000000
 20
132.990513
 11
238.000000
 21
132.990513
  0
LINE
  8
1
 62
7
  6
CONTINUOUS
 10
239.000000
 20
132.990513
 11
240.000000
 21
132.990513
  0
LINE
  8
1
 62
7
  6
CONTINUOUS
 10
241.000000
 20
132.990513
 11
242.000000
 21
132.990513
  0
LINE
  8
1
 62
7
  6
CONTINUOUS
 10
243.000000
 20
132.990513
 11
244.000000
 21
132.990513
  0
LINE
  8
1
 62
7
  6
CONTINUOUS
 10
245.000000
 20
132.990513
 11
246.000000
 21
132.990513
  0
LINE
  8
1
 62
7
  6
CONTINUOUS
 10
247.000000
 20
132.990513
 11
248.000000
 21
132.990513
  0
LINE
  8
1
 62
7
  6
CONTINUOUS
 10
249.000000
 20
132.990513
 11
250.000000
 21
132.990513
  0
LINE
  8
1
 62
7
  6
CONTINUOUS
 10
251.000000
 20
132.490513
 11
251.000000
 21
132.990513
  0
LINE
  8
1
 62
7
  6
CONTINUOUS
 10
234.000000
 20
126.990513
 11
235.000000
 21
126.990513
  0
LINE
  8
1
 62
7
  6
CONTINUOUS
 10
236.000000
 20
126.990513
 11
237.000000
 21
126.990513
  0
LINE
  8
1
 62
7
  6
CONTINUOUS
 10
238.000000
 20
126.990513
 11
239.000000
 21
126.990513
  0
LINE
  8
1
 62
7
  6
CONTINUOUS
 10
240.000000
 20
126.990513
 11
241.000000
 21
126.990513
  0
LINE
  8
1
 62
7
  6
CONTINUOUS
 10
242.000000
 20
126.990513
 11
243.000000
 21
126.990513
  0
LINE
  8
1
 62
7
  6
CONTINUOUS
 10
244.000000
 20
126.990513
 11
245.000000
 21
126.990513
  0
LINE
  8
1
 62
7
  6
CONTINUOUS
 10
246.000000
 20
126.990513
 11
247.000000
 21
126.990513
  0
LINE
  8
1
 62
7
  6
CONTINUOUS
 10
248.000000
 20
126.990513
 11
249.000000
 21
126.990513
  0
LINE
  8
1
 62
7
  6
CONTINUOUS
 10
250.000000
 20
126.990513
 11
251.000000
 21
126.990513
  0
LINE
  8
1
 62
7
  6
CONTINUOUS
 10
233.000000
 20
132.990513
 11
234.000000
 21
126.990513
  0
LINE
  8
1
 62
7
  6
CONTINUOUS
 10
234.000000
 20
132.990513
 11
235.000000
 21
126.990513
  0
LINE
  8
1
 62
7
  6
CONTINUOUS
 10
235.000000
 20
132.990513
 11
236.000000
 21
126.990513
  0
LINE
  8
1
 62
7
  6
CONTINUOUS
 10
236.000000
 20
132.990513
 11
237.000000
 21
126.990513
  0
LINE
  8
1
 62
7
  6
CONTINUOUS
 10
237.000000
 20
132.990513
 11
238.000000
 21
126.990513
  0
LINE
  8
1
 62
7
  6
CONTINUOUS
 10
238.000000
 20
132.990513
 11
239.000000
 21
126.990513
  0
LINE
  8
1
 62
7
  6
CONTINUOUS
 10
239.000000
 20
132.990513
 11
240.000000
 21
126.990513
  0
LINE
  8
1
 62
7
  6
CONTINUOUS
 10
240.000000
 20
132.990513
 11
241.000000
 21
126.990513
  0
LINE
  8
1
 62
7
  6
CONTINUOUS
 10
241.000000
 20
132.990513
 11
242.000000
 21
126.990513
  0
LINE
  8
1
 62
7
  6
CONTINUOUS
 10
242.000000
 20
132.990513
 11
243.000000
 21
126.990513
  0
LINE
  8
1
 62
7
  6
CONTINUOUS
 10
243.000000
 20
132.990513
 11
244.000000
 21
126.990513
  0
LINE
  8
1
 62
7
  6
CONTINUOUS
 10
244.000000
 20
132.990513
 11
245.000000
 21
126.990513
  0
LINE
  8
1
 62
7
  6
CONTINUOUS
 10
245.000000
 20
132.990513
 11
246.000000
 21
126.990513
  0
LINE
  8
1
 62
7
  6
CONTINUOUS
 10
246.000000
 20
132.990513
 11
247.000000
 21
126.990513
  0
LINE
  8
1
 62
7
  6
CONTINUOUS
 10
247.000000
 20
132.990513
 11
248.000000
 21
126.990513
  0
LINE
  8
1
 62
7
  6
CONTINUOUS
 10
248.000000
 20
132.990513
 11
249.000000
 21
126.990513
  0
LINE
  8
1
 62
7
  6
CONTINUOUS
 10
249.000000
 20
132.990513
 11
250.000000
 21
126.990513
  0
LINE
  8
1
 62
7
  6
CONTINUOUS
 10
250.000000
 20
132.990513
 11
251.000000
 21
126.990513
  0
LINE
  8
1
 62
7
  6
CONTINUOUS
 10
251.000000
 20
132.490513
 11
251.000000
 21
126.990513
  0
LINE
  8
1
 62
7
  6
CONTINUOUS
 10
232.000000
 20
132.490513
 11
233.083333
 21
132.490513
  0
LINE
  8
1
 62
7
  6
CONTINUOUS
 10
234.083333
 20
132.490513
 11
235.083333
 21
132.490513
  0
LINE
  8
1
 62
7
  6
CONTINUOUS
 10
236.083333
 20
132.490513
 11
237.083333
 21
132.490513
  0
LINE
  8
1
 62
7
  6
CONTINUOUS
 10
238.083333
 20
132.490513
 11
239.083333
 21
132.490513
  0
LINE
  8
1
 62
7
  6
CONTINUOUS
 10
240.083333
 20
132.490513
 11
241.083333
 21
132.490513
  0
LINE
  8
1
 62
7
  6
CONTINUOUS
 10
242.083333
 20
132.490513
 11
243.083333
 21
132.490513
  0
LINE
  8
1
 62
7
  6
CONTINUOUS
 10
244.083333
 20
132.490513
 11
245.083333
 21
132.490513
  0
LINE
  8
1
 62
7
  6
CONTINUOUS
 10
246.083333
 20
132.490513
 11
247.083333
 21
132.490513
  0
LINE
  8
1
 62
7
  6
CONTINUOUS
 10
248.083333
 20
132.490513
 11
249.083333
 21
132.490513
  0
LINE
  8
1
 62
7
  6
CONTINUOUS
 10
250.083333
 20
132.490513
 11
251.000000
 21
132.490513
  0
LINE
  8
1
 62
7
  6
CONTINUOUS
 10
248.916667
 20
127.490513
 11
249.916667
 21
127.490513
  0
LINE
  8
1
 62
7
  6
CONTINUOUS
 10
246.916667
 20
127.490513
 11
247.916667
 21
127.490513
  0
LINE
  8
1
 62
7
  6
CONTINUOUS
 10
245.016240
 20
127.490513
 11
245.916667
 21
127.490513
  0
LINE
  8
1
 62
7
  6
CONTINUOUS
 10
242.916667
 20
127.490513
 11
243.916667
 21
127.490513
  0
LINE
  8
1
 62
7
  6
CONTINUOUS
 10
240.916667
 20
127.490513
 11
241.916667
 21
127.490513
  0
LINE
  8
1
 62
7
  6
CONTINUOUS
 10
238.916667
 20
127.490513
 11
239.916667
 21
127.490513
  0
LINE
  8
1
 62
7
  6
CONTINUOUS
 10
236.916667
 20
127.490513
 11
237.916667
 21
127.490513
  0
LINE
  8
1
 62
7
  6
CONTINUOUS
 10
234.916667
 20
127.490513
 11
235.916667
 21
127.490513
  0
LINE
  8
1
 62
7
  6
CONTINUOUS
 10
233.016240
 20
127.490513
 11
233.916667
 21
127.490513
  0
LINE
  8
1
 62
7
  6
CONTINUOUS
 10
232.000000
 20
132.490513
 11
233.100787
 21
126.986577
  0
LINE
  8
1
 62
7
  6
CONTINUOUS
 10
232.000000
 20
127.490513
 11
232.086618
 21
126.990513
  0
LINE
  8
1
 62
7
  6
CONTINUOUS
 10
232.086618
 20
126.990513
 11
233.100000
 21
126.990513
  0
LINE
  8
1
 62
7
  6
CONTINUOUS
 10
232.991265
 20
127.490513
 11
233.000000
 21
127.490513
  0
LINE
  8
1
 62
7
  6
CONTINUOUS
 10
215.500000
 20
125.990513
 11
215.500000
 21
134.990513
  0
LINE
  8
1
 62
7
  6
CONTINUOUS
 10
215.500000
 20
125.990513
 11
210.000000
 21
125.990513
  0
LINE
  8
1
 62
7
  6
CONTINUOUS
 10
215.500000
 20
133.990513
 11
210.000000
 21
133.990513
  0
LINE
  8
1
 62
7
  6
DASHDOT
 10
221.500000
 20
131.527602
 11
221.500000
 21
128.489512
  0
CIRCLE
  8
1
 62
7
  6
CONTINUOUS
 10
221.500000
 20
129.990513
 40
1.000000
  0
CIRCLE
  8
1
 62
7
  6
CONTINUOUS
 10
221.500000
 20
129.990513
 40
0.782631
  0
LINE
  8
1
 62
7
  6
DASHDOT
 10
209.925640
 20
129.990513
 11
260.059150
 21
129.990513
  0
DIMENSION
  8
2
 62
134
  6
CONTINUOUS
  2
*D14
 10
210.000000
 20
156.312326
 11
220.830380
 21
156.312326
 70
     0
  1
22
 13
210.000000
 23
136.990513
 14
232.000000
 24
136.990513
 50
0.000000
  0
TEXT
  8
2
 62
134
  6
CONTINUOUS
 10
197.751649
 20
82.530551
 40
4.000000
 41
0.583333
  1
5-φ3.5
  7
KANJI
 50
0.000000
 51
0.000000
  0
LINE
  8
3
 62
214
  6
CONTINUOUS
 10
128.204543
 20
143.932530
 11
138.445020
 21
162.851523
  0
LINE
  8
3
 62
214
  6
CONTINUOUS
 10
138.445020
 20
162.851523
 11
152.375322
 21
162.851523
  0
TEXT
  8
3
 62
214
  6
CONTINUOUS
 10
138.375322
 20
162.673823
 40
4.000000
 41
0.500000
  1
ｾﾝｻﾍｯﾄﾞ
  7
KANJI
 50
0.000000
 51
30.000000
  0
LINE
  8
3
 62
214
  6
CONTINUOUS
 10
128.204543
 20
143.932530
 11
128.668915
 21
145.877872
  0
LINE
  8
3
 62
214
  6
CONTINUOUS
 10
128.204543
 20
143.932530
 11
129.579372
 21
145.385060
  0
LINE
  8
3
 62
214
  6
CONTINUOUS
 10
128.668915
 20
145.877872
 11
129.579372
 21
145.385060
  0
LINE
  8
3
 62
214
  6
CONTINUOUS
 10
128.434443
 20
144.357264
 11
128.666629
 21
145.329935
  0
LINE
  8
3
 62
214
  6
CONTINUOUS
 10
128.434443
 20
144.357264
 11
129.121857
 21
145.083529
  0
LINE
  8
3
 62
214
  6
CONTINUOUS
 10
128.666629
 20
145.329935
 11
129.121857
 21
145.083529
  0
LINE
  8
3
 62
214
  6
CONTINUOUS
 10
120.116514
 20
141.017607
 11
110.754667
 21
162.802979
  0
LINE
  8
3
 62
214
  6
CONTINUOUS
 10
110.754667
 20
162.802979
 11
101.500057
 21
162.802979
  0
TEXT
  8
3
 62
214
  6
CONTINUOUS
 10
101.500057
 20
162.802979
 40
4.000000
 41
0.500000
  1
ﾚﾝｽﾞ
  7
KANJI
 50
0.000000
 51
30.000000
  0
LINE
  8
3
 62
214
  6
CONTINUOUS
 10
120.116514
 20
141.017607
 11
118.878197
 21
142.588140
  0
LINE
  8
3
 62
214
  6
CONTINUOUS
 10
120.116514
 20
141.017607
 11
119.829366
 21
142.996886
  0
LINE
  8
3
 62
214
  6
CONTINUOUS
 10
118.878197
 20
142.588140
 11
119.829366
 21
142.996886
  0
LINE
  8
3
 62
214
  6
CONTINUOUS
 10
119.925831
 20
141.461334
 11
119.306672
 21
142.246600
  0
LINE
  8
3
 62
214
  6
CONTINUOUS
 10
119.925831
 20
141.461334
 11
119.782257
 21
142.450973
  0
LINE
  8
3
 62
214
  6
CONTINUOUS
 10
119.306672
 20
142.246600
 11
119.782257
 21
142.450973
  0
LINE
  8
3
 62
214
  6
CONTINUOUS
 10
185.159489
 20
111.689242
 11
197.810755
 21
87.052845
  0
LINE
  8
3
 62
214
  6
CONTINUOUS
 10
197.810755
 20
87.052845
 11
221.989541
 21
87.052845
  0
TEXT
  8
3
 62
214
  6
CONTINUOUS
 10
197.989541
 20
87.052845
 40
4.000000
 41
0.750000
  1
　ﾍｯﾄﾞ取付穴
  7
KANJI
 50
0.000000
 51
30.000000
  0
LINE
  8
3
 62
214
  6
CONTINUOUS
 10
185.159489
 20
111.689242
 11
186.502448
 21
110.207197
  0
LINE
  8
3
 62
214
  6
CONTINUOUS
 10
185.159489
 20
111.689242
 11
185.581503
 21
109.734273
  0
LINE
  8
3
 62
214
  6
CONTINUOUS
 10
186.502448
 20
110.207197
 11
185.581503
 21
109.734273
  0
LINE
  8
3
 62
214
  6
CONTINUOUS
 10
185.380111
 20
111.259616
 11
186.051590
 21
110.518593
  0
LINE
  8
3
 62
214
  6
CONTINUOUS
 10
185.380111
 20
111.259616
 11
185.591118
 21
110.282131
  0
LINE
  8
3
 62
214
  6
CONTINUOUS
 10
186.051590
 20
110.518593
 11
185.591118
 21
110.282131
  0
TEXT
  8
3
 62
214
  6
CONTINUOUS
 10
132.442937
 20
78.973745
 40
4.000000
 41
1.000000
  1
重量３５０ｇ
  7
KANJI
 50
0.000000
 51
0.000000
  0
LINE
  8
3
 62
214
  6
CONTINUOUS
 10
210.035064
 20
107.000000
 11
222.183620
 21
92.535404
  0
LINE
  8
3
 62
214
  6
CONTINUOUS
 10
222.183620
 20
92.535404
 11
255.589338
 21
92.535404
  0
TEXT
  8
3
 62
214
  6
CONTINUOUS
 10
227.589338
 20
92.900808
 40
4.000000
 41
0.777778
  1
R1/8計装エアー
  7
KANJI
 50
0.000000
 51
30.000000
  0
LINE
  8
3
 62
214
  6
CONTINUOUS
 10
210.035064
 20
107.000000
 11
211.673894
 21
105.853599
  0
LINE
  8
3
 62
214
  6
CONTINUOUS
 10
210.035064
 20
107.000000
 11
210.881132
 21
105.187773
  0
LINE
  8
3
 62
214
  6
CONTINUOUS
 10
211.673894
 20
105.853599
 11
210.881132
 21
105.187773
  0
LINE
  8
3
 62
214
  6
CONTINUOUS
 10
210.345676
 20
106.630171
 11
211.165092
 21
106.056971
  0
LINE
  8
3
 62
214
  6
CONTINUOUS
 10
210.345676
 20
106.630171
 11
210.768711
 21
105.724058
  0
LINE
  8
3
 62
214
  6
CONTINUOUS
 10
211.165092
 20
106.056971
 11
210.768711
 21
105.724058
  0
LINE
  8
3
 62
214
  6
CONTINUOUS
 10
245.000000
 20
126.990513
 11
253.690755
 21
111.853034
  0
LINE
  8
3
 62
214
  6
CONTINUOUS
 10
253.690755
 20
111.853034
 11
267.662893
 21
111.853034
  0
TEXT
  8
3
 62
214
  6
CONTINUOUS
 10
257.662893
 20
111.946116
 40
4.000000
 41
0.500000
  1
ﾌｧｲﾊﾞ
  7
KANJI
 50
0.000000
 51
30.000000
  0
LINE
  8
3
 62
214
  6
CONTINUOUS
 10
245.000000
 20
126.990513
 11
246.410780
 21
125.572875
  0
LINE
  8
3
 62
214
  6
CONTINUOUS
 10
245.000000
 20
126.990513
 11
245.512952
 21
125.057412
  0
LINE
  8
3
 62
214
  6
CONTINUOUS
 10
246.410780
 20
125.572875
 11
245.512952
 21
125.057412
  0
LINE
  8
3
 62
214
  6
CONTINUOUS
 10
245.240467
 20
126.571671
 11
245.945857
 21
125.862852
  0
LINE
  8
3
 62
214
  6
CONTINUOUS
 10
245.240467
 20
126.571671
 11
245.496943
 21
125.605120
  0
LINE
  8
3
 62
214
  6
CONTINUOUS
 10
245.945857
 20
125.862852
 11
245.496943
 21
125.605120
  0
LINE
  8
2
 62
134
  6
CONTINUOUS
 10
100.000000
 20
87.959716
 11
98.068148
 21
87.442078
  0
LINE
  8
2
 62
134
  6
CONTINUOUS
 10
98.068148
 20
87.442078
 11
98.068148
 21
88.477354
  0
LINE
  8
2
 62
134
  6
CONTINUOUS
 10
98.068148
 20
88.477354
 11
100.000000
 21
87.959716
  0
LINE
  8
2
 62
134
  6
CONTINUOUS
 10
100.000000
 20
85.959716
 11
100.000000
 21
98.000000
  0
LINE
  8
2
 62
134
  6
CONTINUOUS
 10
75.204128
 20
87.959716
 11
100.000000
 21
87.959716
  0
TEXT
  8
3
 62
214
  6
CONTINUOUS
 10
77.341383
 20
87.959716
 40
4.000000
 41
1.000000
  1
測定距離
  7
KANJI
 50
0.000000
 51
30.000000
  0
ENDSEC
  0
EOF
