  0
SECTION
  2
HEADER
  9
$ACADVER
  1
AC1003
  9
$INSBASE
 10
0.000000
 20
0.000000
  9
$EXTMIN
 10
0.000000
 20
0.000000
  9
$EXTMAX
 10
210.000000
 20
297.000000
  9
$LIMMIN
 10
0.000000
 20
0.000000
  9
$LIMMAX
 10
210.000000
 20
297.000000
  9
$VIEWCTR
 10
105.000000
 20
148.500000
  9
$VIEWSIZE
 40
297.000000
  9
$PEXTMIN
 10
0.000000
 20
0.000000
 30
0.000000
  9
$PEXTMAX
 10
210.000000
 20
297.000000
 30
0.000000
  9
$SNAPMODE
 70
     0
  9
$SNAPUNIT
 10
1.000000
 20
1.000000
  9
$SNAPBASE
 10
0.000000
 20
0.000000
  9
$SNAPANG
 50
0.000000
  9
$SNAPISOPAIR
 70
     0
  9
$SNAPSTYLE
 70
     0
  9
$GRIDMODE
 70
     0
  9
$GRIDUNIT
 10
0.000000
 20
0.000000
  9
$ORTHOMODE
 70
     0
  9
$REGENMODE
 70
     1
  9
$FILLMODE
 70
     1
  9
$QTEXTMODE
 70
     0
  9
$DRAGMODE
 70
     2
  9
$LTSCALE
 40
0.250000
  9
$OSMODE
 70
     0
  9
$ATTMODE
 70
     1
  9
$TEXTSIZE
 40
0.200000
  9
$TRACEWID
 40
0.050000
  9
$TEXTSTYLE
  7
STANDARD
  9
$CLAYER
  8
0
  9
$CELTYPE
  6
BYLAYER
  9
$CECOLOR
 62
   256
  9
$DIMSCALE
 40
1.000000
  9
$DIMASZ
 40
1.000000
  9
$DIMEXO
 40
0.000000
  9
$DIMDLI
 40
0.500000
  9
$DIMRND
 40
0.000000
  9
$DIMDLE
 40
0.000000
  9
$DIMEXE
 40
0.000000
  9
$DIMTP
 40
0.000000
  9
$DIMTM
 40
0.000000
  9
$DIMTXT
 40
0.180000
  9
$DIMCEN
 40
0.000000
  9
$DIMTSZ
 40
0.000000
  9
$DIMTOL
 70
     0
  9
$DIMLIM
 70
     0
  9
$DIMTIH
 70
     1
  9
$DIMTOH
 70
     1
  9
$DIMSE1
 70
     0
  9
$DIMSE2
 70
     0
  9
$DIMTAD
 70
     0
  9
$DIMZIN
 70
     0
  9
$DIMBLK
  1

  9
$DIMASO
 70
     0
  9
$DIMSHO
 70
     0
  9
$DIMPOST
  1

  9
$DIMAPOST
  1

  9
$DIMALT
 70
     0
  9
$DIMALTD
 70
     0
  9
$DIMALTF
 40
25.400000
  9
$DIMLFAC
 40
1.000000
  9
$DIMTOFL
 70
     0
  9
$DIMTVP
 40
0.000000
  9
$DIMTIX
 70
     0
  9
$DIMSOXD
 70
     0
  9
$DIMSAH
 70
     0
  9
$DIMBLKL
  1

  9
$DIMBLKR
  1

  9
$LUNITS
 70
     2
  9
$LUPREC
 70
     2
  9
$AXISMODE
 70
     0
  9
$AXISUNIT
 10
1.000000
 20
1.000000
  9
$SKETCHINC
 40
0.000000
  9
$FILLETRAD
 40
0.000000
  9
$AUNITS
 70
     1
  9
$AUPREC
 70
     2
  9
$MENU
  1
ACAD
  9
$ELEVATION
 40
0.000000
  9
$THICKNESS
 40
0.000000
  9
$VIEWDIR
 10
0.000000
 20
0.000000
 30
1.000000
  9
$LIMCHECK
 70
     1
  9
$BLIPMODE
 70
     1
  9
$CHAMFERA
 40
0.000000
  9
$CHAMFERB
 40
0.000000
  9
$FASTZOOM
 70
     1
  9
$SKPOLY
 70
     0
  9
$TDCREATE
 40
0.000000
  9
$TDUPDATE
 40
0.000000
  9
$TDINDWG
 40
0.000000
  9
$TDUSRTIMER
 40
0.000000
  9
$USRTIMER
 70
     1
  9
$ANGBASE
 50
0.000000
  9
$ANGDIR
 70
     0
  9
$PDMODE
 70
     0
  9
$PDSIZE
 40
0.000000
  9
$PLINEWID
 40
0.000000
  9
$COORDS
 70
     2
  9
$USERI1
 70
     0
  9
$USERI2
 70
     0
  9
$USERI3
 70
     0
  9
$USERI4
 70
     0
  9
$USERI5
 70
     0
  9
$USERR1
 40
0.000000
  9
$USERR2
 40
0.000000
  9
$USERR3
 40
0.000000
  9
$USERR4
 40
0.000000
  9
$USERR5
 40
0.000000
  0
ENDSEC
  0
SECTION
  2
TABLES
  0
TABLE
  2
LTYPE
 70
     5
  0
LTYPE
  2
CONTINUOUS
 70
    64
  3
Solid line
 72
    65
 73
     0
 40
0.0
  0
LTYPE
  2
HIDDEN
 70
    64
  3
------------------------
 72
    65
 73
     2
 40
12.6
 49
8.4
 49
-4.2
  0
LTYPE
  2
DOT
 70
    64
  3
････････････････････････
 72
    65
 73
     2
 40
8.0
 49
6.0
 49
-2.0
  0
LTYPE
  2
DASHDOT
 70
    64
  3
--･--･--･--･--･--･--･--
 72
    65
 73
     4
 40
50.5
 49
30.0
 49
-9.0
 49
2.5
 49
-9.0
  0
LTYPE
  2
DIVIDE
 70
    64
  3
--･･--･･--･･--･･--･･--
 72
    65
 73
     6
 40
58.0
 49
30.0
 49
-9.0
 49
2.5
 49
-5.0
 49
2.5
 49
-9.0
  0
LTYPE
  2
ACAD_ISO06W100
 70
    64
  3
____ ... ____ ... ____
 72
    65
 73
     8
 40
37.5
 49
24.0
 49
-3.0
 49
0.5
 49
-3.0
 49
0.5
 49
-3.0
 49
0.5
 49
-3.0
  0
LTYPE
  2
ACAD_ISO14W100
 70
    64
  3
__ . . . __ . . . __ . . . 
 72
    65
 73
     8
 40
25.5
 49
12.0
 49
-3.0
 49
0.5
 49
-3.0
 49
0.5
 49
-3.0
 49
0.5
 49
-3.0
  0
ENDTAB
  0
TABLE
  2
LAYER
 70
4
  0
LAYER
  2
1
 70
64
 62
7
  6
CONTINUOUS
  0
LAYER
  2
2
 70
64
 62
134
  6
CONTINUOUS
  0
LAYER
  2
3
 70
64
 62
214
  6
CONTINUOUS
  0
LAYER
  2
5
 70
64
 62
94
  6
CONTINUOUS
  0
ENDTAB
  0
TABLE
  2
STYLE
 70
     2
  0
STYLE
  2
STANDARD
 70
    64
 40
0.0
 41
1.0
 50
0.0
 71
     0
 42
0.2
  3
TXT
  4

  0
STYLE
  2
KANJI
 70
    64
 40
0.0
 41
1.0
 50
0.0
 71
     0
 42
0.2
  3
TXT
  4
BIGFONT
  0
ENDTAB
  0
TABLE
  2
VIEW
 70
     0
  0
ENDTAB
  0
ENDSEC
  0
SECTION
  2
BLOCKS
  0
BLOCK
  8
2
 62
134
  6
CONTINUOUS
  2
*D1
 70
    65
 10
0.0
 20
0.0
  0
LINE
  8
2
 62
134
  6
CONTINUOUS
 10
112.763533
 20
152.000000
 11
112.763533
 21
145.000000
  0
LINE
  8
2
 62
134
  6
CONTINUOUS
 10
112.763533
 20
152.000000
 11
113.281172
 21
150.068148
  0
LINE
  8
2
 62
134
  6
CONTINUOUS
 10
112.763533
 20
152.000000
 11
112.245895
 21
150.068148
  0
LINE
  8
2
 62
134
  6
CONTINUOUS
 10
113.281172
 20
150.068148
 11
112.245895
 21
150.068148
  0
LINE
  8
2
 62
134
  6
CONTINUOUS
 10
112.763533
 20
151.517037
 11
113.022353
 21
150.551111
  0
LINE
  8
2
 62
134
  6
CONTINUOUS
 10
112.763533
 20
151.517037
 11
112.504714
 21
150.551111
  0
LINE
  8
2
 62
134
  6
CONTINUOUS
 10
113.022353
 20
150.551111
 11
112.504714
 21
150.551111
  0
LINE
  8
2
 62
134
  6
CONTINUOUS
 10
112.763533
 20
145.000000
 11
112.245895
 21
146.931852
  0
LINE
  8
2
 62
134
  6
CONTINUOUS
 10
112.763533
 20
145.000000
 11
113.281172
 21
146.931852
  0
LINE
  8
2
 62
134
  6
CONTINUOUS
 10
112.245895
 20
146.931852
 11
113.281172
 21
146.931852
  0
LINE
  8
2
 62
134
  6
CONTINUOUS
 10
112.763533
 20
145.482963
 11
112.504714
 21
146.448889
  0
LINE
  8
2
 62
134
  6
CONTINUOUS
 10
112.763533
 20
145.482963
 11
113.022353
 21
146.448889
  0
LINE
  8
2
 62
134
  6
CONTINUOUS
 10
112.504714
 20
146.448889
 11
113.022353
 21
146.448889
  0
TEXT
  8
2
 62
134
  6
CONTINUOUS
 10
112.263533
 20
147.500000
 40
4.000000
 41
0.500000
  1
7
  7
KANJI
 50
90.000000
 51
30.000000
  0
ENDBLK
  0
BLOCK
  8
2
 62
134
  6
CONTINUOUS
  2
*D2
 70
    65
 10
0.0
 20
0.0
  0
LINE
  8
2
 62
134
  6
CONTINUOUS
 10
46.262426
 20
135.630583
 11
66.262426
 21
135.630583
  0
LINE
  8
2
 62
134
  6
CONTINUOUS
 10
54.262426
 20
133.630583
 11
54.262426
 21
143.000000
  0
LINE
  8
2
 62
134
  6
CONTINUOUS
 10
58.262426
 20
133.630583
 11
58.262426
 21
154.250000
  0
LINE
  8
2
 62
134
  6
CONTINUOUS
 10
54.262426
 20
135.630583
 11
52.330575
 21
135.112945
  0
LINE
  8
2
 62
134
  6
CONTINUOUS
 10
54.262426
 20
135.630583
 11
52.330575
 21
136.148221
  0
LINE
  8
2
 62
134
  6
CONTINUOUS
 10
52.330575
 20
135.112945
 11
52.330575
 21
136.148221
  0
LINE
  8
2
 62
134
  6
CONTINUOUS
 10
53.779463
 20
135.630583
 11
52.813537
 21
135.371764
  0
LINE
  8
2
 62
134
  6
CONTINUOUS
 10
53.779463
 20
135.630583
 11
52.813537
 21
135.889402
  0
LINE
  8
2
 62
134
  6
CONTINUOUS
 10
52.813537
 20
135.371764
 11
52.813537
 21
135.889402
  0
LINE
  8
2
 62
134
  6
CONTINUOUS
 10
58.262426
 20
135.630583
 11
60.194278
 21
136.148221
  0
LINE
  8
2
 62
134
  6
CONTINUOUS
 10
58.262426
 20
135.630583
 11
60.194278
 21
135.112945
  0
LINE
  8
2
 62
134
  6
CONTINUOUS
 10
60.194278
 20
136.148221
 11
60.194278
 21
135.112945
  0
LINE
  8
2
 62
134
  6
CONTINUOUS
 10
58.745389
 20
135.630583
 11
59.711315
 21
135.889402
  0
LINE
  8
2
 62
134
  6
CONTINUOUS
 10
58.745389
 20
135.630583
 11
59.711315
 21
135.371764
  0
LINE
  8
2
 62
134
  6
CONTINUOUS
 10
59.711315
 20
135.889402
 11
59.711315
 21
135.371764
  0
TEXT
  8
2
 62
134
  6
CONTINUOUS
 10
55.138906
 20
135.630583
 40
4.000000
 41
0.500000
  1
4
  7
KANJI
 50
0.000000
 51
30.000000
  0
ENDBLK
  0
BLOCK
  8
2
 62
134
  6
CONTINUOUS
  2
*D3
 70
    65
 10
0.0
 20
0.0
  0
LINE
  8
2
 62
134
  6
CONTINUOUS
 10
58.262426
 20
135.630583
 11
78.262426
 21
135.630583
  0
LINE
  8
2
 62
134
  6
CONTINUOUS
 10
58.262426
 20
133.630583
 11
58.262426
 21
154.250000
  0
LINE
  8
2
 62
134
  6
CONTINUOUS
 10
78.262426
 20
133.630583
 11
78.262426
 21
154.250000
  0
LINE
  8
2
 62
134
  6
CONTINUOUS
 10
58.262426
 20
135.630583
 11
60.194278
 21
136.148221
  0
LINE
  8
2
 62
134
  6
CONTINUOUS
 10
58.262426
 20
135.630583
 11
60.194278
 21
135.112945
  0
LINE
  8
2
 62
134
  6
CONTINUOUS
 10
60.194278
 20
136.148221
 11
60.194278
 21
135.112945
  0
LINE
  8
2
 62
134
  6
CONTINUOUS
 10
58.745389
 20
135.630583
 11
59.711315
 21
135.889402
  0
LINE
  8
2
 62
134
  6
CONTINUOUS
 10
58.745389
 20
135.630583
 11
59.711315
 21
135.371764
  0
LINE
  8
2
 62
134
  6
CONTINUOUS
 10
59.711315
 20
135.889402
 11
59.711315
 21
135.371764
  0
LINE
  8
2
 62
134
  6
CONTINUOUS
 10
78.262426
 20
135.630583
 11
76.330575
 21
135.112945
  0
LINE
  8
2
 62
134
  6
CONTINUOUS
 10
78.262426
 20
135.630583
 11
76.330575
 21
136.148221
  0
LINE
  8
2
 62
134
  6
CONTINUOUS
 10
76.330575
 20
135.112945
 11
76.330575
 21
136.148221
  0
LINE
  8
2
 62
134
  6
CONTINUOUS
 10
77.779463
 20
135.630583
 11
76.813537
 21
135.371764
  0
LINE
  8
2
 62
134
  6
CONTINUOUS
 10
77.779463
 20
135.630583
 11
76.813537
 21
135.889402
  0
LINE
  8
2
 62
134
  6
CONTINUOUS
 10
76.813537
 20
135.371764
 11
76.813537
 21
135.889402
  0
TEXT
  8
2
 62
134
  6
CONTINUOUS
 10
65.217884
 20
135.630583
 40
4.000000
 41
0.500000
  1
20
  7
KANJI
 50
0.000000
 51
30.000000
  0
ENDBLK
  0
BLOCK
  8
2
 62
134
  6
CONTINUOUS
  2
*D4
 70
    65
 10
0.0
 20
0.0
  0
LINE
  8
2
 62
134
  6
CONTINUOUS
 10
78.262426
 20
135.630583
 11
98.262426
 21
135.630583
  0
LINE
  8
2
 62
134
  6
CONTINUOUS
 10
78.262426
 20
133.630583
 11
78.262426
 21
154.250000
  0
LINE
  8
2
 62
134
  6
CONTINUOUS
 10
98.262426
 20
133.630583
 11
98.262426
 21
154.250000
  0
LINE
  8
2
 62
134
  6
CONTINUOUS
 10
78.262426
 20
135.630583
 11
80.194278
 21
136.148221
  0
LINE
  8
2
 62
134
  6
CONTINUOUS
 10
78.262426
 20
135.630583
 11
80.194278
 21
135.112945
  0
LINE
  8
2
 62
134
  6
CONTINUOUS
 10
80.194278
 20
136.148221
 11
80.194278
 21
135.112945
  0
LINE
  8
2
 62
134
  6
CONTINUOUS
 10
78.745389
 20
135.630583
 11
79.711315
 21
135.889402
  0
LINE
  8
2
 62
134
  6
CONTINUOUS
 10
78.745389
 20
135.630583
 11
79.711315
 21
135.371764
  0
LINE
  8
2
 62
134
  6
CONTINUOUS
 10
79.711315
 20
135.889402
 11
79.711315
 21
135.371764
  0
LINE
  8
2
 62
134
  6
CONTINUOUS
 10
98.262426
 20
135.630583
 11
96.330575
 21
135.112945
  0
LINE
  8
2
 62
134
  6
CONTINUOUS
 10
98.262426
 20
135.630583
 11
96.330575
 21
136.148221
  0
LINE
  8
2
 62
134
  6
CONTINUOUS
 10
96.330575
 20
135.112945
 11
96.330575
 21
136.148221
  0
LINE
  8
2
 62
134
  6
CONTINUOUS
 10
97.779463
 20
135.630583
 11
96.813537
 21
135.371764
  0
LINE
  8
2
 62
134
  6
CONTINUOUS
 10
97.779463
 20
135.630583
 11
96.813537
 21
135.889402
  0
LINE
  8
2
 62
134
  6
CONTINUOUS
 10
96.813537
 20
135.371764
 11
96.813537
 21
135.889402
  0
TEXT
  8
2
 62
134
  6
CONTINUOUS
 10
85.661237
 20
135.630583
 40
4.000000
 41
0.500000
  1
20
  7
KANJI
 50
0.000000
 51
30.000000
  0
ENDBLK
  0
BLOCK
  8
2
 62
134
  6
CONTINUOUS
  2
*D5
 70
    65
 10
0.0
 20
0.0
  0
LINE
  8
2
 62
134
  6
CONTINUOUS
 10
18.416339
 20
135.630583
 11
38.416339
 21
135.630583
  0
LINE
  8
2
 62
134
  6
CONTINUOUS
 10
18.416339
 20
133.630583
 11
18.416339
 21
144.000000
  0
LINE
  8
2
 62
134
  6
CONTINUOUS
 10
38.416339
 20
133.630583
 11
38.416339
 21
144.000000
  0
LINE
  8
2
 62
134
  6
CONTINUOUS
 10
18.416339
 20
135.630583
 11
20.348190
 21
136.148221
  0
LINE
  8
2
 62
134
  6
CONTINUOUS
 10
18.416339
 20
135.630583
 11
20.348190
 21
135.112945
  0
LINE
  8
2
 62
134
  6
CONTINUOUS
 10
20.348190
 20
136.148221
 11
20.348190
 21
135.112945
  0
LINE
  8
2
 62
134
  6
CONTINUOUS
 10
18.899301
 20
135.630583
 11
19.865227
 21
135.889402
  0
LINE
  8
2
 62
134
  6
CONTINUOUS
 10
18.899301
 20
135.630583
 11
19.865227
 21
135.371764
  0
LINE
  8
2
 62
134
  6
CONTINUOUS
 10
19.865227
 20
135.889402
 11
19.865227
 21
135.371764
  0
LINE
  8
2
 62
134
  6
CONTINUOUS
 10
38.416339
 20
135.630583
 11
36.484487
 21
135.112945
  0
LINE
  8
2
 62
134
  6
CONTINUOUS
 10
38.416339
 20
135.630583
 11
36.484487
 21
136.148221
  0
LINE
  8
2
 62
134
  6
CONTINUOUS
 10
36.484487
 20
135.112945
 11
36.484487
 21
136.148221
  0
LINE
  8
2
 62
134
  6
CONTINUOUS
 10
37.933376
 20
135.630583
 11
36.967450
 21
135.371764
  0
LINE
  8
2
 62
134
  6
CONTINUOUS
 10
37.933376
 20
135.630583
 11
36.967450
 21
135.889402
  0
LINE
  8
2
 62
134
  6
CONTINUOUS
 10
36.967450
 20
135.371764
 11
36.967450
 21
135.889402
  0
TEXT
  8
2
 62
134
  6
CONTINUOUS
 10
26.490520
 20
135.630583
 40
4.000000
 41
0.500000
  1
20
  7
KANJI
 50
0.000000
 51
30.000000
  0
ENDBLK
  0
BLOCK
  8
2
 62
134
  6
CONTINUOUS
  2
*D6
 70
    65
 10
0.0
 20
0.0
  0
LINE
  8
2
 62
134
  6
CONTINUOUS
 10
44.248263
 20
145.000000
 11
44.248263
 21
170.000000
  0
LINE
  8
2
 62
134
  6
CONTINUOUS
 10
46.248263
 20
145.000000
 11
39.416339
 21
145.000000
  0
LINE
  8
2
 62
134
  6
CONTINUOUS
 10
46.248263
 20
170.000000
 11
38.416339
 21
170.000000
  0
LINE
  8
2
 62
134
  6
CONTINUOUS
 10
44.248263
 20
145.000000
 11
43.730625
 21
146.931852
  0
LINE
  8
2
 62
134
  6
CONTINUOUS
 10
44.248263
 20
145.000000
 11
44.765901
 21
146.931852
  0
LINE
  8
2
 62
134
  6
CONTINUOUS
 10
43.730625
 20
146.931852
 11
44.765901
 21
146.931852
  0
LINE
  8
2
 62
134
  6
CONTINUOUS
 10
44.248263
 20
145.482963
 11
43.989444
 21
146.448889
  0
LINE
  8
2
 62
134
  6
CONTINUOUS
 10
44.248263
 20
145.482963
 11
44.507082
 21
146.448889
  0
LINE
  8
2
 62
134
  6
CONTINUOUS
 10
43.989444
 20
146.448889
 11
44.507082
 21
146.448889
  0
LINE
  8
2
 62
134
  6
CONTINUOUS
 10
44.248263
 20
170.000000
 11
44.765901
 21
168.068148
  0
LINE
  8
2
 62
134
  6
CONTINUOUS
 10
44.248263
 20
170.000000
 11
43.730625
 21
168.068148
  0
LINE
  8
2
 62
134
  6
CONTINUOUS
 10
44.765901
 20
168.068148
 11
43.730625
 21
168.068148
  0
LINE
  8
2
 62
134
  6
CONTINUOUS
 10
44.248263
 20
169.517037
 11
44.507082
 21
168.551111
  0
LINE
  8
2
 62
134
  6
CONTINUOUS
 10
44.248263
 20
169.517037
 11
43.989444
 21
168.551111
  0
LINE
  8
2
 62
134
  6
CONTINUOUS
 10
44.507082
 20
168.551111
 11
43.989444
 21
168.551111
  0
TEXT
  8
2
 62
134
  6
CONTINUOUS
 10
44.248263
 20
155.500000
 40
4.000000
 41
0.500000
  1
25
  7
KANJI
 50
90.000000
 51
30.000000
  0
ENDBLK
  0
BLOCK
  8
2
 62
134
  6
CONTINUOUS
  2
*D7
 70
    65
 10
0.0
 20
0.0
  0
LINE
  8
2
 62
134
  6
CONTINUOUS
 10
44.248263
 20
170.000000
 11
44.248263
 21
180.000000
  0
LINE
  8
2
 62
134
  6
CONTINUOUS
 10
46.248263
 20
180.000000
 11
39.416339
 21
180.000000
  0
LINE
  8
2
 62
134
  6
CONTINUOUS
 10
44.248263
 20
170.000000
 11
43.730625
 21
171.931852
  0
LINE
  8
2
 62
134
  6
CONTINUOUS
 10
44.248263
 20
170.000000
 11
44.765901
 21
171.931852
  0
LINE
  8
2
 62
134
  6
CONTINUOUS
 10
43.730625
 20
171.931852
 11
44.765901
 21
171.931852
  0
LINE
  8
2
 62
134
  6
CONTINUOUS
 10
44.248263
 20
170.482963
 11
43.989444
 21
171.448889
  0
LINE
  8
2
 62
134
  6
CONTINUOUS
 10
44.248263
 20
170.482963
 11
44.507082
 21
171.448889
  0
LINE
  8
2
 62
134
  6
CONTINUOUS
 10
43.989444
 20
171.448889
 11
44.507082
 21
171.448889
  0
LINE
  8
2
 62
134
  6
CONTINUOUS
 10
44.248263
 20
180.000000
 11
44.765901
 21
178.068148
  0
LINE
  8
2
 62
134
  6
CONTINUOUS
 10
44.248263
 20
180.000000
 11
43.730625
 21
178.068148
  0
LINE
  8
2
 62
134
  6
CONTINUOUS
 10
44.765901
 20
178.068148
 11
43.730625
 21
178.068148
  0
LINE
  8
2
 62
134
  6
CONTINUOUS
 10
44.248263
 20
179.517037
 11
44.507082
 21
178.551111
  0
LINE
  8
2
 62
134
  6
CONTINUOUS
 10
44.248263
 20
179.517037
 11
43.989444
 21
178.551111
  0
LINE
  8
2
 62
134
  6
CONTINUOUS
 10
44.507082
 20
178.551111
 11
43.989444
 21
178.551111
  0
TEXT
  8
2
 62
134
  6
CONTINUOUS
 10
44.248263
 20
173.000000
 40
4.000000
 41
0.500000
  1
10
  7
KANJI
 50
90.000000
 51
30.000000
  0
ENDBLK
  0
BLOCK
  8
2
 62
134
  6
CONTINUOUS
  2
*D8
 70
    65
 10
0.0
 20
0.0
  0
LINE
  8
2
 62
134
  6
CONTINUOUS
 10
49.753980
 20
145.000000
 11
49.753980
 21
158.000000
  0
LINE
  8
2
 62
134
  6
CONTINUOUS
 10
47.753980
 20
145.000000
 11
52.262426
 21
145.000000
  0
LINE
  8
2
 62
134
  6
CONTINUOUS
 10
47.753980
 20
158.000000
 11
54.512426
 21
158.000000
  0
LINE
  8
2
 62
134
  6
CONTINUOUS
 10
49.753980
 20
145.000000
 11
49.236342
 21
146.931852
  0
LINE
  8
2
 62
134
  6
CONTINUOUS
 10
49.753980
 20
145.000000
 11
50.271619
 21
146.931852
  0
LINE
  8
2
 62
134
  6
CONTINUOUS
 10
49.236342
 20
146.931852
 11
50.271619
 21
146.931852
  0
LINE
  8
2
 62
134
  6
CONTINUOUS
 10
49.753980
 20
145.482963
 11
49.495161
 21
146.448889
  0
LINE
  8
2
 62
134
  6
CONTINUOUS
 10
49.753980
 20
145.482963
 11
50.012800
 21
146.448889
  0
LINE
  8
2
 62
134
  6
CONTINUOUS
 10
49.495161
 20
146.448889
 11
50.012800
 21
146.448889
  0
LINE
  8
2
 62
134
  6
CONTINUOUS
 10
49.753980
 20
158.000000
 11
50.271619
 21
156.068148
  0
LINE
  8
2
 62
134
  6
CONTINUOUS
 10
49.753980
 20
158.000000
 11
49.236342
 21
156.068148
  0
LINE
  8
2
 62
134
  6
CONTINUOUS
 10
50.271619
 20
156.068148
 11
49.236342
 21
156.068148
  0
LINE
  8
2
 62
134
  6
CONTINUOUS
 10
49.753980
 20
157.517037
 11
50.012800
 21
156.551111
  0
LINE
  8
2
 62
134
  6
CONTINUOUS
 10
49.753980
 20
157.517037
 11
49.495161
 21
156.551111
  0
LINE
  8
2
 62
134
  6
CONTINUOUS
 10
50.012800
 20
156.551111
 11
49.495161
 21
156.551111
  0
TEXT
  8
2
 62
134
  6
CONTINUOUS
 10
49.753980
 20
150.003748
 40
4.000000
 41
0.500000
  1
13
  7
KANJI
 50
90.000000
 51
30.000000
  0
ENDBLK
  0
BLOCK
  8
2
 62
134
  6
CONTINUOUS
  2
*D9
 70
    65
 10
0.0
 20
0.0
  0
LINE
  8
2
 62
134
  6
CONTINUOUS
 10
54.262426
 20
188.570074
 11
129.262426
 21
188.570074
  0
LINE
  8
2
 62
134
  6
CONTINUOUS
 10
54.262426
 20
190.570074
 11
54.262426
 21
182.000000
  0
LINE
  8
2
 62
134
  6
CONTINUOUS
 10
129.262426
 20
190.570074
 11
129.262426
 21
182.000000
  0
LINE
  8
2
 62
134
  6
CONTINUOUS
 10
54.262426
 20
188.570074
 11
56.194278
 21
189.087713
  0
LINE
  8
2
 62
134
  6
CONTINUOUS
 10
54.262426
 20
188.570074
 11
56.194278
 21
188.052436
  0
LINE
  8
2
 62
134
  6
CONTINUOUS
 10
56.194278
 20
189.087713
 11
56.194278
 21
188.052436
  0
LINE
  8
2
 62
134
  6
CONTINUOUS
 10
54.745389
 20
188.570074
 11
55.711315
 21
188.828893
  0
LINE
  8
2
 62
134
  6
CONTINUOUS
 10
54.745389
 20
188.570074
 11
55.711315
 21
188.311255
  0
LINE
  8
2
 62
134
  6
CONTINUOUS
 10
55.711315
 20
188.828893
 11
55.711315
 21
188.311255
  0
LINE
  8
2
 62
134
  6
CONTINUOUS
 10
129.262426
 20
188.570074
 11
127.330575
 21
188.052436
  0
LINE
  8
2
 62
134
  6
CONTINUOUS
 10
129.262426
 20
188.570074
 11
127.330575
 21
189.087713
  0
LINE
  8
2
 62
134
  6
CONTINUOUS
 10
127.330575
 20
188.052436
 11
127.330575
 21
189.087713
  0
LINE
  8
2
 62
134
  6
CONTINUOUS
 10
128.779463
 20
188.570074
 11
127.813537
 21
188.311255
  0
LINE
  8
2
 62
134
  6
CONTINUOUS
 10
128.779463
 20
188.570074
 11
127.813537
 21
188.828893
  0
LINE
  8
2
 62
134
  6
CONTINUOUS
 10
127.813537
 20
188.311255
 11
127.813537
 21
188.828893
  0
TEXT
  8
2
 62
134
  6
CONTINUOUS
 10
90.280901
 20
188.570074
 40
4.000000
 41
0.500000
  1
75
  7
KANJI
 50
0.000000
 51
30.000000
  0
ENDBLK
  0
BLOCK
  8
2
 62
134
  6
CONTINUOUS
  2
*D10
 70
    65
 10
0.0
 20
0.0
  0
LINE
  8
2
 62
134
  6
CONTINUOUS
 10
137.948683
 20
156.990513
 11
137.948683
 21
183.944721
  0
LINE
  8
2
 62
134
  6
CONTINUOUS
 10
135.948683
 20
174.990513
 11
138.139845
 21
174.990513
  0
LINE
  8
2
 62
134
  6
CONTINUOUS
 10
137.948683
 20
164.990513
 11
138.466321
 21
163.058662
  0
LINE
  8
2
 62
134
  6
CONTINUOUS
 10
137.948683
 20
164.990513
 11
137.431045
 21
163.058662
  0
LINE
  8
2
 62
134
  6
CONTINUOUS
 10
138.466321
 20
163.058662
 11
137.431045
 21
163.058662
  0
LINE
  8
2
 62
134
  6
CONTINUOUS
 10
137.948683
 20
164.507551
 11
138.207502
 21
163.541625
  0
LINE
  8
2
 62
134
  6
CONTINUOUS
 10
137.948683
 20
164.507551
 11
137.689864
 21
163.541625
  0
LINE
  8
2
 62
134
  6
CONTINUOUS
 10
138.207502
 20
163.541625
 11
137.689864
 21
163.541625
  0
LINE
  8
2
 62
134
  6
CONTINUOUS
 10
137.948683
 20
174.990513
 11
137.431045
 21
176.922365
  0
LINE
  8
2
 62
134
  6
CONTINUOUS
 10
137.948683
 20
174.990513
 11
138.466321
 21
176.922365
  0
LINE
  8
2
 62
134
  6
CONTINUOUS
 10
137.431045
 20
176.922365
 11
138.466321
 21
176.922365
  0
LINE
  8
2
 62
134
  6
CONTINUOUS
 10
137.948683
 20
175.473476
 11
137.689864
 21
176.439402
  0
LINE
  8
2
 62
134
  6
CONTINUOUS
 10
137.948683
 20
175.473476
 11
138.207502
 21
176.439402
  0
LINE
  8
2
 62
134
  6
CONTINUOUS
 10
137.689864
 20
176.439402
 11
138.207502
 21
176.439402
  0
TEXT
  8
2
 62
134
  6
CONTINUOUS
 10
137.948683
 20
174.944721
 40
4.000000
 41
0.666667
  1
φ10
  7
KANJI
 50
90.000000
 51
30.000000
  0
ENDBLK
  0
BLOCK
  8
2
 62
134
  6
CONTINUOUS
  2
*D11
 70
    65
 10
0.0
 20
0.0
  0
LINE
  8
2
 62
134
  6
CONTINUOUS
 10
162.262426
 20
158.990513
 11
162.262426
 21
183.171980
  0
LINE
  8
2
 62
134
  6
CONTINUOUS
 10
160.262426
 20
166.990513
 11
163.262426
 21
166.990513
  0
LINE
  8
2
 62
134
  6
CONTINUOUS
 10
160.262426
 20
172.990513
 11
162.262426
 21
172.990513
  0
LINE
  8
2
 62
134
  6
CONTINUOUS
 10
162.262426
 20
166.990513
 11
162.780064
 21
165.058662
  0
LINE
  8
2
 62
134
  6
CONTINUOUS
 10
162.262426
 20
166.990513
 11
161.744788
 21
165.058662
  0
LINE
  8
2
 62
134
  6
CONTINUOUS
 10
162.780064
 20
165.058662
 11
161.744788
 21
165.058662
  0
LINE
  8
2
 62
134
  6
CONTINUOUS
 10
162.262426
 20
166.507551
 11
162.521245
 21
165.541625
  0
LINE
  8
2
 62
134
  6
CONTINUOUS
 10
162.262426
 20
166.507551
 11
162.003607
 21
165.541625
  0
LINE
  8
2
 62
134
  6
CONTINUOUS
 10
162.521245
 20
165.541625
 11
162.003607
 21
165.541625
  0
LINE
  8
2
 62
134
  6
CONTINUOUS
 10
162.262426
 20
172.990513
 11
161.744788
 21
174.922365
  0
LINE
  8
2
 62
134
  6
CONTINUOUS
 10
162.262426
 20
172.990513
 11
162.780064
 21
174.922365
  0
LINE
  8
2
 62
134
  6
CONTINUOUS
 10
161.744788
 20
174.922365
 11
162.780064
 21
174.922365
  0
LINE
  8
2
 62
134
  6
CONTINUOUS
 10
162.262426
 20
173.473476
 11
162.003607
 21
174.439402
  0
LINE
  8
2
 62
134
  6
CONTINUOUS
 10
162.262426
 20
173.473476
 11
162.521245
 21
174.439402
  0
LINE
  8
2
 62
134
  6
CONTINUOUS
 10
162.003607
 20
174.439402
 11
162.521245
 21
174.439402
  0
TEXT
  8
2
 62
134
  6
CONTINUOUS
 10
162.262426
 20
176.171980
 40
4.000000
 41
0.750000
  1
φ6
  7
KANJI
 50
90.000000
 51
30.000000
  0
ENDBLK
  0
BLOCK
  8
2
 62
134
  6
CONTINUOUS
  2
*D12
 70
    65
 10
0.0
 20
0.0
  0
LINE
  8
2
 62
134
  6
CONTINUOUS
 10
129.262426
 20
188.570074
 11
151.262426
 21
188.570074
  0
LINE
  8
2
 62
134
  6
CONTINUOUS
 10
129.262426
 20
190.570074
 11
129.262426
 21
176.990513
  0
LINE
  8
2
 62
134
  6
CONTINUOUS
 10
151.262426
 20
190.570074
 11
151.262426
 21
176.990513
  0
LINE
  8
2
 62
134
  6
CONTINUOUS
 10
129.262426
 20
188.570074
 11
131.194278
 21
189.087713
  0
LINE
  8
2
 62
134
  6
CONTINUOUS
 10
129.262426
 20
188.570074
 11
131.194278
 21
188.052436
  0
LINE
  8
2
 62
134
  6
CONTINUOUS
 10
131.194278
 20
189.087713
 11
131.194278
 21
188.052436
  0
LINE
  8
2
 62
134
  6
CONTINUOUS
 10
129.745389
 20
188.570074
 11
130.711315
 21
188.828893
  0
LINE
  8
2
 62
134
  6
CONTINUOUS
 10
129.745389
 20
188.570074
 11
130.711315
 21
188.311255
  0
LINE
  8
2
 62
134
  6
CONTINUOUS
 10
130.711315
 20
188.828893
 11
130.711315
 21
188.311255
  0
LINE
  8
2
 62
134
  6
CONTINUOUS
 10
151.262426
 20
188.570074
 11
149.330575
 21
188.052436
  0
LINE
  8
2
 62
134
  6
CONTINUOUS
 10
151.262426
 20
188.570074
 11
149.330575
 21
189.087713
  0
LINE
  8
2
 62
134
  6
CONTINUOUS
 10
149.330575
 20
188.052436
 11
149.330575
 21
189.087713
  0
LINE
  8
2
 62
134
  6
CONTINUOUS
 10
150.779463
 20
188.570074
 11
149.813537
 21
188.311255
  0
LINE
  8
2
 62
134
  6
CONTINUOUS
 10
150.779463
 20
188.570074
 11
149.813537
 21
188.828893
  0
LINE
  8
2
 62
134
  6
CONTINUOUS
 10
149.813537
 20
188.311255
 11
149.813537
 21
188.828893
  0
TEXT
  8
2
 62
134
  6
CONTINUOUS
 10
139.122586
 20
188.570074
 40
4.000000
 41
0.500000
  1
22
  7
KANJI
 50
0.000000
 51
30.000000
  0
ENDBLK
  0
ENDSEC
  0
SECTION
  2
ENTITIES
  0
TEXT
  8
5
 62
94
  6
CONTINUOUS
 10
123.572985
 20
23.836529
 40
1.750000
 41
4.000000
  1
製図
  7
KANJI
 50
-90.000000
 51
0.000000
  0
TEXT
  8
5
 62
94
  6
CONTINUOUS
 10
143.405766
 20
23.672622
 40
1.750000
 41
4.000000
  1
図番
  7
KANJI
 50
-90.000000
 51
0.000000
  0
TEXT
  8
5
 62
94
  6
CONTINUOUS
 10
143.405766
 20
36.949112
 40
1.750000
 41
4.000000
  1
図　名
  7
KANJI
 50
-90.000000
 51
0.000000
  0
TEXT
  8
5
 62
94
  6
CONTINUOUS
 10
78.498481
 20
31.540172
 40
1.750000
 41
4.000000
  1
日付
  7
KANJI
 50
-90.000000
 51
0.000000
  0
TEXT
  8
5
 62
94
  6
CONTINUOUS
 10
113.574640
 20
31.704079
 40
1.750000
 41
4.000000
  1
図法
  7
KANJI
 50
-90.000000
 51
0.000000
  0
TEXT
  8
5
 62
94
  6
CONTINUOUS
 10
113.410733
 20
39.735536
 40
1.750000
 41
4.000000
  1
尺度
  7
KANJI
 50
-90.000000
 51
0.000000
  0
TEXT
  8
5
 62
94
  6
CONTINUOUS
 10
78.498481
 20
39.571629
 40
1.750000
 41
4.000000
  1
公差
  7
KANJI
 50
-90.000000
 51
0.000000
  0
TEXT
  8
5
 62
94
  6
CONTINUOUS
 10
78.498481
 20
23.672622
 40
1.750000
 41
4.000000
  1
承認
  7
KANJI
 50
-90.000000
 51
0.000000
  0
TEXT
  8
5
 62
94
  6
CONTINUOUS
 10
103.576296
 20
23.672622
 40
1.750000
 41
4.000000
  1
設計
  7
KANJI
 50
-90.000000
 51
0.000000
  0
TEXT
  8
5
 62
94
  6
CONTINUOUS
 10
97.020004
 20
9.740503
 40
4.500000
 41
1.888889
  1
ジャパンセンサー株式会社
  7
KANJI
 50
0.000000
 51
0.000000
  0
LINE
  8
5
 62
94
  6
CONTINUOUS
 10
197.610236
 20
8.185039
 11
197.610236
 21
283.185039
  0
LINE
  8
5
 62
94
  6
CONTINUOUS
 10
197.610236
 20
283.185039
 11
12.610236
 21
283.185039
  0
LINE
  8
5
 62
94
  6
CONTINUOUS
 10
12.610236
 20
283.185039
 11
12.610236
 21
8.185039
  0
LINE
  8
5
 62
94
  6
CONTINUOUS
 10
12.610236
 20
8.185039
 11
197.610236
 21
8.185039
  0
LINE
  8
5
 62
94
  6
CONTINUOUS
 10
77.610236
 20
40.185039
 11
197.610236
 21
40.185039
  0
LINE
  8
5
 62
94
  6
CONTINUOUS
 10
77.610236
 20
8.185039
 11
77.610236
 21
40.185039
  0
LINE
  8
5
 62
94
  6
CONTINUOUS
 10
197.610236
 20
16.185039
 11
77.610236
 21
16.185039
  0
LINE
  8
5
 62
94
  6
CONTINUOUS
 10
142.610236
 20
40.185039
 11
142.610236
 21
16.185039
  0
LINE
  8
5
 62
94
  6
CONTINUOUS
 10
197.610236
 20
24.185039
 11
77.610236
 21
24.185039
  0
LINE
  8
5
 62
94
  6
CONTINUOUS
 10
147.610236
 20
16.185039
 11
147.610236
 21
40.185039
  0
LINE
  8
5
 62
94
  6
CONTINUOUS
 10
117.610236
 20
40.185039
 11
117.610236
 21
24.185039
  0
LINE
  8
5
 62
94
  6
CONTINUOUS
 10
82.610236
 20
16.185039
 11
82.610236
 21
40.185039
  0
LINE
  8
5
 62
94
  6
CONTINUOUS
 10
77.610236
 20
32.185039
 11
142.610236
 21
32.185039
  0
LINE
  8
5
 62
94
  6
CONTINUOUS
 10
112.610236
 20
40.185039
 11
112.610236
 21
24.185039
  0
LINE
  8
5
 62
94
  6
CONTINUOUS
 10
102.610236
 20
16.185039
 11
102.610236
 21
24.185039
  0
LINE
  8
5
 62
94
  6
CONTINUOUS
 10
122.610236
 20
16.185039
 11
122.610236
 21
24.185039
  0
LINE
  8
5
 62
94
  6
CONTINUOUS
 10
107.610236
 20
24.185039
 11
107.610236
 21
16.185039
  0
LINE
  8
5
 62
94
  6
CONTINUOUS
 10
127.610236
 20
24.185039
 11
127.610236
 21
16.185039
  0
TEXT
  8
5
 62
94
  6
CONTINUOUS
 10
122.589541
 20
33.834874
 40
4.000000
 41
1.000000
  1
１／１
  7
KANJI
 50
0.000000
 51
0.000000
  0
TEXT
  8
5
 62
94
  6
CONTINUOUS
 10
121.606097
 20
25.475602
 40
4.000000
 41
1.000000
  1
三角法
  7
KANJI
 50
0.000000
 51
0.000000
  0
LINE
  8
1
 62
7
  6
CONTINUOUS
 10
19.416339
 20
180.000000
 11
18.416339
 21
179.000000
  0
LINE
  8
1
 62
7
  6
CONTINUOUS
 10
18.416339
 20
179.000000
 11
18.416339
 21
146.000000
  0
LINE
  8
1
 62
7
  6
CONTINUOUS
 10
18.416339
 20
146.000000
 11
19.416339
 21
145.000000
  0
LINE
  8
1
 62
7
  6
CONTINUOUS
 10
19.416339
 20
145.000000
 11
37.416339
 21
145.000000
  0
LINE
  8
1
 62
7
  6
CONTINUOUS
 10
37.416339
 20
145.000000
 11
38.416339
 21
146.000000
  0
LINE
  8
1
 62
7
  6
CONTINUOUS
 10
38.416339
 20
146.000000
 11
38.416339
 21
179.000000
  0
LINE
  8
1
 62
7
  6
CONTINUOUS
 10
19.416339
 20
180.000000
 11
37.416339
 21
180.000000
  0
LINE
  8
1
 62
7
  6
CONTINUOUS
 10
38.416339
 20
179.000000
 11
37.416339
 21
180.000000
  0
CIRCLE
  8
1
 62
7
  6
CONTINUOUS
 10
28.416339
 20
170.000000
 40
8.000000
  0
CIRCLE
  8
1
 62
7
  6
CONTINUOUS
 10
28.416339
 20
170.000000
 40
7.031189
  0
LINE
  8
1
 62
7
  6
CONTINUOUS
 10
54.262426
 20
180.000000
 11
54.262426
 21
145.000000
  0
LINE
  8
1
 62
7
  6
CONTINUOUS
 10
54.262426
 20
145.000000
 11
129.262426
 21
145.000000
  0
LINE
  8
1
 62
7
  6
CONTINUOUS
 10
129.262426
 20
145.000000
 11
129.262426
 21
180.000000
  0
LINE
  8
1
 62
7
  6
CONTINUOUS
 10
129.262426
 20
180.000000
 11
54.262426
 21
180.000000
  0
LINE
  8
1
 62
7
  6
CONTINUOUS
 10
54.262426
 20
179.000000
 11
129.262426
 21
179.000000
  0
LINE
  8
1
 62
7
  6
CONTINUOUS
 10
54.262426
 20
146.000000
 11
129.262426
 21
146.000000
  0
CIRCLE
  8
1
 62
7
  6
CONTINUOUS
 10
58.262426
 20
158.000000
 40
1.750000
  0
CIRCLE
  8
1
 62
7
  6
CONTINUOUS
 10
78.262426
 20
158.000000
 40
1.750000
  0
CIRCLE
  8
1
 62
7
  6
CONTINUOUS
 10
98.262426
 20
158.000000
 40
1.750000
  0
ARC
  8
1
 62
7
  6
DOT
 10
99.887426
 20
170.000000
 40
28.625000
 50
164.810713
 51
-164.810713
  0
LINE
  8
1
 62
7
  6
DOT
 10
74.393338
 20
177.000000
 11
129.262426
 21
170.000000
  0
LINE
  8
1
 62
7
  6
DOT
 10
129.262426
 20
170.000000
 11
74.393338
 21
163.000000
  0
LINE
  8
1
 62
7
  6
DOT
 10
54.262426
 20
177.500000
 11
98.262426
 21
177.500000
  0
LINE
  8
1
 62
7
  6
DOT
 10
54.262426
 20
177.000000
 11
98.262426
 21
177.000000
  0
LINE
  8
1
 62
7
  6
DOT
 10
54.262426
 20
163.000000
 11
98.262426
 21
163.000000
  0
LINE
  8
1
 62
7
  6
DOT
 10
54.262426
 20
162.500000
 11
98.262426
 21
162.500000
  0
LINE
  8
1
 62
7
  6
DOT
 10
98.262426
 20
173.954868
 11
129.205955
 21
173.954868
  0
LINE
  8
1
 62
7
  6
DOT
 10
98.262426
 20
166.045132
 11
129.279035
 21
166.045132
  0
LINE
  8
1
 62
7
  6
DOT
 10
98.262426
 20
177.500000
 11
98.262426
 21
162.500000
  0
LINE
  8
1
 62
7
  6
DOT
 10
97.635089
 20
177.513041
 11
97.635089
 21
162.531496
  0
LINE
  8
2
 62
134
  6
CONTINUOUS
 10
129.262426
 20
180.970672
 11
129.262426
 21
190.763487
  0
DIMENSION
  8
2
 62
134
  6
CONTINUOUS
  2
*D1
 10
112.763533
 20
152.000000
 11
112.263533
 21
148.500000
 70
     0
  1
7
 13
112.763533
 23
152.000000
 14
112.763533
 24
145.000000
 50
-90.000000
  0
TEXT
  8
5
 62
94
  6
DOT
 10
154.931102
 20
26.382136
 40
4.000000
 41
1.000000
  1
センサヘッド外形図
  7
KANJI
 50
0.000000
 51
0.000000
  0
LINE
  8
5
 62
94
  6
CONTINUOUS
 10
149.705832
 20
32.178350
 11
195.308194
 21
32.178350
  0
TEXT
  8
5
 62
94
  6
DOT
 10
111.119218
 20
18.146853
 40
4.000000
 41
1.000000
  1
須藤
  7
KANJI
 50
0.000000
 51
0.000000
  0
TEXT
  8
5
 62
94
  6
DOT
 10
131.119218
 20
18.146853
 40
4.000000
 41
1.000000
  1
須藤
  7
KANJI
 50
0.000000
 51
0.000000
  0
TEXT
  8
5
 62
94
  6
DOT
 10
148.353839
 20
18.050935
 40
4.000000
 41
1.000000
  1
０１５－８７７－Ａ１０５
  7
KANJI
 50
0.000000
 51
0.000000
  0
TEXT
  8
5
 62
94
  6
DOT
 10
87.441068
 20
26.185731
 40
4.000000
 41
0.500000
  1
2006/09/04
  7
KANJI
 50
0.000000
 51
0.000000
  0
TEXT
  8
5
 62
94
  6
DOT
 10
153.949663
 20
33.772116
 40
4.000000
 41
0.593750
  1
FTH9-□B φ15角ﾍｯﾄﾞ
  7
KANJI
 50
0.000000
 51
0.000000
  0
LINE
  8
1
 62
7
  6
DOT
 10
116.965674
 20
156.864000
 11
116.965674
 21
147.136000
  0
LINE
  8
1
 62
7
  6
DOT
 10
116.965674
 20
147.136000
 11
129.262426
 21
147.136000
  0
LINE
  8
1
 62
7
  6
DOT
 10
116.965674
 20
147.717000
 11
129.262426
 21
147.717000
  0
LINE
  8
1
 62
7
  6
DOT
 10
116.965674
 20
156.283000
 11
129.262426
 21
156.283000
  0
LINE
  8
1
 62
7
  6
DOT
 10
116.965674
 20
156.864000
 11
129.262426
 21
156.864000
  0
LINE
  8
1
 62
7
  6
DOT
 10
65.224532
 20
162.500000
 11
65.224532
 21
152.000000
  0
LINE
  8
1
 62
7
  6
DASHDOT
 10
54.554749
 20
158.000000
 11
105.126599
 21
158.000000
  0
LINE
  8
1
 62
7
  6
DASHDOT
 10
58.262426
 20
161.677365
 11
58.262426
 21
154.359332
  0
LINE
  8
1
 62
7
  6
DASHDOT
 10
78.262426
 20
161.531204
 11
78.262426
 21
154.491225
  0
LINE
  8
1
 62
7
  6
DASHDOT
 10
98.262426
 20
161.677365
 11
98.262426
 21
154.491225
  0
DIMENSION
  8
2
 62
134
  6
CONTINUOUS
  2
*D2
 10
54.262426
 20
135.630583
 11
56.138906
 21
135.630583
 70
     0
  1
4
 13
54.262426
 23
143.000000
 14
58.262426
 24
154.250000
 50
0.000000
  0
DIMENSION
  8
2
 62
134
  6
CONTINUOUS
  2
*D3
 10
58.262426
 20
135.630583
 11
67.217884
 21
135.630583
 70
     0
  1
20
 13
58.262426
 23
154.250000
 14
78.262426
 24
154.250000
 50
0.000000
  0
DIMENSION
  8
2
 62
134
  6
CONTINUOUS
  2
*D4
 10
78.262426
 20
135.630583
 11
87.661237
 21
135.630583
 70
     0
  1
20
 13
78.262426
 23
154.250000
 14
98.262426
 24
154.250000
 50
0.000000
  0
ARC
  8
1
 62
7
  6
DOT
 10
45.169032
 20
170.000000
 40
28.625000
 50
-15.189287
 51
15.189287
  0
LINE
  8
1
 62
7
  6
DASHDOT
 10
28.416339
 20
183.578740
 11
28.416339
 21
141.776575
  0
LINE
  8
1
 62
7
  6
DASHDOT
 10
12.825295
 20
170.000000
 11
37.965059
 21
170.000000
  0
DIMENSION
  8
2
 62
134
  6
CONTINUOUS
  2
*D5
 10
18.416339
 20
135.630583
 11
28.490520
 21
135.630583
 70
     0
  1
20
 13
18.416339
 23
144.000000
 14
38.416339
 24
144.000000
 50
0.000000
  0
DIMENSION
  8
2
 62
134
  6
CONTINUOUS
  2
*D6
 10
44.248263
 20
145.000000
 11
44.248263
 21
157.500000
 70
     0
  1
25
 13
39.416339
 23
145.000000
 14
38.416339
 24
170.000000
 50
90.000000
  0
DIMENSION
  8
2
 62
134
  6
CONTINUOUS
  2
*D7
 10
44.248263
 20
170.000000
 11
44.248263
 21
175.000000
 70
     0
  1
10
 13
44.248263
 23
170.000000
 14
39.416339
 24
180.000000
 50
90.000000
  0
DIMENSION
  8
2
 62
134
  6
CONTINUOUS
  2
*D8
 10
49.753980
 20
145.000000
 11
49.753980
 21
152.003748
 70
     0
  1
13
 13
52.262426
 23
145.000000
 14
54.512426
 24
158.000000
 50
90.000000
  0
LINE
  8
2
 62
134
  6
CONTINUOUS
 10
54.262426
 20
126.373685
 11
52.330575
 21
125.856047
  0
LINE
  8
2
 62
134
  6
CONTINUOUS
 10
52.330575
 20
125.856047
 11
52.330575
 21
126.891323
  0
LINE
  8
2
 62
134
  6
CONTINUOUS
 10
52.330575
 20
126.891323
 11
54.262426
 21
126.373685
  0
LINE
  8
2
 62
134
  6
CONTINUOUS
 10
54.262426
 20
124.373685
 11
54.262426
 21
144.000000
  0
LINE
  8
2
 62
134
  6
CONTINUOUS
 10
18.416339
 20
126.373685
 11
54.262426
 21
126.373685
  0
DIMENSION
  8
2
 62
134
  6
CONTINUOUS
  2
*D9
 10
54.262426
 20
188.570074
 11
92.280901
 21
188.570074
 70
     0
  1
75
 13
54.262426
 23
182.000000
 14
129.262426
 24
182.000000
 50
0.000000
  0
DIMENSION
  8
2
 62
134
  6
CONTINUOUS
  2
*D10
 10
137.948683
 20
164.990513
 11
137.948683
 21
178.944721
 70
     0
  1
φ10
 13
137.948683
 23
164.990513
 14
138.139845
 24
174.990513
 50
90.000000
  0
DIMENSION
  8
2
 62
134
  6
CONTINUOUS
  2
*D11
 10
162.262426
 20
166.990513
 11
162.262426
 21
179.171980
 70
     0
  1
φ6
 13
163.262426
 23
166.990513
 14
162.262426
 24
172.990513
 50
90.000000
  0
DIMENSION
  8
2
 62
134
  6
CONTINUOUS
  2
*D12
 10
129.262426
 20
188.570074
 11
141.122586
 21
188.570074
 70
     0
  1
22
 13
129.262426
 23
176.990513
 14
151.262426
 24
176.990513
 50
0.000000
  0
LINE
  8
1
 62
7
  6
DOT
 10
65.224532
 20
152.000000
 11
133.151354
 21
152.000000
  0
TEXT
  8
2
 62
134
  6
CONTINUOUS
 10
119.170179
 20
132.307029
 40
4.000000
 41
0.583333
  1
3-φ3.5
  7
KANJI
 50
0.000000
 51
0.000000
  0
LINE
  8
1
 62
7
  6
DASHDOT
 10
147.512426
 20
171.527602
 11
147.512426
 21
168.489512
  0
CIRCLE
  8
1
 62
7
  6
CONTINUOUS
 10
147.512426
 20
169.990513
 40
1.000000
  0
CIRCLE
  8
1
 62
7
  6
CONTINUOUS
 10
147.512426
 20
169.990513
 40
0.782631
  0
LINE
  8
1
 62
7
  6
CONTINUOUS
 10
134.762426
 20
174.990513
 11
151.262426
 21
174.990513
  0
LINE
  8
1
 62
7
  6
CONTINUOUS
 10
151.262426
 20
174.990513
 11
151.262426
 21
169.990513
  0
LINE
  8
1
 62
7
  6
CONTINUOUS
 10
134.762426
 20
165.990513
 11
134.762426
 21
164.990513
  0
LINE
  8
1
 62
7
  6
CONTINUOUS
 10
134.762426
 20
164.990513
 11
151.262426
 21
164.990513
  0
LINE
  8
1
 62
7
  6
CONTINUOUS
 10
151.262426
 20
164.990513
 11
151.262426
 21
169.990513
  0
LINE
  8
1
 62
7
  6
CONTINUOUS
 10
151.262426
 20
165.490513
 11
151.262426
 21
174.490513
  0
LINE
  8
1
 62
7
  6
CONTINUOUS
 10
152.262426
 20
172.990513
 11
153.262426
 21
172.990513
  0
LINE
  8
1
 62
7
  6
CONTINUOUS
 10
154.262426
 20
172.990513
 11
155.262426
 21
172.990513
  0
LINE
  8
1
 62
7
  6
CONTINUOUS
 10
156.262426
 20
172.990513
 11
157.262426
 21
172.990513
  0
LINE
  8
1
 62
7
  6
CONTINUOUS
 10
158.262426
 20
172.990513
 11
159.262426
 21
172.990513
  0
LINE
  8
1
 62
7
  6
CONTINUOUS
 10
160.262426
 20
172.990513
 11
161.262426
 21
172.990513
  0
LINE
  8
1
 62
7
  6
CONTINUOUS
 10
162.262426
 20
172.990513
 11
163.262426
 21
172.990513
  0
LINE
  8
1
 62
7
  6
CONTINUOUS
 10
164.262426
 20
172.990513
 11
165.262426
 21
172.990513
  0
LINE
  8
1
 62
7
  6
CONTINUOUS
 10
166.262426
 20
172.990513
 11
167.262426
 21
172.990513
  0
LINE
  8
1
 62
7
  6
CONTINUOUS
 10
168.262426
 20
172.990513
 11
169.262426
 21
172.990513
  0
LINE
  8
1
 62
7
  6
CONTINUOUS
 10
170.262426
 20
172.490513
 11
170.262426
 21
172.990513
  0
LINE
  8
1
 62
7
  6
CONTINUOUS
 10
153.262426
 20
166.990513
 11
154.262426
 21
166.990513
  0
LINE
  8
1
 62
7
  6
CONTINUOUS
 10
155.262426
 20
166.990513
 11
156.262426
 21
166.990513
  0
LINE
  8
1
 62
7
  6
CONTINUOUS
 10
157.262426
 20
166.990513
 11
158.262426
 21
166.990513
  0
LINE
  8
1
 62
7
  6
CONTINUOUS
 10
159.262426
 20
166.990513
 11
160.262426
 21
166.990513
  0
LINE
  8
1
 62
7
  6
CONTINUOUS
 10
161.262426
 20
166.990513
 11
162.262426
 21
166.990513
  0
LINE
  8
1
 62
7
  6
CONTINUOUS
 10
163.262426
 20
166.990513
 11
164.262426
 21
166.990513
  0
LINE
  8
1
 62
7
  6
CONTINUOUS
 10
165.262426
 20
166.990513
 11
166.262426
 21
166.990513
  0
LINE
  8
1
 62
7
  6
CONTINUOUS
 10
167.262426
 20
166.990513
 11
168.262426
 21
166.990513
  0
LINE
  8
1
 62
7
  6
CONTINUOUS
 10
169.262426
 20
166.990513
 11
170.262426
 21
166.990513
  0
LINE
  8
1
 62
7
  6
CONTINUOUS
 10
152.262426
 20
172.990513
 11
153.262426
 21
166.990513
  0
LINE
  8
1
 62
7
  6
CONTINUOUS
 10
153.262426
 20
172.990513
 11
154.262426
 21
166.990513
  0
LINE
  8
1
 62
7
  6
CONTINUOUS
 10
154.262426
 20
172.990513
 11
155.262426
 21
166.990513
  0
LINE
  8
1
 62
7
  6
CONTINUOUS
 10
155.262426
 20
172.990513
 11
156.262426
 21
166.990513
  0
LINE
  8
1
 62
7
  6
CONTINUOUS
 10
156.262426
 20
172.990513
 11
157.262426
 21
166.990513
  0
LINE
  8
1
 62
7
  6
CONTINUOUS
 10
157.262426
 20
172.990513
 11
158.262426
 21
166.990513
  0
LINE
  8
1
 62
7
  6
CONTINUOUS
 10
158.262426
 20
172.990513
 11
159.262426
 21
166.990513
  0
LINE
  8
1
 62
7
  6
CONTINUOUS
 10
159.262426
 20
172.990513
 11
160.262426
 21
166.990513
  0
LINE
  8
1
 62
7
  6
CONTINUOUS
 10
160.262426
 20
172.990513
 11
161.262426
 21
166.990513
  0
LINE
  8
1
 62
7
  6
CONTINUOUS
 10
161.262426
 20
172.990513
 11
162.262426
 21
166.990513
  0
LINE
  8
1
 62
7
  6
CONTINUOUS
 10
162.262426
 20
172.990513
 11
163.262426
 21
166.990513
  0
LINE
  8
1
 62
7
  6
CONTINUOUS
 10
163.262426
 20
172.990513
 11
164.262426
 21
166.990513
  0
LINE
  8
1
 62
7
  6
CONTINUOUS
 10
164.262426
 20
172.990513
 11
165.262426
 21
166.990513
  0
LINE
  8
1
 62
7
  6
CONTINUOUS
 10
165.262426
 20
172.990513
 11
166.262426
 21
166.990513
  0
LINE
  8
1
 62
7
  6
CONTINUOUS
 10
166.262426
 20
172.990513
 11
167.262426
 21
166.990513
  0
LINE
  8
1
 62
7
  6
CONTINUOUS
 10
167.262426
 20
172.990513
 11
168.262426
 21
166.990513
  0
LINE
  8
1
 62
7
  6
CONTINUOUS
 10
168.262426
 20
172.990513
 11
169.262426
 21
166.990513
  0
LINE
  8
1
 62
7
  6
CONTINUOUS
 10
169.262426
 20
172.990513
 11
170.262426
 21
166.990513
  0
LINE
  8
1
 62
7
  6
CONTINUOUS
 10
170.262426
 20
172.490513
 11
170.262426
 21
166.990513
  0
LINE
  8
1
 62
7
  6
CONTINUOUS
 10
151.262426
 20
172.490513
 11
152.345760
 21
172.490513
  0
LINE
  8
1
 62
7
  6
CONTINUOUS
 10
153.345760
 20
172.490513
 11
154.345760
 21
172.490513
  0
LINE
  8
1
 62
7
  6
CONTINUOUS
 10
155.345760
 20
172.490513
 11
156.345760
 21
172.490513
  0
LINE
  8
1
 62
7
  6
CONTINUOUS
 10
157.345760
 20
172.490513
 11
158.345760
 21
172.490513
  0
LINE
  8
1
 62
7
  6
CONTINUOUS
 10
159.345760
 20
172.490513
 11
160.345760
 21
172.490513
  0
LINE
  8
1
 62
7
  6
CONTINUOUS
 10
161.345760
 20
172.490513
 11
162.345760
 21
172.490513
  0
LINE
  8
1
 62
7
  6
CONTINUOUS
 10
163.345760
 20
172.490513
 11
164.345760
 21
172.490513
  0
LINE
  8
1
 62
7
  6
CONTINUOUS
 10
165.345760
 20
172.490513
 11
166.345760
 21
172.490513
  0
LINE
  8
1
 62
7
  6
CONTINUOUS
 10
167.345760
 20
172.490513
 11
168.345760
 21
172.490513
  0
LINE
  8
1
 62
7
  6
CONTINUOUS
 10
169.345760
 20
172.490513
 11
170.262426
 21
172.490513
  0
LINE
  8
1
 62
7
  6
CONTINUOUS
 10
168.179093
 20
167.490513
 11
169.179093
 21
167.490513
  0
LINE
  8
1
 62
7
  6
CONTINUOUS
 10
166.179093
 20
167.490513
 11
167.179093
 21
167.490513
  0
LINE
  8
1
 62
7
  6
CONTINUOUS
 10
164.278666
 20
167.490513
 11
165.179093
 21
167.490513
  0
LINE
  8
1
 62
7
  6
CONTINUOUS
 10
162.179093
 20
167.490513
 11
163.179093
 21
167.490513
  0
LINE
  8
1
 62
7
  6
CONTINUOUS
 10
160.179093
 20
167.490513
 11
161.179093
 21
167.490513
  0
LINE
  8
1
 62
7
  6
CONTINUOUS
 10
158.179093
 20
167.490513
 11
159.179093
 21
167.490513
  0
LINE
  8
1
 62
7
  6
CONTINUOUS
 10
156.179093
 20
167.490513
 11
157.179093
 21
167.490513
  0
LINE
  8
1
 62
7
  6
CONTINUOUS
 10
154.179093
 20
167.490513
 11
155.179093
 21
167.490513
  0
LINE
  8
1
 62
7
  6
CONTINUOUS
 10
152.278666
 20
167.490513
 11
153.179093
 21
167.490513
  0
LINE
  8
1
 62
7
  6
CONTINUOUS
 10
151.262426
 20
172.490513
 11
152.363214
 21
166.986577
  0
LINE
  8
1
 62
7
  6
CONTINUOUS
 10
151.262426
 20
167.490513
 11
151.349045
 21
166.990513
  0
LINE
  8
1
 62
7
  6
CONTINUOUS
 10
151.349045
 20
166.990513
 11
152.362426
 21
166.990513
  0
LINE
  8
1
 62
7
  6
CONTINUOUS
 10
152.253691
 20
167.490513
 11
152.262426
 21
167.490513
  0
LINE
  8
1
 62
7
  6
CONTINUOUS
 10
134.762426
 20
165.990513
 11
134.762426
 21
174.990513
  0
LINE
  8
1
 62
7
  6
CONTINUOUS
 10
134.762426
 20
165.990513
 11
129.262426
 21
165.990513
  0
LINE
  8
1
 62
7
  6
CONTINUOUS
 10
134.762426
 20
173.990513
 11
129.262426
 21
173.990513
  0
LINE
  8
1
 62
7
  6
DASHDOT
 10
140.762426
 20
171.527602
 11
140.762426
 21
168.489512
  0
CIRCLE
  8
1
 62
7
  6
CONTINUOUS
 10
140.762426
 20
169.990513
 40
1.000000
  0
CIRCLE
  8
1
 62
7
  6
CONTINUOUS
 10
140.762426
 20
169.990513
 40
0.782631
  0
LINE
  8
1
 62
7
  6
DASHDOT
 10
129.188066
 20
169.990513
 11
179.321576
 21
169.990513
  0
LINE
  8
1
 62
7
  6
DASHDOT
 10
50.839336
 20
169.990513
 11
129.188066
 21
169.990513
  0
TEXT
  8
3
 62
214
  6
DOT
 10
83.216781
 20
120.952738
 40
4.000000
 41
1.000000
  1
重量１３０ｇ
  7
KANJI
 50
0.000000
 51
0.000000
  0
LINE
  8
3
 62
214
  6
CONTINUOUS
 10
80.268212
 20
178.445205
 11
90.733330
 21
198.359176
  0
LINE
  8
3
 62
214
  6
CONTINUOUS
 10
90.733330
 20
198.359176
 11
104.663632
 21
198.359176
  0
TEXT
  8
3
 62
214
  6
CONTINUOUS
 10
90.663632
 20
198.181476
 40
4.000000
 41
0.500000
  1
ｾﾝｻﾍｯﾄﾞ
  7
KANJI
 50
0.000000
 51
30.000000
  0
LINE
  8
3
 62
214
  6
CONTINUOUS
 10
80.268212
 20
178.445205
 11
80.708676
 21
180.396100
  0
LINE
  8
3
 62
214
  6
CONTINUOUS
 10
80.268212
 20
178.445205
 11
81.625112
 21
179.914498
  0
LINE
  8
3
 62
214
  6
CONTINUOUS
 10
80.708676
 20
180.396100
 11
81.625112
 21
179.914498
  0
LINE
  8
3
 62
214
  6
CONTINUOUS
 10
80.492882
 20
178.872728
 11
80.713114
 21
179.848176
  0
LINE
  8
3
 62
214
  6
CONTINUOUS
 10
80.492882
 20
178.872728
 11
81.171332
 21
179.607375
  0
LINE
  8
3
 62
214
  6
CONTINUOUS
 10
80.713114
 20
179.848176
 11
81.171332
 21
179.607375
  0
LINE
  8
3
 62
214
  6
CONTINUOUS
 10
72.404824
 20
176.525260
 11
63.042977
 21
198.310632
  0
LINE
  8
3
 62
214
  6
CONTINUOUS
 10
63.042977
 20
198.310632
 11
53.788367
 21
198.310632
  0
TEXT
  8
3
 62
214
  6
CONTINUOUS
 10
53.788367
 20
198.310632
 40
4.000000
 41
0.500000
  1
ﾚﾝｽﾞ
  7
KANJI
 50
0.000000
 51
30.000000
  0
LINE
  8
3
 62
214
  6
CONTINUOUS
 10
72.404824
 20
176.525260
 11
71.166507
 21
178.095792
  0
LINE
  8
3
 62
214
  6
CONTINUOUS
 10
72.404824
 20
176.525260
 11
72.117677
 21
178.504539
  0
LINE
  8
3
 62
214
  6
CONTINUOUS
 10
71.166507
 20
178.095792
 11
72.117677
 21
178.504539
  0
LINE
  8
3
 62
214
  6
CONTINUOUS
 10
72.214141
 20
176.968986
 11
71.594983
 21
177.754253
  0
LINE
  8
3
 62
214
  6
CONTINUOUS
 10
72.214141
 20
176.968986
 11
72.070567
 21
177.958626
  0
LINE
  8
3
 62
214
  6
CONTINUOUS
 10
71.594983
 20
177.754253
 11
72.070567
 21
177.958626
  0
LINE
  8
3
 62
214
  6
CONTINUOUS
 10
99.383987
 20
156.656646
 11
119.229285
 21
136.829323
  0
LINE
  8
3
 62
214
  6
CONTINUOUS
 10
119.229285
 20
136.829323
 11
143.408071
 21
136.829323
  0
TEXT
  8
3
 62
214
  6
CONTINUOUS
 10
119.408071
 20
136.829323
 40
4.000000
 41
0.750000
  1
　ﾍｯﾄﾞ取付穴
  7
KANJI
 50
0.000000
 51
30.000000
  0
LINE
  8
3
 62
214
  6
CONTINUOUS
 10
99.383987
 20
156.656646
 11
101.116491
 21
155.657430
  0
LINE
  8
3
 62
214
  6
CONTINUOUS
 10
99.383987
 20
156.656646
 11
100.384772
 21
154.925048
  0
LINE
  8
3
 62
214
  6
CONTINUOUS
 10
101.116491
 20
155.657430
 11
100.384772
 21
154.925048
  0
LINE
  8
3
 62
214
  6
CONTINUOUS
 10
99.725648
 20
156.315294
 11
100.591900
 21
155.815686
  0
LINE
  8
3
 62
214
  6
CONTINUOUS
 10
99.725648
 20
156.315294
 11
100.226040
 21
155.449495
  0
LINE
  8
3
 62
214
  6
CONTINUOUS
 10
100.591900
 20
155.815686
 11
100.226040
 21
155.449495
  0
LINE
  8
3
 62
214
  6
CONTINUOUS
 10
129.297490
 20
152.000000
 11
136.060635
 21
144.522692
  0
LINE
  8
3
 62
214
  6
CONTINUOUS
 10
136.060635
 20
144.522692
 11
169.466352
 21
144.522692
  0
TEXT
  8
3
 62
214
  6
CONTINUOUS
 10
141.466352
 20
144.888096
 40
4.000000
 41
0.777778
  1
R1/8計装エアー
  7
KANJI
 50
0.000000
 51
30.000000
  0
LINE
  8
3
 62
214
  6
CONTINUOUS
 10
129.297490
 20
152.000000
 11
130.977280
 21
150.914501
  0
LINE
  8
3
 62
214
  6
CONTINUOUS
 10
129.297490
 20
152.000000
 11
130.209481
 21
150.220036
  0
LINE
  8
3
 62
214
  6
CONTINUOUS
 10
130.977280
 20
150.914501
 11
130.209481
 21
150.220036
  0
LINE
  8
3
 62
214
  6
CONTINUOUS
 10
129.621463
 20
151.641817
 11
130.461357
 21
151.099068
  0
LINE
  8
3
 62
214
  6
CONTINUOUS
 10
129.621463
 20
151.641817
 11
130.077458
 21
150.751835
  0
LINE
  8
3
 62
214
  6
CONTINUOUS
 10
130.461357
 20
151.099068
 11
130.077458
 21
150.751835
  0
LINE
  8
3
 62
214
  6
CONTINUOUS
 10
164.262426
 20
166.990513
 11
172.953181
 21
151.853034
  0
LINE
  8
3
 62
214
  6
CONTINUOUS
 10
172.953181
 20
151.853034
 11
186.925319
 21
151.853034
  0
TEXT
  8
3
 62
214
  6
CONTINUOUS
 10
176.925319
 20
151.946116
 40
4.000000
 41
0.500000
  1
ﾌｧｲﾊﾞ
  7
KANJI
 50
0.000000
 51
30.000000
  0
LINE
  8
3
 62
214
  6
CONTINUOUS
 10
164.262426
 20
166.990513
 11
165.673206
 21
165.572875
  0
LINE
  8
3
 62
214
  6
CONTINUOUS
 10
164.262426
 20
166.990513
 11
164.775378
 21
165.057412
  0
LINE
  8
3
 62
214
  6
CONTINUOUS
 10
165.673206
 20
165.572875
 11
164.775378
 21
165.057412
  0
LINE
  8
3
 62
214
  6
CONTINUOUS
 10
164.502893
 20
166.571671
 11
165.208283
 21
165.862852
  0
LINE
  8
3
 62
214
  6
CONTINUOUS
 10
164.502893
 20
166.571671
 11
164.759369
 21
165.605120
  0
LINE
  8
3
 62
214
  6
CONTINUOUS
 10
165.208283
 20
165.862852
 11
164.759369
 21
165.605120
  0
TEXT
  8
3
 62
214
  6
CONTINUOUS
 10
28.274466
 20
126.373685
 40
4.000000
 41
1.000000
  1
測定距離
  7
KANJI
 50
0.000000
 51
30.000000
  0
ENDSEC
  0
EOF
