  0
SECTION
  2
HEADER
  9
$ACADVER
  1
AC1003
  9
$INSBASE
 10
0.000000
 20
0.000000
  9
$EXTMIN
 10
0.000000
 20
0.000000
  9
$EXTMAX
 10
210.000000
 20
297.000000
  9
$LIMMIN
 10
0.000000
 20
0.000000
  9
$LIMMAX
 10
210.000000
 20
297.000000
  9
$VIEWCTR
 10
105.000000
 20
148.500000
  9
$VIEWSIZE
 40
297.000000
  9
$PEXTMIN
 10
0.000000
 20
0.000000
 30
0.000000
  9
$PEXTMAX
 10
210.000000
 20
297.000000
 30
0.000000
  9
$SNAPMODE
 70
     0
  9
$SNAPUNIT
 10
1.000000
 20
1.000000
  9
$SNAPBASE
 10
0.000000
 20
0.000000
  9
$SNAPANG
 50
0.000000
  9
$SNAPISOPAIR
 70
     0
  9
$SNAPSTYLE
 70
     0
  9
$GRIDMODE
 70
     0
  9
$GRIDUNIT
 10
0.000000
 20
0.000000
  9
$ORTHOMODE
 70
     0
  9
$REGENMODE
 70
     1
  9
$FILLMODE
 70
     1
  9
$QTEXTMODE
 70
     0
  9
$DRAGMODE
 70
     2
  9
$LTSCALE
 40
0.250000
  9
$OSMODE
 70
     0
  9
$ATTMODE
 70
     1
  9
$TEXTSIZE
 40
0.200000
  9
$TRACEWID
 40
0.050000
  9
$TEXTSTYLE
  7
STANDARD
  9
$CLAYER
  8
0
  9
$CELTYPE
  6
BYLAYER
  9
$CECOLOR
 62
   256
  9
$DIMSCALE
 40
1.000000
  9
$DIMASZ
 40
1.000000
  9
$DIMEXO
 40
0.000000
  9
$DIMDLI
 40
0.500000
  9
$DIMRND
 40
0.000000
  9
$DIMDLE
 40
0.000000
  9
$DIMEXE
 40
0.000000
  9
$DIMTP
 40
0.000000
  9
$DIMTM
 40
0.000000
  9
$DIMTXT
 40
0.180000
  9
$DIMCEN
 40
0.000000
  9
$DIMTSZ
 40
0.000000
  9
$DIMTOL
 70
     0
  9
$DIMLIM
 70
     0
  9
$DIMTIH
 70
     1
  9
$DIMTOH
 70
     1
  9
$DIMSE1
 70
     0
  9
$DIMSE2
 70
     0
  9
$DIMTAD
 70
     0
  9
$DIMZIN
 70
     0
  9
$DIMBLK
  1

  9
$DIMASO
 70
     0
  9
$DIMSHO
 70
     0
  9
$DIMPOST
  1

  9
$DIMAPOST
  1

  9
$DIMALT
 70
     0
  9
$DIMALTD
 70
     0
  9
$DIMALTF
 40
25.400000
  9
$DIMLFAC
 40
1.000000
  9
$DIMTOFL
 70
     0
  9
$DIMTVP
 40
0.000000
  9
$DIMTIX
 70
     0
  9
$DIMSOXD
 70
     0
  9
$DIMSAH
 70
     0
  9
$DIMBLKL
  1

  9
$DIMBLKR
  1

  9
$LUNITS
 70
     2
  9
$LUPREC
 70
     2
  9
$AXISMODE
 70
     0
  9
$AXISUNIT
 10
1.000000
 20
1.000000
  9
$SKETCHINC
 40
0.000000
  9
$FILLETRAD
 40
0.000000
  9
$AUNITS
 70
     1
  9
$AUPREC
 70
     2
  9
$MENU
  1
ACAD
  9
$ELEVATION
 40
0.000000
  9
$THICKNESS
 40
0.000000
  9
$VIEWDIR
 10
0.000000
 20
0.000000
 30
1.000000
  9
$LIMCHECK
 70
     1
  9
$BLIPMODE
 70
     1
  9
$CHAMFERA
 40
0.000000
  9
$CHAMFERB
 40
0.000000
  9
$FASTZOOM
 70
     1
  9
$SKPOLY
 70
     0
  9
$TDCREATE
 40
0.000000
  9
$TDUPDATE
 40
0.000000
  9
$TDINDWG
 40
0.000000
  9
$TDUSRTIMER
 40
0.000000
  9
$USRTIMER
 70
     1
  9
$ANGBASE
 50
0.000000
  9
$ANGDIR
 70
     0
  9
$PDMODE
 70
     0
  9
$PDSIZE
 40
0.000000
  9
$PLINEWID
 40
0.000000
  9
$COORDS
 70
     2
  9
$USERI1
 70
     0
  9
$USERI2
 70
     0
  9
$USERI3
 70
     0
  9
$USERI4
 70
     0
  9
$USERI5
 70
     0
  9
$USERR1
 40
0.000000
  9
$USERR2
 40
0.000000
  9
$USERR3
 40
0.000000
  9
$USERR4
 40
0.000000
  9
$USERR5
 40
0.000000
  0
ENDSEC
  0
SECTION
  2
TABLES
  0
TABLE
  2
LTYPE
 70
     5
  0
LTYPE
  2
CONTINUOUS
 70
    64
  3
Solid line
 72
    65
 73
     0
 40
0.0
  0
LTYPE
  2
HIDDEN
 70
    64
  3
------------------------
 72
    65
 73
     2
 40
12.6
 49
8.4
 49
-4.2
  0
LTYPE
  2
DOT
 70
    64
  3
････････････････････････
 72
    65
 73
     2
 40
8.0
 49
6.0
 49
-2.0
  0
LTYPE
  2
DASHDOT
 70
    64
  3
--･--･--･--･--･--･--･--
 72
    65
 73
     4
 40
50.5
 49
30.0
 49
-9.0
 49
2.5
 49
-9.0
  0
LTYPE
  2
DIVIDE
 70
    64
  3
--･･--･･--･･--･･--･･--
 72
    65
 73
     6
 40
58.0
 49
30.0
 49
-9.0
 49
2.5
 49
-5.0
 49
2.5
 49
-9.0
  0
LTYPE
  2
ACAD_ISO06W100
 70
    64
  3
____ ... ____ ... ____
 72
    65
 73
     8
 40
37.5
 49
24.0
 49
-3.0
 49
0.5
 49
-3.0
 49
0.5
 49
-3.0
 49
0.5
 49
-3.0
  0
LTYPE
  2
ACAD_ISO14W100
 70
    64
  3
__ . . . __ . . . __ . . . 
 72
    65
 73
     8
 40
25.5
 49
12.0
 49
-3.0
 49
0.5
 49
-3.0
 49
0.5
 49
-3.0
 49
0.5
 49
-3.0
  0
ENDTAB
  0
TABLE
  2
LAYER
 70
4
  0
LAYER
  2
1
 70
64
 62
7
  6
CONTINUOUS
  0
LAYER
  2
2
 70
64
 62
134
  6
CONTINUOUS
  0
LAYER
  2
3
 70
64
 62
214
  6
CONTINUOUS
  0
LAYER
  2
5
 70
64
 62
94
  6
CONTINUOUS
  0
ENDTAB
  0
TABLE
  2
STYLE
 70
     2
  0
STYLE
  2
STANDARD
 70
    64
 40
0.0
 41
1.0
 50
0.0
 71
     0
 42
0.2
  3
TXT
  4

  0
STYLE
  2
KANJI
 70
    64
 40
0.0
 41
1.0
 50
0.0
 71
     0
 42
0.2
  3
TXT
  4
BIGFONT
  0
ENDTAB
  0
TABLE
  2
VIEW
 70
     0
  0
ENDTAB
  0
ENDSEC
  0
SECTION
  2
BLOCKS
  0
BLOCK
  8
2
 62
134
  6
CONTINUOUS
  2
*D1
 70
    65
 10
0.0
 20
0.0
  0
LINE
  8
2
 62
134
  6
CONTINUOUS
 10
114.451772
 20
176.984852
 11
114.451772
 21
170.000000
  0
LINE
  8
2
 62
134
  6
CONTINUOUS
 10
114.451772
 20
176.984852
 11
114.969410
 21
175.053000
  0
LINE
  8
2
 62
134
  6
CONTINUOUS
 10
114.451772
 20
176.984852
 11
113.934134
 21
175.053000
  0
LINE
  8
2
 62
134
  6
CONTINUOUS
 10
114.969410
 20
175.053000
 11
113.934134
 21
175.053000
  0
LINE
  8
2
 62
134
  6
CONTINUOUS
 10
114.451772
 20
176.501889
 11
114.710591
 21
175.535963
  0
LINE
  8
2
 62
134
  6
CONTINUOUS
 10
114.451772
 20
176.501889
 11
114.192953
 21
175.535963
  0
LINE
  8
2
 62
134
  6
CONTINUOUS
 10
114.710591
 20
175.535963
 11
114.192953
 21
175.535963
  0
LINE
  8
2
 62
134
  6
CONTINUOUS
 10
114.451772
 20
170.000000
 11
113.934134
 21
171.931852
  0
LINE
  8
2
 62
134
  6
CONTINUOUS
 10
114.451772
 20
170.000000
 11
114.969410
 21
171.931852
  0
LINE
  8
2
 62
134
  6
CONTINUOUS
 10
113.934134
 20
171.931852
 11
114.969410
 21
171.931852
  0
LINE
  8
2
 62
134
  6
CONTINUOUS
 10
114.451772
 20
170.482963
 11
114.192953
 21
171.448889
  0
LINE
  8
2
 62
134
  6
CONTINUOUS
 10
114.451772
 20
170.482963
 11
114.710591
 21
171.448889
  0
LINE
  8
2
 62
134
  6
CONTINUOUS
 10
114.192953
 20
171.448889
 11
114.710591
 21
171.448889
  0
TEXT
  8
2
 62
134
  6
CONTINUOUS
 10
113.951772
 20
172.492426
 40
4.000000
 41
0.500000
  1
7
  7
KANJI
 50
90.000000
 51
30.000000
  0
ENDBLK
  0
BLOCK
  8
2
 62
134
  6
CONTINUOUS
  2
*D2
 70
    65
 10
0.0
 20
0.0
  0
LINE
  8
2
 62
134
  6
CONTINUOUS
 10
78.000000
 20
161.838322
 11
98.000000
 21
161.838322
  0
LINE
  8
2
 62
134
  6
CONTINUOUS
 10
86.000000
 20
159.838322
 11
86.000000
 21
168.000000
  0
LINE
  8
2
 62
134
  6
CONTINUOUS
 10
90.000000
 20
159.838322
 11
90.000000
 21
178.010921
  0
LINE
  8
2
 62
134
  6
CONTINUOUS
 10
86.000000
 20
161.838322
 11
84.068148
 21
161.320684
  0
LINE
  8
2
 62
134
  6
CONTINUOUS
 10
86.000000
 20
161.838322
 11
84.068148
 21
162.355960
  0
LINE
  8
2
 62
134
  6
CONTINUOUS
 10
84.068148
 20
161.320684
 11
84.068148
 21
162.355960
  0
LINE
  8
2
 62
134
  6
CONTINUOUS
 10
85.517037
 20
161.838322
 11
84.551111
 21
161.579503
  0
LINE
  8
2
 62
134
  6
CONTINUOUS
 10
85.517037
 20
161.838322
 11
84.551111
 21
162.097141
  0
LINE
  8
2
 62
134
  6
CONTINUOUS
 10
84.551111
 20
161.579503
 11
84.551111
 21
162.097141
  0
LINE
  8
2
 62
134
  6
CONTINUOUS
 10
90.000000
 20
161.838322
 11
91.931852
 21
162.355960
  0
LINE
  8
2
 62
134
  6
CONTINUOUS
 10
90.000000
 20
161.838322
 11
91.931852
 21
161.320684
  0
LINE
  8
2
 62
134
  6
CONTINUOUS
 10
91.931852
 20
162.355960
 11
91.931852
 21
161.320684
  0
LINE
  8
2
 62
134
  6
CONTINUOUS
 10
90.482963
 20
161.838322
 11
91.448889
 21
162.097141
  0
LINE
  8
2
 62
134
  6
CONTINUOUS
 10
90.482963
 20
161.838322
 11
91.448889
 21
161.579503
  0
LINE
  8
2
 62
134
  6
CONTINUOUS
 10
91.448889
 20
162.097141
 11
91.448889
 21
161.579503
  0
TEXT
  8
2
 62
134
  6
CONTINUOUS
 10
86.814374
 20
161.838322
 40
4.000000
 41
0.500000
  1
4
  7
KANJI
 50
0.000000
 51
30.000000
  0
ENDBLK
  0
BLOCK
  8
2
 62
134
  6
CONTINUOUS
  2
*D3
 70
    65
 10
0.0
 20
0.0
  0
LINE
  8
2
 62
134
  6
CONTINUOUS
 10
90.000000
 20
161.838322
 11
110.000000
 21
161.838322
  0
LINE
  8
2
 62
134
  6
CONTINUOUS
 10
90.000000
 20
159.838322
 11
90.000000
 21
178.010921
  0
LINE
  8
2
 62
134
  6
CONTINUOUS
 10
110.000000
 20
159.838322
 11
110.000000
 21
178.198825
  0
LINE
  8
2
 62
134
  6
CONTINUOUS
 10
90.000000
 20
161.838322
 11
91.931852
 21
162.355960
  0
LINE
  8
2
 62
134
  6
CONTINUOUS
 10
90.000000
 20
161.838322
 11
91.931852
 21
161.320684
  0
LINE
  8
2
 62
134
  6
CONTINUOUS
 10
91.931852
 20
162.355960
 11
91.931852
 21
161.320684
  0
LINE
  8
2
 62
134
  6
CONTINUOUS
 10
90.482963
 20
161.838322
 11
91.448889
 21
162.097141
  0
LINE
  8
2
 62
134
  6
CONTINUOUS
 10
90.482963
 20
161.838322
 11
91.448889
 21
161.579503
  0
LINE
  8
2
 62
134
  6
CONTINUOUS
 10
91.448889
 20
162.097141
 11
91.448889
 21
161.579503
  0
LINE
  8
2
 62
134
  6
CONTINUOUS
 10
110.000000
 20
161.838322
 11
108.068148
 21
161.320684
  0
LINE
  8
2
 62
134
  6
CONTINUOUS
 10
110.000000
 20
161.838322
 11
108.068148
 21
162.355960
  0
LINE
  8
2
 62
134
  6
CONTINUOUS
 10
108.068148
 20
161.320684
 11
108.068148
 21
162.355960
  0
LINE
  8
2
 62
134
  6
CONTINUOUS
 10
109.517037
 20
161.838322
 11
108.551111
 21
161.579503
  0
LINE
  8
2
 62
134
  6
CONTINUOUS
 10
109.517037
 20
161.838322
 11
108.551111
 21
162.097141
  0
LINE
  8
2
 62
134
  6
CONTINUOUS
 10
108.551111
 20
161.579503
 11
108.551111
 21
162.097141
  0
TEXT
  8
2
 62
134
  6
CONTINUOUS
 10
97.934143
 20
161.838322
 40
4.000000
 41
0.500000
  1
20
  7
KANJI
 50
0.000000
 51
30.000000
  0
ENDBLK
  0
BLOCK
  8
2
 62
134
  6
CONTINUOUS
  2
*D4
 70
    65
 10
0.0
 20
0.0
  0
LINE
  8
2
 62
134
  6
CONTINUOUS
 10
78.231302
 20
170.000000
 11
78.231302
 21
183.000000
  0
LINE
  8
2
 62
134
  6
CONTINUOUS
 10
76.231302
 20
170.000000
 11
84.000000
 21
170.000000
  0
LINE
  8
2
 62
134
  6
CONTINUOUS
 10
76.231302
 20
183.000000
 11
84.000000
 21
183.000000
  0
LINE
  8
2
 62
134
  6
CONTINUOUS
 10
78.231302
 20
170.000000
 11
77.713664
 21
171.931852
  0
LINE
  8
2
 62
134
  6
CONTINUOUS
 10
78.231302
 20
170.000000
 11
78.748940
 21
171.931852
  0
LINE
  8
2
 62
134
  6
CONTINUOUS
 10
77.713664
 20
171.931852
 11
78.748940
 21
171.931852
  0
LINE
  8
2
 62
134
  6
CONTINUOUS
 10
78.231302
 20
170.482963
 11
77.972483
 21
171.448889
  0
LINE
  8
2
 62
134
  6
CONTINUOUS
 10
78.231302
 20
170.482963
 11
78.490121
 21
171.448889
  0
LINE
  8
2
 62
134
  6
CONTINUOUS
 10
77.972483
 20
171.448889
 11
78.490121
 21
171.448889
  0
LINE
  8
2
 62
134
  6
CONTINUOUS
 10
78.231302
 20
183.000000
 11
78.748940
 21
181.068148
  0
LINE
  8
2
 62
134
  6
CONTINUOUS
 10
78.231302
 20
183.000000
 11
77.713664
 21
181.068148
  0
LINE
  8
2
 62
134
  6
CONTINUOUS
 10
78.748940
 20
181.068148
 11
77.713664
 21
181.068148
  0
LINE
  8
2
 62
134
  6
CONTINUOUS
 10
78.231302
 20
182.517037
 11
78.490121
 21
181.551111
  0
LINE
  8
2
 62
134
  6
CONTINUOUS
 10
78.231302
 20
182.517037
 11
77.972483
 21
181.551111
  0
LINE
  8
2
 62
134
  6
CONTINUOUS
 10
78.490121
 20
181.551111
 11
77.972483
 21
181.551111
  0
TEXT
  8
2
 62
134
  6
CONTINUOUS
 10
78.231302
 20
175.145395
 40
4.000000
 41
0.500000
  1
13
  7
KANJI
 50
90.000000
 51
30.000000
  0
ENDBLK
  0
BLOCK
  8
2
 62
134
  6
CONTINUOUS
  2
*D5
 70
    65
 10
0.0
 20
0.0
  0
LINE
  8
2
 62
134
  6
CONTINUOUS
 10
54.367572
 20
170.000000
 11
54.367572
 21
190.000000
  0
LINE
  8
2
 62
134
  6
CONTINUOUS
 10
56.367572
 20
170.000000
 11
47.000000
 21
170.000000
  0
LINE
  8
2
 62
134
  6
CONTINUOUS
 10
56.367572
 20
190.000000
 11
48.000000
 21
190.000000
  0
LINE
  8
2
 62
134
  6
CONTINUOUS
 10
54.367572
 20
170.000000
 11
53.849934
 21
171.931852
  0
LINE
  8
2
 62
134
  6
CONTINUOUS
 10
54.367572
 20
170.000000
 11
54.885210
 21
171.931852
  0
LINE
  8
2
 62
134
  6
CONTINUOUS
 10
53.849934
 20
171.931852
 11
54.885210
 21
171.931852
  0
LINE
  8
2
 62
134
  6
CONTINUOUS
 10
54.367572
 20
170.482963
 11
54.108753
 21
171.448889
  0
LINE
  8
2
 62
134
  6
CONTINUOUS
 10
54.367572
 20
170.482963
 11
54.626391
 21
171.448889
  0
LINE
  8
2
 62
134
  6
CONTINUOUS
 10
54.108753
 20
171.448889
 11
54.626391
 21
171.448889
  0
LINE
  8
2
 62
134
  6
CONTINUOUS
 10
54.367572
 20
190.000000
 11
54.885210
 21
188.068148
  0
LINE
  8
2
 62
134
  6
CONTINUOUS
 10
54.367572
 20
190.000000
 11
53.849934
 21
188.068148
  0
LINE
  8
2
 62
134
  6
CONTINUOUS
 10
54.885210
 20
188.068148
 11
53.849934
 21
188.068148
  0
LINE
  8
2
 62
134
  6
CONTINUOUS
 10
54.367572
 20
189.517037
 11
54.626391
 21
188.551111
  0
LINE
  8
2
 62
134
  6
CONTINUOUS
 10
54.367572
 20
189.517037
 11
54.108753
 21
188.551111
  0
LINE
  8
2
 62
134
  6
CONTINUOUS
 10
54.626391
 20
188.551111
 11
54.108753
 21
188.551111
  0
TEXT
  8
2
 62
134
  6
CONTINUOUS
 10
54.367572
 20
177.400235
 40
4.000000
 41
0.500000
  1
20
  7
KANJI
 50
90.000000
 51
30.000000
  0
ENDBLK
  0
BLOCK
  8
2
 62
134
  6
CONTINUOUS
  2
*D6
 70
    65
 10
0.0
 20
0.0
  0
LINE
  8
2
 62
134
  6
CONTINUOUS
 10
54.367572
 20
190.000000
 11
54.367572
 21
195.000000
  0
LINE
  8
2
 62
134
  6
CONTINUOUS
 10
56.367572
 20
190.000000
 11
48.000000
 21
190.000000
  0
LINE
  8
2
 62
134
  6
CONTINUOUS
 10
56.367572
 20
195.000000
 11
47.000000
 21
195.000000
  0
LINE
  8
2
 62
134
  6
CONTINUOUS
 10
54.367572
 20
190.000000
 11
53.849934
 21
191.931852
  0
LINE
  8
2
 62
134
  6
CONTINUOUS
 10
54.367572
 20
190.000000
 11
54.885210
 21
191.931852
  0
LINE
  8
2
 62
134
  6
CONTINUOUS
 10
53.849934
 20
191.931852
 11
54.885210
 21
191.931852
  0
LINE
  8
2
 62
134
  6
CONTINUOUS
 10
54.367572
 20
190.482963
 11
54.108753
 21
191.448889
  0
LINE
  8
2
 62
134
  6
CONTINUOUS
 10
54.367572
 20
190.482963
 11
54.626391
 21
191.448889
  0
LINE
  8
2
 62
134
  6
CONTINUOUS
 10
54.108753
 20
191.448889
 11
54.626391
 21
191.448889
  0
LINE
  8
2
 62
134
  6
CONTINUOUS
 10
54.367572
 20
195.000000
 11
54.885210
 21
193.068148
  0
LINE
  8
2
 62
134
  6
CONTINUOUS
 10
54.367572
 20
195.000000
 11
53.849934
 21
193.068148
  0
LINE
  8
2
 62
134
  6
CONTINUOUS
 10
54.885210
 20
193.068148
 11
53.849934
 21
193.068148
  0
LINE
  8
2
 62
134
  6
CONTINUOUS
 10
54.367572
 20
194.517037
 11
54.626391
 21
193.551111
  0
LINE
  8
2
 62
134
  6
CONTINUOUS
 10
54.367572
 20
194.517037
 11
54.108753
 21
193.551111
  0
LINE
  8
2
 62
134
  6
CONTINUOUS
 10
54.626391
 20
193.551111
 11
54.108753
 21
193.551111
  0
TEXT
  8
2
 62
134
  6
CONTINUOUS
 10
54.367572
 20
190.891226
 40
4.000000
 41
0.500000
  1
5
  7
KANJI
 50
90.000000
 51
30.000000
  0
ENDBLK
  0
BLOCK
  8
2
 62
134
  6
CONTINUOUS
  2
*D7
 70
    65
 10
0.0
 20
0.0
  0
LINE
  8
2
 62
134
  6
CONTINUOUS
 10
34.000000
 20
201.948641
 11
46.000000
 21
201.948641
  0
LINE
  8
2
 62
134
  6
CONTINUOUS
 10
34.000000
 20
203.948641
 11
34.000000
 21
196.000000
  0
LINE
  8
2
 62
134
  6
CONTINUOUS
 10
46.000000
 20
203.948641
 11
46.000000
 21
196.000000
  0
LINE
  8
2
 62
134
  6
CONTINUOUS
 10
34.000000
 20
201.948641
 11
35.931852
 21
202.466279
  0
LINE
  8
2
 62
134
  6
CONTINUOUS
 10
34.000000
 20
201.948641
 11
35.931852
 21
201.431003
  0
LINE
  8
2
 62
134
  6
CONTINUOUS
 10
35.931852
 20
202.466279
 11
35.931852
 21
201.431003
  0
LINE
  8
2
 62
134
  6
CONTINUOUS
 10
34.482963
 20
201.948641
 11
35.448889
 21
202.207460
  0
LINE
  8
2
 62
134
  6
CONTINUOUS
 10
34.482963
 20
201.948641
 11
35.448889
 21
201.689822
  0
LINE
  8
2
 62
134
  6
CONTINUOUS
 10
35.448889
 20
202.207460
 11
35.448889
 21
201.689822
  0
LINE
  8
2
 62
134
  6
CONTINUOUS
 10
46.000000
 20
201.948641
 11
44.068148
 21
201.431003
  0
LINE
  8
2
 62
134
  6
CONTINUOUS
 10
46.000000
 20
201.948641
 11
44.068148
 21
202.466279
  0
LINE
  8
2
 62
134
  6
CONTINUOUS
 10
44.068148
 20
201.431003
 11
44.068148
 21
202.466279
  0
LINE
  8
2
 62
134
  6
CONTINUOUS
 10
45.517037
 20
201.948641
 11
44.551111
 21
201.689822
  0
LINE
  8
2
 62
134
  6
CONTINUOUS
 10
45.517037
 20
201.948641
 11
44.551111
 21
202.207460
  0
LINE
  8
2
 62
134
  6
CONTINUOUS
 10
44.551111
 20
201.689822
 11
44.551111
 21
202.207460
  0
TEXT
  8
2
 62
134
  6
CONTINUOUS
 10
37.523205
 20
201.948641
 40
4.000000
 41
0.500000
  1
12
  7
KANJI
 50
0.000000
 51
30.000000
  0
ENDBLK
  0
BLOCK
  8
2
 62
134
  6
CONTINUOUS
  2
*D8
 70
    65
 10
0.0
 20
0.0
  0
LINE
  8
2
 62
134
  6
CONTINUOUS
 10
134.686257
 20
177.000000
 11
134.686257
 21
203.954208
  0
LINE
  8
2
 62
134
  6
CONTINUOUS
 10
132.686257
 20
195.000000
 11
134.877419
 21
195.000000
  0
LINE
  8
2
 62
134
  6
CONTINUOUS
 10
134.686257
 20
185.000000
 11
135.203895
 21
183.068148
  0
LINE
  8
2
 62
134
  6
CONTINUOUS
 10
134.686257
 20
185.000000
 11
134.168619
 21
183.068148
  0
LINE
  8
2
 62
134
  6
CONTINUOUS
 10
135.203895
 20
183.068148
 11
134.168619
 21
183.068148
  0
LINE
  8
2
 62
134
  6
CONTINUOUS
 10
134.686257
 20
184.517037
 11
134.945076
 21
183.551111
  0
LINE
  8
2
 62
134
  6
CONTINUOUS
 10
134.686257
 20
184.517037
 11
134.427438
 21
183.551111
  0
LINE
  8
2
 62
134
  6
CONTINUOUS
 10
134.945076
 20
183.551111
 11
134.427438
 21
183.551111
  0
LINE
  8
2
 62
134
  6
CONTINUOUS
 10
134.686257
 20
195.000000
 11
134.168619
 21
196.931852
  0
LINE
  8
2
 62
134
  6
CONTINUOUS
 10
134.686257
 20
195.000000
 11
135.203895
 21
196.931852
  0
LINE
  8
2
 62
134
  6
CONTINUOUS
 10
134.168619
 20
196.931852
 11
135.203895
 21
196.931852
  0
LINE
  8
2
 62
134
  6
CONTINUOUS
 10
134.686257
 20
195.482963
 11
134.427438
 21
196.448889
  0
LINE
  8
2
 62
134
  6
CONTINUOUS
 10
134.686257
 20
195.482963
 11
134.945076
 21
196.448889
  0
LINE
  8
2
 62
134
  6
CONTINUOUS
 10
134.427438
 20
196.448889
 11
134.945076
 21
196.448889
  0
TEXT
  8
2
 62
134
  6
CONTINUOUS
 10
134.686257
 20
194.954208
 40
4.000000
 41
0.666667
  1
φ10
  7
KANJI
 50
90.000000
 51
30.000000
  0
ENDBLK
  0
BLOCK
  8
2
 62
134
  6
CONTINUOUS
  2
*D9
 70
    65
 10
0.0
 20
0.0
  0
LINE
  8
2
 62
134
  6
CONTINUOUS
 10
159.000000
 20
179.000000
 11
159.000000
 21
203.181467
  0
LINE
  8
2
 62
134
  6
CONTINUOUS
 10
157.000000
 20
187.000000
 11
160.000000
 21
187.000000
  0
LINE
  8
2
 62
134
  6
CONTINUOUS
 10
157.000000
 20
193.000000
 11
159.000000
 21
193.000000
  0
LINE
  8
2
 62
134
  6
CONTINUOUS
 10
159.000000
 20
187.000000
 11
159.517638
 21
185.068148
  0
LINE
  8
2
 62
134
  6
CONTINUOUS
 10
159.000000
 20
187.000000
 11
158.482362
 21
185.068148
  0
LINE
  8
2
 62
134
  6
CONTINUOUS
 10
159.517638
 20
185.068148
 11
158.482362
 21
185.068148
  0
LINE
  8
2
 62
134
  6
CONTINUOUS
 10
159.000000
 20
186.517037
 11
159.258819
 21
185.551111
  0
LINE
  8
2
 62
134
  6
CONTINUOUS
 10
159.000000
 20
186.517037
 11
158.741181
 21
185.551111
  0
LINE
  8
2
 62
134
  6
CONTINUOUS
 10
159.258819
 20
185.551111
 11
158.741181
 21
185.551111
  0
LINE
  8
2
 62
134
  6
CONTINUOUS
 10
159.000000
 20
193.000000
 11
158.482362
 21
194.931852
  0
LINE
  8
2
 62
134
  6
CONTINUOUS
 10
159.000000
 20
193.000000
 11
159.517638
 21
194.931852
  0
LINE
  8
2
 62
134
  6
CONTINUOUS
 10
158.482362
 20
194.931852
 11
159.517638
 21
194.931852
  0
LINE
  8
2
 62
134
  6
CONTINUOUS
 10
159.000000
 20
193.482963
 11
158.741181
 21
194.448889
  0
LINE
  8
2
 62
134
  6
CONTINUOUS
 10
159.000000
 20
193.482963
 11
159.258819
 21
194.448889
  0
LINE
  8
2
 62
134
  6
CONTINUOUS
 10
158.741181
 20
194.448889
 11
159.258819
 21
194.448889
  0
TEXT
  8
2
 62
134
  6
CONTINUOUS
 10
159.000000
 20
196.181467
 40
4.000000
 41
0.750000
  1
φ6
  7
KANJI
 50
90.000000
 51
30.000000
  0
ENDBLK
  0
BLOCK
  8
2
 62
134
  6
CONTINUOUS
  2
*D10
 70
    65
 10
0.0
 20
0.0
  0
LINE
  8
2
 62
134
  6
CONTINUOUS
 10
86.000000
 20
204.338784
 11
126.000000
 21
204.338784
  0
LINE
  8
2
 62
134
  6
CONTINUOUS
 10
86.000000
 20
206.338784
 11
86.000000
 21
197.000000
  0
LINE
  8
2
 62
134
  6
CONTINUOUS
 10
126.000000
 20
206.338784
 11
126.000000
 21
197.000000
  0
LINE
  8
2
 62
134
  6
CONTINUOUS
 10
86.000000
 20
204.338784
 11
87.931852
 21
204.856422
  0
LINE
  8
2
 62
134
  6
CONTINUOUS
 10
86.000000
 20
204.338784
 11
87.931852
 21
203.821146
  0
LINE
  8
2
 62
134
  6
CONTINUOUS
 10
87.931852
 20
204.856422
 11
87.931852
 21
203.821146
  0
LINE
  8
2
 62
134
  6
CONTINUOUS
 10
86.482963
 20
204.338784
 11
87.448889
 21
204.597603
  0
LINE
  8
2
 62
134
  6
CONTINUOUS
 10
86.482963
 20
204.338784
 11
87.448889
 21
204.079965
  0
LINE
  8
2
 62
134
  6
CONTINUOUS
 10
87.448889
 20
204.597603
 11
87.448889
 21
204.079965
  0
LINE
  8
2
 62
134
  6
CONTINUOUS
 10
126.000000
 20
204.338784
 11
124.068148
 21
203.821146
  0
LINE
  8
2
 62
134
  6
CONTINUOUS
 10
126.000000
 20
204.338784
 11
124.068148
 21
204.856422
  0
LINE
  8
2
 62
134
  6
CONTINUOUS
 10
124.068148
 20
203.821146
 11
124.068148
 21
204.856422
  0
LINE
  8
2
 62
134
  6
CONTINUOUS
 10
125.517037
 20
204.338784
 11
124.551111
 21
204.079965
  0
LINE
  8
2
 62
134
  6
CONTINUOUS
 10
125.517037
 20
204.338784
 11
124.551111
 21
204.597603
  0
LINE
  8
2
 62
134
  6
CONTINUOUS
 10
124.551111
 20
204.079965
 11
124.551111
 21
204.597603
  0
TEXT
  8
2
 62
134
  6
CONTINUOUS
 10
104.157026
 20
204.338784
 40
4.000000
 41
0.500000
  1
40
  7
KANJI
 50
0.000000
 51
30.000000
  0
ENDBLK
  0
BLOCK
  8
2
 62
134
  6
CONTINUOUS
  2
*D11
 70
    65
 10
0.0
 20
0.0
  0
LINE
  8
2
 62
134
  6
CONTINUOUS
 10
126.000000
 20
204.338784
 11
148.000000
 21
204.338784
  0
LINE
  8
2
 62
134
  6
CONTINUOUS
 10
126.000000
 20
206.338784
 11
126.000000
 21
197.000000
  0
LINE
  8
2
 62
134
  6
CONTINUOUS
 10
148.000000
 20
206.338784
 11
148.000000
 21
197.000000
  0
LINE
  8
2
 62
134
  6
CONTINUOUS
 10
126.000000
 20
204.338784
 11
127.931852
 21
204.856422
  0
LINE
  8
2
 62
134
  6
CONTINUOUS
 10
126.000000
 20
204.338784
 11
127.931852
 21
203.821146
  0
LINE
  8
2
 62
134
  6
CONTINUOUS
 10
127.931852
 20
204.856422
 11
127.931852
 21
203.821146
  0
LINE
  8
2
 62
134
  6
CONTINUOUS
 10
126.482963
 20
204.338784
 11
127.448889
 21
204.597603
  0
LINE
  8
2
 62
134
  6
CONTINUOUS
 10
126.482963
 20
204.338784
 11
127.448889
 21
204.079965
  0
LINE
  8
2
 62
134
  6
CONTINUOUS
 10
127.448889
 20
204.597603
 11
127.448889
 21
204.079965
  0
LINE
  8
2
 62
134
  6
CONTINUOUS
 10
148.000000
 20
204.338784
 11
146.068148
 21
203.821146
  0
LINE
  8
2
 62
134
  6
CONTINUOUS
 10
148.000000
 20
204.338784
 11
146.068148
 21
204.856422
  0
LINE
  8
2
 62
134
  6
CONTINUOUS
 10
146.068148
 20
203.821146
 11
146.068148
 21
204.856422
  0
LINE
  8
2
 62
134
  6
CONTINUOUS
 10
147.517037
 20
204.338784
 11
146.551111
 21
204.079965
  0
LINE
  8
2
 62
134
  6
CONTINUOUS
 10
147.517037
 20
204.338784
 11
146.551111
 21
204.597603
  0
LINE
  8
2
 62
134
  6
CONTINUOUS
 10
146.551111
 20
204.079965
 11
146.551111
 21
204.597603
  0
TEXT
  8
2
 62
134
  6
CONTINUOUS
 10
133.860160
 20
204.338784
 40
4.000000
 41
0.500000
  1
22
  7
KANJI
 50
0.000000
 51
30.000000
  0
ENDBLK
  0
ENDSEC
  0
SECTION
  2
ENTITIES
  0
TEXT
  8
5
 62
94
  6
CONTINUOUS
 10
123.572985
 20
23.251884
 40
1.750000
 41
4.000000
  1
製図
  7
KANJI
 50
-90.000000
 51
0.000000
  0
TEXT
  8
5
 62
94
  6
CONTINUOUS
 10
143.405766
 20
23.087976
 40
1.750000
 41
4.000000
  1
図番
  7
KANJI
 50
-90.000000
 51
0.000000
  0
TEXT
  8
5
 62
94
  6
CONTINUOUS
 10
143.405766
 20
36.364467
 40
1.750000
 41
4.000000
  1
図　名
  7
KANJI
 50
-90.000000
 51
0.000000
  0
TEXT
  8
5
 62
94
  6
CONTINUOUS
 10
78.498481
 20
30.955526
 40
1.750000
 41
4.000000
  1
日付
  7
KANJI
 50
-90.000000
 51
0.000000
  0
TEXT
  8
5
 62
94
  6
CONTINUOUS
 10
113.574640
 20
31.119433
 40
1.750000
 41
4.000000
  1
図法
  7
KANJI
 50
-90.000000
 51
0.000000
  0
TEXT
  8
5
 62
94
  6
CONTINUOUS
 10
113.410733
 20
39.150890
 40
1.750000
 41
4.000000
  1
尺度
  7
KANJI
 50
-90.000000
 51
0.000000
  0
TEXT
  8
5
 62
94
  6
CONTINUOUS
 10
78.498481
 20
38.986983
 40
1.750000
 41
4.000000
  1
公差
  7
KANJI
 50
-90.000000
 51
0.000000
  0
TEXT
  8
5
 62
94
  6
CONTINUOUS
 10
78.498481
 20
23.087976
 40
1.750000
 41
4.000000
  1
承認
  7
KANJI
 50
-90.000000
 51
0.000000
  0
TEXT
  8
5
 62
94
  6
CONTINUOUS
 10
103.576296
 20
23.087976
 40
1.750000
 41
4.000000
  1
設計
  7
KANJI
 50
-90.000000
 51
0.000000
  0
TEXT
  8
5
 62
94
  6
CONTINUOUS
 10
97.020004
 20
9.155857
 40
4.500000
 41
1.888889
  1
ジャパンセンサー株式会社
  7
KANJI
 50
0.000000
 51
0.000000
  0
LINE
  8
5
 62
94
  6
CONTINUOUS
 10
197.610236
 20
7.600394
 11
197.610236
 21
282.600394
  0
LINE
  8
5
 62
94
  6
CONTINUOUS
 10
197.610236
 20
282.600394
 11
12.610236
 21
282.600394
  0
LINE
  8
5
 62
94
  6
CONTINUOUS
 10
12.610236
 20
282.600394
 11
12.610236
 21
7.600394
  0
LINE
  8
5
 62
94
  6
CONTINUOUS
 10
12.610236
 20
7.600394
 11
197.610236
 21
7.600394
  0
LINE
  8
5
 62
94
  6
CONTINUOUS
 10
77.610236
 20
39.600394
 11
197.610236
 21
39.600394
  0
LINE
  8
5
 62
94
  6
CONTINUOUS
 10
77.610236
 20
7.600394
 11
77.610236
 21
39.600394
  0
LINE
  8
5
 62
94
  6
CONTINUOUS
 10
197.610236
 20
15.600394
 11
77.610236
 21
15.600394
  0
LINE
  8
5
 62
94
  6
CONTINUOUS
 10
142.610236
 20
39.600394
 11
142.610236
 21
15.600394
  0
LINE
  8
5
 62
94
  6
CONTINUOUS
 10
197.610236
 20
23.600394
 11
77.610236
 21
23.600394
  0
LINE
  8
5
 62
94
  6
CONTINUOUS
 10
147.610236
 20
15.600394
 11
147.610236
 21
39.600394
  0
LINE
  8
5
 62
94
  6
CONTINUOUS
 10
117.610236
 20
39.600394
 11
117.610236
 21
23.600394
  0
LINE
  8
5
 62
94
  6
CONTINUOUS
 10
82.610236
 20
15.600394
 11
82.610236
 21
39.600394
  0
LINE
  8
5
 62
94
  6
CONTINUOUS
 10
77.610236
 20
31.600394
 11
142.610236
 21
31.600394
  0
LINE
  8
5
 62
94
  6
CONTINUOUS
 10
112.610236
 20
39.600394
 11
112.610236
 21
23.600394
  0
LINE
  8
5
 62
94
  6
CONTINUOUS
 10
102.610236
 20
15.600394
 11
102.610236
 21
23.600394
  0
LINE
  8
5
 62
94
  6
CONTINUOUS
 10
122.610236
 20
15.600394
 11
122.610236
 21
23.600394
  0
LINE
  8
5
 62
94
  6
CONTINUOUS
 10
107.610236
 20
23.600394
 11
107.610236
 21
15.600394
  0
LINE
  8
5
 62
94
  6
CONTINUOUS
 10
127.610236
 20
23.600394
 11
127.610236
 21
15.600394
  0
TEXT
  8
5
 62
94
  6
CONTINUOUS
 10
122.589541
 20
33.250228
 40
4.000000
 41
1.000000
  1
１／１
  7
KANJI
 50
0.000000
 51
0.000000
  0
TEXT
  8
5
 62
94
  6
CONTINUOUS
 10
121.606097
 20
24.890957
 40
4.000000
 41
1.000000
  1
三角法
  7
KANJI
 50
0.000000
 51
0.000000
  0
TEXT
  8
5
 62
94
  6
DOT
 10
154.419537
 20
25.870571
 40
4.000000
 41
1.000000
  1
センサヘッド外形図
  7
KANJI
 50
0.000000
 51
0.000000
  0
LINE
  8
5
 62
94
  6
CONTINUOUS
 10
149.121186
 20
31.776406
 11
195.892840
 21
31.776406
  0
TEXT
  8
5
 62
94
  6
CONTINUOUS
 10
111.119218
 20
17.598748
 40
4.000000
 41
1.000000
  1
須藤
  7
KANJI
 50
0.000000
 51
0.000000
  0
TEXT
  8
5
 62
94
  6
CONTINUOUS
 10
131.119218
 20
17.598748
 40
4.000000
 41
1.000000
  1
須藤
  7
KANJI
 50
0.000000
 51
0.000000
  0
TEXT
  8
5
 62
94
  6
DOT
 10
148.573081
 20
17.393209
 40
4.000000
 41
1.000000
  1
０１５－８７７－Ａ１０４
  7
KANJI
 50
0.000000
 51
0.000000
  0
TEXT
  8
5
 62
94
  6
CONTINUOUS
 10
87.148745
 20
25.637626
 40
4.000000
 41
0.500000
  1
2006/08/25
  7
KANJI
 50
0.000000
 51
0.000000
  0
TEXT
  8
5
 62
94
  6
DOT
 10
154.278012
 20
32.928742
 40
4.000000
 41
0.571429
  1
FTH9-□S
  7
KANJI
 50
0.000000
 51
0.000000
  0
LINE
  8
1
 62
7
  6
DASHDOT
 10
34.294291
 20
190.000000
 11
59.287894
 21
190.000000
  0
LINE
  8
2
 62
134
  6
CONTINUOUS
 10
52.000000
 20
190.000000
 11
58.995571
 21
190.000000
  0
ARC
  8
1
 62
7
  6
DOT
 10
102.000000
 20
190.000000
 40
5.000000
 50
-36.869898
 51
36.869898
  0
ARC
  8
1
 62
7
  6
DOT
 10
110.000000
 20
190.000000
 40
5.000000
 50
143.130102
 51
-143.130102
  0
LINE
  8
1
 62
7
  6
DOT
 10
106.330127
 20
192.500000
 11
126.000000
 21
190.000000
  0
LINE
  8
1
 62
7
  6
DOT
 10
106.330127
 20
187.500000
 11
126.000000
 21
190.000000
  0
LINE
  8
1
 62
7
  6
DOT
 10
105.669873
 20
192.500000
 11
94.683440
 21
192.500000
  0
LINE
  8
1
 62
7
  6
DOT
 10
105.669873
 20
187.500000
 11
94.683440
 21
187.500000
  0
LINE
  8
1
 62
7
  6
DOT
 10
94.683440
 20
193.000000
 11
86.000000
 21
193.000000
  0
LINE
  8
1
 62
7
  6
DOT
 10
94.683440
 20
187.000000
 11
86.000000
 21
187.000000
  0
LINE
  8
1
 62
7
  6
DOT
 10
126.000000
 20
181.864000
 11
116.899975
 21
181.864000
  0
LINE
  8
1
 62
7
  6
DOT
 10
116.899975
 20
181.864000
 11
116.899975
 21
172.136000
  0
LINE
  8
1
 62
7
  6
DOT
 10
116.899975
 20
172.136000
 11
126.000000
 21
172.136000
  0
LINE
  8
1
 62
7
  6
DOT
 10
126.000000
 20
181.283000
 11
116.899975
 21
181.283000
  0
LINE
  8
1
 62
7
  6
DOT
 10
126.000000
 20
172.717000
 11
116.899975
 21
172.717000
  0
LINE
  8
1
 62
7
  6
DOT
 10
86.000000
 20
193.501092
 11
94.683440
 21
193.501092
  0
LINE
  8
1
 62
7
  6
DOT
 10
86.000000
 20
186.485344
 11
94.610359
 21
186.485344
  0
LINE
  8
1
 62
7
  6
DOT
 10
94.902682
 20
192.989527
 11
94.902682
 21
186.923828
  0
LINE
  8
1
 62
7
  6
DOT
 10
93.294906
 20
186.485344
 11
93.294906
 21
176.984852
  0
LINE
  8
1
 62
7
  6
DOT
 10
93.294906
 20
176.984852
 11
133.562377
 21
176.984852
  0
LINE
  8
1
 62
7
  6
DOT
 10
94.464198
 20
193.501092
 11
94.902682
 21
192.989527
  0
LINE
  8
1
 62
7
  6
DOT
 10
94.902682
 20
187.069990
 11
94.464198
 21
186.412263
  0
LINE
  8
1
 62
7
  6
CONTINUOUS
 10
86.000000
 20
195.000000
 11
86.000000
 21
170.000000
  0
LINE
  8
1
 62
7
  6
CONTINUOUS
 10
86.000000
 20
170.000000
 11
126.000000
 21
170.000000
  0
LINE
  8
1
 62
7
  6
CONTINUOUS
 10
126.000000
 20
170.000000
 11
126.000000
 21
195.000000
  0
LINE
  8
1
 62
7
  6
CONTINUOUS
 10
126.000000
 20
195.000000
 11
86.000000
 21
195.000000
  0
LINE
  8
1
 62
7
  6
CONTINUOUS
 10
86.000000
 20
194.000000
 11
126.000000
 21
194.000000
  0
LINE
  8
1
 62
7
  6
CONTINUOUS
 10
86.000000
 20
171.000000
 11
126.000000
 21
171.000000
  0
CIRCLE
  8
1
 62
7
  6
CONTINUOUS
 10
90.000000
 20
183.000000
 40
1.750000
  0
CIRCLE
  8
1
 62
7
  6
CONTINUOUS
 10
110.000000
 20
183.000000
 40
1.750000
  0
LINE
  8
1
 62
7
  6
DASHDOT
 10
40.000000
 20
198.402067
 11
40.000000
 21
165.661909
  0
LINE
  8
1
 62
7
  6
CONTINUOUS
 10
45.000000
 20
195.000000
 11
46.000000
 21
194.000000
  0
LINE
  8
1
 62
7
  6
CONTINUOUS
 10
46.000000
 20
194.000000
 11
46.000000
 21
171.000000
  0
LINE
  8
1
 62
7
  6
CONTINUOUS
 10
46.000000
 20
171.000000
 11
45.000000
 21
170.000000
  0
LINE
  8
1
 62
7
  6
CONTINUOUS
 10
45.000000
 20
170.000000
 11
35.000000
 21
170.000000
  0
LINE
  8
1
 62
7
  6
CONTINUOUS
 10
35.000000
 20
170.000000
 11
34.000000
 21
171.000000
  0
LINE
  8
1
 62
7
  6
CONTINUOUS
 10
34.000000
 20
171.000000
 11
34.000000
 21
194.000000
  0
LINE
  8
1
 62
7
  6
CONTINUOUS
 10
45.000000
 20
195.000000
 11
35.000000
 21
195.000000
  0
LINE
  8
1
 62
7
  6
CONTINUOUS
 10
34.000000
 20
194.000000
 11
35.000000
 21
195.000000
  0
CIRCLE
  8
1
 62
7
  6
CONTINUOUS
 10
40.000000
 20
190.000000
 40
3.050000
  0
CIRCLE
  8
1
 62
7
  6
CONTINUOUS
 10
40.000000
 20
190.000000
 40
3.500000
  0
CIRCLE
  8
1
 62
7
  6
CONTINUOUS
 10
40.000000
 20
190.000000
 40
4.000000
  0
LINE
  8
1
 62
7
  6
DOT
 10
62.000000
 20
195.000000
 11
61.000000
 21
194.000000
  0
LINE
  8
1
 62
7
  6
DOT
 10
61.000000
 20
194.000000
 11
61.000000
 21
186.000000
  0
LINE
  8
1
 62
7
  6
DOT
 10
61.000000
 20
186.000000
 11
62.000000
 21
185.000000
  0
LINE
  8
1
 62
7
  6
DOT
 10
62.000000
 20
195.000000
 11
62.000000
 21
185.000000
  0
LINE
  8
1
 62
7
  6
DOT
 10
86.000000
 20
195.000000
 11
62.000000
 21
195.000000
  0
LINE
  8
1
 62
7
  6
DOT
 10
86.000000
 20
185.000000
 11
62.000000
 21
185.000000
  0
DIMENSION
  8
2
 62
134
  6
CONTINUOUS
  2
*D1
 10
114.451772
 20
176.984852
 11
113.951772
 21
173.492426
 70
     0
  1
7
 13
114.451772
 23
176.984852
 14
114.451772
 24
170.000000
 50
-90.000000
  0
LINE
  8
1
 62
7
  6
DASHDOT
 10
31.766035
 20
183.000000
 11
47.764764
 21
183.000000
  0
LINE
  8
1
 62
7
  6
DASHDOT
 10
90.000000
 20
187.220719
 11
90.000000
 21
179.259308
  0
LINE
  8
1
 62
7
  6
DASHDOT
 10
110.000000
 20
187.220719
 11
110.000000
 21
178.601646
  0
LINE
  8
1
 62
7
  6
DASHDOT
 10
113.932945
 20
183.000000
 11
85.089775
 21
183.000000
  0
DIMENSION
  8
2
 62
134
  6
CONTINUOUS
  2
*D2
 10
86.000000
 20
161.838322
 11
87.814374
 21
161.838322
 70
     0
  1
4
 13
86.000000
 23
168.000000
 14
90.000000
 24
178.010921
 50
0.000000
  0
DIMENSION
  8
2
 62
134
  6
CONTINUOUS
  2
*D3
 10
90.000000
 20
161.838322
 11
99.934143
 21
161.838322
 70
     0
  1
20
 13
90.000000
 23
178.010921
 14
110.000000
 24
178.198825
 50
0.000000
  0
DIMENSION
  8
2
 62
134
  6
CONTINUOUS
  2
*D4
 10
78.231302
 20
170.000000
 11
78.231302
 21
177.145395
 70
     0
  1
13
 13
84.000000
 23
170.000000
 14
84.000000
 24
183.000000
 50
90.000000
  0
DIMENSION
  8
2
 62
134
  6
CONTINUOUS
  2
*D5
 10
54.367572
 20
170.000000
 11
54.367572
 21
179.400235
 70
     0
  1
20
 13
47.000000
 23
170.000000
 14
48.000000
 24
190.000000
 50
90.000000
  0
DIMENSION
  8
2
 62
134
  6
CONTINUOUS
  2
*D6
 10
54.367572
 20
190.000000
 11
54.367572
 21
191.891226
 70
     0
  1
5
 13
48.000000
 23
190.000000
 14
47.000000
 24
195.000000
 50
90.000000
  0
DIMENSION
  8
2
 62
134
  6
CONTINUOUS
  2
*D7
 10
34.000000
 20
201.948641
 11
39.523205
 21
201.948641
 70
     0
  1
12
 13
34.000000
 23
196.000000
 14
46.000000
 24
196.000000
 50
0.000000
  0
LINE
  8
1
 62
7
  6
DASHDOT
 10
59.764764
 20
190.000000
 11
128.010949
 21
190.000000
  0
LINE
  8
1
 62
7
  6
DASHDOT
 10
144.250000
 20
191.537088
 11
144.250000
 21
188.498999
  0
CIRCLE
  8
1
 62
7
  6
CONTINUOUS
 10
144.250000
 20
190.000000
 40
1.000000
  0
CIRCLE
  8
1
 62
7
  6
CONTINUOUS
 10
144.250000
 20
190.000000
 40
0.782631
  0
LINE
  8
1
 62
7
  6
CONTINUOUS
 10
131.500000
 20
195.000000
 11
148.000000
 21
195.000000
  0
LINE
  8
1
 62
7
  6
CONTINUOUS
 10
148.000000
 20
195.000000
 11
148.000000
 21
190.000000
  0
LINE
  8
1
 62
7
  6
CONTINUOUS
 10
131.500000
 20
186.000000
 11
131.500000
 21
185.000000
  0
LINE
  8
1
 62
7
  6
CONTINUOUS
 10
131.500000
 20
185.000000
 11
148.000000
 21
185.000000
  0
LINE
  8
1
 62
7
  6
CONTINUOUS
 10
148.000000
 20
185.000000
 11
148.000000
 21
190.000000
  0
LINE
  8
1
 62
7
  6
CONTINUOUS
 10
148.000000
 20
185.500000
 11
148.000000
 21
194.500000
  0
LINE
  8
1
 62
7
  6
CONTINUOUS
 10
149.000000
 20
193.000000
 11
150.000000
 21
193.000000
  0
LINE
  8
1
 62
7
  6
CONTINUOUS
 10
151.000000
 20
193.000000
 11
152.000000
 21
193.000000
  0
LINE
  8
1
 62
7
  6
CONTINUOUS
 10
153.000000
 20
193.000000
 11
154.000000
 21
193.000000
  0
LINE
  8
1
 62
7
  6
CONTINUOUS
 10
155.000000
 20
193.000000
 11
156.000000
 21
193.000000
  0
LINE
  8
1
 62
7
  6
CONTINUOUS
 10
157.000000
 20
193.000000
 11
158.000000
 21
193.000000
  0
LINE
  8
1
 62
7
  6
CONTINUOUS
 10
159.000000
 20
193.000000
 11
160.000000
 21
193.000000
  0
LINE
  8
1
 62
7
  6
CONTINUOUS
 10
161.000000
 20
193.000000
 11
162.000000
 21
193.000000
  0
LINE
  8
1
 62
7
  6
CONTINUOUS
 10
163.000000
 20
193.000000
 11
164.000000
 21
193.000000
  0
LINE
  8
1
 62
7
  6
CONTINUOUS
 10
165.000000
 20
193.000000
 11
166.000000
 21
193.000000
  0
LINE
  8
1
 62
7
  6
CONTINUOUS
 10
167.000000
 20
192.500000
 11
167.000000
 21
193.000000
  0
LINE
  8
1
 62
7
  6
CONTINUOUS
 10
150.000000
 20
187.000000
 11
151.000000
 21
187.000000
  0
LINE
  8
1
 62
7
  6
CONTINUOUS
 10
152.000000
 20
187.000000
 11
153.000000
 21
187.000000
  0
LINE
  8
1
 62
7
  6
CONTINUOUS
 10
154.000000
 20
187.000000
 11
155.000000
 21
187.000000
  0
LINE
  8
1
 62
7
  6
CONTINUOUS
 10
156.000000
 20
187.000000
 11
157.000000
 21
187.000000
  0
LINE
  8
1
 62
7
  6
CONTINUOUS
 10
158.000000
 20
187.000000
 11
159.000000
 21
187.000000
  0
LINE
  8
1
 62
7
  6
CONTINUOUS
 10
160.000000
 20
187.000000
 11
161.000000
 21
187.000000
  0
LINE
  8
1
 62
7
  6
CONTINUOUS
 10
162.000000
 20
187.000000
 11
163.000000
 21
187.000000
  0
LINE
  8
1
 62
7
  6
CONTINUOUS
 10
164.000000
 20
187.000000
 11
165.000000
 21
187.000000
  0
LINE
  8
1
 62
7
  6
CONTINUOUS
 10
166.000000
 20
187.000000
 11
167.000000
 21
187.000000
  0
LINE
  8
1
 62
7
  6
CONTINUOUS
 10
149.000000
 20
193.000000
 11
150.000000
 21
187.000000
  0
LINE
  8
1
 62
7
  6
CONTINUOUS
 10
150.000000
 20
193.000000
 11
151.000000
 21
187.000000
  0
LINE
  8
1
 62
7
  6
CONTINUOUS
 10
151.000000
 20
193.000000
 11
152.000000
 21
187.000000
  0
LINE
  8
1
 62
7
  6
CONTINUOUS
 10
152.000000
 20
193.000000
 11
153.000000
 21
187.000000
  0
LINE
  8
1
 62
7
  6
CONTINUOUS
 10
153.000000
 20
193.000000
 11
154.000000
 21
187.000000
  0
LINE
  8
1
 62
7
  6
CONTINUOUS
 10
154.000000
 20
193.000000
 11
155.000000
 21
187.000000
  0
LINE
  8
1
 62
7
  6
CONTINUOUS
 10
155.000000
 20
193.000000
 11
156.000000
 21
187.000000
  0
LINE
  8
1
 62
7
  6
CONTINUOUS
 10
156.000000
 20
193.000000
 11
157.000000
 21
187.000000
  0
LINE
  8
1
 62
7
  6
CONTINUOUS
 10
157.000000
 20
193.000000
 11
158.000000
 21
187.000000
  0
LINE
  8
1
 62
7
  6
CONTINUOUS
 10
158.000000
 20
193.000000
 11
159.000000
 21
187.000000
  0
LINE
  8
1
 62
7
  6
CONTINUOUS
 10
159.000000
 20
193.000000
 11
160.000000
 21
187.000000
  0
LINE
  8
1
 62
7
  6
CONTINUOUS
 10
160.000000
 20
193.000000
 11
161.000000
 21
187.000000
  0
LINE
  8
1
 62
7
  6
CONTINUOUS
 10
161.000000
 20
193.000000
 11
162.000000
 21
187.000000
  0
LINE
  8
1
 62
7
  6
CONTINUOUS
 10
162.000000
 20
193.000000
 11
163.000000
 21
187.000000
  0
LINE
  8
1
 62
7
  6
CONTINUOUS
 10
163.000000
 20
193.000000
 11
164.000000
 21
187.000000
  0
LINE
  8
1
 62
7
  6
CONTINUOUS
 10
164.000000
 20
193.000000
 11
165.000000
 21
187.000000
  0
LINE
  8
1
 62
7
  6
CONTINUOUS
 10
165.000000
 20
193.000000
 11
166.000000
 21
187.000000
  0
LINE
  8
1
 62
7
  6
CONTINUOUS
 10
166.000000
 20
193.000000
 11
167.000000
 21
187.000000
  0
LINE
  8
1
 62
7
  6
CONTINUOUS
 10
167.000000
 20
192.500000
 11
167.000000
 21
187.000000
  0
LINE
  8
1
 62
7
  6
CONTINUOUS
 10
148.000000
 20
192.500000
 11
149.083333
 21
192.500000
  0
LINE
  8
1
 62
7
  6
CONTINUOUS
 10
150.083333
 20
192.500000
 11
151.083333
 21
192.500000
  0
LINE
  8
1
 62
7
  6
CONTINUOUS
 10
152.083333
 20
192.500000
 11
153.083333
 21
192.500000
  0
LINE
  8
1
 62
7
  6
CONTINUOUS
 10
154.083333
 20
192.500000
 11
155.083333
 21
192.500000
  0
LINE
  8
1
 62
7
  6
CONTINUOUS
 10
156.083333
 20
192.500000
 11
157.083333
 21
192.500000
  0
LINE
  8
1
 62
7
  6
CONTINUOUS
 10
158.083333
 20
192.500000
 11
159.083333
 21
192.500000
  0
LINE
  8
1
 62
7
  6
CONTINUOUS
 10
160.083333
 20
192.500000
 11
161.083333
 21
192.500000
  0
LINE
  8
1
 62
7
  6
CONTINUOUS
 10
162.083333
 20
192.500000
 11
163.083333
 21
192.500000
  0
LINE
  8
1
 62
7
  6
CONTINUOUS
 10
164.083333
 20
192.500000
 11
165.083333
 21
192.500000
  0
LINE
  8
1
 62
7
  6
CONTINUOUS
 10
166.083333
 20
192.500000
 11
167.000000
 21
192.500000
  0
LINE
  8
1
 62
7
  6
CONTINUOUS
 10
164.916667
 20
187.500000
 11
165.916667
 21
187.500000
  0
LINE
  8
1
 62
7
  6
CONTINUOUS
 10
162.916667
 20
187.500000
 11
163.916667
 21
187.500000
  0
LINE
  8
1
 62
7
  6
CONTINUOUS
 10
161.016240
 20
187.500000
 11
161.916667
 21
187.500000
  0
LINE
  8
1
 62
7
  6
CONTINUOUS
 10
158.916667
 20
187.500000
 11
159.916667
 21
187.500000
  0
LINE
  8
1
 62
7
  6
CONTINUOUS
 10
156.916667
 20
187.500000
 11
157.916667
 21
187.500000
  0
LINE
  8
1
 62
7
  6
CONTINUOUS
 10
154.916667
 20
187.500000
 11
155.916667
 21
187.500000
  0
LINE
  8
1
 62
7
  6
CONTINUOUS
 10
152.916667
 20
187.500000
 11
153.916667
 21
187.500000
  0
LINE
  8
1
 62
7
  6
CONTINUOUS
 10
150.916667
 20
187.500000
 11
151.916667
 21
187.500000
  0
LINE
  8
1
 62
7
  6
CONTINUOUS
 10
149.016240
 20
187.500000
 11
149.916667
 21
187.500000
  0
LINE
  8
1
 62
7
  6
CONTINUOUS
 10
148.000000
 20
192.500000
 11
149.100787
 21
186.996063
  0
LINE
  8
1
 62
7
  6
CONTINUOUS
 10
148.000000
 20
187.500000
 11
148.086618
 21
187.000000
  0
LINE
  8
1
 62
7
  6
CONTINUOUS
 10
148.086618
 20
187.000000
 11
149.100000
 21
187.000000
  0
LINE
  8
1
 62
7
  6
CONTINUOUS
 10
148.991265
 20
187.500000
 11
149.000000
 21
187.500000
  0
LINE
  8
1
 62
7
  6
CONTINUOUS
 10
131.500000
 20
186.000000
 11
131.500000
 21
195.000000
  0
LINE
  8
1
 62
7
  6
CONTINUOUS
 10
131.500000
 20
186.000000
 11
126.000000
 21
186.000000
  0
LINE
  8
1
 62
7
  6
CONTINUOUS
 10
131.500000
 20
194.000000
 11
126.000000
 21
194.000000
  0
LINE
  8
1
 62
7
  6
DASHDOT
 10
137.500000
 20
191.537088
 11
137.500000
 21
188.498999
  0
CIRCLE
  8
1
 62
7
  6
CONTINUOUS
 10
137.500000
 20
190.000000
 40
1.000000
  0
CIRCLE
  8
1
 62
7
  6
CONTINUOUS
 10
137.500000
 20
190.000000
 40
0.782631
  0
LINE
  8
1
 62
7
  6
DASHDOT
 10
111.038755
 20
190.000000
 11
176.059150
 21
190.000000
  0
DIMENSION
  8
2
 62
134
  6
CONTINUOUS
  2
*D8
 10
134.686257
 20
185.000000
 11
134.686257
 21
198.954208
 70
     0
  1
φ10
 13
134.686257
 23
185.000000
 14
134.877419
 24
195.000000
 50
90.000000
  0
DIMENSION
  8
2
 62
134
  6
CONTINUOUS
  2
*D9
 10
159.000000
 20
187.000000
 11
159.000000
 21
199.181467
 70
     0
  1
φ6
 13
160.000000
 23
187.000000
 14
159.000000
 24
193.000000
 50
90.000000
  0
LINE
  8
2
 62
134
  6
CONTINUOUS
 10
86.000000
 20
161.838322
 11
84.068148
 21
161.320684
  0
LINE
  8
2
 62
134
  6
CONTINUOUS
 10
84.068148
 20
161.320684
 11
84.068148
 21
162.355960
  0
LINE
  8
2
 62
134
  6
CONTINUOUS
 10
84.068148
 20
162.355960
 11
86.000000
 21
161.838322
  0
LINE
  8
2
 62
134
  6
CONTINUOUS
 10
86.000000
 20
161.838322
 11
49.955141
 21
161.838322
  0
TEXT
  8
2
 62
134
  6
CONTINUOUS
 10
130.945446
 20
157.339418
 40
4.000000
 41
0.583333
  1
2-φ3.5
  7
KANJI
 50
0.000000
 51
0.000000
  0
DIMENSION
  8
2
 62
134
  6
CONTINUOUS
  2
*D10
 10
86.000000
 20
204.338784
 11
106.157026
 21
204.338784
 70
     0
  1
40
 13
86.000000
 23
197.000000
 14
126.000000
 24
197.000000
 50
0.000000
  0
DIMENSION
  8
2
 62
134
  6
CONTINUOUS
  2
*D11
 10
126.000000
 20
204.338784
 11
135.860160
 21
204.338784
 70
     0
  1
22
 13
126.000000
 23
197.000000
 14
148.000000
 24
197.000000
 50
0.000000
  0
LINE
  8
2
 62
134
  6
CONTINUOUS
 10
126.000000
 20
209.548913
 11
127.931852
 21
210.066551
  0
LINE
  8
2
 62
134
  6
CONTINUOUS
 10
127.931852
 20
210.066551
 11
127.931852
 21
209.031274
  0
LINE
  8
2
 62
134
  6
CONTINUOUS
 10
127.931852
 20
209.031274
 11
126.000000
 21
209.548913
  0
LINE
  8
2
 62
134
  6
CONTINUOUS
 10
126.000000
 20
211.548913
 11
126.000000
 21
196.000000
  0
LINE
  8
2
 62
134
  6
CONTINUOUS
 10
126.000000
 20
209.548913
 11
170.651728
 21
209.548913
  0
TEXT
  8
3
 62
214
  6
CONTINUOUS
 10
140.084116
 20
209.548913
 40
4.000000
 41
0.583333
  1
ﾌｧｲﾊﾞ長
  7
KANJI
 50
0.000000
 51
30.000000
  0
LINE
  8
3
 62
214
  6
CONTINUOUS
 10
112.726586
 20
192.884933
 11
123.998379
 21
214.333916
  0
LINE
  8
3
 62
214
  6
CONTINUOUS
 10
123.998379
 20
214.333916
 11
137.928681
 21
214.333916
  0
TEXT
  8
3
 62
214
  6
CONTINUOUS
 10
123.928681
 20
214.156216
 40
4.000000
 41
0.500000
  1
ｾﾝｻﾍｯﾄﾞ
  7
KANJI
 50
0.000000
 51
30.000000
  0
LINE
  8
3
 62
214
  6
CONTINUOUS
 10
112.726586
 20
192.884933
 11
113.167051
 21
194.835828
  0
LINE
  8
3
 62
214
  6
CONTINUOUS
 10
112.726586
 20
192.884933
 11
114.083487
 21
194.354225
  0
LINE
  8
3
 62
214
  6
CONTINUOUS
 10
113.167051
 20
194.835828
 11
114.083487
 21
194.354225
  0
LINE
  8
3
 62
214
  6
CONTINUOUS
 10
112.951257
 20
193.312456
 11
113.171489
 21
194.287904
  0
LINE
  8
3
 62
214
  6
CONTINUOUS
 10
112.951257
 20
193.312456
 11
113.629707
 21
194.047103
  0
LINE
  8
3
 62
214
  6
CONTINUOUS
 10
113.171489
 20
194.287904
 11
113.629707
 21
194.047103
  0
LINE
  8
3
 62
214
  6
CONTINUOUS
 10
105.669873
 20
192.500000
 11
96.308026
 21
214.285372
  0
LINE
  8
3
 62
214
  6
CONTINUOUS
 10
96.308026
 20
214.285372
 11
87.053416
 21
214.285372
  0
TEXT
  8
3
 62
214
  6
CONTINUOUS
 10
87.053416
 20
214.285372
 40
4.000000
 41
0.500000
  1
ﾚﾝｽﾞ
  7
KANJI
 50
0.000000
 51
30.000000
  0
LINE
  8
3
 62
214
  6
CONTINUOUS
 10
105.669873
 20
192.500000
 11
104.431557
 21
194.070533
  0
LINE
  8
3
 62
214
  6
CONTINUOUS
 10
105.669873
 20
192.500000
 11
105.382726
 21
194.479279
  0
LINE
  8
3
 62
214
  6
CONTINUOUS
 10
104.431557
 20
194.070533
 11
105.382726
 21
194.479279
  0
LINE
  8
3
 62
214
  6
CONTINUOUS
 10
105.479190
 20
192.943726
 11
104.860032
 21
193.728993
  0
LINE
  8
3
 62
214
  6
CONTINUOUS
 10
105.479190
 20
192.943726
 11
105.335616
 21
193.933366
  0
LINE
  8
3
 62
214
  6
CONTINUOUS
 10
104.860032
 20
193.728993
 11
105.335616
 21
193.933366
  0
LINE
  8
3
 62
214
  6
CONTINUOUS
 10
111.159254
 20
181.689035
 11
131.004552
 21
161.861713
  0
LINE
  8
3
 62
214
  6
CONTINUOUS
 10
131.004552
 20
161.861713
 11
155.183338
 21
161.861713
  0
TEXT
  8
3
 62
214
  6
CONTINUOUS
 10
131.183338
 20
161.861713
 40
4.000000
 41
0.750000
  1
　ﾍｯﾄﾞ取付穴
  7
KANJI
 50
0.000000
 51
30.000000
  0
LINE
  8
3
 62
214
  6
CONTINUOUS
 10
111.159254
 20
181.689035
 11
112.891758
 21
180.689820
  0
LINE
  8
3
 62
214
  6
CONTINUOUS
 10
111.159254
 20
181.689035
 11
112.160039
 21
179.957437
  0
LINE
  8
3
 62
214
  6
CONTINUOUS
 10
112.891758
 20
180.689820
 11
112.160039
 21
179.957437
  0
LINE
  8
3
 62
214
  6
CONTINUOUS
 10
111.500915
 20
181.347683
 11
112.367167
 21
180.848076
  0
LINE
  8
3
 62
214
  6
CONTINUOUS
 10
111.500915
 20
181.347683
 11
112.001307
 21
180.481884
  0
LINE
  8
3
 62
214
  6
CONTINUOUS
 10
112.367167
 20
180.848076
 11
112.001307
 21
180.481884
  0
LINE
  8
3
 62
214
  6
CONTINUOUS
 10
126.035064
 20
176.984852
 11
132.798208
 21
169.507544
  0
LINE
  8
3
 62
214
  6
CONTINUOUS
 10
132.798208
 20
169.507544
 11
166.203926
 21
169.507544
  0
TEXT
  8
3
 62
214
  6
CONTINUOUS
 10
138.203926
 20
169.872947
 40
4.000000
 41
0.777778
  1
R1/8計装エアー
  7
KANJI
 50
0.000000
 51
30.000000
  0
LINE
  8
3
 62
214
  6
CONTINUOUS
 10
126.035064
 20
176.984852
 11
127.714853
 21
175.899353
  0
LINE
  8
3
 62
214
  6
CONTINUOUS
 10
126.035064
 20
176.984852
 11
126.947055
 21
175.204888
  0
LINE
  8
3
 62
214
  6
CONTINUOUS
 10
127.714853
 20
175.899353
 11
126.947055
 21
175.204888
  0
LINE
  8
3
 62
214
  6
CONTINUOUS
 10
126.359037
 20
176.626669
 11
127.198931
 21
176.083919
  0
LINE
  8
3
 62
214
  6
CONTINUOUS
 10
126.359037
 20
176.626669
 11
126.815032
 21
175.736687
  0
LINE
  8
3
 62
214
  6
CONTINUOUS
 10
127.198931
 20
176.083919
 11
126.815032
 21
175.736687
  0
TEXT
  8
3
 62
214
  6
CONTINUOUS
 10
52.970360
 20
161.838322
 40
4.000000
 41
1.000000
  1
測定距離
  7
KANJI
 50
0.000000
 51
30.000000
  0
TEXT
  8
3
 62
214
  6
CONTINUOUS
 10
43.489986
 20
210.935752
 40
4.000000
 41
0.500000
  1
ｵﾌﾟｼﾖﾝ
  7
KANJI
 50
0.000000
 51
0.000000
  0
LINE
  8
3
 62
214
  6
CONTINUOUS
 10
76.039148
 20
194.750000
 11
67.935337
 21
215.174831
  0
LINE
  8
3
 62
214
  6
CONTINUOUS
 10
67.935337
 20
215.174831
 11
37.685537
 21
215.174831
  0
TEXT
  8
3
 62
214
  6
CONTINUOUS
 10
37.685537
 20
214.892225
 40
4.000000
 41
0.538462
  1
φ6ｴｱﾊﾟｰｼﾞﾌｰﾄﾞ
  7
KANJI
 50
0.000000
 51
30.000000
  0
LINE
  8
3
 62
214
  6
CONTINUOUS
 10
76.039148
 20
194.750000
 11
74.845541
 21
196.354774
  0
LINE
  8
3
 62
214
  6
CONTINUOUS
 10
76.039148
 20
194.750000
 11
75.807841
 21
196.736579
  0
LINE
  8
3
 62
214
  6
CONTINUOUS
 10
74.845541
 20
196.354774
 11
75.807841
 21
196.736579
  0
LINE
  8
3
 62
214
  6
CONTINUOUS
 10
75.861034
 20
195.198919
 11
75.264230
 21
196.001306
  0
LINE
  8
3
 62
214
  6
CONTINUOUS
 10
75.861034
 20
195.198919
 11
75.745380
 21
196.192209
  0
LINE
  8
3
 62
214
  6
CONTINUOUS
 10
75.264230
 20
196.001306
 11
75.745380
 21
196.192209
  0
TEXT
  8
3
 62
214
  6
CONTINUOUS
 10
104.270865
 20
147.524729
 40
4.000000
 41
1.000000
  1
重量３０ｇ
  7
KANJI
 50
0.000000
 51
0.000000
  0
LINE
  8
3
 62
214
  6
CONTINUOUS
 10
161.000000
 20
187.000000
 11
166.774219
 21
176.942517
  0
LINE
  8
3
 62
214
  6
CONTINUOUS
 10
166.774219
 20
176.942517
 11
180.746357
 21
176.942517
  0
TEXT
  8
3
 62
214
  6
CONTINUOUS
 10
170.746357
 20
177.035599
 40
4.000000
 41
0.500000
  1
ﾌｧｲﾊﾞ
  7
KANJI
 50
0.000000
 51
30.000000
  0
LINE
  8
3
 62
214
  6
CONTINUOUS
 10
161.000000
 20
187.000000
 11
162.410780
 21
185.582361
  0
LINE
  8
3
 62
214
  6
CONTINUOUS
 10
161.000000
 20
187.000000
 11
161.512952
 21
185.066899
  0
LINE
  8
3
 62
214
  6
CONTINUOUS
 10
162.410780
 20
185.582361
 11
161.512952
 21
185.066899
  0
LINE
  8
3
 62
214
  6
CONTINUOUS
 10
161.240467
 20
186.581158
 11
161.945857
 21
185.872338
  0
LINE
  8
3
 62
214
  6
CONTINUOUS
 10
161.240467
 20
186.581158
 11
161.496943
 21
185.614607
  0
LINE
  8
3
 62
214
  6
CONTINUOUS
 10
161.945857
 20
185.872338
 11
161.496943
 21
185.614607
  0
ENDSEC
  0
EOF
