  0
SECTION
  2
HEADER
  9
$ACADVER
  1
AC1003
  9
$INSBASE
 10
0.000000
 20
0.000000
  9
$EXTMIN
 10
0.000000
 20
0.000000
  9
$EXTMAX
 10
210.000000
 20
297.000000
  9
$LIMMIN
 10
0.000000
 20
0.000000
  9
$LIMMAX
 10
210.000000
 20
297.000000
  9
$VIEWCTR
 10
105.000000
 20
148.500000
  9
$VIEWSIZE
 40
297.000000
  9
$PEXTMIN
 10
0.000000
 20
0.000000
 30
0.000000
  9
$PEXTMAX
 10
210.000000
 20
297.000000
 30
0.000000
  9
$SNAPMODE
 70
     0
  9
$SNAPUNIT
 10
1.000000
 20
1.000000
  9
$SNAPBASE
 10
0.000000
 20
0.000000
  9
$SNAPANG
 50
0.000000
  9
$SNAPISOPAIR
 70
     0
  9
$SNAPSTYLE
 70
     0
  9
$GRIDMODE
 70
     0
  9
$GRIDUNIT
 10
0.000000
 20
0.000000
  9
$ORTHOMODE
 70
     0
  9
$REGENMODE
 70
     1
  9
$FILLMODE
 70
     1
  9
$QTEXTMODE
 70
     0
  9
$DRAGMODE
 70
     2
  9
$LTSCALE
 40
0.250000
  9
$OSMODE
 70
     0
  9
$ATTMODE
 70
     1
  9
$TEXTSIZE
 40
0.200000
  9
$TRACEWID
 40
0.050000
  9
$TEXTSTYLE
  7
STANDARD
  9
$CLAYER
  8
0
  9
$CELTYPE
  6
BYLAYER
  9
$CECOLOR
 62
   256
  9
$DIMSCALE
 40
1.000000
  9
$DIMASZ
 40
1.000000
  9
$DIMEXO
 40
0.000000
  9
$DIMDLI
 40
0.500000
  9
$DIMRND
 40
0.000000
  9
$DIMDLE
 40
0.000000
  9
$DIMEXE
 40
0.000000
  9
$DIMTP
 40
0.000000
  9
$DIMTM
 40
0.000000
  9
$DIMTXT
 40
0.180000
  9
$DIMCEN
 40
0.000000
  9
$DIMTSZ
 40
0.000000
  9
$DIMTOL
 70
     0
  9
$DIMLIM
 70
     0
  9
$DIMTIH
 70
     1
  9
$DIMTOH
 70
     1
  9
$DIMSE1
 70
     0
  9
$DIMSE2
 70
     0
  9
$DIMTAD
 70
     0
  9
$DIMZIN
 70
     0
  9
$DIMBLK
  1

  9
$DIMASO
 70
     0
  9
$DIMSHO
 70
     0
  9
$DIMPOST
  1

  9
$DIMAPOST
  1

  9
$DIMALT
 70
     0
  9
$DIMALTD
 70
     0
  9
$DIMALTF
 40
25.400000
  9
$DIMLFAC
 40
1.000000
  9
$DIMTOFL
 70
     0
  9
$DIMTVP
 40
0.000000
  9
$DIMTIX
 70
     0
  9
$DIMSOXD
 70
     0
  9
$DIMSAH
 70
     0
  9
$DIMBLKL
  1

  9
$DIMBLKR
  1

  9
$LUNITS
 70
     2
  9
$LUPREC
 70
     2
  9
$AXISMODE
 70
     0
  9
$AXISUNIT
 10
1.000000
 20
1.000000
  9
$SKETCHINC
 40
0.000000
  9
$FILLETRAD
 40
0.000000
  9
$AUNITS
 70
     1
  9
$AUPREC
 70
     2
  9
$MENU
  1
ACAD
  9
$ELEVATION
 40
0.000000
  9
$THICKNESS
 40
0.000000
  9
$VIEWDIR
 10
0.000000
 20
0.000000
 30
1.000000
  9
$LIMCHECK
 70
     1
  9
$BLIPMODE
 70
     1
  9
$CHAMFERA
 40
0.000000
  9
$CHAMFERB
 40
0.000000
  9
$FASTZOOM
 70
     1
  9
$SKPOLY
 70
     0
  9
$TDCREATE
 40
0.000000
  9
$TDUPDATE
 40
0.000000
  9
$TDINDWG
 40
0.000000
  9
$TDUSRTIMER
 40
0.000000
  9
$USRTIMER
 70
     1
  9
$ANGBASE
 50
0.000000
  9
$ANGDIR
 70
     0
  9
$PDMODE
 70
     0
  9
$PDSIZE
 40
0.000000
  9
$PLINEWID
 40
0.000000
  9
$COORDS
 70
     2
  9
$USERI1
 70
     0
  9
$USERI2
 70
     0
  9
$USERI3
 70
     0
  9
$USERI4
 70
     0
  9
$USERI5
 70
     0
  9
$USERR1
 40
0.000000
  9
$USERR2
 40
0.000000
  9
$USERR3
 40
0.000000
  9
$USERR4
 40
0.000000
  9
$USERR5
 40
0.000000
  0
ENDSEC
  0
SECTION
  2
TABLES
  0
TABLE
  2
LTYPE
 70
     5
  0
LTYPE
  2
CONTINUOUS
 70
    64
  3
Solid line
 72
    65
 73
     0
 40
0.0
  0
LTYPE
  2
HIDDEN
 70
    64
  3
------------------------
 72
    65
 73
     2
 40
12.6
 49
8.4
 49
-4.2
  0
LTYPE
  2
DOT
 70
    64
  3
････････････････････････
 72
    65
 73
     2
 40
8.0
 49
6.0
 49
-2.0
  0
LTYPE
  2
DASHDOT
 70
    64
  3
--･--･--･--･--･--･--･--
 72
    65
 73
     4
 40
50.5
 49
30.0
 49
-9.0
 49
2.5
 49
-9.0
  0
LTYPE
  2
DIVIDE
 70
    64
  3
--･･--･･--･･--･･--･･--
 72
    65
 73
     6
 40
58.0
 49
30.0
 49
-9.0
 49
2.5
 49
-5.0
 49
2.5
 49
-9.0
  0
LTYPE
  2
ACAD_ISO06W100
 70
    64
  3
____ ... ____ ... ____
 72
    65
 73
     8
 40
37.5
 49
24.0
 49
-3.0
 49
0.5
 49
-3.0
 49
0.5
 49
-3.0
 49
0.5
 49
-3.0
  0
LTYPE
  2
ACAD_ISO14W100
 70
    64
  3
__ . . . __ . . . __ . . . 
 72
    65
 73
     8
 40
25.5
 49
12.0
 49
-3.0
 49
0.5
 49
-3.0
 49
0.5
 49
-3.0
 49
0.5
 49
-3.0
  0
ENDTAB
  0
TABLE
  2
LAYER
 70
4
  0
LAYER
  2
1
 70
64
 62
7
  6
CONTINUOUS
  0
LAYER
  2
2
 70
64
 62
134
  6
CONTINUOUS
  0
LAYER
  2
3
 70
64
 62
214
  6
CONTINUOUS
  0
LAYER
  2
5
 70
64
 62
94
  6
CONTINUOUS
  0
ENDTAB
  0
TABLE
  2
STYLE
 70
     2
  0
STYLE
  2
STANDARD
 70
    64
 40
0.0
 41
1.0
 50
0.0
 71
     0
 42
0.2
  3
TXT
  4

  0
STYLE
  2
KANJI
 70
    64
 40
0.0
 41
1.0
 50
0.0
 71
     0
 42
0.2
  3
TXT
  4
BIGFONT
  0
ENDTAB
  0
TABLE
  2
VIEW
 70
     0
  0
ENDTAB
  0
ENDSEC
  0
SECTION
  2
BLOCKS
  0
BLOCK
  8
2
 62
134
  6
CONTINUOUS
  2
*D1
 70
    65
 10
0.0
 20
0.0
  0
LINE
  8
2
 62
134
  6
CONTINUOUS
 10
81.000000
 20
174.845595
 11
96.000000
 21
174.845595
  0
LINE
  8
2
 62
134
  6
CONTINUOUS
 10
81.000000
 20
174.845595
 11
82.931852
 21
175.363234
  0
LINE
  8
2
 62
134
  6
CONTINUOUS
 10
81.000000
 20
174.845595
 11
82.931852
 21
174.327957
  0
LINE
  8
2
 62
134
  6
CONTINUOUS
 10
82.931852
 20
175.363234
 11
82.931852
 21
174.327957
  0
LINE
  8
2
 62
134
  6
CONTINUOUS
 10
81.482963
 20
174.845595
 11
82.448889
 21
175.104415
  0
LINE
  8
2
 62
134
  6
CONTINUOUS
 10
81.482963
 20
174.845595
 11
82.448889
 21
174.586776
  0
LINE
  8
2
 62
134
  6
CONTINUOUS
 10
82.448889
 20
175.104415
 11
82.448889
 21
174.586776
  0
LINE
  8
2
 62
134
  6
CONTINUOUS
 10
96.000000
 20
174.845595
 11
94.068148
 21
174.327957
  0
LINE
  8
2
 62
134
  6
CONTINUOUS
 10
96.000000
 20
174.845595
 11
94.068148
 21
175.363234
  0
LINE
  8
2
 62
134
  6
CONTINUOUS
 10
94.068148
 20
174.327957
 11
94.068148
 21
175.363234
  0
LINE
  8
2
 62
134
  6
CONTINUOUS
 10
95.517037
 20
174.845595
 11
94.551111
 21
174.586776
  0
LINE
  8
2
 62
134
  6
CONTINUOUS
 10
95.517037
 20
174.845595
 11
94.551111
 21
175.104415
  0
LINE
  8
2
 62
134
  6
CONTINUOUS
 10
94.551111
 20
174.586776
 11
94.551111
 21
175.104415
  0
TEXT
  8
2
 62
134
  6
CONTINUOUS
 10
86.500000
 20
175.345595
 40
4.000000
 41
0.500000
  1
15
  7
KANJI
 50
0.000000
 51
30.000000
  0
ENDBLK
  0
BLOCK
  8
2
 62
134
  6
CONTINUOUS
  2
*D2
 70
    65
 10
0.0
 20
0.0
  0
LINE
  8
2
 62
134
  6
CONTINUOUS
 10
96.000000
 20
174.845595
 11
116.000000
 21
174.845595
  0
LINE
  8
2
 62
134
  6
CONTINUOUS
 10
96.000000
 20
174.845595
 11
97.931852
 21
175.363234
  0
LINE
  8
2
 62
134
  6
CONTINUOUS
 10
96.000000
 20
174.845595
 11
97.931852
 21
174.327957
  0
LINE
  8
2
 62
134
  6
CONTINUOUS
 10
97.931852
 20
175.363234
 11
97.931852
 21
174.327957
  0
LINE
  8
2
 62
134
  6
CONTINUOUS
 10
96.482963
 20
174.845595
 11
97.448889
 21
175.104415
  0
LINE
  8
2
 62
134
  6
CONTINUOUS
 10
96.482963
 20
174.845595
 11
97.448889
 21
174.586776
  0
LINE
  8
2
 62
134
  6
CONTINUOUS
 10
97.448889
 20
175.104415
 11
97.448889
 21
174.586776
  0
LINE
  8
2
 62
134
  6
CONTINUOUS
 10
116.000000
 20
174.845595
 11
114.068148
 21
174.327957
  0
LINE
  8
2
 62
134
  6
CONTINUOUS
 10
116.000000
 20
174.845595
 11
114.068148
 21
175.363234
  0
LINE
  8
2
 62
134
  6
CONTINUOUS
 10
114.068148
 20
174.327957
 11
114.068148
 21
175.363234
  0
LINE
  8
2
 62
134
  6
CONTINUOUS
 10
115.517037
 20
174.845595
 11
114.551111
 21
174.586776
  0
LINE
  8
2
 62
134
  6
CONTINUOUS
 10
115.517037
 20
174.845595
 11
114.551111
 21
175.104415
  0
LINE
  8
2
 62
134
  6
CONTINUOUS
 10
114.551111
 20
174.586776
 11
114.551111
 21
175.104415
  0
TEXT
  8
2
 62
134
  6
CONTINUOUS
 10
101.691806
 20
175.345595
 40
4.000000
 41
0.500000
  1
20
  7
KANJI
 50
0.000000
 51
30.000000
  0
ENDBLK
  0
BLOCK
  8
2
 62
134
  6
CONTINUOUS
  2
*D3
 70
    65
 10
0.0
 20
0.0
  0
LINE
  8
2
 62
134
  6
CONTINUOUS
 10
76.771284
 20
170.022269
 11
76.771284
 21
164.979700
  0
LINE
  8
2
 62
134
  6
CONTINUOUS
 10
76.771284
 20
170.022269
 11
77.288923
 21
168.090417
  0
LINE
  8
2
 62
134
  6
CONTINUOUS
 10
76.771284
 20
170.022269
 11
76.253646
 21
168.090417
  0
LINE
  8
2
 62
134
  6
CONTINUOUS
 10
77.288923
 20
168.090417
 11
76.253646
 21
168.090417
  0
LINE
  8
2
 62
134
  6
CONTINUOUS
 10
76.771284
 20
169.539306
 11
77.030103
 21
168.573380
  0
LINE
  8
2
 62
134
  6
CONTINUOUS
 10
76.771284
 20
169.539306
 11
76.512465
 21
168.573380
  0
LINE
  8
2
 62
134
  6
CONTINUOUS
 10
77.030103
 20
168.573380
 11
76.512465
 21
168.573380
  0
LINE
  8
2
 62
134
  6
CONTINUOUS
 10
76.771284
 20
164.979700
 11
76.253646
 21
166.911551
  0
LINE
  8
2
 62
134
  6
CONTINUOUS
 10
76.771284
 20
164.979700
 11
77.288923
 21
166.911551
  0
LINE
  8
2
 62
134
  6
CONTINUOUS
 10
76.253646
 20
166.911551
 11
77.288923
 21
166.911551
  0
LINE
  8
2
 62
134
  6
CONTINUOUS
 10
76.771284
 20
165.462663
 11
76.512465
 21
166.428589
  0
LINE
  8
2
 62
134
  6
CONTINUOUS
 10
76.771284
 20
165.462663
 11
77.030103
 21
166.428589
  0
LINE
  8
2
 62
134
  6
CONTINUOUS
 10
76.512465
 20
166.428589
 11
77.030103
 21
166.428589
  0
TEXT
  8
2
 62
134
  6
CONTINUOUS
 10
76.271284
 20
166.500984
 40
4.000000
 41
0.500000
  1
5
  7
KANJI
 50
90.000000
 51
30.000000
  0
ENDBLK
  0
BLOCK
  8
2
 62
134
  6
CONTINUOUS
  2
*D4
 70
    65
 10
0.0
 20
0.0
  0
LINE
  8
2
 62
134
  6
CONTINUOUS
 10
89.000000
 20
145.138287
 11
81.000000
 21
145.138287
  0
LINE
  8
2
 62
134
  6
CONTINUOUS
 10
89.000000
 20
145.138287
 11
87.068148
 21
144.620649
  0
LINE
  8
2
 62
134
  6
CONTINUOUS
 10
89.000000
 20
145.138287
 11
87.068148
 21
145.655925
  0
LINE
  8
2
 62
134
  6
CONTINUOUS
 10
87.068148
 20
144.620649
 11
87.068148
 21
145.655925
  0
LINE
  8
2
 62
134
  6
CONTINUOUS
 10
88.517037
 20
145.138287
 11
87.551111
 21
144.879468
  0
LINE
  8
2
 62
134
  6
CONTINUOUS
 10
88.517037
 20
145.138287
 11
87.551111
 21
145.397106
  0
LINE
  8
2
 62
134
  6
CONTINUOUS
 10
87.551111
 20
144.879468
 11
87.551111
 21
145.397106
  0
LINE
  8
2
 62
134
  6
CONTINUOUS
 10
81.000000
 20
145.138287
 11
82.931852
 21
145.655925
  0
LINE
  8
2
 62
134
  6
CONTINUOUS
 10
81.000000
 20
145.138287
 11
82.931852
 21
144.620649
  0
LINE
  8
2
 62
134
  6
CONTINUOUS
 10
82.931852
 20
145.655925
 11
82.931852
 21
144.620649
  0
LINE
  8
2
 62
134
  6
CONTINUOUS
 10
81.482963
 20
145.138287
 11
82.448889
 21
145.397106
  0
LINE
  8
2
 62
134
  6
CONTINUOUS
 10
81.482963
 20
145.138287
 11
82.448889
 21
144.879468
  0
LINE
  8
2
 62
134
  6
CONTINUOUS
 10
82.448889
 20
145.397106
 11
82.448889
 21
144.879468
  0
TEXT
  8
2
 62
134
  6
CONTINUOUS
 10
84.000000
 20
145.638287
 40
4.000000
 41
0.500000
  1
8
  7
KANJI
 50
0.000000
 51
30.000000
  0
ENDBLK
  0
BLOCK
  8
2
 62
134
  6
CONTINUOUS
  2
*D5
 70
    65
 10
0.0
 20
0.0
  0
LINE
  8
2
 62
134
  6
CONTINUOUS
 10
116.423661
 20
134.000000
 11
95.004785
 21
134.000000
  0
LINE
  8
2
 62
134
  6
CONTINUOUS
 10
109.004785
 20
134.000000
 11
110.936637
 21
134.517638
  0
LINE
  8
2
 62
134
  6
CONTINUOUS
 10
109.004785
 20
134.000000
 11
110.936637
 21
133.482362
  0
LINE
  8
2
 62
134
  6
CONTINUOUS
 10
110.936637
 20
134.517638
 11
110.936637
 21
133.482362
  0
LINE
  8
2
 62
134
  6
CONTINUOUS
 10
109.487748
 20
134.000000
 11
110.453674
 21
134.258819
  0
LINE
  8
2
 62
134
  6
CONTINUOUS
 10
109.487748
 20
134.000000
 11
110.453674
 21
133.741181
  0
LINE
  8
2
 62
134
  6
CONTINUOUS
 10
110.453674
 20
134.258819
 11
110.453674
 21
133.741181
  0
LINE
  8
2
 62
134
  6
CONTINUOUS
 10
103.004785
 20
134.000000
 11
101.072933
 21
133.482362
  0
LINE
  8
2
 62
134
  6
CONTINUOUS
 10
103.004785
 20
134.000000
 11
101.072933
 21
134.517638
  0
LINE
  8
2
 62
134
  6
CONTINUOUS
 10
101.072933
 20
133.482362
 11
101.072933
 21
134.517638
  0
LINE
  8
2
 62
134
  6
CONTINUOUS
 10
102.521822
 20
134.000000
 11
101.555896
 21
133.741181
  0
LINE
  8
2
 62
134
  6
CONTINUOUS
 10
102.521822
 20
134.000000
 11
101.555896
 21
134.258819
  0
LINE
  8
2
 62
134
  6
CONTINUOUS
 10
101.555896
 20
133.741181
 11
101.555896
 21
134.258819
  0
TEXT
  8
2
 62
134
  6
CONTINUOUS
 10
109.423661
 20
134.500000
 40
4.000000
 41
0.750000
  1
φ6
  7
KANJI
 50
0.000000
 51
30.000000
  0
ENDBLK
  0
BLOCK
  8
2
 62
134
  6
CONTINUOUS
  2
*D6
 70
    65
 10
0.0
 20
0.0
  0
LINE
  8
2
 62
134
  6
CONTINUOUS
 10
120.582141
 20
143.000000
 11
120.582141
 21
165.000000
  0
LINE
  8
2
 62
134
  6
CONTINUOUS
 10
122.582141
 20
143.000000
 11
113.004785
 21
143.000000
  0
LINE
  8
2
 62
134
  6
CONTINUOUS
 10
122.582141
 20
165.000000
 11
117.587207
 21
165.000000
  0
LINE
  8
2
 62
134
  6
CONTINUOUS
 10
120.582141
 20
143.000000
 11
120.064503
 21
144.931852
  0
LINE
  8
2
 62
134
  6
CONTINUOUS
 10
120.582141
 20
143.000000
 11
121.099779
 21
144.931852
  0
LINE
  8
2
 62
134
  6
CONTINUOUS
 10
120.064503
 20
144.931852
 11
121.099779
 21
144.931852
  0
LINE
  8
2
 62
134
  6
CONTINUOUS
 10
120.582141
 20
143.482963
 11
120.323322
 21
144.448889
  0
LINE
  8
2
 62
134
  6
CONTINUOUS
 10
120.582141
 20
143.482963
 11
120.840960
 21
144.448889
  0
LINE
  8
2
 62
134
  6
CONTINUOUS
 10
120.323322
 20
144.448889
 11
120.840960
 21
144.448889
  0
LINE
  8
2
 62
134
  6
CONTINUOUS
 10
120.582141
 20
165.000000
 11
121.099779
 21
163.068148
  0
LINE
  8
2
 62
134
  6
CONTINUOUS
 10
120.582141
 20
165.000000
 11
120.064503
 21
163.068148
  0
LINE
  8
2
 62
134
  6
CONTINUOUS
 10
121.099779
 20
163.068148
 11
120.064503
 21
163.068148
  0
LINE
  8
2
 62
134
  6
CONTINUOUS
 10
120.582141
 20
164.517037
 11
120.840960
 21
163.551111
  0
LINE
  8
2
 62
134
  6
CONTINUOUS
 10
120.582141
 20
164.517037
 11
120.323322
 21
163.551111
  0
LINE
  8
2
 62
134
  6
CONTINUOUS
 10
120.840960
 20
163.551111
 11
120.323322
 21
163.551111
  0
TEXT
  8
2
 62
134
  6
CONTINUOUS
 10
120.582141
 20
151.500000
 40
4.000000
 41
0.500000
  1
22
  7
KANJI
 50
90.000000
 51
30.000000
  0
ENDBLK
  0
BLOCK
  8
2
 62
134
  6
CONTINUOUS
  2
*D7
 70
    65
 10
0.0
 20
0.0
  0
LINE
  8
2
 62
134
  6
CONTINUOUS
 10
89.983102
 20
149.407924
 11
119.004785
 21
149.407924
  0
LINE
  8
2
 62
134
  6
CONTINUOUS
 10
101.004785
 20
151.407924
 11
101.004785
 21
149.118579
  0
LINE
  8
2
 62
134
  6
CONTINUOUS
 10
111.004785
 20
151.407924
 11
111.004785
 21
149.118579
  0
LINE
  8
2
 62
134
  6
CONTINUOUS
 10
101.004785
 20
149.407924
 11
99.072933
 21
148.890286
  0
LINE
  8
2
 62
134
  6
CONTINUOUS
 10
101.004785
 20
149.407924
 11
99.072933
 21
149.925562
  0
LINE
  8
2
 62
134
  6
CONTINUOUS
 10
99.072933
 20
148.890286
 11
99.072933
 21
149.925562
  0
LINE
  8
2
 62
134
  6
CONTINUOUS
 10
100.521822
 20
149.407924
 11
99.555896
 21
149.149105
  0
LINE
  8
2
 62
134
  6
CONTINUOUS
 10
100.521822
 20
149.407924
 11
99.555896
 21
149.666743
  0
LINE
  8
2
 62
134
  6
CONTINUOUS
 10
99.555896
 20
149.149105
 11
99.555896
 21
149.666743
  0
LINE
  8
2
 62
134
  6
CONTINUOUS
 10
111.004785
 20
149.407924
 11
112.936637
 21
149.925562
  0
LINE
  8
2
 62
134
  6
CONTINUOUS
 10
111.004785
 20
149.407924
 11
112.936637
 21
148.890286
  0
LINE
  8
2
 62
134
  6
CONTINUOUS
 10
112.936637
 20
149.925562
 11
112.936637
 21
148.890286
  0
LINE
  8
2
 62
134
  6
CONTINUOUS
 10
111.487748
 20
149.407924
 11
112.453674
 21
149.666743
  0
LINE
  8
2
 62
134
  6
CONTINUOUS
 10
111.487748
 20
149.407924
 11
112.453674
 21
149.149105
  0
LINE
  8
2
 62
134
  6
CONTINUOUS
 10
112.453674
 20
149.666743
 11
112.453674
 21
149.149105
  0
TEXT
  8
2
 62
134
  6
CONTINUOUS
 10
90.983102
 20
149.407924
 40
4.000000
 41
0.666667
  1
φ10
  7
KANJI
 50
0.000000
 51
30.000000
  0
ENDBLK
  0
BLOCK
  8
2
 62
134
  6
CONTINUOUS
  2
*D8
 70
    65
 10
0.0
 20
0.0
  0
LINE
  8
2
 62
134
  6
CONTINUOUS
 10
81.000000
 20
116.940850
 11
106.004785
 21
116.940850
  0
LINE
  8
2
 62
134
  6
CONTINUOUS
 10
81.000000
 20
114.940850
 11
81.000000
 21
163.000000
  0
LINE
  8
2
 62
134
  6
CONTINUOUS
 10
106.004785
 20
114.940850
 11
106.004785
 21
122.000000
  0
LINE
  8
2
 62
134
  6
CONTINUOUS
 10
81.000000
 20
116.940850
 11
82.931852
 21
117.458488
  0
LINE
  8
2
 62
134
  6
CONTINUOUS
 10
81.000000
 20
116.940850
 11
82.931852
 21
116.423212
  0
LINE
  8
2
 62
134
  6
CONTINUOUS
 10
82.931852
 20
117.458488
 11
82.931852
 21
116.423212
  0
LINE
  8
2
 62
134
  6
CONTINUOUS
 10
81.482963
 20
116.940850
 11
82.448889
 21
117.199669
  0
LINE
  8
2
 62
134
  6
CONTINUOUS
 10
81.482963
 20
116.940850
 11
82.448889
 21
116.682031
  0
LINE
  8
2
 62
134
  6
CONTINUOUS
 10
82.448889
 20
117.199669
 11
82.448889
 21
116.682031
  0
LINE
  8
2
 62
134
  6
CONTINUOUS
 10
106.004785
 20
116.940850
 11
104.072933
 21
116.423212
  0
LINE
  8
2
 62
134
  6
CONTINUOUS
 10
106.004785
 20
116.940850
 11
104.072933
 21
117.458488
  0
LINE
  8
2
 62
134
  6
CONTINUOUS
 10
104.072933
 20
116.423212
 11
104.072933
 21
117.458488
  0
LINE
  8
2
 62
134
  6
CONTINUOUS
 10
105.521822
 20
116.940850
 11
104.555896
 21
116.682031
  0
LINE
  8
2
 62
134
  6
CONTINUOUS
 10
105.521822
 20
116.940850
 11
104.555896
 21
117.199669
  0
LINE
  8
2
 62
134
  6
CONTINUOUS
 10
104.555896
 20
116.682031
 11
104.555896
 21
117.199669
  0
TEXT
  8
2
 62
134
  6
CONTINUOUS
 10
90.901879
 20
116.940850
 40
4.000000
 41
0.500000
  1
25
  7
KANJI
 50
0.000000
 51
30.000000
  0
ENDBLK
  0
BLOCK
  8
2
 62
134
  6
CONTINUOUS
  2
*D9
 70
    65
 10
0.0
 20
0.0
  0
LINE
  8
2
 62
134
  6
CONTINUOUS
 10
81.000000
 20
199.606967
 11
141.000000
 21
199.606967
  0
LINE
  8
2
 62
134
  6
CONTINUOUS
 10
81.000000
 20
201.606967
 11
81.000000
 21
192.000000
  0
LINE
  8
2
 62
134
  6
CONTINUOUS
 10
141.000000
 20
201.606967
 11
141.000000
 21
193.800000
  0
LINE
  8
2
 62
134
  6
CONTINUOUS
 10
81.000000
 20
199.606967
 11
82.931852
 21
200.124605
  0
LINE
  8
2
 62
134
  6
CONTINUOUS
 10
81.000000
 20
199.606967
 11
82.931852
 21
199.089329
  0
LINE
  8
2
 62
134
  6
CONTINUOUS
 10
82.931852
 20
200.124605
 11
82.931852
 21
199.089329
  0
LINE
  8
2
 62
134
  6
CONTINUOUS
 10
81.482963
 20
199.606967
 11
82.448889
 21
199.865786
  0
LINE
  8
2
 62
134
  6
CONTINUOUS
 10
81.482963
 20
199.606967
 11
82.448889
 21
199.348148
  0
LINE
  8
2
 62
134
  6
CONTINUOUS
 10
82.448889
 20
199.865786
 11
82.448889
 21
199.348148
  0
LINE
  8
2
 62
134
  6
CONTINUOUS
 10
141.000000
 20
199.606967
 11
139.068148
 21
199.089329
  0
LINE
  8
2
 62
134
  6
CONTINUOUS
 10
141.000000
 20
199.606967
 11
139.068148
 21
200.124605
  0
LINE
  8
2
 62
134
  6
CONTINUOUS
 10
139.068148
 20
199.089329
 11
139.068148
 21
200.124605
  0
LINE
  8
2
 62
134
  6
CONTINUOUS
 10
140.517037
 20
199.606967
 11
139.551111
 21
199.348148
  0
LINE
  8
2
 62
134
  6
CONTINUOUS
 10
140.517037
 20
199.606967
 11
139.551111
 21
199.865786
  0
LINE
  8
2
 62
134
  6
CONTINUOUS
 10
139.551111
 20
199.348148
 11
139.551111
 21
199.865786
  0
TEXT
  8
2
 62
134
  6
CONTINUOUS
 10
109.289012
 20
199.606967
 40
4.000000
 41
0.500000
  1
60
  7
KANJI
 50
0.000000
 51
30.000000
  0
ENDBLK
  0
BLOCK
  8
2
 62
134
  6
CONTINUOUS
  2
*D10
 70
    65
 10
0.0
 20
0.0
  0
LINE
  8
2
 62
134
  6
CONTINUOUS
 10
141.000000
 20
199.606967
 11
151.000000
 21
199.606967
  0
LINE
  8
2
 62
134
  6
CONTINUOUS
 10
141.000000
 20
201.606967
 11
141.000000
 21
193.800000
  0
LINE
  8
2
 62
134
  6
CONTINUOUS
 10
151.000000
 20
201.606967
 11
151.000000
 21
188.026944
  0
LINE
  8
2
 62
134
  6
CONTINUOUS
 10
141.000000
 20
199.606967
 11
142.931852
 21
200.124605
  0
LINE
  8
2
 62
134
  6
CONTINUOUS
 10
141.000000
 20
199.606967
 11
142.931852
 21
199.089329
  0
LINE
  8
2
 62
134
  6
CONTINUOUS
 10
142.931852
 20
200.124605
 11
142.931852
 21
199.089329
  0
LINE
  8
2
 62
134
  6
CONTINUOUS
 10
141.482963
 20
199.606967
 11
142.448889
 21
199.865786
  0
LINE
  8
2
 62
134
  6
CONTINUOUS
 10
141.482963
 20
199.606967
 11
142.448889
 21
199.348148
  0
LINE
  8
2
 62
134
  6
CONTINUOUS
 10
142.448889
 20
199.865786
 11
142.448889
 21
199.348148
  0
LINE
  8
2
 62
134
  6
CONTINUOUS
 10
151.000000
 20
199.606967
 11
149.068148
 21
199.089329
  0
LINE
  8
2
 62
134
  6
CONTINUOUS
 10
151.000000
 20
199.606967
 11
149.068148
 21
200.124605
  0
LINE
  8
2
 62
134
  6
CONTINUOUS
 10
149.068148
 20
199.089329
 11
149.068148
 21
200.124605
  0
LINE
  8
2
 62
134
  6
CONTINUOUS
 10
150.517037
 20
199.606967
 11
149.551111
 21
199.348148
  0
LINE
  8
2
 62
134
  6
CONTINUOUS
 10
150.517037
 20
199.606967
 11
149.551111
 21
199.865786
  0
LINE
  8
2
 62
134
  6
CONTINUOUS
 10
149.551111
 20
199.348148
 11
149.551111
 21
199.865786
  0
TEXT
  8
2
 62
134
  6
CONTINUOUS
 10
143.557311
 20
199.606967
 40
4.000000
 41
0.500000
  1
10
  7
KANJI
 50
0.000000
 51
30.000000
  0
ENDBLK
  0
BLOCK
  8
2
 62
134
  6
CONTINUOUS
  2
*D11
 70
    65
 10
0.0
 20
0.0
  0
LINE
  8
2
 62
134
  6
CONTINUOUS
 10
151.000000
 20
199.606967
 11
180.000000
 21
199.606967
  0
LINE
  8
2
 62
134
  6
CONTINUOUS
 10
151.000000
 20
201.606967
 11
151.000000
 21
188.026944
  0
LINE
  8
2
 62
134
  6
CONTINUOUS
 10
180.000000
 20
201.606967
 11
180.000000
 21
184.472818
  0
LINE
  8
2
 62
134
  6
CONTINUOUS
 10
151.000000
 20
199.606967
 11
152.931852
 21
200.124605
  0
LINE
  8
2
 62
134
  6
CONTINUOUS
 10
151.000000
 20
199.606967
 11
152.931852
 21
199.089329
  0
LINE
  8
2
 62
134
  6
CONTINUOUS
 10
152.931852
 20
200.124605
 11
152.931852
 21
199.089329
  0
LINE
  8
2
 62
134
  6
CONTINUOUS
 10
151.482963
 20
199.606967
 11
152.448889
 21
199.865786
  0
LINE
  8
2
 62
134
  6
CONTINUOUS
 10
151.482963
 20
199.606967
 11
152.448889
 21
199.348148
  0
LINE
  8
2
 62
134
  6
CONTINUOUS
 10
152.448889
 20
199.865786
 11
152.448889
 21
199.348148
  0
LINE
  8
2
 62
134
  6
CONTINUOUS
 10
180.000000
 20
199.606967
 11
178.068148
 21
199.089329
  0
LINE
  8
2
 62
134
  6
CONTINUOUS
 10
180.000000
 20
199.606967
 11
178.068148
 21
200.124605
  0
LINE
  8
2
 62
134
  6
CONTINUOUS
 10
178.068148
 20
199.089329
 11
178.068148
 21
200.124605
  0
LINE
  8
2
 62
134
  6
CONTINUOUS
 10
179.517037
 20
199.606967
 11
178.551111
 21
199.348148
  0
LINE
  8
2
 62
134
  6
CONTINUOUS
 10
179.517037
 20
199.606967
 11
178.551111
 21
199.865786
  0
LINE
  8
2
 62
134
  6
CONTINUOUS
 10
178.551111
 20
199.348148
 11
178.551111
 21
199.865786
  0
TEXT
  8
2
 62
134
  6
CONTINUOUS
 10
158.370040
 20
199.606967
 40
4.000000
 41
0.500000
  1
30
  7
KANJI
 50
0.000000
 51
30.000000
  0
ENDBLK
  0
BLOCK
  8
2
 62
134
  6
CONTINUOUS
  2
*D12
 70
    65
 10
0.0
 20
0.0
  0
LINE
  8
2
 62
134
  6
CONTINUOUS
 10
81.000000
 20
207.071349
 11
180.000000
 21
207.071349
  0
LINE
  8
2
 62
134
  6
CONTINUOUS
 10
81.000000
 20
209.071349
 11
81.000000
 21
192.000000
  0
LINE
  8
2
 62
134
  6
CONTINUOUS
 10
180.000000
 20
209.071349
 11
180.000000
 21
186.472818
  0
LINE
  8
2
 62
134
  6
CONTINUOUS
 10
81.000000
 20
207.071349
 11
82.931852
 21
207.588987
  0
LINE
  8
2
 62
134
  6
CONTINUOUS
 10
81.000000
 20
207.071349
 11
82.931852
 21
206.553711
  0
LINE
  8
2
 62
134
  6
CONTINUOUS
 10
82.931852
 20
207.588987
 11
82.931852
 21
206.553711
  0
LINE
  8
2
 62
134
  6
CONTINUOUS
 10
81.482963
 20
207.071349
 11
82.448889
 21
207.330168
  0
LINE
  8
2
 62
134
  6
CONTINUOUS
 10
81.482963
 20
207.071349
 11
82.448889
 21
206.812530
  0
LINE
  8
2
 62
134
  6
CONTINUOUS
 10
82.448889
 20
207.330168
 11
82.448889
 21
206.812530
  0
LINE
  8
2
 62
134
  6
CONTINUOUS
 10
180.000000
 20
207.071349
 11
178.068148
 21
206.553711
  0
LINE
  8
2
 62
134
  6
CONTINUOUS
 10
180.000000
 20
207.071349
 11
178.068148
 21
207.588987
  0
LINE
  8
2
 62
134
  6
CONTINUOUS
 10
178.068148
 20
206.553711
 11
178.068148
 21
207.588987
  0
LINE
  8
2
 62
134
  6
CONTINUOUS
 10
179.517037
 20
207.071349
 11
178.551111
 21
206.812530
  0
LINE
  8
2
 62
134
  6
CONTINUOUS
 10
179.517037
 20
207.071349
 11
178.551111
 21
207.330168
  0
LINE
  8
2
 62
134
  6
CONTINUOUS
 10
178.551111
 20
206.812530
 11
178.551111
 21
207.330168
  0
TEXT
  8
2
 62
134
  6
CONTINUOUS
 10
123.949967
 20
207.071349
 40
4.000000
 41
0.500000
  1
100
  7
KANJI
 50
0.000000
 51
30.000000
  0
ENDBLK
  0
BLOCK
  8
2
 62
134
  6
CONTINUOUS
  2
*D13
 70
    65
 10
0.0
 20
0.0
  0
LINE
  8
2
 62
134
  6
CONTINUOUS
 10
26.358760
 20
199.606967
 11
42.358760
 21
199.606967
  0
LINE
  8
2
 62
134
  6
CONTINUOUS
 10
26.358760
 20
201.606967
 11
26.358760
 21
194.000000
  0
LINE
  8
2
 62
134
  6
CONTINUOUS
 10
42.358760
 20
201.606967
 11
42.358760
 21
192.000000
  0
LINE
  8
2
 62
134
  6
CONTINUOUS
 10
26.358760
 20
199.606967
 11
28.290611
 21
200.124605
  0
LINE
  8
2
 62
134
  6
CONTINUOUS
 10
26.358760
 20
199.606967
 11
28.290611
 21
199.089329
  0
LINE
  8
2
 62
134
  6
CONTINUOUS
 10
28.290611
 20
200.124605
 11
28.290611
 21
199.089329
  0
LINE
  8
2
 62
134
  6
CONTINUOUS
 10
26.841723
 20
199.606967
 11
27.807649
 21
199.865786
  0
LINE
  8
2
 62
134
  6
CONTINUOUS
 10
26.841723
 20
199.606967
 11
27.807649
 21
199.348148
  0
LINE
  8
2
 62
134
  6
CONTINUOUS
 10
27.807649
 20
199.865786
 11
27.807649
 21
199.348148
  0
LINE
  8
2
 62
134
  6
CONTINUOUS
 10
42.358760
 20
199.606967
 11
40.426908
 21
199.089329
  0
LINE
  8
2
 62
134
  6
CONTINUOUS
 10
42.358760
 20
199.606967
 11
40.426908
 21
200.124605
  0
LINE
  8
2
 62
134
  6
CONTINUOUS
 10
40.426908
 20
199.089329
 11
40.426908
 21
200.124605
  0
LINE
  8
2
 62
134
  6
CONTINUOUS
 10
41.875797
 20
199.606967
 11
40.909871
 21
199.348148
  0
LINE
  8
2
 62
134
  6
CONTINUOUS
 10
41.875797
 20
199.606967
 11
40.909871
 21
199.865786
  0
LINE
  8
2
 62
134
  6
CONTINUOUS
 10
40.909871
 20
199.348148
 11
40.909871
 21
199.865786
  0
TEXT
  8
2
 62
134
  6
CONTINUOUS
 10
32.433558
 20
199.606967
 40
4.000000
 41
0.500000
  1
16
  7
KANJI
 50
0.000000
 51
30.000000
  0
ENDBLK
  0
BLOCK
  8
2
 62
134
  6
CONTINUOUS
  2
*D14
 70
    65
 10
0.0
 20
0.0
  0
LINE
  8
2
 62
134
  6
CONTINUOUS
 10
46.958159
 20
165.000000
 11
46.958159
 21
180.000000
  0
LINE
  8
2
 62
134
  6
CONTINUOUS
 10
48.958159
 20
165.000000
 11
43.358760
 21
165.000000
  0
LINE
  8
2
 62
134
  6
CONTINUOUS
 10
48.958159
 20
180.000000
 11
44.358760
 21
180.000000
  0
LINE
  8
2
 62
134
  6
CONTINUOUS
 10
46.958159
 20
165.000000
 11
46.440521
 21
166.931852
  0
LINE
  8
2
 62
134
  6
CONTINUOUS
 10
46.958159
 20
165.000000
 11
47.475797
 21
166.931852
  0
LINE
  8
2
 62
134
  6
CONTINUOUS
 10
46.440521
 20
166.931852
 11
47.475797
 21
166.931852
  0
LINE
  8
2
 62
134
  6
CONTINUOUS
 10
46.958159
 20
165.482963
 11
46.699340
 21
166.448889
  0
LINE
  8
2
 62
134
  6
CONTINUOUS
 10
46.958159
 20
165.482963
 11
47.216978
 21
166.448889
  0
LINE
  8
2
 62
134
  6
CONTINUOUS
 10
46.699340
 20
166.448889
 11
47.216978
 21
166.448889
  0
LINE
  8
2
 62
134
  6
CONTINUOUS
 10
46.958159
 20
180.000000
 11
47.475797
 21
178.068148
  0
LINE
  8
2
 62
134
  6
CONTINUOUS
 10
46.958159
 20
180.000000
 11
46.440521
 21
178.068148
  0
LINE
  8
2
 62
134
  6
CONTINUOUS
 10
47.475797
 20
178.068148
 11
46.440521
 21
178.068148
  0
LINE
  8
2
 62
134
  6
CONTINUOUS
 10
46.958159
 20
179.517037
 11
47.216978
 21
178.551111
  0
LINE
  8
2
 62
134
  6
CONTINUOUS
 10
46.958159
 20
179.517037
 11
46.699340
 21
178.551111
  0
LINE
  8
2
 62
134
  6
CONTINUOUS
 10
47.216978
 20
178.551111
 11
46.699340
 21
178.551111
  0
TEXT
  8
2
 62
134
  6
CONTINUOUS
 10
46.958159
 20
170.500000
 40
4.000000
 41
0.500000
  1
15
  7
KANJI
 50
90.000000
 51
30.000000
  0
ENDBLK
  0
BLOCK
  8
2
 62
134
  6
CONTINUOUS
  2
*D15
 70
    65
 10
0.0
 20
0.0
  0
LINE
  8
2
 62
134
  6
CONTINUOUS
 10
46.958159
 20
180.000000
 11
46.958159
 21
190.000000
  0
LINE
  8
2
 62
134
  6
CONTINUOUS
 10
48.958159
 20
190.000000
 11
44.358760
 21
190.000000
  0
LINE
  8
2
 62
134
  6
CONTINUOUS
 10
46.958159
 20
180.000000
 11
46.440521
 21
181.931852
  0
LINE
  8
2
 62
134
  6
CONTINUOUS
 10
46.958159
 20
180.000000
 11
47.475797
 21
181.931852
  0
LINE
  8
2
 62
134
  6
CONTINUOUS
 10
46.440521
 20
181.931852
 11
47.475797
 21
181.931852
  0
LINE
  8
2
 62
134
  6
CONTINUOUS
 10
46.958159
 20
180.482963
 11
46.699340
 21
181.448889
  0
LINE
  8
2
 62
134
  6
CONTINUOUS
 10
46.958159
 20
180.482963
 11
47.216978
 21
181.448889
  0
LINE
  8
2
 62
134
  6
CONTINUOUS
 10
46.699340
 20
181.448889
 11
47.216978
 21
181.448889
  0
LINE
  8
2
 62
134
  6
CONTINUOUS
 10
46.958159
 20
190.000000
 11
47.475797
 21
188.068148
  0
LINE
  8
2
 62
134
  6
CONTINUOUS
 10
46.958159
 20
190.000000
 11
46.440521
 21
188.068148
  0
LINE
  8
2
 62
134
  6
CONTINUOUS
 10
47.475797
 20
188.068148
 11
46.440521
 21
188.068148
  0
LINE
  8
2
 62
134
  6
CONTINUOUS
 10
46.958159
 20
189.517037
 11
47.216978
 21
188.551111
  0
LINE
  8
2
 62
134
  6
CONTINUOUS
 10
46.958159
 20
189.517037
 11
46.699340
 21
188.551111
  0
LINE
  8
2
 62
134
  6
CONTINUOUS
 10
47.216978
 20
188.551111
 11
46.699340
 21
188.551111
  0
TEXT
  8
2
 62
134
  6
CONTINUOUS
 10
46.958159
 20
183.000000
 40
4.000000
 41
0.500000
  1
10
  7
KANJI
 50
90.000000
 51
30.000000
  0
ENDBLK
  0
BLOCK
  8
2
 62
134
  6
CONTINUOUS
  2
*D16
 70
    65
 10
0.0
 20
0.0
  0
LINE
  8
2
 62
134
  6
CONTINUOUS
 10
46.958159
 20
182.000000
 11
46.958159
 21
201.000000
  0
LINE
  8
2
 62
134
  6
CONTINUOUS
 10
48.958159
 20
190.000000
 11
44.358760
 21
190.000000
  0
LINE
  8
2
 62
134
  6
CONTINUOUS
 10
48.958159
 20
193.000000
 11
42.522922
 21
193.000000
  0
LINE
  8
2
 62
134
  6
CONTINUOUS
 10
46.958159
 20
190.000000
 11
47.475797
 21
188.068148
  0
LINE
  8
2
 62
134
  6
CONTINUOUS
 10
46.958159
 20
190.000000
 11
46.440521
 21
188.068148
  0
LINE
  8
2
 62
134
  6
CONTINUOUS
 10
47.475797
 20
188.068148
 11
46.440521
 21
188.068148
  0
LINE
  8
2
 62
134
  6
CONTINUOUS
 10
46.958159
 20
189.517037
 11
47.216978
 21
188.551111
  0
LINE
  8
2
 62
134
  6
CONTINUOUS
 10
46.958159
 20
189.517037
 11
46.699340
 21
188.551111
  0
LINE
  8
2
 62
134
  6
CONTINUOUS
 10
47.216978
 20
188.551111
 11
46.699340
 21
188.551111
  0
LINE
  8
2
 62
134
  6
CONTINUOUS
 10
46.958159
 20
193.000000
 11
46.440521
 21
194.931852
  0
LINE
  8
2
 62
134
  6
CONTINUOUS
 10
46.958159
 20
193.000000
 11
47.475797
 21
194.931852
  0
LINE
  8
2
 62
134
  6
CONTINUOUS
 10
46.440521
 20
194.931852
 11
47.475797
 21
194.931852
  0
LINE
  8
2
 62
134
  6
CONTINUOUS
 10
46.958159
 20
193.482963
 11
46.699340
 21
194.448889
  0
LINE
  8
2
 62
134
  6
CONTINUOUS
 10
46.958159
 20
193.482963
 11
47.216978
 21
194.448889
  0
LINE
  8
2
 62
134
  6
CONTINUOUS
 10
46.699340
 20
194.448889
 11
47.216978
 21
194.448889
  0
TEXT
  8
2
 62
134
  6
CONTINUOUS
 10
46.958159
 20
190.462335
 40
4.000000
 41
0.500000
  1
3
  7
KANJI
 50
90.000000
 51
30.000000
  0
ENDBLK
  0
BLOCK
  8
2
 62
134
  6
CONTINUOUS
  2
*D17
 70
    65
 10
0.0
 20
0.0
  0
LINE
  8
2
 62
134
  6
CONTINUOUS
 10
52.077625
 20
165.000000
 11
52.077625
 21
193.000000
  0
LINE
  8
2
 62
134
  6
CONTINUOUS
 10
54.077625
 20
165.000000
 11
43.358760
 21
165.000000
  0
LINE
  8
2
 62
134
  6
CONTINUOUS
 10
54.077625
 20
193.000000
 11
43.358760
 21
193.000000
  0
LINE
  8
2
 62
134
  6
CONTINUOUS
 10
52.077625
 20
165.000000
 11
51.559987
 21
166.931852
  0
LINE
  8
2
 62
134
  6
CONTINUOUS
 10
52.077625
 20
165.000000
 11
52.595263
 21
166.931852
  0
LINE
  8
2
 62
134
  6
CONTINUOUS
 10
51.559987
 20
166.931852
 11
52.595263
 21
166.931852
  0
LINE
  8
2
 62
134
  6
CONTINUOUS
 10
52.077625
 20
165.482963
 11
51.818806
 21
166.448889
  0
LINE
  8
2
 62
134
  6
CONTINUOUS
 10
52.077625
 20
165.482963
 11
52.336444
 21
166.448889
  0
LINE
  8
2
 62
134
  6
CONTINUOUS
 10
51.818806
 20
166.448889
 11
52.336444
 21
166.448889
  0
LINE
  8
2
 62
134
  6
CONTINUOUS
 10
52.077625
 20
193.000000
 11
52.595263
 21
191.068148
  0
LINE
  8
2
 62
134
  6
CONTINUOUS
 10
52.077625
 20
193.000000
 11
51.559987
 21
191.068148
  0
LINE
  8
2
 62
134
  6
CONTINUOUS
 10
52.595263
 20
191.068148
 11
51.559987
 21
191.068148
  0
LINE
  8
2
 62
134
  6
CONTINUOUS
 10
52.077625
 20
192.517037
 11
52.336444
 21
191.551111
  0
LINE
  8
2
 62
134
  6
CONTINUOUS
 10
52.077625
 20
192.517037
 11
51.818806
 21
191.551111
  0
LINE
  8
2
 62
134
  6
CONTINUOUS
 10
52.336444
 20
191.551111
 11
51.818806
 21
191.551111
  0
TEXT
  8
2
 62
134
  6
CONTINUOUS
 10
52.077625
 20
178.000000
 40
4.000000
 41
0.500000
  1
28
  7
KANJI
 50
90.000000
 51
30.000000
  0
ENDBLK
  0
ENDSEC
  0
SECTION
  2
ENTITIES
  0
TEXT
  8
5
 62
94
  6
CONTINUOUS
 10
125.962748
 20
25.651490
 40
1.750000
 41
4.000000
  1
製図
  7
KANJI
 50
-90.000000
 51
0.000000
  0
TEXT
  8
5
 62
94
  6
CONTINUOUS
 10
145.795530
 20
25.487583
 40
1.750000
 41
4.000000
  1
図番
  7
KANJI
 50
-90.000000
 51
0.000000
  0
TEXT
  8
5
 62
94
  6
CONTINUOUS
 10
145.795530
 20
38.764073
 40
1.750000
 41
4.000000
  1
図　名
  7
KANJI
 50
-90.000000
 51
0.000000
  0
TEXT
  8
5
 62
94
  6
CONTINUOUS
 10
80.888245
 20
33.355132
 40
1.750000
 41
4.000000
  1
日付
  7
KANJI
 50
-90.000000
 51
0.000000
  0
TEXT
  8
5
 62
94
  6
CONTINUOUS
 10
115.964404
 20
33.519040
 40
1.750000
 41
4.000000
  1
図法
  7
KANJI
 50
-90.000000
 51
0.000000
  0
TEXT
  8
5
 62
94
  6
CONTINUOUS
 10
115.800497
 20
41.550497
 40
1.750000
 41
4.000000
  1
尺度
  7
KANJI
 50
-90.000000
 51
0.000000
  0
TEXT
  8
5
 62
94
  6
CONTINUOUS
 10
80.888245
 20
41.386589
 40
1.750000
 41
4.000000
  1
公差
  7
KANJI
 50
-90.000000
 51
0.000000
  0
TEXT
  8
5
 62
94
  6
CONTINUOUS
 10
80.888245
 20
25.487583
 40
1.750000
 41
4.000000
  1
承認
  7
KANJI
 50
-90.000000
 51
0.000000
  0
TEXT
  8
5
 62
94
  6
CONTINUOUS
 10
105.966060
 20
25.487583
 40
1.750000
 41
4.000000
  1
設計
  7
KANJI
 50
-90.000000
 51
0.000000
  0
TEXT
  8
5
 62
94
  6
CONTINUOUS
 10
99.409768
 20
11.555464
 40
4.500000
 41
1.888889
  1
ジャパンセンサー株式会社
  7
KANJI
 50
0.000000
 51
0.000000
  0
LINE
  8
5
 62
94
  6
CONTINUOUS
 10
200.000000
 20
10.000000
 11
200.000000
 21
285.000000
  0
LINE
  8
5
 62
94
  6
CONTINUOUS
 10
200.000000
 20
285.000000
 11
15.000000
 21
285.000000
  0
LINE
  8
5
 62
94
  6
CONTINUOUS
 10
15.000000
 20
285.000000
 11
15.000000
 21
10.000000
  0
LINE
  8
5
 62
94
  6
CONTINUOUS
 10
15.000000
 20
10.000000
 11
200.000000
 21
10.000000
  0
LINE
  8
5
 62
94
  6
CONTINUOUS
 10
80.000000
 20
42.000000
 11
200.000000
 21
42.000000
  0
LINE
  8
5
 62
94
  6
CONTINUOUS
 10
80.000000
 20
10.000000
 11
80.000000
 21
42.000000
  0
LINE
  8
5
 62
94
  6
CONTINUOUS
 10
200.000000
 20
18.000000
 11
80.000000
 21
18.000000
  0
LINE
  8
5
 62
94
  6
CONTINUOUS
 10
145.000000
 20
42.000000
 11
145.000000
 21
18.000000
  0
LINE
  8
5
 62
94
  6
CONTINUOUS
 10
200.000000
 20
26.000000
 11
80.000000
 21
26.000000
  0
LINE
  8
5
 62
94
  6
CONTINUOUS
 10
150.000000
 20
18.000000
 11
150.000000
 21
42.000000
  0
LINE
  8
5
 62
94
  6
CONTINUOUS
 10
120.000000
 20
42.000000
 11
120.000000
 21
26.000000
  0
LINE
  8
5
 62
94
  6
CONTINUOUS
 10
85.000000
 20
18.000000
 11
85.000000
 21
42.000000
  0
LINE
  8
5
 62
94
  6
CONTINUOUS
 10
80.000000
 20
34.000000
 11
145.000000
 21
34.000000
  0
LINE
  8
5
 62
94
  6
CONTINUOUS
 10
115.000000
 20
42.000000
 11
115.000000
 21
26.000000
  0
LINE
  8
5
 62
94
  6
CONTINUOUS
 10
105.000000
 20
18.000000
 11
105.000000
 21
26.000000
  0
LINE
  8
5
 62
94
  6
CONTINUOUS
 10
125.000000
 20
18.000000
 11
125.000000
 21
26.000000
  0
LINE
  8
5
 62
94
  6
CONTINUOUS
 10
110.000000
 20
26.000000
 11
110.000000
 21
18.000000
  0
LINE
  8
5
 62
94
  6
CONTINUOUS
 10
130.000000
 20
26.000000
 11
130.000000
 21
18.000000
  0
TEXT
  8
5
 62
94
  6
CONTINUOUS
 10
124.979305
 20
35.649834
 40
4.000000
 41
1.000000
  1
１／１
  7
KANJI
 50
0.000000
 51
0.000000
  0
TEXT
  8
5
 62
94
  6
CONTINUOUS
 10
123.995861
 20
27.290563
 40
4.000000
 41
1.000000
  1
三角法
  7
KANJI
 50
0.000000
 51
0.000000
  0
LINE
  8
1
 62
7
  6
CONTINUOUS
 10
81.000000
 20
190.000000
 11
81.000000
 21
165.000000
  0
LINE
  8
1
 62
7
  6
CONTINUOUS
 10
81.000000
 20
165.000000
 11
141.000000
 21
165.000000
  0
LINE
  8
1
 62
7
  6
CONTINUOUS
 10
141.000000
 20
165.000000
 11
141.000000
 21
190.000000
  0
LINE
  8
1
 62
7
  6
CONTINUOUS
 10
141.000000
 20
190.000000
 11
81.000000
 21
190.000000
  0
LINE
  8
1
 62
7
  6
CONTINUOUS
 10
81.000000
 20
166.000000
 11
141.000000
 21
166.000000
  0
CIRCLE
  8
1
 62
7
  6
CONTINUOUS
 10
116.000000
 20
170.000000
 40
1.750000
  0
CIRCLE
  8
1
 62
7
  6
CONTINUOUS
 10
96.000000
 20
170.000000
 40
1.750000
  0
LINE
  8
1
 62
7
  6
DASHDOT
 10
96.000000
 20
175.612943
 11
96.000000
 21
166.000000
  0
LINE
  8
1
 62
7
  6
DASHDOT
 10
110.389764
 20
170.000000
 11
121.351870
 21
170.000000
  0
LINE
  8
1
 62
7
  6
DASHDOT
 10
141.000000
 20
190.000000
 11
141.000000
 21
192.300000
  0
LINE
  8
1
 62
7
  6
CONTINUOUS
 10
141.000000
 20
192.300000
 11
141.000000
 21
190.000000
  0
CIRCLE
  8
1
 62
7
  6
CONTINUOUS
 10
146.000000
 20
189.000000
 40
1.750000
  0
LINE
  8
1
 62
7
  6
CONTINUOUS
 10
141.000000
 20
192.300000
 11
150.500000
 21
192.300000
  0
LINE
  8
1
 62
7
  6
CONTINUOUS
 10
150.500000
 20
192.300000
 11
151.000000
 21
191.800000
  0
LINE
  8
1
 62
7
  6
CONTINUOUS
 10
151.000000
 20
191.800000
 11
151.000000
 21
165.800000
  0
LINE
  8
1
 62
7
  6
CONTINUOUS
 10
141.000000
 20
165.300000
 11
150.500000
 21
165.300000
  0
LINE
  8
1
 62
7
  6
CONTINUOUS
 10
151.000000
 20
165.800000
 11
150.500000
 21
165.300000
  0
LINE
  8
1
 62
7
  6
CONTINUOUS
 10
141.000000
 20
191.800000
 11
150.500000
 21
191.800000
  0
LINE
  8
1
 62
7
  6
CONTINUOUS
 10
150.500000
 20
191.800000
 11
150.500000
 21
165.800000
  0
LINE
  8
1
 62
7
  6
CONTINUOUS
 10
150.500000
 20
165.800000
 11
141.000000
 21
165.800000
  0
LINE
  8
1
 62
7
  6
CONTINUOUS
 10
141.000000
 20
193.000000
 11
141.000000
 21
190.000000
  0
LINE
  8
1
 62
7
  6
CONTINUOUS
 10
141.000000
 20
193.000000
 11
92.000000
 21
193.000000
  0
LINE
  8
1
 62
7
  6
CONTINUOUS
 10
91.000000
 20
190.000000
 11
91.000000
 21
192.000000
  0
LINE
  8
1
 62
7
  6
CONTINUOUS
 10
92.000000
 20
193.000000
 11
91.000000
 21
192.000000
  0
LINE
  8
1
 62
7
  6
CONTINUOUS
 10
91.000000
 20
192.000000
 11
141.000000
 21
192.000000
  0
LINE
  8
1
 62
7
  6
DASHDOT
 10
142.215059
 20
189.000000
 11
149.815453
 21
189.000000
  0
LINE
  8
1
 62
7
  6
DASHDOT
 10
146.000000
 20
193.846580
 11
146.000000
 21
184.492249
  0
LINE
  8
1
 62
7
  6
CONTINUOUS
 10
151.000000
 20
186.026944
 11
179.500000
 21
186.026944
  0
LINE
  8
1
 62
7
  6
CONTINUOUS
 10
179.500000
 20
186.026944
 11
180.000000
 21
185.526944
  0
LINE
  8
1
 62
7
  6
CONTINUOUS
 10
180.000000
 20
185.526944
 11
180.000000
 21
174.500000
  0
LINE
  8
1
 62
7
  6
CONTINUOUS
 10
151.057825
 20
174.000000
 11
179.500000
 21
174.000000
  0
LINE
  8
1
 62
7
  6
CONTINUOUS
 10
180.000000
 20
174.500000
 11
179.500000
 21
174.000000
  0
LINE
  8
1
 62
7
  6
DOT
 10
84.115896
 20
166.000000
 11
84.115896
 21
173.968627
  0
LINE
  8
1
 62
7
  6
DOT
 10
84.700541
 20
166.000000
 11
84.700541
 21
174.000000
  0
LINE
  8
1
 62
7
  6
DOT
 10
93.250984
 20
166.000000
 11
93.250984
 21
173.895546
  0
LINE
  8
1
 62
7
  6
DOT
 10
93.835630
 20
166.000000
 11
93.835630
 21
174.000000
  0
LINE
  8
1
 62
7
  6
DOT
 10
89.000000
 20
162.933440
 11
89.000000
 21
174.626353
  0
LINE
  8
1
 62
7
  6
DOT
 10
81.000000
 20
183.103716
 11
93.283000
 21
183.103716
  0
LINE
  8
1
 62
7
  6
DOT
 10
93.283000
 20
183.103716
 11
93.283000
 21
183.030635
  0
LINE
  8
1
 62
7
  6
DOT
 10
81.000000
 20
182.592151
 11
93.283000
 21
182.592151
  0
LINE
  8
1
 62
7
  6
DOT
 10
81.000000
 20
176.964936
 11
93.283000
 21
176.964936
  0
LINE
  8
1
 62
7
  6
DOT
 10
81.000000
 20
177.476501
 11
93.283000
 21
177.476501
  0
LINE
  8
1
 62
7
  6
CONTINUOUS
 10
188.621309
 20
183.615281
 11
188.626791
 21
183.604192
  0
LINE
  8
1
 62
7
  6
CONTINUOUS
 10
188.626791
 20
183.604192
 11
188.643098
 21
183.571228
  0
LINE
  8
1
 62
7
  6
CONTINUOUS
 10
188.643098
 20
183.571228
 11
188.669866
 21
183.517278
  0
LINE
  8
1
 62
7
  6
CONTINUOUS
 10
188.669866
 20
183.517278
 11
188.706662
 21
183.443783
  0
LINE
  8
1
 62
7
  6
CONTINUOUS
 10
188.706662
 20
183.443783
 11
188.753173
 21
183.352673
  0
LINE
  8
1
 62
7
  6
CONTINUOUS
 10
188.753173
 20
183.352673
 11
188.809357
 21
183.246302
  0
LINE
  8
1
 62
7
  6
CONTINUOUS
 10
188.809357
 20
183.246302
 11
188.875489
 21
183.127378
  0
LINE
  8
1
 62
7
  6
CONTINUOUS
 10
188.875489
 20
183.127378
 11
188.952049
 21
182.998900
  0
LINE
  8
1
 62
7
  6
CONTINUOUS
 10
188.952049
 20
182.998900
 11
189.039437
 21
182.864106
  0
LINE
  8
1
 62
7
  6
CONTINUOUS
 10
189.039437
 20
182.864106
 11
189.137577
 21
182.726426
  0
LINE
  8
1
 62
7
  6
CONTINUOUS
 10
189.137577
 20
182.726426
 11
189.245470
 21
182.589435
  0
LINE
  8
1
 62
7
  6
CONTINUOUS
 10
189.245470
 20
182.589435
 11
189.360817
 21
182.456802
  0
LINE
  8
1
 62
7
  6
CONTINUOUS
 10
189.360817
 20
182.456802
 11
189.479817
 21
182.332213
  0
LINE
  8
1
 62
7
  6
CONTINUOUS
 10
189.479817
 20
182.332213
 11
189.597219
 21
182.219283
  0
LINE
  8
1
 62
7
  6
CONTINUOUS
 10
189.597219
 20
182.219283
 11
189.706665
 21
182.121430
  0
LINE
  8
1
 62
7
  6
CONTINUOUS
 10
189.706665
 20
182.121430
 11
189.801293
 21
182.041739
  0
LINE
  8
1
 62
7
  6
CONTINUOUS
 10
189.801293
 20
182.041739
 11
189.874523
 21
181.982811
  0
LINE
  8
1
 62
7
  6
CONTINUOUS
 10
189.874523
 20
181.982811
 11
189.920885
 21
181.946626
  0
LINE
  8
1
 62
7
  6
CONTINUOUS
 10
189.920885
 20
181.946626
 11
189.936762
 21
181.934424
  0
LINE
  8
1
 62
7
  6
CONTINUOUS
 10
189.936762
 20
181.934424
 11
189.952781
 21
181.922207
  0
LINE
  8
1
 62
7
  6
CONTINUOUS
 10
189.952781
 20
181.922207
 11
190.001233
 21
181.885798
  0
LINE
  8
1
 62
7
  6
CONTINUOUS
 10
190.001233
 20
181.885798
 11
190.083154
 21
181.825939
  0
LINE
  8
1
 62
7
  6
CONTINUOUS
 10
190.083154
 20
181.825939
 11
190.199777
 21
181.743891
  0
LINE
  8
1
 62
7
  6
CONTINUOUS
 10
190.199777
 20
181.743891
 11
190.351923
 21
181.641463
  0
LINE
  8
1
 62
7
  6
CONTINUOUS
 10
190.351923
 20
181.641463
 11
190.539316
 21
181.521034
  0
LINE
  8
1
 62
7
  6
CONTINUOUS
 10
190.539316
 20
181.521034
 11
190.760002
 21
181.385551
  0
LINE
  8
1
 62
7
  6
CONTINUOUS
 10
190.760002
 20
181.385551
 11
191.009964
 21
181.238494
  0
LINE
  8
1
 62
7
  6
CONTINUOUS
 10
191.009964
 20
181.238494
 11
191.283041
 21
181.083805
  0
LINE
  8
1
 62
7
  6
CONTINUOUS
 10
191.283041
 20
181.083805
 11
191.571138
 21
180.925772
  0
LINE
  8
1
 62
7
  6
CONTINUOUS
 10
191.571138
 20
180.925772
 11
191.864719
 21
180.768886
  0
LINE
  8
1
 62
7
  6
CONTINUOUS
 10
191.864719
 20
180.768886
 11
192.153470
 21
180.617674
  0
LINE
  8
1
 62
7
  6
CONTINUOUS
 10
192.153470
 20
180.617674
 11
192.427023
 21
180.476526
  0
LINE
  8
1
 62
7
  6
CONTINUOUS
 10
192.427023
 20
180.476526
 11
192.675635
 21
180.349538
  0
LINE
  8
1
 62
7
  6
CONTINUOUS
 10
192.675635
 20
180.349538
 11
192.890715
 21
180.240367
  0
LINE
  8
1
 62
7
  6
CONTINUOUS
 10
192.890715
 20
180.240367
 11
193.065171
 21
180.152123
  0
LINE
  8
1
 62
7
  6
CONTINUOUS
 10
193.065171
 20
180.152123
 11
193.193552
 21
180.087286
  0
LINE
  8
1
 62
7
  6
CONTINUOUS
 10
193.193552
 20
180.087286
 11
193.272061
 21
180.047657
  0
LINE
  8
1
 62
7
  6
CONTINUOUS
 10
193.272061
 20
180.047657
 11
193.298474
 21
180.034326
  0
LINE
  8
1
 62
7
  6
CONTINUOUS
 10
193.298474
 20
180.034326
 11
193.283274
 21
180.027972
  0
LINE
  8
1
 62
7
  6
CONTINUOUS
 10
193.283274
 20
180.027972
 11
193.238088
 21
180.009076
  0
LINE
  8
1
 62
7
  6
CONTINUOUS
 10
193.238088
 20
180.009076
 11
193.164142
 21
179.978106
  0
LINE
  8
1
 62
7
  6
CONTINUOUS
 10
193.164142
 20
179.978106
 11
193.063433
 21
179.935725
  0
LINE
  8
1
 62
7
  6
CONTINUOUS
 10
193.063433
 20
179.935725
 11
192.938657
 21
179.882670
  0
LINE
  8
1
 62
7
  6
CONTINUOUS
 10
192.938657
 20
179.882670
 11
192.793132
 21
179.819643
  0
LINE
  8
1
 62
7
  6
CONTINUOUS
 10
192.793132
 20
179.819643
 11
192.630697
 21
179.747267
  0
LINE
  8
1
 62
7
  6
CONTINUOUS
 10
192.630697
 20
179.747267
 11
192.455621
 21
179.666129
  0
LINE
  8
1
 62
7
  6
CONTINUOUS
 10
192.455621
 20
179.666129
 11
192.272500
 21
179.576931
  0
LINE
  8
1
 62
7
  6
CONTINUOUS
 10
192.272500
 20
179.576931
 11
192.086165
 21
179.480705
  0
LINE
  8
1
 62
7
  6
CONTINUOUS
 10
192.086165
 20
179.480705
 11
191.901580
 21
179.379057
  0
LINE
  8
1
 62
7
  6
CONTINUOUS
 10
191.901580
 20
179.379057
 11
191.723733
 21
179.274370
  0
LINE
  8
1
 62
7
  6
CONTINUOUS
 10
191.723733
 20
179.274370
 11
191.557522
 21
179.169895
  0
LINE
  8
1
 62
7
  6
CONTINUOUS
 10
191.557522
 20
179.169895
 11
191.407624
 21
179.069700
  0
LINE
  8
1
 62
7
  6
CONTINUOUS
 10
191.407624
 20
179.069700
 11
191.278353
 21
178.978435
  0
LINE
  8
1
 62
7
  6
CONTINUOUS
 10
191.278353
 20
178.978435
 11
191.173513
 21
178.900942
  0
LINE
  8
1
 62
7
  6
CONTINUOUS
 10
191.173513
 20
178.900942
 11
191.096248
 21
178.841762
  0
LINE
  8
1
 62
7
  6
CONTINUOUS
 10
191.096248
 20
178.841762
 11
191.048915
 21
178.804619
  0
LINE
  8
1
 62
7
  6
CONTINUOUS
 10
191.048915
 20
178.804619
 11
191.032972
 21
178.791954
  0
LINE
  8
1
 62
7
  6
CONTINUOUS
 10
191.032972
 20
178.791954
 11
191.017020
 21
178.779202
  0
LINE
  8
1
 62
7
  6
CONTINUOUS
 10
191.017020
 20
178.779202
 11
190.969537
 21
178.740790
  0
LINE
  8
1
 62
7
  6
CONTINUOUS
 10
190.969537
 20
178.740790
 11
190.891652
 21
178.676334
  0
LINE
  8
1
 62
7
  6
CONTINUOUS
 10
190.891652
 20
178.676334
 11
190.785241
 21
178.585486
  0
LINE
  8
1
 62
7
  6
CONTINUOUS
 10
190.785241
 20
178.585486
 11
190.652920
 21
178.468296
  0
LINE
  8
1
 62
7
  6
CONTINUOUS
 10
190.652920
 20
178.468296
 11
190.498022
 21
178.325607
  0
LINE
  8
1
 62
7
  6
CONTINUOUS
 10
190.498022
 20
178.325607
 11
190.324548
 21
178.159394
  0
LINE
  8
1
 62
7
  6
CONTINUOUS
 10
190.324548
 20
178.159394
 11
190.137085
 21
177.972976
  0
LINE
  8
1
 62
7
  6
CONTINUOUS
 10
190.137085
 20
177.972976
 11
189.940701
 21
177.771038
  0
LINE
  8
1
 62
7
  6
CONTINUOUS
 10
189.940701
 20
177.771038
 11
189.740799
 21
177.559481
  0
LINE
  8
1
 62
7
  6
CONTINUOUS
 10
189.740799
 20
177.559481
 11
189.542950
 21
177.345094
  0
LINE
  8
1
 62
7
  6
CONTINUOUS
 10
189.542950
 20
177.345094
 11
189.352717
 21
177.135126
  0
LINE
  8
1
 62
7
  6
CONTINUOUS
 10
189.352717
 20
177.135126
 11
189.175466
 21
176.936816
  0
LINE
  8
1
 62
7
  6
CONTINUOUS
 10
189.175466
 20
176.936816
 11
189.016196
 21
176.756958
  0
LINE
  8
1
 62
7
  6
CONTINUOUS
 10
189.016196
 20
176.756958
 11
188.879380
 21
176.601557
  0
LINE
  8
1
 62
7
  6
CONTINUOUS
 10
188.879380
 20
176.601557
 11
188.768837
 21
176.475597
  0
LINE
  8
1
 62
7
  6
CONTINUOUS
 10
188.768837
 20
176.475597
 11
188.687634
 21
176.382933
  0
LINE
  8
1
 62
7
  6
CONTINUOUS
 10
188.687634
 20
176.382933
 11
188.638004
 21
176.326272
  0
LINE
  8
1
 62
7
  6
CONTINUOUS
 10
188.638004
 20
176.326272
 11
188.621309
 21
176.307210
  0
LINE
  8
1
 62
7
  6
CONTINUOUS
 10
191.032972
 20
181.276698
 11
191.023255
 21
181.267875
  0
LINE
  8
1
 62
7
  6
CONTINUOUS
 10
191.023255
 20
181.267875
 11
190.994375
 21
181.241646
  0
LINE
  8
1
 62
7
  6
CONTINUOUS
 10
190.994375
 20
181.241646
 11
190.947197
 21
181.198730
  0
LINE
  8
1
 62
7
  6
CONTINUOUS
 10
190.947197
 20
181.198730
 11
190.883284
 21
181.140307
  0
LINE
  8
1
 62
7
  6
CONTINUOUS
 10
190.883284
 20
181.140307
 11
190.805019
 21
181.067994
  0
LINE
  8
1
 62
7
  6
CONTINUOUS
 10
190.805019
 20
181.067994
 11
190.715678
 21
180.983804
  0
LINE
  8
1
 62
7
  6
CONTINUOUS
 10
190.715678
 20
180.983804
 11
190.619376
 21
180.890096
  0
LINE
  8
1
 62
7
  6
CONTINUOUS
 10
190.619376
 20
180.890096
 11
190.520858
 21
180.789501
  0
LINE
  8
1
 62
7
  6
CONTINUOUS
 10
190.520858
 20
180.789501
 11
190.425126
 21
180.684847
  0
LINE
  8
1
 62
7
  6
CONTINUOUS
 10
190.425126
 20
180.684847
 11
190.336931
 21
180.579066
  0
LINE
  8
1
 62
7
  6
CONTINUOUS
 10
190.336931
 20
180.579066
 11
190.260239
 21
180.475100
  0
LINE
  8
1
 62
7
  6
CONTINUOUS
 10
190.260239
 20
180.475100
 11
190.197739
 21
180.375807
  0
LINE
  8
1
 62
7
  6
CONTINUOUS
 10
190.197739
 20
180.375807
 11
190.150528
 21
180.283872
  0
LINE
  8
1
 62
7
  6
CONTINUOUS
 10
190.150528
 20
180.283872
 11
190.118032
 21
180.201737
  0
LINE
  8
1
 62
7
  6
CONTINUOUS
 10
190.118032
 20
180.201737
 11
190.098207
 21
180.131535
  0
LINE
  8
1
 62
7
  6
CONTINUOUS
 10
190.098207
 20
180.131535
 11
190.087995
 21
180.075052
  0
LINE
  8
1
 62
7
  6
CONTINUOUS
 10
190.087995
 20
180.075052
 11
190.083960
 21
180.033695
  0
LINE
  8
1
 62
7
  6
CONTINUOUS
 10
190.083960
 20
180.033695
 11
190.082989
 21
180.008475
  0
LINE
  8
1
 62
7
  6
CONTINUOUS
 10
190.082989
 20
180.008475
 11
190.082923
 21
180.000000
  0
LINE
  8
1
 62
7
  6
CONTINUOUS
 10
190.082923
 20
180.000000
 11
190.082989
 21
179.991530
  0
LINE
  8
1
 62
7
  6
CONTINUOUS
 10
190.082989
 20
179.991530
 11
190.083960
 21
179.966380
  0
LINE
  8
1
 62
7
  6
CONTINUOUS
 10
190.083960
 20
179.966380
 11
190.087995
 21
179.925314
  0
LINE
  8
1
 62
7
  6
CONTINUOUS
 10
190.087995
 20
179.925314
 11
190.098207
 21
179.869569
  0
LINE
  8
1
 62
7
  6
CONTINUOUS
 10
190.098207
 20
179.869569
 11
190.118032
 21
179.800800
  0
LINE
  8
1
 62
7
  6
CONTINUOUS
 10
190.118032
 20
179.800800
 11
190.150528
 21
179.721013
  0
LINE
  8
1
 62
7
  6
CONTINUOUS
 10
190.150528
 20
179.721013
 11
190.197739
 21
179.632490
  0
LINE
  8
1
 62
7
  6
CONTINUOUS
 10
190.197739
 20
179.632490
 11
190.260239
 21
179.537713
  0
LINE
  8
1
 62
7
  6
CONTINUOUS
 10
190.260239
 20
179.537713
 11
190.336931
 21
179.439289
  0
LINE
  8
1
 62
7
  6
CONTINUOUS
 10
190.336931
 20
179.439289
 11
190.425126
 21
179.339881
  0
LINE
  8
1
 62
7
  6
CONTINUOUS
 10
190.425126
 20
179.339881
 11
190.520858
 21
179.242145
  0
LINE
  8
1
 62
7
  6
CONTINUOUS
 10
190.520858
 20
179.242145
 11
190.619376
 21
179.148669
  0
LINE
  8
1
 62
7
  6
CONTINUOUS
 10
190.619376
 20
179.148669
 11
190.715678
 21
179.061919
  0
LINE
  8
1
 62
7
  6
CONTINUOUS
 10
190.715678
 20
179.061919
 11
190.805019
 21
178.984186
  0
LINE
  8
1
 62
7
  6
CONTINUOUS
 10
190.805019
 20
178.984186
 11
190.883284
 21
178.917528
  0
LINE
  8
1
 62
7
  6
CONTINUOUS
 10
190.883284
 20
178.917528
 11
190.947197
 21
178.863724
  0
LINE
  8
1
 62
7
  6
CONTINUOUS
 10
190.947197
 20
178.863724
 11
190.994375
 21
178.824217
  0
LINE
  8
1
 62
7
  6
CONTINUOUS
 10
190.994375
 20
178.824217
 11
191.023255
 21
178.800075
  0
LINE
  8
1
 62
7
  6
CONTINUOUS
 10
191.023255
 20
178.800075
 11
191.032972
 21
178.791954
  0
LINE
  8
1
 62
7
  6
DOT
 10
112.178888
 20
174.000000
 11
151.000000
 21
174.000000
  0
LINE
  8
1
 62
7
  6
DOT
 10
112.178888
 20
186.131398
 11
112.178888
 21
174.104454
  0
LINE
  8
1
 62
7
  6
DOT
 10
151.000000
 20
186.026944
 11
112.178888
 21
186.026944
  0
LINE
  8
1
 62
7
  6
DASHDOT
 10
116.000000
 20
175.576403
 11
116.000000
 21
166.258612
  0
DIMENSION
  8
2
 62
134
  6
CONTINUOUS
  2
*D1
 10
81.000000
 20
174.845595
 11
88.500000
 21
175.345595
 70
     0
  1
15
 13
81.000000
 23
174.845595
 14
96.000000
 24
174.845595
 50
0.000000
  0
LINE
  8
1
 62
7
  6
DOT
 10
102.057210
 20
183.064961
 11
102.057210
 21
176.999262
  0
ARC
  8
1
 62
7
  6
DOT
 10
105.155630
 20
180.032111
 40
5.098551
 50
143.498392
 51
-143.498392
  0
LINE
  8
1
 62
7
  6
DOT
 10
101.048209
 20
183.052760
 11
102.057210
 21
183.052760
  0
LINE
  8
1
 62
7
  6
DOT
 10
101.048209
 20
177.011462
 11
102.057210
 21
177.011462
  0
LINE
  8
1
 62
7
  6
DOT
 10
112.070066
 20
173.891179
 11
101.616941
 21
184.344304
  0
LINE
  8
1
 62
7
  6
DOT
 10
93.250984
 20
182.000000
 11
100.376353
 21
182.000000
  0
LINE
  8
1
 62
7
  6
DOT
 10
92.520177
 20
178.000000
 11
100.449434
 21
178.000000
  0
DIMENSION
  8
2
 62
134
  6
CONTINUOUS
  2
*D2
 10
96.000000
 20
174.845595
 11
103.691806
 21
175.345595
 70
     0
  1
20
 13
96.000000
 23
174.845595
 14
116.000000
 24
174.845595
 50
0.000000
  0
LINE
  8
1
 62
7
  6
DASHDOT
 10
81.083046
 20
170.000000
 11
101.181594
 21
170.000000
  0
DIMENSION
  8
2
 62
134
  6
CONTINUOUS
  2
*D3
 10
76.771284
 20
170.022269
 11
76.271284
 21
167.500984
 70
     0
  1
5
 13
76.771284
 23
170.022269
 14
76.771284
 24
164.979700
 50
-90.000000
  0
LINE
  8
2
 62
134
  6
CONTINUOUS
 10
80.388780
 20
170.022269
 11
76.040477
 21
170.022269
  0
LINE
  8
2
 62
134
  6
CONTINUOUS
 10
80.242618
 20
165.000000
 11
75.967397
 21
165.000000
  0
LINE
  8
1
 62
7
  6
CONTINUOUS
 10
179.500000
 20
186.024699
 11
179.500000
 21
174.000000
  0
LINE
  8
1
 62
7
  6
CONTINUOUS
 10
27.358760
 20
193.000000
 11
26.358760
 21
192.000000
  0
LINE
  8
1
 62
7
  6
CONTINUOUS
 10
26.358760
 20
192.000000
 11
26.358760
 21
166.000000
  0
LINE
  8
1
 62
7
  6
CONTINUOUS
 10
26.358760
 20
166.000000
 11
27.358760
 21
165.000000
  0
LINE
  8
1
 62
7
  6
CONTINUOUS
 10
27.358760
 20
165.000000
 11
41.358760
 21
165.000000
  0
LINE
  8
1
 62
7
  6
CONTINUOUS
 10
41.358760
 20
165.000000
 11
42.358760
 21
166.000000
  0
LINE
  8
1
 62
7
  6
CONTINUOUS
 10
42.358760
 20
166.000000
 11
42.358760
 21
192.000000
  0
LINE
  8
1
 62
7
  6
CONTINUOUS
 10
27.358760
 20
193.000000
 11
41.358760
 21
193.000000
  0
LINE
  8
1
 62
7
  6
CONTINUOUS
 10
42.358760
 20
192.000000
 11
41.358760
 21
193.000000
  0
LINE
  8
1
 62
7
  6
CONTINUOUS
 10
26.358760
 20
190.000000
 11
42.358760
 21
190.000000
  0
LINE
  8
1
 62
7
  6
CONTINUOUS
 10
26.358760
 20
192.000000
 11
42.358760
 21
192.000000
  0
LINE
  8
1
 62
7
  6
DASHDOT
 10
23.152559
 20
180.000000
 11
45.369094
 21
180.000000
  0
LINE
  8
1
 62
7
  6
DASHDOT
 10
34.358760
 20
195.710138
 11
34.358760
 21
161.654528
  0
CIRCLE
  8
1
 62
7
  6
CONTINUOUS
 10
34.358760
 20
180.000000
 40
3.000000
  0
CIRCLE
  8
1
 62
7
  6
CONTINUOUS
 10
34.358760
 20
180.000000
 40
3.651755
  0
CIRCLE
  8
1
 62
7
  6
CONTINUOUS
 10
34.358760
 20
180.000000
 40
2.377062
  0
LINE
  8
1
 62
7
  6
DASHDOT
 10
54.079724
 20
180.000000
 11
182.117126
 21
180.000000
  0
DIMENSION
  8
2
 62
134
  6
CONTINUOUS
  2
*D4
 10
89.000000
 20
145.138287
 11
85.000000
 21
145.638287
 70
     0
  1
8
 13
89.000000
 23
145.138287
 14
81.000000
 24
145.138287
 50
180.000000
  0
LINE
  8
2
 62
134
  6
CONTINUOUS
 10
89.000000
 20
164.066191
 11
89.000000
 21
143.018947
  0
LINE
  8
1
 62
7
  6
DOT
 10
81.000000
 20
184.750000
 11
57.000000
 21
184.750000
  0
LINE
  8
1
 62
7
  6
DOT
 10
57.000000
 20
184.750000
 11
56.000000
 21
183.750000
  0
LINE
  8
1
 62
7
  6
DOT
 10
56.000000
 20
183.750000
 11
56.000000
 21
176.250000
  0
LINE
  8
1
 62
7
  6
DOT
 10
81.000000
 20
175.250000
 11
57.000000
 21
175.250000
  0
LINE
  8
1
 62
7
  6
DOT
 10
56.000000
 20
176.250000
 11
57.000000
 21
175.250000
  0
LINE
  8
1
 62
7
  6
DOT
 10
57.000000
 20
184.750000
 11
57.000000
 21
175.250000
  0
TEXT
  8
5
 62
94
  6
CONTINUOUS
 10
157.123524
 20
28.282234
 40
4.000000
 41
1.000000
  1
センサヘッド外形図
  7
KANJI
 50
0.000000
 51
0.000000
  0
LINE
  8
5
 62
94
  6
CONTINUOUS
 10
151.715551
 20
33.895746
 11
197.902559
 21
33.895746
  0
TEXT
  8
5
 62
94
  6
CONTINUOUS
 10
113.421260
 20
20.156573
 40
4.000000
 41
1.000000
  1
須藤
  7
KANJI
 50
0.000000
 51
0.000000
  0
TEXT
  8
5
 62
94
  6
CONTINUOUS
 10
133.421260
 20
20.156573
 40
4.000000
 41
1.000000
  1
須藤
  7
KANJI
 50
0.000000
 51
0.000000
  0
TEXT
  8
5
 62
94
  6
CONTINUOUS
 10
89.450787
 20
28.049289
 40
4.000000
 41
0.500000
  1
2006/08/17
  7
KANJI
 50
0.000000
 51
0.000000
  0
TEXT
  8
5
 62
94
  6
CONTINUOUS
 10
150.838583
 20
19.951033
 40
4.000000
 41
1.000000
  1
０１５－８７７－Ａ１０３
  7
KANJI
 50
0.000000
 51
0.000000
  0
TEXT
  8
5
 62
94
  6
CONTINUOUS
 10
156.609653
 20
35.511101
 40
4.000000
 41
0.571429
  1
FTH9-□K
  7
KANJI
 50
0.000000
 51
0.000000
  0
DIMENSION
  8
2
 62
134
  6
CONTINUOUS
  2
*D5
 10
109.004785
 20
134.000000
 11
112.423661
 21
134.500000
 70
     0
  1
φ6
 13
109.004785
 23
134.000000
 14
103.004785
 24
134.000000
 50
180.000000
  0
DIMENSION
  8
2
 62
134
  6
CONTINUOUS
  2
*D6
 10
120.582141
 20
143.000000
 11
120.582141
 21
153.500000
 70
     0
  1
22
 13
113.004785
 23
143.000000
 14
117.587207
 24
165.000000
 50
90.000000
  0
DIMENSION
  8
2
 62
134
  6
CONTINUOUS
  2
*D7
 10
101.004785
 20
149.407924
 11
94.983102
 21
149.407924
 70
     0
  1
φ10
 13
101.004785
 23
149.118579
 14
111.004785
 24
149.118579
 50
0.000000
  0
DIMENSION
  8
2
 62
134
  6
CONTINUOUS
  2
*D8
 10
81.000000
 20
116.940850
 11
92.901879
 21
116.940850
 70
     0
  1
25
 13
81.000000
 23
163.000000
 14
106.004785
 24
122.000000
 50
0.000000
  0
TEXT
  8
2
 62
134
  6
CONTINUOUS
 10
133.532429
 20
147.741362
 40
4.000000
 41
0.583333
  1
2-φ3.5
  7
KANJI
 50
0.000000
 51
0.000000
  0
LINE
  8
2
 62
134
  6
CONTINUOUS
 10
81.000000
 20
116.940850
 11
79.068148
 21
116.423212
  0
LINE
  8
2
 62
134
  6
CONTINUOUS
 10
79.068148
 20
116.423212
 11
79.068148
 21
117.458488
  0
LINE
  8
2
 62
134
  6
CONTINUOUS
 10
79.068148
 20
117.458488
 11
81.000000
 21
116.940850
  0
LINE
  8
2
 62
134
  6
CONTINUOUS
 10
81.000000
 20
114.940850
 11
81.000000
 21
164.000000
  0
LINE
  8
1
 62
7
  6
DASHDOT
 10
107.541873
 20
146.750000
 11
104.503784
 21
146.750000
  0
CIRCLE
  8
1
 62
7
  6
CONTINUOUS
 10
106.004785
 20
146.750000
 40
1.000000
  0
CIRCLE
  8
1
 62
7
  6
CONTINUOUS
 10
106.004785
 20
146.750000
 40
0.782631
  0
LINE
  8
1
 62
7
  6
CONTINUOUS
 10
111.004785
 20
159.500000
 11
111.004785
 21
143.000000
  0
LINE
  8
1
 62
7
  6
CONTINUOUS
 10
111.004785
 20
143.000000
 11
106.004785
 21
143.000000
  0
LINE
  8
1
 62
7
  6
CONTINUOUS
 10
102.004785
 20
159.500000
 11
101.004785
 21
159.500000
  0
LINE
  8
1
 62
7
  6
CONTINUOUS
 10
101.004785
 20
159.500000
 11
101.004785
 21
143.000000
  0
LINE
  8
1
 62
7
  6
CONTINUOUS
 10
101.004785
 20
143.000000
 11
106.004785
 21
143.000000
  0
LINE
  8
1
 62
7
  6
CONTINUOUS
 10
101.504785
 20
143.000000
 11
110.504785
 21
143.000000
  0
LINE
  8
1
 62
7
  6
CONTINUOUS
 10
109.004785
 20
142.000000
 11
109.004785
 21
141.000000
  0
LINE
  8
1
 62
7
  6
CONTINUOUS
 10
109.004785
 20
140.000000
 11
109.004785
 21
139.000000
  0
LINE
  8
1
 62
7
  6
CONTINUOUS
 10
109.004785
 20
138.000000
 11
109.004785
 21
137.000000
  0
LINE
  8
1
 62
7
  6
CONTINUOUS
 10
109.004785
 20
136.000000
 11
109.004785
 21
135.000000
  0
LINE
  8
1
 62
7
  6
CONTINUOUS
 10
109.004785
 20
134.000000
 11
109.004785
 21
133.000000
  0
LINE
  8
1
 62
7
  6
CONTINUOUS
 10
109.004785
 20
132.000000
 11
109.004785
 21
131.000000
  0
LINE
  8
1
 62
7
  6
CONTINUOUS
 10
109.004785
 20
130.000000
 11
109.004785
 21
129.000000
  0
LINE
  8
1
 62
7
  6
CONTINUOUS
 10
109.004785
 20
128.000000
 11
109.004785
 21
127.000000
  0
LINE
  8
1
 62
7
  6
CONTINUOUS
 10
109.004785
 20
126.000000
 11
109.004785
 21
125.000000
  0
LINE
  8
1
 62
7
  6
CONTINUOUS
 10
108.504785
 20
124.000000
 11
109.004785
 21
124.000000
  0
LINE
  8
1
 62
7
  6
CONTINUOUS
 10
103.004785
 20
141.000000
 11
103.004785
 21
140.000000
  0
LINE
  8
1
 62
7
  6
CONTINUOUS
 10
103.004785
 20
139.000000
 11
103.004785
 21
138.000000
  0
LINE
  8
1
 62
7
  6
CONTINUOUS
 10
103.004785
 20
137.000000
 11
103.004785
 21
136.000000
  0
LINE
  8
1
 62
7
  6
CONTINUOUS
 10
103.004785
 20
135.000000
 11
103.004785
 21
134.000000
  0
LINE
  8
1
 62
7
  6
CONTINUOUS
 10
103.004785
 20
133.000000
 11
103.004785
 21
132.000000
  0
LINE
  8
1
 62
7
  6
CONTINUOUS
 10
103.004785
 20
131.000000
 11
103.004785
 21
130.000000
  0
LINE
  8
1
 62
7
  6
CONTINUOUS
 10
103.004785
 20
129.000000
 11
103.004785
 21
128.000000
  0
LINE
  8
1
 62
7
  6
CONTINUOUS
 10
103.004785
 20
127.000000
 11
103.004785
 21
126.000000
  0
LINE
  8
1
 62
7
  6
CONTINUOUS
 10
103.004785
 20
125.000000
 11
103.004785
 21
124.000000
  0
LINE
  8
1
 62
7
  6
CONTINUOUS
 10
109.004785
 20
142.000000
 11
103.004785
 21
141.000000
  0
LINE
  8
1
 62
7
  6
CONTINUOUS
 10
109.004785
 20
141.000000
 11
103.004785
 21
140.000000
  0
LINE
  8
1
 62
7
  6
CONTINUOUS
 10
109.004785
 20
140.000000
 11
103.004785
 21
139.000000
  0
LINE
  8
1
 62
7
  6
CONTINUOUS
 10
109.004785
 20
139.000000
 11
103.004785
 21
138.000000
  0
LINE
  8
1
 62
7
  6
CONTINUOUS
 10
109.004785
 20
138.000000
 11
103.004785
 21
137.000000
  0
LINE
  8
1
 62
7
  6
CONTINUOUS
 10
109.004785
 20
137.000000
 11
103.004785
 21
136.000000
  0
LINE
  8
1
 62
7
  6
CONTINUOUS
 10
109.004785
 20
136.000000
 11
103.004785
 21
135.000000
  0
LINE
  8
1
 62
7
  6
CONTINUOUS
 10
109.004785
 20
135.000000
 11
103.004785
 21
134.000000
  0
LINE
  8
1
 62
7
  6
CONTINUOUS
 10
109.004785
 20
134.000000
 11
103.004785
 21
133.000000
  0
LINE
  8
1
 62
7
  6
CONTINUOUS
 10
109.004785
 20
133.000000
 11
103.004785
 21
132.000000
  0
LINE
  8
1
 62
7
  6
CONTINUOUS
 10
109.004785
 20
132.000000
 11
103.004785
 21
131.000000
  0
LINE
  8
1
 62
7
  6
CONTINUOUS
 10
109.004785
 20
131.000000
 11
103.004785
 21
130.000000
  0
LINE
  8
1
 62
7
  6
CONTINUOUS
 10
109.004785
 20
130.000000
 11
103.004785
 21
129.000000
  0
LINE
  8
1
 62
7
  6
CONTINUOUS
 10
109.004785
 20
129.000000
 11
103.004785
 21
128.000000
  0
LINE
  8
1
 62
7
  6
CONTINUOUS
 10
109.004785
 20
128.000000
 11
103.004785
 21
127.000000
  0
LINE
  8
1
 62
7
  6
CONTINUOUS
 10
109.004785
 20
127.000000
 11
103.004785
 21
126.000000
  0
LINE
  8
1
 62
7
  6
CONTINUOUS
 10
109.004785
 20
126.000000
 11
103.004785
 21
125.000000
  0
LINE
  8
1
 62
7
  6
CONTINUOUS
 10
109.004785
 20
125.000000
 11
103.004785
 21
124.000000
  0
LINE
  8
1
 62
7
  6
CONTINUOUS
 10
108.504785
 20
124.000000
 11
103.004785
 21
124.000000
  0
LINE
  8
1
 62
7
  6
CONTINUOUS
 10
108.504785
 20
143.000000
 11
108.504785
 21
141.916667
  0
LINE
  8
1
 62
7
  6
CONTINUOUS
 10
108.504785
 20
140.916667
 11
108.504785
 21
139.916667
  0
LINE
  8
1
 62
7
  6
CONTINUOUS
 10
108.504785
 20
138.916667
 11
108.504785
 21
137.916667
  0
LINE
  8
1
 62
7
  6
CONTINUOUS
 10
108.504785
 20
136.916667
 11
108.504785
 21
135.916667
  0
LINE
  8
1
 62
7
  6
CONTINUOUS
 10
108.504785
 20
134.916667
 11
108.504785
 21
133.916667
  0
LINE
  8
1
 62
7
  6
CONTINUOUS
 10
108.504785
 20
132.916667
 11
108.504785
 21
131.916667
  0
LINE
  8
1
 62
7
  6
CONTINUOUS
 10
108.504785
 20
130.916667
 11
108.504785
 21
129.916667
  0
LINE
  8
1
 62
7
  6
CONTINUOUS
 10
108.504785
 20
128.916667
 11
108.504785
 21
127.916667
  0
LINE
  8
1
 62
7
  6
CONTINUOUS
 10
108.504785
 20
126.916667
 11
108.504785
 21
125.916667
  0
LINE
  8
1
 62
7
  6
CONTINUOUS
 10
108.504785
 20
124.916667
 11
108.504785
 21
124.000000
  0
LINE
  8
1
 62
7
  6
CONTINUOUS
 10
103.504785
 20
126.083333
 11
103.504785
 21
125.083333
  0
LINE
  8
1
 62
7
  6
CONTINUOUS
 10
103.504785
 20
128.083333
 11
103.504785
 21
127.083333
  0
LINE
  8
1
 62
7
  6
CONTINUOUS
 10
103.504785
 20
129.983760
 11
103.504785
 21
129.083333
  0
LINE
  8
1
 62
7
  6
CONTINUOUS
 10
103.504785
 20
132.083333
 11
103.504785
 21
131.083333
  0
LINE
  8
1
 62
7
  6
CONTINUOUS
 10
103.504785
 20
134.083333
 11
103.504785
 21
133.083333
  0
LINE
  8
1
 62
7
  6
CONTINUOUS
 10
103.504785
 20
136.083333
 11
103.504785
 21
135.083333
  0
LINE
  8
1
 62
7
  6
CONTINUOUS
 10
103.504785
 20
138.083333
 11
103.504785
 21
137.083333
  0
LINE
  8
1
 62
7
  6
CONTINUOUS
 10
103.504785
 20
140.083333
 11
103.504785
 21
139.083333
  0
LINE
  8
1
 62
7
  6
CONTINUOUS
 10
103.504785
 20
141.983760
 11
103.504785
 21
141.083333
  0
LINE
  8
1
 62
7
  6
CONTINUOUS
 10
108.504785
 20
143.000000
 11
103.000848
 21
141.899213
  0
LINE
  8
1
 62
7
  6
CONTINUOUS
 10
103.504785
 20
143.000000
 11
103.004785
 21
142.913382
  0
LINE
  8
1
 62
7
  6
CONTINUOUS
 10
103.004785
 20
142.913382
 11
103.004785
 21
141.900000
  0
LINE
  8
1
 62
7
  6
CONTINUOUS
 10
103.504785
 20
142.008735
 11
103.504785
 21
142.000000
  0
LINE
  8
1
 62
7
  6
CONTINUOUS
 10
102.004785
 20
159.500000
 11
111.004785
 21
159.500000
  0
LINE
  8
1
 62
7
  6
CONTINUOUS
 10
102.004785
 20
159.500000
 11
102.004785
 21
165.000000
  0
LINE
  8
1
 62
7
  6
CONTINUOUS
 10
110.004785
 20
159.500000
 11
110.004785
 21
165.000000
  0
LINE
  8
1
 62
7
  6
DASHDOT
 10
107.541873
 20
153.500000
 11
104.503784
 21
153.500000
  0
CIRCLE
  8
1
 62
7
  6
CONTINUOUS
 10
106.004785
 20
153.500000
 40
1.000000
  0
CIRCLE
  8
1
 62
7
  6
CONTINUOUS
 10
106.004785
 20
153.500000
 40
0.782631
  0
LINE
  8
1
 62
7
  6
DASHDOT
 10
106.004785
 20
179.961245
 11
106.004785
 21
114.940850
  0
LINE
  8
1
 62
7
  6
DASHDOT
 10
35.895848
 20
146.750000
 11
32.857758
 21
146.750000
  0
CIRCLE
  8
1
 62
7
  6
CONTINUOUS
 10
34.358760
 20
146.750000
 40
1.000000
  0
CIRCLE
  8
1
 62
7
  6
CONTINUOUS
 10
34.358760
 20
146.750000
 40
0.782631
  0
LINE
  8
1
 62
7
  6
CONTINUOUS
 10
39.358760
 20
159.500000
 11
39.358760
 21
143.000000
  0
LINE
  8
1
 62
7
  6
CONTINUOUS
 10
39.358760
 20
143.000000
 11
34.358760
 21
143.000000
  0
LINE
  8
1
 62
7
  6
CONTINUOUS
 10
30.358760
 20
159.500000
 11
29.358760
 21
159.500000
  0
LINE
  8
1
 62
7
  6
CONTINUOUS
 10
29.358760
 20
159.500000
 11
29.358760
 21
143.000000
  0
LINE
  8
1
 62
7
  6
CONTINUOUS
 10
29.358760
 20
143.000000
 11
34.358760
 21
143.000000
  0
LINE
  8
1
 62
7
  6
CONTINUOUS
 10
29.858760
 20
143.000000
 11
38.858760
 21
143.000000
  0
LINE
  8
1
 62
7
  6
CONTINUOUS
 10
37.358760
 20
142.000000
 11
37.358760
 21
141.000000
  0
LINE
  8
1
 62
7
  6
CONTINUOUS
 10
37.358760
 20
140.000000
 11
37.358760
 21
139.000000
  0
LINE
  8
1
 62
7
  6
CONTINUOUS
 10
37.358760
 20
138.000000
 11
37.358760
 21
137.000000
  0
LINE
  8
1
 62
7
  6
CONTINUOUS
 10
37.358760
 20
136.000000
 11
37.358760
 21
135.000000
  0
LINE
  8
1
 62
7
  6
CONTINUOUS
 10
37.358760
 20
134.000000
 11
37.358760
 21
133.000000
  0
LINE
  8
1
 62
7
  6
CONTINUOUS
 10
37.358760
 20
132.000000
 11
37.358760
 21
131.000000
  0
LINE
  8
1
 62
7
  6
CONTINUOUS
 10
37.358760
 20
130.000000
 11
37.358760
 21
129.000000
  0
LINE
  8
1
 62
7
  6
CONTINUOUS
 10
37.358760
 20
128.000000
 11
37.358760
 21
127.000000
  0
LINE
  8
1
 62
7
  6
CONTINUOUS
 10
37.358760
 20
126.000000
 11
37.358760
 21
125.000000
  0
LINE
  8
1
 62
7
  6
CONTINUOUS
 10
36.858760
 20
124.000000
 11
37.358760
 21
124.000000
  0
LINE
  8
1
 62
7
  6
CONTINUOUS
 10
31.358760
 20
141.000000
 11
31.358760
 21
140.000000
  0
LINE
  8
1
 62
7
  6
CONTINUOUS
 10
31.358760
 20
139.000000
 11
31.358760
 21
138.000000
  0
LINE
  8
1
 62
7
  6
CONTINUOUS
 10
31.358760
 20
137.000000
 11
31.358760
 21
136.000000
  0
LINE
  8
1
 62
7
  6
CONTINUOUS
 10
31.358760
 20
135.000000
 11
31.358760
 21
134.000000
  0
LINE
  8
1
 62
7
  6
CONTINUOUS
 10
31.358760
 20
133.000000
 11
31.358760
 21
132.000000
  0
LINE
  8
1
 62
7
  6
CONTINUOUS
 10
31.358760
 20
131.000000
 11
31.358760
 21
130.000000
  0
LINE
  8
1
 62
7
  6
CONTINUOUS
 10
31.358760
 20
129.000000
 11
31.358760
 21
128.000000
  0
LINE
  8
1
 62
7
  6
CONTINUOUS
 10
31.358760
 20
127.000000
 11
31.358760
 21
126.000000
  0
LINE
  8
1
 62
7
  6
CONTINUOUS
 10
31.358760
 20
125.000000
 11
31.358760
 21
124.000000
  0
LINE
  8
1
 62
7
  6
CONTINUOUS
 10
37.358760
 20
142.000000
 11
31.358760
 21
141.000000
  0
LINE
  8
1
 62
7
  6
CONTINUOUS
 10
37.358760
 20
141.000000
 11
31.358760
 21
140.000000
  0
LINE
  8
1
 62
7
  6
CONTINUOUS
 10
37.358760
 20
140.000000
 11
31.358760
 21
139.000000
  0
LINE
  8
1
 62
7
  6
CONTINUOUS
 10
37.358760
 20
139.000000
 11
31.358760
 21
138.000000
  0
LINE
  8
1
 62
7
  6
CONTINUOUS
 10
37.358760
 20
138.000000
 11
31.358760
 21
137.000000
  0
LINE
  8
1
 62
7
  6
CONTINUOUS
 10
37.358760
 20
137.000000
 11
31.358760
 21
136.000000
  0
LINE
  8
1
 62
7
  6
CONTINUOUS
 10
37.358760
 20
136.000000
 11
31.358760
 21
135.000000
  0
LINE
  8
1
 62
7
  6
CONTINUOUS
 10
37.358760
 20
135.000000
 11
31.358760
 21
134.000000
  0
LINE
  8
1
 62
7
  6
CONTINUOUS
 10
37.358760
 20
134.000000
 11
31.358760
 21
133.000000
  0
LINE
  8
1
 62
7
  6
CONTINUOUS
 10
37.358760
 20
133.000000
 11
31.358760
 21
132.000000
  0
LINE
  8
1
 62
7
  6
CONTINUOUS
 10
37.358760
 20
132.000000
 11
31.358760
 21
131.000000
  0
LINE
  8
1
 62
7
  6
CONTINUOUS
 10
37.358760
 20
131.000000
 11
31.358760
 21
130.000000
  0
LINE
  8
1
 62
7
  6
CONTINUOUS
 10
37.358760
 20
130.000000
 11
31.358760
 21
129.000000
  0
LINE
  8
1
 62
7
  6
CONTINUOUS
 10
37.358760
 20
129.000000
 11
31.358760
 21
128.000000
  0
LINE
  8
1
 62
7
  6
CONTINUOUS
 10
37.358760
 20
128.000000
 11
31.358760
 21
127.000000
  0
LINE
  8
1
 62
7
  6
CONTINUOUS
 10
37.358760
 20
127.000000
 11
31.358760
 21
126.000000
  0
LINE
  8
1
 62
7
  6
CONTINUOUS
 10
37.358760
 20
126.000000
 11
31.358760
 21
125.000000
  0
LINE
  8
1
 62
7
  6
CONTINUOUS
 10
37.358760
 20
125.000000
 11
31.358760
 21
124.000000
  0
LINE
  8
1
 62
7
  6
CONTINUOUS
 10
36.858760
 20
124.000000
 11
31.358760
 21
124.000000
  0
LINE
  8
1
 62
7
  6
CONTINUOUS
 10
36.858760
 20
143.000000
 11
36.858760
 21
141.916667
  0
LINE
  8
1
 62
7
  6
CONTINUOUS
 10
36.858760
 20
140.916667
 11
36.858760
 21
139.916667
  0
LINE
  8
1
 62
7
  6
CONTINUOUS
 10
36.858760
 20
138.916667
 11
36.858760
 21
137.916667
  0
LINE
  8
1
 62
7
  6
CONTINUOUS
 10
36.858760
 20
136.916667
 11
36.858760
 21
135.916667
  0
LINE
  8
1
 62
7
  6
CONTINUOUS
 10
36.858760
 20
134.916667
 11
36.858760
 21
133.916667
  0
LINE
  8
1
 62
7
  6
CONTINUOUS
 10
36.858760
 20
132.916667
 11
36.858760
 21
131.916667
  0
LINE
  8
1
 62
7
  6
CONTINUOUS
 10
36.858760
 20
130.916667
 11
36.858760
 21
129.916667
  0
LINE
  8
1
 62
7
  6
CONTINUOUS
 10
36.858760
 20
128.916667
 11
36.858760
 21
127.916667
  0
LINE
  8
1
 62
7
  6
CONTINUOUS
 10
36.858760
 20
126.916667
 11
36.858760
 21
125.916667
  0
LINE
  8
1
 62
7
  6
CONTINUOUS
 10
36.858760
 20
124.916667
 11
36.858760
 21
124.000000
  0
LINE
  8
1
 62
7
  6
CONTINUOUS
 10
31.858760
 20
126.083333
 11
31.858760
 21
125.083333
  0
LINE
  8
1
 62
7
  6
CONTINUOUS
 10
31.858760
 20
128.083333
 11
31.858760
 21
127.083333
  0
LINE
  8
1
 62
7
  6
CONTINUOUS
 10
31.858760
 20
129.983760
 11
31.858760
 21
129.083333
  0
LINE
  8
1
 62
7
  6
CONTINUOUS
 10
31.858760
 20
132.083333
 11
31.858760
 21
131.083333
  0
LINE
  8
1
 62
7
  6
CONTINUOUS
 10
31.858760
 20
134.083333
 11
31.858760
 21
133.083333
  0
LINE
  8
1
 62
7
  6
CONTINUOUS
 10
31.858760
 20
136.083333
 11
31.858760
 21
135.083333
  0
LINE
  8
1
 62
7
  6
CONTINUOUS
 10
31.858760
 20
138.083333
 11
31.858760
 21
137.083333
  0
LINE
  8
1
 62
7
  6
CONTINUOUS
 10
31.858760
 20
140.083333
 11
31.858760
 21
139.083333
  0
LINE
  8
1
 62
7
  6
CONTINUOUS
 10
31.858760
 20
141.983760
 11
31.858760
 21
141.083333
  0
LINE
  8
1
 62
7
  6
CONTINUOUS
 10
36.858760
 20
143.000000
 11
31.354823
 21
141.899213
  0
LINE
  8
1
 62
7
  6
CONTINUOUS
 10
31.858760
 20
143.000000
 11
31.358760
 21
142.913382
  0
LINE
  8
1
 62
7
  6
CONTINUOUS
 10
31.358760
 20
142.913382
 11
31.358760
 21
141.900000
  0
LINE
  8
1
 62
7
  6
CONTINUOUS
 10
31.858760
 20
142.008735
 11
31.858760
 21
142.000000
  0
LINE
  8
1
 62
7
  6
CONTINUOUS
 10
30.358760
 20
159.500000
 11
39.358760
 21
159.500000
  0
LINE
  8
1
 62
7
  6
CONTINUOUS
 10
30.358760
 20
159.500000
 11
30.358760
 21
165.000000
  0
LINE
  8
1
 62
7
  6
CONTINUOUS
 10
38.358760
 20
159.500000
 11
38.358760
 21
165.000000
  0
LINE
  8
1
 62
7
  6
DASHDOT
 10
35.895848
 20
153.500000
 11
32.857758
 21
153.500000
  0
CIRCLE
  8
1
 62
7
  6
CONTINUOUS
 10
34.358760
 20
153.500000
 40
1.000000
  0
CIRCLE
  8
1
 62
7
  6
CONTINUOUS
 10
34.358760
 20
153.500000
 40
0.782631
  0
LINE
  8
1
 62
7
  6
DASHDOT
 10
34.358760
 20
179.961245
 11
34.358760
 21
114.940850
  0
LINE
  8
2
 62
134
  6
CONTINUOUS
 10
44.687251
 20
116.940850
 11
81.000000
 21
116.940850
  0
LINE
  8
2
 62
134
  6
CONTINUOUS
 10
127.245591
 20
165.000000
 11
127.763229
 21
163.068148
  0
LINE
  8
2
 62
134
  6
CONTINUOUS
 10
127.763229
 20
163.068148
 11
126.727952
 21
163.068148
  0
LINE
  8
2
 62
134
  6
CONTINUOUS
 10
126.727952
 20
163.068148
 11
127.245591
 21
165.000000
  0
LINE
  8
2
 62
134
  6
CONTINUOUS
 10
129.245591
 20
165.000000
 11
119.587207
 21
165.000000
  0
LINE
  8
2
 62
134
  6
CONTINUOUS
 10
127.245591
 20
165.000000
 11
127.245591
 21
129.432366
  0
DIMENSION
  8
2
 62
134
  6
CONTINUOUS
  2
*D9
 10
81.000000
 20
199.606967
 11
111.289012
 21
199.606967
 70
     0
  1
60
 13
81.000000
 23
192.000000
 14
141.000000
 24
193.800000
 50
0.000000
  0
DIMENSION
  8
2
 62
134
  6
CONTINUOUS
  2
*D10
 10
141.000000
 20
199.606967
 11
145.557311
 21
199.606967
 70
     0
  1
10
 13
141.000000
 23
193.800000
 14
151.000000
 24
188.026944
 50
0.000000
  0
DIMENSION
  8
2
 62
134
  6
CONTINUOUS
  2
*D11
 10
151.000000
 20
199.606967
 11
163.370040
 21
199.606967
 70
     0
  1
30
 13
151.000000
 23
188.026944
 14
180.000000
 24
184.472818
 50
0.000000
  0
TEXT
  8
2
 62
134
  6
CONTINUOUS
 10
162.370040
 20
199.606967
 40
4.000000
 41
0.750000
  1
±2
  7
KANJI
 50
0.000000
 51
30.000000
  0
DIMENSION
  8
2
 62
134
  6
CONTINUOUS
  2
*D12
 10
81.000000
 20
207.071349
 11
129.949967
 21
207.071349
 70
     0
  1
100
 13
81.000000
 23
192.000000
 14
180.000000
 24
186.472818
 50
0.000000
  0
TEXT
  8
2
 62
134
  6
CONTINUOUS
 10
129.949967
 20
207.071349
 40
4.000000
 41
0.750000
  1
±2
  7
KANJI
 50
0.000000
 51
30.000000
  0
DIMENSION
  8
2
 62
134
  6
CONTINUOUS
  2
*D13
 10
26.358760
 20
199.606967
 11
34.433558
 21
199.606967
 70
     0
  1
16
 13
26.358760
 23
194.000000
 14
42.358760
 24
192.000000
 50
0.000000
  0
DIMENSION
  8
2
 62
134
  6
CONTINUOUS
  2
*D14
 10
46.958159
 20
165.000000
 11
46.958159
 21
172.500000
 70
     0
  1
15
 13
43.358760
 23
165.000000
 14
44.358760
 24
180.000000
 50
90.000000
  0
DIMENSION
  8
2
 62
134
  6
CONTINUOUS
  2
*D15
 10
46.958159
 20
180.000000
 11
46.958159
 21
185.000000
 70
     0
  1
10
 13
46.958159
 23
180.000000
 14
44.358760
 24
190.000000
 50
90.000000
  0
DIMENSION
  8
2
 62
134
  6
CONTINUOUS
  2
*D16
 10
46.958159
 20
190.000000
 11
46.958159
 21
191.462335
 70
     0
  1
3
 13
44.358760
 23
190.000000
 14
42.522922
 24
193.000000
 50
90.000000
  0
DIMENSION
  8
2
 62
134
  6
CONTINUOUS
  2
*D17
 10
52.077625
 20
165.000000
 11
52.077625
 21
180.000000
 70
     0
  1
28
 13
43.358760
 23
165.000000
 14
43.358760
 24
193.000000
 50
90.000000
  0
TEXT
  8
3
 62
214
  6
CONTINUOUS
 10
127.245591
 20
132.253048
 40
4.000000
 41
0.583333
  1
ﾌｧｲﾊﾞ長
  7
KANJI
 50
90.000000
 51
30.000000
  0
TEXT
  8
3
 62
214
  6
CONTINUOUS
 10
49.679380
 20
116.940850
 40
4.000000
 41
1.000000
  1
測定距離
  7
KANJI
 50
0.000000
 51
30.000000
  0
LINE
  8
3
 62
214
  6
CONTINUOUS
 10
157.302482
 20
174.000000
 11
164.806284
 21
160.234003
  0
LINE
  8
3
 62
214
  6
CONTINUOUS
 10
164.806284
 20
160.234003
 11
185.177416
 21
160.234003
  0
TEXT
  8
3
 62
214
  6
CONTINUOUS
 10
169.177416
 20
160.031198
 40
4.000000
 41
1.000000
  1
接眼鏡筒
  7
KANJI
 50
0.000000
 51
30.000000
  0
LINE
  8
3
 62
214
  6
CONTINUOUS
 10
157.302482
 20
174.000000
 11
158.681586
 21
172.551528
  0
LINE
  8
3
 62
214
  6
CONTINUOUS
 10
157.302482
 20
174.000000
 11
157.772585
 21
172.056034
  0
LINE
  8
3
 62
214
  6
CONTINUOUS
 10
158.681586
 20
172.551528
 11
157.772585
 21
172.056034
  0
LINE
  8
3
 62
214
  6
CONTINUOUS
 10
157.533633
 20
173.575945
 11
158.223185
 21
172.851709
  0
LINE
  8
3
 62
214
  6
CONTINUOUS
 10
157.533633
 20
173.575945
 11
157.768684
 21
172.603962
  0
LINE
  8
3
 62
214
  6
CONTINUOUS
 10
158.223185
 20
172.851709
 11
157.768684
 21
172.603962
  0
LINE
  8
3
 62
214
  6
CONTINUOUS
 10
117.166365
 20
168.695358
 11
133.591535
 21
152.263656
  0
LINE
  8
3
 62
214
  6
CONTINUOUS
 10
133.591535
 20
152.263656
 11
157.260633
 21
152.263656
  0
TEXT
  8
3
 62
214
  6
CONTINUOUS
 10
133.260633
 20
152.848302
 40
4.000000
 41
0.750000
  1
　ﾍｯﾄﾞ取付穴
  7
KANJI
 50
0.000000
 51
30.000000
  0
LINE
  8
3
 62
214
  6
CONTINUOUS
 10
117.166365
 20
168.695358
 11
118.898217
 21
167.695013
  0
LINE
  8
3
 62
214
  6
CONTINUOUS
 10
117.166365
 20
168.695358
 11
118.166021
 21
166.963108
  0
LINE
  8
3
 62
214
  6
CONTINUOUS
 10
118.898217
 20
167.695013
 11
118.166021
 21
166.963108
  0
LINE
  8
3
 62
214
  6
CONTINUOUS
 10
117.507804
 20
168.353783
 11
118.373730
 21
167.853611
  0
LINE
  8
3
 62
214
  6
CONTINUOUS
 10
117.507804
 20
168.353783
 11
118.007632
 21
167.487659
  0
LINE
  8
3
 62
214
  6
CONTINUOUS
 10
118.373730
 20
167.853611
 11
118.007632
 21
167.487659
  0
LINE
  8
3
 62
214
  6
CONTINUOUS
 10
112.208423
 20
188.434674
 11
127.108971
 21
217.094346
  0
LINE
  8
3
 62
214
  6
CONTINUOUS
 10
127.108971
 20
217.094346
 11
141.039273
 21
217.094346
  0
TEXT
  8
3
 62
214
  6
CONTINUOUS
 10
127.039273
 20
216.916646
 40
4.000000
 41
0.500000
  1
ｾﾝｻﾍｯﾄﾞ
  7
KANJI
 50
0.000000
 51
30.000000
  0
LINE
  8
3
 62
214
  6
CONTINUOUS
 10
112.208423
 20
188.434674
 11
112.640298
 21
190.387488
  0
LINE
  8
3
 62
214
  6
CONTINUOUS
 10
112.208423
 20
188.434674
 11
113.558845
 21
189.909923
  0
LINE
  8
3
 62
214
  6
CONTINUOUS
 10
112.640298
 20
190.387488
 11
113.558845
 21
189.909923
  0
LINE
  8
3
 62
214
  6
CONTINUOUS
 10
112.431210
 20
188.863182
 11
112.647148
 21
189.839589
  0
LINE
  8
3
 62
214
  6
CONTINUOUS
 10
112.431210
 20
188.863182
 11
113.106421
 21
189.600806
  0
LINE
  8
3
 62
214
  6
CONTINUOUS
 10
112.647148
 20
189.839589
 11
113.106421
 21
189.600806
  0
LINE
  8
3
 62
214
  6
CONTINUOUS
 10
100.376353
 20
182.000000
 11
85.455550
 21
216.721276
  0
LINE
  8
3
 62
214
  6
CONTINUOUS
 10
85.455550
 20
216.721276
 11
76.200939
 21
216.721276
  0
TEXT
  8
3
 62
214
  6
CONTINUOUS
 10
76.200939
 20
216.721276
 40
4.000000
 41
0.500000
  1
ﾚﾝｽﾞ
  7
KANJI
 50
0.000000
 51
30.000000
  0
LINE
  8
3
 62
214
  6
CONTINUOUS
 10
100.376353
 20
182.000000
 11
99.138037
 21
183.570533
  0
LINE
  8
3
 62
214
  6
CONTINUOUS
 10
100.376353
 20
182.000000
 11
100.089206
 21
183.979279
  0
LINE
  8
3
 62
214
  6
CONTINUOUS
 10
99.138037
 20
183.570533
 11
100.089206
 21
183.979279
  0
LINE
  8
3
 62
214
  6
CONTINUOUS
 10
100.185670
 20
182.443726
 11
99.566512
 21
183.228993
  0
LINE
  8
3
 62
214
  6
CONTINUOUS
 10
100.185670
 20
182.443726
 11
100.042097
 21
183.433366
  0
LINE
  8
3
 62
214
  6
CONTINUOUS
 10
99.566512
 20
183.228993
 11
100.042097
 21
183.433366
  0
TEXT
  8
3
 62
214
  6
CONTINUOUS
 10
153.829944
 20
122.613453
 40
4.000000
 41
1.000000
  1
重量８０ｇ
  7
KANJI
 50
0.000000
 51
0.000000
  0
LINE
  8
3
 62
214
  6
CONTINUOUS
 10
109.004785
 20
131.000000
 11
121.588890
 21
122.397966
  0
LINE
  8
3
 62
214
  6
CONTINUOUS
 10
121.588890
 20
122.397966
 11
133.628227
 21
122.397966
  0
TEXT
  8
3
 62
214
  6
CONTINUOUS
 10
123.628227
 20
122.617946
 40
4.000000
 41
0.500000
  1
ﾌｧｲﾊﾞ
  7
KANJI
 50
0.000000
 51
30.000000
  0
LINE
  8
3
 62
214
  6
CONTINUOUS
 10
109.004785
 20
131.000000
 11
110.891751
 21
130.337157
  0
LINE
  8
3
 62
214
  6
CONTINUOUS
 10
109.004785
 20
131.000000
 11
110.307524
 21
129.482478
  0
LINE
  8
3
 62
214
  6
CONTINUOUS
 10
110.891751
 20
130.337157
 11
110.307524
 21
129.482478
  0
LINE
  8
3
 62
214
  6
CONTINUOUS
 10
109.403498
 20
130.727454
 11
110.346981
 21
130.396033
  0
LINE
  8
3
 62
214
  6
CONTINUOUS
 10
109.403498
 20
130.727454
 11
110.054867
 21
129.968693
  0
LINE
  8
3
 62
214
  6
CONTINUOUS
 10
110.346981
 20
130.396033
 11
110.054867
 21
129.968693
  0
TEXT
  8
3
 62
214
  6
CONTINUOUS
 10
35.713496
 20
207.933611
 40
4.000000
 41
0.500000
  1
ｵﾌﾟｼﾖﾝ
  7
KANJI
 50
0.000000
 51
0.000000
  0
LINE
  8
3
 62
214
  6
CONTINUOUS
 10
71.039148
 20
184.750000
 11
60.158847
 21
212.172690
  0
LINE
  8
3
 62
214
  6
CONTINUOUS
 10
60.158847
 20
212.172690
 11
29.909047
 21
212.172690
  0
TEXT
  8
3
 62
214
  6
CONTINUOUS
 10
29.909047
 20
211.890084
 40
4.000000
 41
0.538462
  1
φ6ｴｱﾊﾟｰｼﾞﾌｰﾄﾞ
  7
KANJI
 50
0.000000
 51
30.000000
  0
LINE
  8
3
 62
214
  6
CONTINUOUS
 10
71.039148
 20
184.750000
 11
69.845541
 21
186.354774
  0
LINE
  8
3
 62
214
  6
CONTINUOUS
 10
71.039148
 20
184.750000
 11
70.807841
 21
186.736579
  0
LINE
  8
3
 62
214
  6
CONTINUOUS
 10
69.845541
 20
186.354774
 11
70.807841
 21
186.736579
  0
LINE
  8
3
 62
214
  6
CONTINUOUS
 10
70.861034
 20
185.198919
 11
70.264230
 21
186.001306
  0
LINE
  8
3
 62
214
  6
CONTINUOUS
 10
70.861034
 20
185.198919
 11
70.745380
 21
186.192209
  0
LINE
  8
3
 62
214
  6
CONTINUOUS
 10
70.264230
 20
186.001306
 11
70.745380
 21
186.192209
  0
LINE
  8
3
 62
214
  6
CONTINUOUS
 10
89.000000
 20
164.979700
 11
76.981956
 21
152.117495
  0
LINE
  8
3
 62
214
  6
CONTINUOUS
 10
76.981956
 20
152.117495
 11
48.453905
 21
152.117495
  0
TEXT
  8
3
 62
214
  6
CONTINUOUS
 10
48.453905
 20
152.702141
 40
4.000000
 41
0.777778
  1
R1/8計装エアー
  7
KANJI
 50
0.000000
 51
30.000000
  0
LINE
  8
3
 62
214
  6
CONTINUOUS
 10
89.000000
 20
164.979700
 11
88.059308
 21
163.214736
  0
LINE
  8
3
 62
214
  6
CONTINUOUS
 10
89.000000
 20
164.979700
 11
87.302855
 21
163.921542
  0
LINE
  8
3
 62
214
  6
CONTINUOUS
 10
88.059308
 20
163.214736
 11
87.302855
 21
163.921542
  0
LINE
  8
3
 62
214
  6
CONTINUOUS
 10
88.670270
 20
164.626810
 11
88.199924
 21
163.744327
  0
LINE
  8
3
 62
214
  6
CONTINUOUS
 10
88.670270
 20
164.626810
 11
87.821698
 21
164.097731
  0
LINE
  8
3
 62
214
  6
CONTINUOUS
 10
88.199924
 20
163.744327
 11
87.821698
 21
164.097731
  0
ENDSEC
  0
EOF
