  0
SECTION
  2
HEADER
  9
$ACADVER
  1
AC1009
  9
$INSBASE
 10
0.000000
 20
0.000000
  9
$EXTMIN
 10
0.000000
 20
0.000000
  9
$EXTMAX
 10
210.000000
 20
297.000000
  9
$LIMMIN
 10
0.000000
 20
0.000000
  9
$LIMMAX
 10
210.000000
 20
297.000000
  9
$VIEWCTR
 10
105.000000
 20
148.500000
  9
$VIEWSIZE
 40
297.000000
  9
$PEXTMIN
 10
0.000000
 20
0.000000
 30
0.000000
  9
$PEXTMAX
 10
210.000000
 20
297.000000
 30
0.000000
  9
$SNAPMODE
 70
     0
  9
$SNAPUNIT
 10
1.000000
 20
1.000000
  9
$SNAPBASE
 10
0.000000
 20
0.000000
  9
$SNAPANG
 50
0.000000
  9
$SNAPISOPAIR
 70
     0
  9
$SNAPSTYLE
 70
     0
  9
$GRIDMODE
 70
     0
  9
$GRIDUNIT
 10
0.000000
 20
0.000000
  9
$ORTHOMODE
 70
     0
  9
$REGENMODE
 70
     1
  9
$FILLMODE
 70
     1
  9
$QTEXTMODE
 70
     0
  9
$DRAGMODE
 70
     2
  9
$LTSCALE
 40
0.250000
  9
$OSMODE
 70
     0
  9
$ATTMODE
 70
     1
  9
$TEXTSIZE
 40
4.000000
  9
$TRACEWID
 40
0.050000
  9
$TEXTSTYLE
  7
STANDARD
  9
$CLAYER
  8
0
  9
$CELTYPE
  6
BYLAYER
  9
$CECOLOR
 62
   256
  9
$DIMSCALE
 40
1.000000
  9
$DIMASZ
 40
1.000000
  9
$DIMEXO
 40
0.000000
  9
$DIMDLI
 40
0.500000
  9
$DIMRND
 40
0.000000
  9
$DIMDLE
 40
0.000000
  9
$DIMEXE
 40
0.000000
  9
$DIMTP
 40
0.000000
  9
$DIMTM
 40
0.000000
  9
$DIMTXT
 40
4.000000
  9
$DIMCEN
 40
0.000000
  9
$DIMTSZ
 40
0.000000
  9
$DIMTOL
 70
     0
  9
$DIMLIM
 70
     0
  9
$DIMTIH
 70
     1
  9
$DIMTOH
 70
     1
  9
$DIMSE1
 70
     0
  9
$DIMSE2
 70
     0
  9
$DIMTAD
 70
     0
  9
$DIMZIN
 70
     0
  9
$DIMBLK
  1

  9
$DIMASO
 70
     0
  9
$DIMSHO
 70
     0
  9
$DIMPOST
  1

  9
$DIMAPOST
  1

  9
$DIMALT
 70
     0
  9
$DIMALTD
 70
     0
  9
$DIMALTF
 40
25.400000
  9
$DIMLFAC
 40
1.000000
  9
$DIMTOFL
 70
     0
  9
$DIMTVP
 40
0.000000
  9
$DIMTIX
 70
     0
  9
$DIMSOXD
 70
     0
  9
$DIMSAH
 70
     0
  9
$DIMBLKL
  1

  9
$DIMBLKR
  1

  9
$LUNITS
 70
     2
  9
$LUPREC
 70
     2
  9
$AXISMODE
 70
     0
  9
$AXISUNIT
 10
1.000000
 20
1.000000
  9
$SKETCHINC
 40
0.000000
  9
$FILLETRAD
 40
0.000000
  9
$AUNITS
 70
     1
  9
$AUPREC
 70
     2
  9
$MENU
  1
ACAD
  9
$ELEVATION
 40
0.000000
  9
$THICKNESS
 40
0.000000
  9
$VIEWDIR
 10
0.000000
 20
0.000000
 30
1.000000
  9
$LIMCHECK
 70
     1
  9
$BLIPMODE
 70
     1
  9
$CHAMFERA
 40
0.000000
  9
$CHAMFERB
 40
0.000000
  9
$FASTZOOM
 70
     1
  9
$SKPOLY
 70
     0
  9
$TDCREATE
 40
0.000000
  9
$TDUPDATE
 40
0.000000
  9
$TDINDWG
 40
0.000000
  9
$TDUSRTIMER
 40
0.000000
  9
$USRTIMER
 70
     1
  9
$ANGBASE
 50
0.000000
  9
$ANGDIR
 70
     0
  9
$PDMODE
 70
     0
  9
$PDSIZE
 40
0.000000
  9
$PLINEWID
 40
0.000000
  9
$COORDS
 70
     2
  9
$USERI1
 70
     0
  9
$USERI2
 70
     0
  9
$USERI3
 70
     0
  9
$USERI4
 70
     0
  9
$USERI5
 70
     0
  9
$USERR1
 40
0.000000
  9
$USERR2
 40
0.000000
  9
$USERR3
 40
0.000000
  9
$USERR4
 40
0.000000
  9
$USERR5
 40
0.000000
  0
ENDSEC
  0
SECTION
  2
TABLES
  0
TABLE
  2
LTYPE
 70
     5
  0
LTYPE
  2
CONTINUOUS
 70
    64
  3
Solid line
 72
    65
 73
     0
 40
0.0
  0
LTYPE
  2
HIDDEN
 70
    64
  3
------------------------
 72
    65
 73
     2
 40
12.6
 49
8.4
 49
-4.2
  0
LTYPE
  2
DOT
 70
    64
  3
････････････････････････
 72
    65
 73
     2
 40
8.0
 49
6.0
 49
-2.0
  0
LTYPE
  2
DASHDOT
 70
    64
  3
--･--･--･--･--･--･--･--
 72
    65
 73
     4
 40
50.5
 49
30.0
 49
-9.0
 49
2.5
 49
-9.0
  0
LTYPE
  2
DIVIDE
 70
    64
  3
--･･--･･--･･--･･--･･--
 72
    65
 73
     6
 40
58.0
 49
30.0
 49
-9.0
 49
2.5
 49
-5.0
 49
2.5
 49
-9.0
  0
LTYPE
  2
ACAD_ISO06W100
 70
    64
  3
____ ... ____ ... ____
 72
    65
 73
     8
 40
37.5
 49
24.0
 49
-3.0
 49
0.5
 49
-3.0
 49
0.5
 49
-3.0
 49
0.5
 49
-3.0
  0
LTYPE
  2
ACAD_ISO14W100
 70
    64
  3
__ . . . __ . . . __ . . . 
 72
    65
 73
     8
 40
25.5
 49
12.0
 49
-3.0
 49
0.5
 49
-3.0
 49
0.5
 49
-3.0
 49
0.5
 49
-3.0
  0
ENDTAB
  0
TABLE
  2
LAYER
 70
6
  0
LAYER
  2
1
 70
64
 62
7
  6
CONTINUOUS
  0
LAYER
  2
2
 70
64
 62
134
  6
CONTINUOUS
  0
LAYER
  2
3
 70
64
 62
214
  6
CONTINUOUS
  0
LAYER
  2
5
 70
64
 62
94
  6
CONTINUOUS
  0
LAYER
  2
6
 70
64
 62
14
  6
CONTINUOUS
  0
LAYER
  2
10
 70
64
 62
3
  6
CONTINUOUS
  0
ENDTAB
  0
TABLE
  2
STYLE
 70
     2
  0
STYLE
  2
STANDARD
 70
    64
 40
0.0
 41
1.0
 50
0.0
 71
     0
 42
0.2
  3
TXT
  4

  0
STYLE
  2
KANJI
 70
    64
 40
0.0
 41
1.0
 50
0.0
 71
     0
 42
0.2
  3
TXT
  4
BIGFONT
  0
ENDTAB
  0
TABLE
  2
VIEW
 70
     0
  0
ENDTAB
  0
ENDSEC
  0
SECTION
  2
BLOCKS
  0
BLOCK
  8
2
 62
134
  6
CONTINUOUS
  2
*D1
 70
    65
 10
0.0
 20
0.0
  0
LINE
  8
2
 62
134
  6
CONTINUOUS
 10
90.000000
 20
181.080354
 11
98.000000
 21
181.080354
  0
LINE
  8
2
 62
134
  6
CONTINUOUS
 10
90.000000
 20
180.080354
 11
90.000000
 21
194.250000
  0
LINE
  8
2
 62
134
  6
CONTINUOUS
 10
98.000000
 20
180.080354
 11
98.000000
 21
194.250000
  0
LINE
  8
2
 62
134
  6
CONTINUOUS
 10
90.000000
 20
181.080354
 11
91.931852
 21
181.597992
  0
LINE
  8
2
 62
134
  6
CONTINUOUS
 10
90.000000
 20
181.080354
 11
91.931852
 21
180.562716
  0
LINE
  8
2
 62
134
  6
CONTINUOUS
 10
91.931852
 20
181.597992
 11
91.931852
 21
180.562716
  0
LINE
  8
2
 62
134
  6
CONTINUOUS
 10
90.482963
 20
181.080354
 11
91.448889
 21
181.339173
  0
LINE
  8
2
 62
134
  6
CONTINUOUS
 10
90.482963
 20
181.080354
 11
91.448889
 21
180.821535
  0
LINE
  8
2
 62
134
  6
CONTINUOUS
 10
91.448889
 20
181.339173
 11
91.448889
 21
180.821535
  0
LINE
  8
2
 62
134
  6
CONTINUOUS
 10
98.000000
 20
181.080354
 11
96.068148
 21
180.562716
  0
LINE
  8
2
 62
134
  6
CONTINUOUS
 10
98.000000
 20
181.080354
 11
96.068148
 21
181.597992
  0
LINE
  8
2
 62
134
  6
CONTINUOUS
 10
96.068148
 20
180.562716
 11
96.068148
 21
181.597992
  0
LINE
  8
2
 62
134
  6
CONTINUOUS
 10
97.517037
 20
181.080354
 11
96.551111
 21
180.821535
  0
LINE
  8
2
 62
134
  6
CONTINUOUS
 10
97.517037
 20
181.080354
 11
96.551111
 21
181.339173
  0
LINE
  8
2
 62
134
  6
CONTINUOUS
 10
96.551111
 20
180.821535
 11
96.551111
 21
181.339173
  0
TEXT
  8
2
 62
134
  6
CONTINUOUS
 10
93.276434
 20
181.080354
 40
4.000000
 41
1.000000
  1
8
  7
KANJI
 50
0.000000
 51
0.000000
  0
ENDBLK
  0
BLOCK
  8
2
 62
134
  6
CONTINUOUS
  2
*D2
 70
    65
 10
0.0
 20
0.0
  0
LINE
  8
2
 62
134
  6
CONTINUOUS
 10
98.000000
 20
181.080354
 11
120.000000
 21
181.080354
  0
LINE
  8
2
 62
134
  6
CONTINUOUS
 10
98.000000
 20
180.080354
 11
98.000000
 21
194.250000
  0
LINE
  8
2
 62
134
  6
CONTINUOUS
 10
120.000000
 20
180.080354
 11
120.000000
 21
193.950000
  0
LINE
  8
2
 62
134
  6
CONTINUOUS
 10
98.000000
 20
181.080354
 11
99.931852
 21
181.597992
  0
LINE
  8
2
 62
134
  6
CONTINUOUS
 10
98.000000
 20
181.080354
 11
99.931852
 21
180.562716
  0
LINE
  8
2
 62
134
  6
CONTINUOUS
 10
99.931852
 20
181.597992
 11
99.931852
 21
180.562716
  0
LINE
  8
2
 62
134
  6
CONTINUOUS
 10
98.482963
 20
181.080354
 11
99.448889
 21
181.339173
  0
LINE
  8
2
 62
134
  6
CONTINUOUS
 10
98.482963
 20
181.080354
 11
99.448889
 21
180.821535
  0
LINE
  8
2
 62
134
  6
CONTINUOUS
 10
99.448889
 20
181.339173
 11
99.448889
 21
180.821535
  0
LINE
  8
2
 62
134
  6
CONTINUOUS
 10
120.000000
 20
181.080354
 11
118.068148
 21
180.562716
  0
LINE
  8
2
 62
134
  6
CONTINUOUS
 10
120.000000
 20
181.080354
 11
118.068148
 21
181.597992
  0
LINE
  8
2
 62
134
  6
CONTINUOUS
 10
118.068148
 20
180.562716
 11
118.068148
 21
181.597992
  0
LINE
  8
2
 62
134
  6
CONTINUOUS
 10
119.517037
 20
181.080354
 11
118.551111
 21
180.821535
  0
LINE
  8
2
 62
134
  6
CONTINUOUS
 10
119.517037
 20
181.080354
 11
118.551111
 21
181.339173
  0
LINE
  8
2
 62
134
  6
CONTINUOUS
 10
118.551111
 20
180.821535
 11
118.551111
 21
181.339173
  0
TEXT
  8
2
 62
134
  6
CONTINUOUS
 10
106.285550
 20
181.080354
 40
4.000000
 41
1.000000
  1
22
  7
KANJI
 50
0.000000
 51
0.000000
  0
ENDBLK
  0
BLOCK
  8
2
 62
134
  6
CONTINUOUS
  2
*D3
 70
    65
 10
0.0
 20
0.0
  0
LINE
  8
2
 62
134
  6
CONTINUOUS
 10
120.000000
 20
181.080354
 11
130.004267
 21
181.080354
  0
LINE
  8
2
 62
134
  6
CONTINUOUS
 10
120.000000
 20
180.080354
 11
120.000000
 21
193.950000
  0
LINE
  8
2
 62
134
  6
CONTINUOUS
 10
130.004267
 20
180.080354
 11
130.004267
 21
193.913460
  0
LINE
  8
2
 62
134
  6
CONTINUOUS
 10
120.000000
 20
181.080354
 11
121.931852
 21
181.597992
  0
LINE
  8
2
 62
134
  6
CONTINUOUS
 10
120.000000
 20
181.080354
 11
121.931852
 21
180.562716
  0
LINE
  8
2
 62
134
  6
CONTINUOUS
 10
121.931852
 20
181.597992
 11
121.931852
 21
180.562716
  0
LINE
  8
2
 62
134
  6
CONTINUOUS
 10
120.482963
 20
181.080354
 11
121.448889
 21
181.339173
  0
LINE
  8
2
 62
134
  6
CONTINUOUS
 10
120.482963
 20
181.080354
 11
121.448889
 21
180.821535
  0
LINE
  8
2
 62
134
  6
CONTINUOUS
 10
121.448889
 20
181.339173
 11
121.448889
 21
180.821535
  0
LINE
  8
2
 62
134
  6
CONTINUOUS
 10
130.004267
 20
181.080354
 11
128.072415
 21
180.562716
  0
LINE
  8
2
 62
134
  6
CONTINUOUS
 10
130.004267
 20
181.080354
 11
128.072415
 21
181.597992
  0
LINE
  8
2
 62
134
  6
CONTINUOUS
 10
128.072415
 20
180.562716
 11
128.072415
 21
181.597992
  0
LINE
  8
2
 62
134
  6
CONTINUOUS
 10
129.521304
 20
181.080354
 11
128.555378
 21
180.821535
  0
LINE
  8
2
 62
134
  6
CONTINUOUS
 10
129.521304
 20
181.080354
 11
128.555378
 21
181.339173
  0
LINE
  8
2
 62
134
  6
CONTINUOUS
 10
128.555378
 20
180.821535
 11
128.555378
 21
181.339173
  0
TEXT
  8
2
 62
134
  6
CONTINUOUS
 10
122.799616
 20
181.080354
 40
4.000000
 41
1.000000
  1
10
  7
KANJI
 50
0.000000
 51
0.000000
  0
ENDBLK
  0
BLOCK
  8
2
 62
134
  6
CONTINUOUS
  2
*D4
 70
    65
 10
0.0
 20
0.0
  0
LINE
  8
2
 62
134
  6
CONTINUOUS
 10
139.135562
 20
184.614478
 11
139.135562
 21
214.000000
  0
LINE
  8
2
 62
134
  6
CONTINUOUS
 10
139.135562
 20
194.000000
 11
139.653200
 21
192.068148
  0
LINE
  8
2
 62
134
  6
CONTINUOUS
 10
139.135562
 20
194.000000
 11
138.617924
 21
192.068148
  0
LINE
  8
2
 62
134
  6
CONTINUOUS
 10
139.653200
 20
192.068148
 11
138.617924
 21
192.068148
  0
LINE
  8
2
 62
134
  6
CONTINUOUS
 10
139.135562
 20
193.517037
 11
139.394381
 21
192.551111
  0
LINE
  8
2
 62
134
  6
CONTINUOUS
 10
139.135562
 20
193.517037
 11
138.876743
 21
192.551111
  0
LINE
  8
2
 62
134
  6
CONTINUOUS
 10
139.394381
 20
192.551111
 11
138.876743
 21
192.551111
  0
LINE
  8
2
 62
134
  6
CONTINUOUS
 10
139.135562
 20
206.000000
 11
138.617924
 21
207.931852
  0
LINE
  8
2
 62
134
  6
CONTINUOUS
 10
139.135562
 20
206.000000
 11
139.653200
 21
207.931852
  0
LINE
  8
2
 62
134
  6
CONTINUOUS
 10
138.617924
 20
207.931852
 11
139.653200
 21
207.931852
  0
LINE
  8
2
 62
134
  6
CONTINUOUS
 10
139.135562
 20
206.482963
 11
138.876743
 21
207.448889
  0
LINE
  8
2
 62
134
  6
CONTINUOUS
 10
139.135562
 20
206.482963
 11
139.394381
 21
207.448889
  0
LINE
  8
2
 62
134
  6
CONTINUOUS
 10
138.876743
 20
207.448889
 11
139.394381
 21
207.448889
  0
TEXT
  8
2
 62
134
  6
CONTINUOUS
 10
139.135562
 20
184.614478
 40
4.000000
 41
1.000000
  1
φ12
  7
KANJI
 50
90.000000
 51
0.000000
  0
ENDBLK
  0
BLOCK
  8
2
 62
134
  6
CONTINUOUS
  2
*D5
 70
    65
 10
0.0
 20
0.0
  0
LINE
  8
2
 62
134
  6
CONTINUOUS
 10
130.004267
 20
181.080354
 11
144.504267
 21
181.080354
  0
LINE
  8
2
 62
134
  6
CONTINUOUS
 10
130.004267
 20
180.080354
 11
130.004267
 21
193.913460
  0
LINE
  8
2
 62
134
  6
CONTINUOUS
 10
144.504267
 20
180.080354
 11
144.504267
 21
193.300000
  0
LINE
  8
2
 62
134
  6
CONTINUOUS
 10
130.004267
 20
181.080354
 11
131.936118
 21
181.597992
  0
LINE
  8
2
 62
134
  6
CONTINUOUS
 10
130.004267
 20
181.080354
 11
131.936118
 21
180.562716
  0
LINE
  8
2
 62
134
  6
CONTINUOUS
 10
131.936118
 20
181.597992
 11
131.936118
 21
180.562716
  0
LINE
  8
2
 62
134
  6
CONTINUOUS
 10
130.487229
 20
181.080354
 11
131.453155
 21
181.339173
  0
LINE
  8
2
 62
134
  6
CONTINUOUS
 10
130.487229
 20
181.080354
 11
131.453155
 21
180.821535
  0
LINE
  8
2
 62
134
  6
CONTINUOUS
 10
131.453155
 20
181.339173
 11
131.453155
 21
180.821535
  0
LINE
  8
2
 62
134
  6
CONTINUOUS
 10
144.504267
 20
181.080354
 11
142.572415
 21
180.562716
  0
LINE
  8
2
 62
134
  6
CONTINUOUS
 10
144.504267
 20
181.080354
 11
142.572415
 21
181.597992
  0
LINE
  8
2
 62
134
  6
CONTINUOUS
 10
142.572415
 20
180.562716
 11
142.572415
 21
181.597992
  0
LINE
  8
2
 62
134
  6
CONTINUOUS
 10
144.021304
 20
181.080354
 11
143.055378
 21
180.821535
  0
LINE
  8
2
 62
134
  6
CONTINUOUS
 10
144.021304
 20
181.080354
 11
143.055378
 21
181.339173
  0
LINE
  8
2
 62
134
  6
CONTINUOUS
 10
143.055378
 20
180.821535
 11
143.055378
 21
181.339173
  0
TEXT
  8
2
 62
134
  6
CONTINUOUS
 10
133.020866
 20
181.080354
 40
4.000000
 41
1.000000
  1
14.5
  7
KANJI
 50
0.000000
 51
0.000000
  0
ENDBLK
  0
BLOCK
  8
2
 62
134
  6
CONTINUOUS
  2
*D6
 70
    65
 10
0.0
 20
0.0
  0
LINE
  8
2
 62
134
  6
CONTINUOUS
 10
90.000000
 20
174.587447
 11
130.004267
 21
174.587447
  0
LINE
  8
2
 62
134
  6
CONTINUOUS
 10
90.000000
 20
173.587447
 11
90.000000
 21
194.250000
  0
LINE
  8
2
 62
134
  6
CONTINUOUS
 10
130.004267
 20
173.587447
 11
130.004267
 21
193.913460
  0
LINE
  8
2
 62
134
  6
CONTINUOUS
 10
90.000000
 20
174.587447
 11
91.931852
 21
175.105085
  0
LINE
  8
2
 62
134
  6
CONTINUOUS
 10
90.000000
 20
174.587447
 11
91.931852
 21
174.069809
  0
LINE
  8
2
 62
134
  6
CONTINUOUS
 10
91.931852
 20
175.105085
 11
91.931852
 21
174.069809
  0
LINE
  8
2
 62
134
  6
CONTINUOUS
 10
90.482963
 20
174.587447
 11
91.448889
 21
174.846266
  0
LINE
  8
2
 62
134
  6
CONTINUOUS
 10
90.482963
 20
174.587447
 11
91.448889
 21
174.328628
  0
LINE
  8
2
 62
134
  6
CONTINUOUS
 10
91.448889
 20
174.846266
 11
91.448889
 21
174.328628
  0
LINE
  8
2
 62
134
  6
CONTINUOUS
 10
130.004267
 20
174.587447
 11
128.072415
 21
174.069809
  0
LINE
  8
2
 62
134
  6
CONTINUOUS
 10
130.004267
 20
174.587447
 11
128.072415
 21
175.105085
  0
LINE
  8
2
 62
134
  6
CONTINUOUS
 10
128.072415
 20
174.069809
 11
128.072415
 21
175.105085
  0
LINE
  8
2
 62
134
  6
CONTINUOUS
 10
129.521304
 20
174.587447
 11
128.555378
 21
174.328628
  0
LINE
  8
2
 62
134
  6
CONTINUOUS
 10
129.521304
 20
174.587447
 11
128.555378
 21
174.846266
  0
LINE
  8
2
 62
134
  6
CONTINUOUS
 10
128.555378
 20
174.328628
 11
128.555378
 21
174.846266
  0
TEXT
  8
2
 62
134
  6
CONTINUOUS
 10
108.045389
 20
174.587447
 40
4.000000
 41
1.000000
  1
40
  7
KANJI
 50
0.000000
 51
0.000000
  0
ENDBLK
  0
BLOCK
  8
2
 62
134
  6
CONTINUOUS
  2
*D7
 70
    65
 10
0.0
 20
0.0
  0
LINE
  8
2
 62
134
  6
CONTINUOUS
 10
130.004267
 20
174.587447
 11
159.750005
 21
174.587447
  0
LINE
  8
2
 62
134
  6
CONTINUOUS
 10
130.004267
 20
173.587447
 11
130.004267
 21
193.913460
  0
LINE
  8
2
 62
134
  6
CONTINUOUS
 10
159.750005
 20
173.587447
 11
159.750005
 21
194.500000
  0
LINE
  8
2
 62
134
  6
CONTINUOUS
 10
130.004267
 20
174.587447
 11
131.936118
 21
175.105085
  0
LINE
  8
2
 62
134
  6
CONTINUOUS
 10
130.004267
 20
174.587447
 11
131.936118
 21
174.069809
  0
LINE
  8
2
 62
134
  6
CONTINUOUS
 10
131.936118
 20
175.105085
 11
131.936118
 21
174.069809
  0
LINE
  8
2
 62
134
  6
CONTINUOUS
 10
130.487229
 20
174.587447
 11
131.453155
 21
174.846266
  0
LINE
  8
2
 62
134
  6
CONTINUOUS
 10
130.487229
 20
174.587447
 11
131.453155
 21
174.328628
  0
LINE
  8
2
 62
134
  6
CONTINUOUS
 10
131.453155
 20
174.846266
 11
131.453155
 21
174.328628
  0
LINE
  8
2
 62
134
  6
CONTINUOUS
 10
159.750005
 20
174.587447
 11
157.818154
 21
174.069809
  0
LINE
  8
2
 62
134
  6
CONTINUOUS
 10
159.750005
 20
174.587447
 11
157.818154
 21
175.105085
  0
LINE
  8
2
 62
134
  6
CONTINUOUS
 10
157.818154
 20
174.069809
 11
157.818154
 21
175.105085
  0
LINE
  8
2
 62
134
  6
CONTINUOUS
 10
159.267042
 20
174.587447
 11
158.301116
 21
174.328628
  0
LINE
  8
2
 62
134
  6
CONTINUOUS
 10
159.267042
 20
174.587447
 11
158.301116
 21
174.846266
  0
LINE
  8
2
 62
134
  6
CONTINUOUS
 10
158.301116
 20
174.328628
 11
158.301116
 21
174.846266
  0
TEXT
  8
2
 62
134
  6
CONTINUOUS
 10
143.789862
 20
174.587447
 40
4.000000
 41
1.000000
  1
30
  7
KANJI
 50
0.000000
 51
0.000000
  0
ENDBLK
  0
BLOCK
  8
2
 62
134
  6
CONTINUOUS
  2
*D8
 70
    65
 10
0.0
 20
0.0
  0
LINE
  8
2
 62
134
  6
CONTINUOUS
 10
153.398834
 20
187.500000
 11
153.398834
 21
214.236479
  0
LINE
  8
2
 62
134
  6
CONTINUOUS
 10
153.398834
 20
195.500000
 11
153.916473
 21
193.568148
  0
LINE
  8
2
 62
134
  6
CONTINUOUS
 10
153.398834
 20
195.500000
 11
152.881196
 21
193.568148
  0
LINE
  8
2
 62
134
  6
CONTINUOUS
 10
153.916473
 20
193.568148
 11
152.881196
 21
193.568148
  0
LINE
  8
2
 62
134
  6
CONTINUOUS
 10
153.398834
 20
195.017037
 11
153.657653
 21
194.051111
  0
LINE
  8
2
 62
134
  6
CONTINUOUS
 10
153.398834
 20
195.017037
 11
153.140015
 21
194.051111
  0
LINE
  8
2
 62
134
  6
CONTINUOUS
 10
153.657653
 20
194.051111
 11
153.140015
 21
194.051111
  0
LINE
  8
2
 62
134
  6
CONTINUOUS
 10
153.398834
 20
204.500062
 11
152.881196
 21
206.431914
  0
LINE
  8
2
 62
134
  6
CONTINUOUS
 10
153.398834
 20
204.500062
 11
153.916473
 21
206.431914
  0
LINE
  8
2
 62
134
  6
CONTINUOUS
 10
152.881196
 20
206.431914
 11
153.916473
 21
206.431914
  0
LINE
  8
2
 62
134
  6
CONTINUOUS
 10
153.398834
 20
204.983025
 11
153.140015
 21
205.948951
  0
LINE
  8
2
 62
134
  6
CONTINUOUS
 10
153.398834
 20
204.983025
 11
153.657653
 21
205.948951
  0
LINE
  8
2
 62
134
  6
CONTINUOUS
 10
153.140015
 20
205.948951
 11
153.657653
 21
205.948951
  0
TEXT
  8
2
 62
134
  6
CONTINUOUS
 10
153.398834
 20
208.236479
 40
4.000000
 41
1.000000
  1
φ9
  7
KANJI
 50
90.000000
 51
0.000000
  0
ENDBLK
  0
BLOCK
  8
3
 62
134
  6
CONTINUOUS
  2
*D9
 70
    65
 10
0.0
 20
0.0
  0
LINE
  8
3
 62
134
  6
CONTINUOUS
 10
116.932990
 20
186.000000
 11
116.932990
 21
232.946201
  0
LINE
  8
3
 62
134
  6
CONTINUOUS
 10
114.932990
 20
194.000000
 11
125.339644
 21
194.000000
  0
LINE
  8
3
 62
134
  6
CONTINUOUS
 10
114.932990
 20
206.000000
 11
124.745297
 21
206.000000
  0
LINE
  8
3
 62
134
  6
CONTINUOUS
 10
116.932990
 20
194.000000
 11
117.450628
 21
192.068148
  0
LINE
  8
3
 62
134
  6
CONTINUOUS
 10
116.932990
 20
194.000000
 11
116.415352
 21
192.068148
  0
LINE
  8
3
 62
134
  6
CONTINUOUS
 10
117.450628
 20
192.068148
 11
116.415352
 21
192.068148
  0
LINE
  8
3
 62
134
  6
CONTINUOUS
 10
116.932990
 20
193.517037
 11
117.191809
 21
192.551111
  0
LINE
  8
3
 62
134
  6
CONTINUOUS
 10
116.932990
 20
193.517037
 11
116.674171
 21
192.551111
  0
LINE
  8
3
 62
134
  6
CONTINUOUS
 10
117.191809
 20
192.551111
 11
116.674171
 21
192.551111
  0
LINE
  8
3
 62
134
  6
CONTINUOUS
 10
116.932990
 20
206.000000
 11
116.415352
 21
207.931852
  0
LINE
  8
3
 62
134
  6
CONTINUOUS
 10
116.932990
 20
206.000000
 11
117.450628
 21
207.931852
  0
LINE
  8
3
 62
134
  6
CONTINUOUS
 10
116.415352
 20
207.931852
 11
117.450628
 21
207.931852
  0
LINE
  8
3
 62
134
  6
CONTINUOUS
 10
116.932990
 20
206.482963
 11
116.674171
 21
207.448889
  0
LINE
  8
3
 62
134
  6
CONTINUOUS
 10
116.932990
 20
206.482963
 11
117.191809
 21
207.448889
  0
LINE
  8
3
 62
134
  6
CONTINUOUS
 10
116.674171
 20
207.448889
 11
117.191809
 21
207.448889
  0
TEXT
  8
3
 62
134
  6
CONTINUOUS
 10
116.932990
 20
210.813283
 40
4.000000
 41
1.000000
  1
ﾍｯﾄﾞ取付ﾈｼﾞ
  7
KANJI
 50
90.000000
 51
30.000000
  0
ENDBLK
  0
BLOCK
  8
2
 62
134
  6
CONTINUOUS
  2
*D10
 70
    65
 10
0.0
 20
0.0
  0
LINE
  8
2
 62
134
  6
CONTINUOUS
 10
170.750005
 20
189.400000
 11
170.750005
 21
214.786538
  0
LINE
  8
2
 62
134
  6
CONTINUOUS
 10
169.750005
 20
197.400000
 11
172.750005
 21
197.400000
  0
LINE
  8
2
 62
134
  6
CONTINUOUS
 10
169.750005
 20
202.600000
 11
171.750005
 21
202.600000
  0
LINE
  8
2
 62
134
  6
CONTINUOUS
 10
170.750005
 20
197.400000
 11
171.267643
 21
195.468148
  0
LINE
  8
2
 62
134
  6
CONTINUOUS
 10
170.750005
 20
197.400000
 11
170.232367
 21
195.468148
  0
LINE
  8
2
 62
134
  6
CONTINUOUS
 10
171.267643
 20
195.468148
 11
170.232367
 21
195.468148
  0
LINE
  8
2
 62
134
  6
CONTINUOUS
 10
170.750005
 20
196.917037
 11
171.008824
 21
195.951111
  0
LINE
  8
2
 62
134
  6
CONTINUOUS
 10
170.750005
 20
196.917037
 11
170.491186
 21
195.951111
  0
LINE
  8
2
 62
134
  6
CONTINUOUS
 10
171.008824
 20
195.951111
 11
170.491186
 21
195.951111
  0
LINE
  8
2
 62
134
  6
CONTINUOUS
 10
170.750005
 20
202.600000
 11
170.232367
 21
204.531852
  0
LINE
  8
2
 62
134
  6
CONTINUOUS
 10
170.750005
 20
202.600000
 11
171.267643
 21
204.531852
  0
LINE
  8
2
 62
134
  6
CONTINUOUS
 10
170.232367
 20
204.531852
 11
171.267643
 21
204.531852
  0
LINE
  8
2
 62
134
  6
CONTINUOUS
 10
170.750005
 20
203.082963
 11
170.491186
 21
204.048889
  0
LINE
  8
2
 62
134
  6
CONTINUOUS
 10
170.750005
 20
203.082963
 11
171.008824
 21
204.048889
  0
LINE
  8
2
 62
134
  6
CONTINUOUS
 10
170.491186
 20
204.048889
 11
171.008824
 21
204.048889
  0
TEXT
  8
2
 62
134
  6
CONTINUOUS
 10
170.750005
 20
204.786538
 40
4.000000
 41
1.000000
  1
φ5.2
  7
KANJI
 50
90.000000
 51
0.000000
  0
ENDBLK
  0
BLOCK
  8
2
 62
134
  6
CONTINUOUS
  2
*D11
 70
    65
 10
0.0
 20
0.0
  0
LINE
  8
2
 62
134
  6
CONTINUOUS
 10
96.591797
 20
187.250000
 11
96.591797
 21
236.381859
  0
LINE
  8
2
 62
134
  6
CONTINUOUS
 10
97.591797
 20
195.250000
 11
94.007698
 21
195.250000
  0
LINE
  8
2
 62
134
  6
CONTINUOUS
 10
97.591797
 20
204.750000
 11
94.007698
 21
204.750000
  0
LINE
  8
2
 62
134
  6
CONTINUOUS
 10
96.591797
 20
195.250000
 11
97.109435
 21
193.318148
  0
LINE
  8
2
 62
134
  6
CONTINUOUS
 10
96.591797
 20
195.250000
 11
96.074159
 21
193.318148
  0
LINE
  8
2
 62
134
  6
CONTINUOUS
 10
97.109435
 20
193.318148
 11
96.074159
 21
193.318148
  0
LINE
  8
2
 62
134
  6
CONTINUOUS
 10
96.591797
 20
194.767037
 11
96.850616
 21
193.801111
  0
LINE
  8
2
 62
134
  6
CONTINUOUS
 10
96.591797
 20
194.767037
 11
96.332978
 21
193.801111
  0
LINE
  8
2
 62
134
  6
CONTINUOUS
 10
96.850616
 20
193.801111
 11
96.332978
 21
193.801111
  0
LINE
  8
2
 62
134
  6
CONTINUOUS
 10
96.591797
 20
204.750000
 11
96.074159
 21
206.681852
  0
LINE
  8
2
 62
134
  6
CONTINUOUS
 10
96.591797
 20
204.750000
 11
97.109435
 21
206.681852
  0
LINE
  8
2
 62
134
  6
CONTINUOUS
 10
96.074159
 20
206.681852
 11
97.109435
 21
206.681852
  0
LINE
  8
2
 62
134
  6
CONTINUOUS
 10
96.591797
 20
205.232963
 11
96.332978
 21
206.198889
  0
LINE
  8
2
 62
134
  6
CONTINUOUS
 10
96.591797
 20
205.232963
 11
96.850616
 21
206.198889
  0
LINE
  8
2
 62
134
  6
CONTINUOUS
 10
96.332978
 20
206.198889
 11
96.850616
 21
206.198889
  0
TEXT
  8
2
 62
134
  6
CONTINUOUS
 10
96.591797
 20
221.381859
 40
4.000000
 41
1.000000
  1
φ9.5
  7
KANJI
 50
90.000000
 51
0.000000
  0
ENDBLK
  0
ENDSEC
  0
SECTION
  2
ENTITIES
  0
TEXT
  8
5
 62
7
  6
CONTINUOUS
 10
123.572985
 20
23.251884
 40
1.750000
 41
4.000000
  1
製図
  7
KANJI
 50
-90.000000
 51
0.000000
  0
TEXT
  8
5
 62
7
  6
CONTINUOUS
 10
143.405766
 20
23.087976
 40
1.750000
 41
4.000000
  1
図番
  7
KANJI
 50
-90.000000
 51
0.000000
  0
TEXT
  8
5
 62
7
  6
CONTINUOUS
 10
143.405766
 20
36.364467
 40
1.750000
 41
4.000000
  1
図　名
  7
KANJI
 50
-90.000000
 51
0.000000
  0
TEXT
  8
5
 62
7
  6
CONTINUOUS
 10
78.498481
 20
30.955526
 40
1.750000
 41
4.000000
  1
日付
  7
KANJI
 50
-90.000000
 51
0.000000
  0
TEXT
  8
5
 62
7
  6
CONTINUOUS
 10
113.574640
 20
31.119433
 40
1.750000
 41
4.000000
  1
図法
  7
KANJI
 50
-90.000000
 51
0.000000
  0
TEXT
  8
5
 62
7
  6
CONTINUOUS
 10
113.410733
 20
39.150890
 40
1.750000
 41
4.000000
  1
尺度
  7
KANJI
 50
-90.000000
 51
0.000000
  0
TEXT
  8
5
 62
7
  6
CONTINUOUS
 10
78.498481
 20
38.986983
 40
1.750000
 41
4.000000
  1
公差
  7
KANJI
 50
-90.000000
 51
0.000000
  0
TEXT
  8
5
 62
7
  6
CONTINUOUS
 10
78.498481
 20
23.087976
 40
1.750000
 41
4.000000
  1
承認
  7
KANJI
 50
-90.000000
 51
0.000000
  0
TEXT
  8
5
 62
7
  6
CONTINUOUS
 10
103.576296
 20
23.087976
 40
1.750000
 41
4.000000
  1
設計
  7
KANJI
 50
-90.000000
 51
0.000000
  0
TEXT
  8
5
 62
7
  6
CONTINUOUS
 10
97.020004
 20
9.155857
 40
4.500000
 41
1.888889
  1
ジャパンセンサー株式会社
  7
KANJI
 50
0.000000
 51
0.000000
  0
LINE
  8
5
 62
7
  6
CONTINUOUS
 10
197.610236
 20
7.600394
 11
197.610236
 21
282.600394
  0
LINE
  8
5
 62
7
  6
CONTINUOUS
 10
197.610236
 20
282.600394
 11
12.610236
 21
282.600394
  0
LINE
  8
5
 62
7
  6
CONTINUOUS
 10
12.610236
 20
282.600394
 11
12.610236
 21
7.600394
  0
LINE
  8
5
 62
7
  6
CONTINUOUS
 10
12.610236
 20
7.600394
 11
197.610236
 21
7.600394
  0
LINE
  8
5
 62
7
  6
CONTINUOUS
 10
77.610236
 20
39.600394
 11
197.610236
 21
39.600394
  0
LINE
  8
5
 62
7
  6
CONTINUOUS
 10
77.610236
 20
7.600394
 11
77.610236
 21
39.600394
  0
LINE
  8
5
 62
7
  6
CONTINUOUS
 10
197.610236
 20
15.600394
 11
77.610236
 21
15.600394
  0
LINE
  8
5
 62
7
  6
CONTINUOUS
 10
142.610236
 20
39.600394
 11
142.610236
 21
15.600394
  0
LINE
  8
5
 62
7
  6
CONTINUOUS
 10
197.610236
 20
23.600394
 11
77.610236
 21
23.600394
  0
LINE
  8
5
 62
7
  6
CONTINUOUS
 10
147.610236
 20
15.600394
 11
147.610236
 21
39.600394
  0
LINE
  8
5
 62
7
  6
CONTINUOUS
 10
117.610236
 20
39.600394
 11
117.610236
 21
23.600394
  0
LINE
  8
5
 62
7
  6
CONTINUOUS
 10
82.610236
 20
15.600394
 11
82.610236
 21
39.600394
  0
LINE
  8
5
 62
7
  6
CONTINUOUS
 10
77.610236
 20
31.600394
 11
142.610236
 21
31.600394
  0
LINE
  8
5
 62
7
  6
CONTINUOUS
 10
112.610236
 20
39.600394
 11
112.610236
 21
23.600394
  0
LINE
  8
5
 62
7
  6
CONTINUOUS
 10
102.610236
 20
15.600394
 11
102.610236
 21
23.600394
  0
LINE
  8
5
 62
7
  6
CONTINUOUS
 10
122.610236
 20
15.600394
 11
122.610236
 21
23.600394
  0
LINE
  8
5
 62
7
  6
CONTINUOUS
 10
107.610236
 20
23.600394
 11
107.610236
 21
15.600394
  0
LINE
  8
5
 62
7
  6
CONTINUOUS
 10
127.610236
 20
23.600394
 11
127.610236
 21
15.600394
  0
TEXT
  8
5
 62
7
  6
CONTINUOUS
 10
122.589541
 20
33.250228
 40
4.000000
 41
1.000000
  1
１／１
  7
KANJI
 50
0.000000
 51
0.000000
  0
TEXT
  8
5
 62
7
  6
CONTINUOUS
 10
121.606097
 20
24.890957
 40
4.000000
 41
1.000000
  1
三角法
  7
KANJI
 50
0.000000
 51
0.000000
  0
TEXT
  8
5
 62
7
  6
CONTINUOUS
 10
111.119218
 20
17.598748
 40
4.000000
 41
1.000000
  1
須藤
  7
KANJI
 50
0.000000
 51
0.000000
  0
TEXT
  8
5
 62
7
  6
CONTINUOUS
 10
131.119218
 20
17.598748
 40
4.000000
 41
1.000000
  1
須藤
  7
KANJI
 50
0.000000
 51
0.000000
  0
LINE
  8
1
 62
7
  6
DASHDOT
 10
24.411057
 20
200.000000
 11
49.256183
 21
200.000000
  0
LINE
  8
1
 62
7
  6
DASHDOT
 10
36.159527
 20
214.464107
 11
36.159527
 21
186.922611
  0
CIRCLE
  8
1
 62
7
  6
CONTINUOUS
 10
36.159527
 20
200.000000
 40
6.000000
  0
CIRCLE
  8
1
 62
7
  6
CONTINUOUS
 10
36.159527
 20
200.000000
 40
4.750000
  0
CIRCLE
  8
1
 62
7
  6
CONTINUOUS
 10
36.159527
 20
200.000000
 40
5.050000
  0
CIRCLE
  8
1
 62
7
  6
CONTINUOUS
 10
36.159527
 20
200.000000
 40
4.000000
  0
CIRCLE
  8
1
 62
7
  6
CONTINUOUS
 10
36.159527
 20
200.000000
 40
3.594000
  0
LINE
  8
1
 62
7
  6
DASHDOT
 10
138.297343
 20
200.000000
 11
138.043873
 21
200.000000
  0
LINE
  8
2
 62
134
  6
CONTINUOUS
 10
90.000000
 20
179.053590
 11
90.000000
 21
193.250000
  0
LINE
  8
2
 62
134
  6
CONTINUOUS
 10
130.000000
 20
219.047252
 11
131.931852
 21
219.564890
  0
LINE
  8
2
 62
134
  6
CONTINUOUS
 10
131.931852
 20
219.564890
 11
131.931852
 21
218.529614
  0
LINE
  8
2
 62
134
  6
CONTINUOUS
 10
131.931852
 20
218.529614
 11
130.000000
 21
219.047252
  0
LINE
  8
2
 62
134
  6
CONTINUOUS
 10
130.000000
 20
221.047252
 11
130.000000
 21
202.000000
  0
LINE
  8
2
 62
134
  6
CONTINUOUS
 10
90.000000
 20
174.587447
 11
88.068148
 21
174.069809
  0
LINE
  8
2
 62
134
  6
CONTINUOUS
 10
88.068148
 20
174.069809
 11
88.068148
 21
175.105085
  0
LINE
  8
2
 62
134
  6
CONTINUOUS
 10
88.068148
 20
175.105085
 11
90.000000
 21
174.587447
  0
LINE
  8
2
 62
134
  6
CONTINUOUS
 10
90.000000
 20
174.587447
 11
39.116267
 21
174.587447
  0
LINE
  8
1
 62
7
  6
DOT
 10
93.000000
 20
219.287648
 11
93.000000
 21
212.787648
  0
LINE
  8
1
 62
7
  6
DOT
 10
93.000000
 20
212.787648
 11
95.000000
 21
212.787648
  0
LINE
  8
1
 62
7
  6
DOT
 10
95.000000
 20
212.787648
 11
95.000000
 21
219.287648
  0
LINE
  8
1
 62
7
  6
DOT
 10
95.000000
 20
219.287648
 11
93.000000
 21
219.287648
  0
LINE
  8
1
 62
7
  6
DOT
 10
91.000000
 20
212.787648
 11
81.750000
 21
212.787648
  0
LINE
  8
1
 62
7
  6
DOT
 10
91.000000
 20
219.287648
 11
84.250000
 21
219.287648
  0
LINE
  8
1
 62
7
  6
DOT
 10
91.000000
 20
213.537648
 11
93.000000
 21
213.537648
  0
LINE
  8
1
 62
7
  6
DOT
 10
91.000000
 20
218.537648
 11
93.000000
 21
218.537648
  0
LINE
  8
1
 62
7
  6
DOT
 10
91.000000
 20
219.287648
 11
91.000000
 21
212.787648
  0
LINE
  8
1
 62
7
  6
DOT
 10
81.000000
 20
207.037648
 11
87.000000
 21
207.037648
  0
LINE
  8
1
 62
7
  6
DOT
 10
87.000000
 20
207.037648
 11
87.000000
 21
212.037648
  0
ARC
  8
1
 62
7
  6
DOT
 10
86.250000
 20
212.037648
 40
0.750000
 50
0.000000
 51
90.000000
  0
ARC
  8
1
 62
7
  6
DOT
 10
86.250000
 20
212.037648
 40
0.750000
 50
90.000000
 51
180.000000
  0
LINE
  8
1
 62
7
  6
DOT
 10
85.500000
 20
207.037648
 11
85.500000
 21
212.037648
  0
ARC
  8
1
 62
7
  6
DOT
 10
84.750000
 20
212.037648
 40
0.750000
 50
0.000000
 51
90.000000
  0
ARC
  8
1
 62
7
  6
DOT
 10
83.250000
 20
212.037648
 40
0.750000
 50
90.000000
 51
180.000000
  0
LINE
  8
1
 62
7
  6
DOT
 10
82.500000
 20
207.037648
 11
82.500000
 21
212.037648
  0
ARC
  8
1
 62
7
  6
DOT
 10
81.750000
 20
212.037648
 40
0.750000
 50
0.000000
 51
90.000000
  0
LINE
  8
1
 62
7
  6
DOT
 10
86.250000
 20
212.787648
 11
81.750000
 21
212.787648
  0
ARC
  8
1
 62
7
  6
DOT
 10
81.750000
 20
212.037648
 40
0.750000
 50
90.000000
 51
180.000000
  0
LINE
  8
1
 62
7
  6
DOT
 10
81.000000
 20
216.037648
 11
81.000000
 21
207.037648
  0
ARC
  8
1
 62
7
  6
DOT
 10
84.250000
 20
216.037648
 40
3.250000
 50
90.000000
 51
180.000000
  0
LINE
  8
1
 62
7
  6
DOT
 10
85.500000
 20
207.037648
 11
85.500000
 21
204.037646
  0
LINE
  8
1
 62
7
  6
DOT
 10
85.305588
 20
207.037648
 11
85.305588
 21
204.037648
  0
LINE
  8
1
 62
7
  6
DOT
 10
82.700000
 20
207.037648
 11
82.700000
 21
204.037648
  0
LINE
  8
1
 62
7
  6
DOT
 10
82.500000
 20
207.037648
 11
82.500000
 21
204.037648
  0
LINE
  8
1
 62
7
  6
DOT
 10
82.500000
 20
204.037648
 11
85.500000
 21
204.037648
  0
LINE
  8
1
 62
7
  6
DOT
 10
89.500000
 20
193.037648
 11
90.000000
 21
193.537648
  0
LINE
  8
1
 62
7
  6
DOT
 10
90.000000
 20
196.537648
 11
90.000000
 21
193.537648
  0
LINE
  8
1
 62
7
  6
DOT
 10
65.500000
 20
193.037648
 11
89.500000
 21
193.037648
  0
LINE
  8
1
 62
7
  6
DOT
 10
89.500000
 20
207.037648
 11
90.000000
 21
206.537648
  0
LINE
  8
1
 62
7
  6
DOT
 10
90.000000
 20
203.537648
 11
90.000000
 21
206.537648
  0
LINE
  8
1
 62
7
  6
DOT
 10
65.500000
 20
207.037648
 11
89.500000
 21
207.037648
  0
LINE
  8
1
 62
7
  6
DOT
 10
91.000000
 20
196.537648
 11
91.000000
 21
200.036540
  0
LINE
  8
1
 62
7
  6
DOT
 10
90.000000
 20
196.537648
 11
90.000000
 21
200.000000
  0
LINE
  8
1
 62
7
  6
DOT
 10
91.000000
 20
196.443648
 11
94.906000
 21
196.443648
  0
LINE
  8
1
 62
7
  6
DOT
 10
91.000000
 20
203.631648
 11
94.906000
 21
203.631648
  0
LINE
  8
1
 62
7
  6
DOT
 10
65.000000
 20
193.537648
 11
65.500000
 21
193.037648
  0
LINE
  8
1
 62
7
  6
DOT
 10
65.000000
 20
206.537648
 11
65.500000
 21
207.037648
  0
LINE
  8
1
 62
7
  6
DOT
 10
95.000000
 20
196.537648
 11
94.500000
 21
196.037648
  0
LINE
  8
1
 62
7
  6
DOT
 10
94.500000
 20
204.037648
 11
95.000000
 21
203.537648
  0
LINE
  8
1
 62
7
  6
DOT
 10
91.000000
 20
204.037648
 11
91.000000
 21
203.537648
  0
LINE
  8
1
 62
7
  6
DOT
 10
91.000000
 20
204.037648
 11
94.500000
 21
204.037648
  0
LINE
  8
1
 62
7
  6
DOT
 10
90.000000
 20
203.537648
 11
91.000000
 21
203.537648
  0
LINE
  8
1
 62
7
  6
DOT
 10
91.000000
 20
196.537648
 11
91.000000
 21
196.037648
  0
LINE
  8
1
 62
7
  6
DOT
 10
90.000000
 20
196.537648
 11
91.000000
 21
196.537648
  0
LINE
  8
1
 62
7
  6
DOT
 10
91.000000
 20
196.037648
 11
94.500000
 21
196.037648
  0
LINE
  8
1
 62
7
  6
DOT
 10
95.000000
 20
203.537648
 11
95.000000
 21
196.537648
  0
LINE
  8
1
 62
7
  6
DOT
 10
87.000000
 20
204.037648
 11
87.581939
 21
203.037648
  0
LINE
  8
1
 62
7
  6
DOT
 10
87.581939
 20
203.037648
 11
87.581939
 21
200.037648
  0
LINE
  8
1
 62
7
  6
DOT
 10
87.000000
 20
204.019439
 11
87.000000
 21
200.000000
  0
LINE
  8
1
 62
7
  6
DOT
 10
87.581939
 20
203.037648
 11
95.000000
 21
203.037648
  0
LINE
  8
1
 62
7
  6
DOT
 10
65.500000
 20
193.037648
 11
65.500000
 21
200.037648
  0
LINE
  8
1
 62
7
  6
DOT
 10
65.000000
 20
193.537648
 11
65.000000
 21
206.537648
  0
LINE
  8
1
 62
7
  6
DOT
 10
65.000000
 20
204.037648
 11
87.000000
 21
204.037648
  0
LINE
  8
1
 62
7
  6
DASHDOT
 10
62.296014
 20
200.037648
 11
95.657357
 21
200.037648
  0
LINE
  8
1
 62
214
  6
DASHDOT
 10
78.230132
 20
216.037648
 11
97.653972
 21
216.037648
  0
LINE
  8
1
 62
214
  6
DASHDOT
 10
84.000000
 20
220.907121
 11
84.000000
 21
200.209962
  0
LINE
  8
1
 62
7
  6
DOT
 10
91.000000
 20
217.537648
 11
85.500000
 21
217.537648
  0
LINE
  8
1
 62
7
  6
DOT
 10
85.500000
 20
217.537648
 11
85.500000
 21
214.537648
  0
LINE
  8
1
 62
7
  6
DOT
 10
85.500000
 20
214.537648
 11
91.000000
 21
214.537648
  0
TEXT
  8
6
 62
14
  6
CONTINUOUS
 10
129.622221
 20
229.766841
 40
4.000000
 41
1.000000
  1
②
  7
KANJI
 50
0.000000
 51
0.000000
  0
TEXT
  8
6
 62
14
  6
CONTINUOUS
 10
173.398921
 20
181.884498
 40
4.000000
 41
1.000000
  1
④
  7
KANJI
 50
0.000000
 51
0.000000
  0
LINE
  8
3
 62
134
  6
CONTINUOUS
 10
125.816630
 20
203.568768
 11
130.482041
 21
229.766841
  0
LINE
  8
3
 62
134
  6
CONTINUOUS
 10
130.482041
 20
229.766841
 11
148.517531
 21
229.766841
  0
TEXT
  8
3
 62
134
  6
CONTINUOUS
 10
134.517531
 20
229.766841
 40
4.000000
 41
1.000000
  1
ｾﾝｻﾍｯﾄﾞ
  7
KANJI
 50
0.000000
 51
30.000000
  0
LINE
  8
3
 62
134
  6
CONTINUOUS
 10
125.816630
 20
203.568768
 11
125.645710
 21
205.561451
  0
LINE
  8
3
 62
134
  6
CONTINUOUS
 10
125.816630
 20
203.568768
 11
126.664950
 21
205.379942
  0
LINE
  8
3
 62
134
  6
CONTINUOUS
 10
125.645710
 20
205.561451
 11
126.664950
 21
205.379942
  0
LINE
  8
3
 62
134
  6
CONTINUOUS
 10
125.901305
 20
204.044250
 11
125.815845
 21
205.040591
  0
LINE
  8
3
 62
134
  6
CONTINUOUS
 10
125.901305
 20
204.044250
 11
126.325465
 21
204.949837
  0
LINE
  8
3
 62
134
  6
CONTINUOUS
 10
125.815845
 20
205.040591
 11
126.325465
 21
204.949837
  0
LINE
  8
3
 62
134
  6
CONTINUOUS
 10
130.000000
 20
219.047252
 11
185.654940
 21
219.047252
  0
TEXT
  8
3
 62
134
  6
CONTINUOUS
 10
164.544790
 20
219.047252
 40
4.000000
 41
1.000000
  1
ﾌｧｲﾊﾞ長
  7
KANJI
 50
0.000000
 51
30.000000
  0
LINE
  8
3
 62
134
  6
CONTINUOUS
 10
165.000000
 20
197.000000
 11
173.690755
 21
181.862520
  0
LINE
  8
3
 62
134
  6
CONTINUOUS
 10
173.690755
 20
181.862520
 11
187.662893
 21
181.862520
  0
TEXT
  8
3
 62
134
  6
CONTINUOUS
 10
177.662893
 20
181.955602
 40
4.000000
 41
1.000000
  1
ﾌｧｲﾊﾞ
  7
KANJI
 50
0.000000
 51
30.000000
  0
LINE
  8
3
 62
134
  6
CONTINUOUS
 10
165.000000
 20
197.000000
 11
166.410780
 21
195.582361
  0
LINE
  8
3
 62
134
  6
CONTINUOUS
 10
165.000000
 20
197.000000
 11
165.512952
 21
195.066899
  0
LINE
  8
3
 62
134
  6
CONTINUOUS
 10
166.410780
 20
195.582361
 11
165.512952
 21
195.066899
  0
LINE
  8
3
 62
134
  6
CONTINUOUS
 10
165.240467
 20
196.581158
 11
165.945857
 21
195.872338
  0
LINE
  8
3
 62
134
  6
CONTINUOUS
 10
165.240467
 20
196.581158
 11
165.496943
 21
195.614607
  0
LINE
  8
3
 62
134
  6
CONTINUOUS
 10
165.945857
 20
195.872338
 11
165.496943
 21
195.614607
  0
TEXT
  8
3
 62
134
  6
CONTINUOUS
 10
56.970360
 20
174.587447
 40
4.000000
 41
1.000000
  1
測定距離
  7
KANJI
 50
0.000000
 51
30.000000
  0
TEXT
  8
6
 62
14
  6
CONTINUOUS
 10
24.001964
 20
217.685967
 40
4.000000
 41
1.000000
  1
⑤
  7
KANJI
 50
0.000000
 51
0.000000
  0
LINE
  8
3
 62
134
  6
CONTINUOUS
 10
76.430763
 20
207.037648
 11
74.447315
 21
217.685967
  0
LINE
  8
3
 62
134
  6
CONTINUOUS
 10
74.447315
 20
217.685967
 11
28.001964
 21
217.685967
  0
TEXT
  8
3
 62
134
  6
CONTINUOUS
 10
28.001964
 20
217.403361
 40
4.000000
 41
1.000000
  1
φ6丸ﾍｯﾄﾞ用ｴｱﾊﾟｰｼﾞﾌｰﾄﾞ
  7
KANJI
 50
0.000000
 51
30.000000
  0
LINE
  8
3
 62
134
  6
CONTINUOUS
 10
76.430763
 20
207.037648
 11
75.568119
 21
208.842044
  0
LINE
  8
3
 62
134
  6
CONTINUOUS
 10
76.430763
 20
207.037648
 11
76.585890
 21
209.031623
  0
LINE
  8
3
 62
134
  6
CONTINUOUS
 10
75.568119
 20
208.842044
 11
76.585890
 21
209.031623
  0
LINE
  8
3
 62
134
  6
CONTINUOUS
 10
76.342323
 20
207.512444
 11
75.911001
 21
208.414642
  0
LINE
  8
3
 62
134
  6
CONTINUOUS
 10
76.342323
 20
207.512444
 11
76.419887
 21
208.509431
  0
LINE
  8
3
 62
134
  6
CONTINUOUS
 10
75.911001
 20
208.414642
 11
76.419887
 21
208.509431
  0
TEXT
  8
3
 62
134
  6
CONTINUOUS
 10
50.001964
 20
213.446888
 40
4.000000
 41
1.000000
  1
ｵﾌﾟｼﾖﾝ
  7
KANJI
 50
0.000000
 51
0.000000
  0
LINE
  8
1
 62
7
  6
CONTINUOUS
 10
160.750005
 20
202.600000
 11
161.750005
 21
202.600000
  0
LINE
  8
1
 62
7
  6
CONTINUOUS
 10
162.750005
 20
202.600000
 11
163.750005
 21
202.600000
  0
LINE
  8
1
 62
7
  6
CONTINUOUS
 10
164.750005
 20
202.600000
 11
165.750005
 21
202.600000
  0
LINE
  8
1
 62
7
  6
CONTINUOUS
 10
166.750005
 20
202.600000
 11
167.750005
 21
202.600000
  0
LINE
  8
1
 62
7
  6
CONTINUOUS
 10
168.750005
 20
202.600000
 11
169.750005
 21
202.600000
  0
LINE
  8
1
 62
7
  6
CONTINUOUS
 10
170.750005
 20
202.600000
 11
171.750005
 21
202.600000
  0
LINE
  8
1
 62
7
  6
CONTINUOUS
 10
172.750005
 20
202.600000
 11
173.750005
 21
202.600000
  0
LINE
  8
1
 62
7
  6
CONTINUOUS
 10
174.750005
 20
202.600000
 11
175.750005
 21
202.600000
  0
LINE
  8
1
 62
7
  6
CONTINUOUS
 10
176.750005
 20
202.600000
 11
177.750005
 21
202.600000
  0
LINE
  8
1
 62
7
  6
CONTINUOUS
 10
178.750005
 20
202.100000
 11
178.750005
 21
202.600000
  0
LINE
  8
1
 62
7
  6
CONTINUOUS
 10
159.750005
 20
202.100000
 11
160.833339
 21
202.100000
  0
LINE
  8
1
 62
7
  6
CONTINUOUS
 10
161.833339
 20
202.100000
 11
162.833339
 21
202.100000
  0
LINE
  8
1
 62
7
  6
CONTINUOUS
 10
163.833339
 20
202.100000
 11
164.833339
 21
202.100000
  0
LINE
  8
1
 62
7
  6
CONTINUOUS
 10
165.833339
 20
202.100000
 11
166.833339
 21
202.100000
  0
LINE
  8
1
 62
7
  6
CONTINUOUS
 10
167.833339
 20
202.100000
 11
168.833339
 21
202.100000
  0
LINE
  8
1
 62
7
  6
CONTINUOUS
 10
169.833339
 20
202.100000
 11
170.833339
 21
202.100000
  0
LINE
  8
1
 62
7
  6
CONTINUOUS
 10
171.833339
 20
202.100000
 11
172.833339
 21
202.100000
  0
LINE
  8
1
 62
7
  6
CONTINUOUS
 10
173.833339
 20
202.100000
 11
174.833339
 21
202.100000
  0
LINE
  8
1
 62
7
  6
CONTINUOUS
 10
175.833339
 20
202.100000
 11
176.833339
 21
202.100000
  0
LINE
  8
1
 62
7
  6
CONTINUOUS
 10
177.833339
 20
202.100000
 11
178.750005
 21
202.100000
  0
LINE
  8
1
 62
7
  6
CONTINUOUS
 10
161.750005
 20
197.400000
 11
162.750005
 21
197.400000
  0
LINE
  8
1
 62
7
  6
CONTINUOUS
 10
163.750005
 20
197.400000
 11
164.750005
 21
197.400000
  0
LINE
  8
1
 62
7
  6
CONTINUOUS
 10
165.750005
 20
197.400000
 11
166.750005
 21
197.400000
  0
LINE
  8
1
 62
7
  6
CONTINUOUS
 10
167.750005
 20
197.400000
 11
168.750005
 21
197.400000
  0
LINE
  8
1
 62
7
  6
CONTINUOUS
 10
169.750005
 20
197.400000
 11
170.750005
 21
197.400000
  0
LINE
  8
1
 62
7
  6
CONTINUOUS
 10
171.750005
 20
197.400000
 11
172.750005
 21
197.400000
  0
LINE
  8
1
 62
7
  6
CONTINUOUS
 10
173.750005
 20
197.400000
 11
174.750005
 21
197.400000
  0
LINE
  8
1
 62
7
  6
CONTINUOUS
 10
175.750005
 20
197.400000
 11
176.750005
 21
197.400000
  0
LINE
  8
1
 62
7
  6
CONTINUOUS
 10
177.750005
 20
197.400000
 11
178.750005
 21
197.400000
  0
LINE
  8
1
 62
7
  6
CONTINUOUS
 10
176.666672
 20
197.900000
 11
177.666672
 21
197.900000
  0
LINE
  8
1
 62
7
  6
CONTINUOUS
 10
174.666672
 20
197.900000
 11
175.666672
 21
197.900000
  0
LINE
  8
1
 62
7
  6
CONTINUOUS
 10
172.766245
 20
197.900000
 11
173.666672
 21
197.900000
  0
LINE
  8
1
 62
7
  6
CONTINUOUS
 10
170.666672
 20
197.900000
 11
171.666672
 21
197.900000
  0
LINE
  8
1
 62
7
  6
CONTINUOUS
 10
168.666672
 20
197.900000
 11
169.666672
 21
197.900000
  0
LINE
  8
1
 62
7
  6
CONTINUOUS
 10
166.666672
 20
197.900000
 11
167.666672
 21
197.900000
  0
LINE
  8
1
 62
7
  6
CONTINUOUS
 10
164.666672
 20
197.900000
 11
165.666672
 21
197.900000
  0
LINE
  8
1
 62
7
  6
CONTINUOUS
 10
162.666672
 20
197.900000
 11
163.666672
 21
197.900000
  0
LINE
  8
1
 62
7
  6
CONTINUOUS
 10
160.766245
 20
197.900000
 11
161.666672
 21
197.900000
  0
LINE
  8
1
 62
7
  6
CONTINUOUS
 10
159.750005
 20
197.900000
 11
159.836624
 21
197.400000
  0
LINE
  8
1
 62
7
  6
CONTINUOUS
 10
159.836624
 20
197.400000
 11
160.850005
 21
197.400000
  0
LINE
  8
1
 62
7
  6
CONTINUOUS
 10
160.741270
 20
197.900000
 11
160.750005
 21
197.900000
  0
LINE
  8
1
 62
7
  6
CONTINUOUS
 10
160.750005
 20
202.600000
 11
161.750005
 21
197.400000
  0
LINE
  8
1
 62
7
  6
CONTINUOUS
 10
161.750005
 20
202.600000
 11
162.750005
 21
197.400000
  0
LINE
  8
1
 62
7
  6
CONTINUOUS
 10
162.750005
 20
202.600000
 11
163.750005
 21
197.400000
  0
LINE
  8
1
 62
7
  6
CONTINUOUS
 10
163.750005
 20
202.600000
 11
164.750005
 21
197.400000
  0
LINE
  8
1
 62
7
  6
CONTINUOUS
 10
164.750005
 20
202.600000
 11
165.750005
 21
197.400000
  0
LINE
  8
1
 62
7
  6
CONTINUOUS
 10
165.750005
 20
202.600000
 11
166.750005
 21
197.400000
  0
LINE
  8
1
 62
7
  6
CONTINUOUS
 10
166.750005
 20
202.600000
 11
167.750005
 21
197.400000
  0
LINE
  8
1
 62
7
  6
CONTINUOUS
 10
167.750005
 20
202.600000
 11
168.750005
 21
197.400000
  0
LINE
  8
1
 62
7
  6
CONTINUOUS
 10
168.750005
 20
202.600000
 11
169.750005
 21
197.400000
  0
LINE
  8
1
 62
7
  6
CONTINUOUS
 10
169.750005
 20
202.600000
 11
170.750005
 21
197.400000
  0
LINE
  8
1
 62
7
  6
CONTINUOUS
 10
170.750005
 20
202.600000
 11
171.750005
 21
197.400000
  0
LINE
  8
1
 62
7
  6
CONTINUOUS
 10
171.750005
 20
202.600000
 11
172.750005
 21
197.400000
  0
LINE
  8
1
 62
7
  6
CONTINUOUS
 10
172.750005
 20
202.600000
 11
173.750005
 21
197.400000
  0
LINE
  8
1
 62
7
  6
CONTINUOUS
 10
173.750005
 20
202.600000
 11
174.750005
 21
197.400000
  0
LINE
  8
1
 62
7
  6
CONTINUOUS
 10
174.750005
 20
202.600000
 11
175.750005
 21
197.400000
  0
LINE
  8
1
 62
7
  6
CONTINUOUS
 10
175.750005
 20
202.600000
 11
176.750005
 21
197.400000
  0
LINE
  8
1
 62
7
  6
CONTINUOUS
 10
176.750005
 20
202.600000
 11
177.750005
 21
197.400000
  0
LINE
  8
1
 62
7
  6
CONTINUOUS
 10
177.750005
 20
202.600000
 11
178.750005
 21
197.400000
  0
LINE
  8
1
 62
7
  6
CONTINUOUS
 10
178.750005
 20
202.100000
 11
178.750005
 21
197.400000
  0
LINE
  8
1
 62
7
  6
CONTINUOUS
 10
159.750005
 20
202.100000
 11
160.850793
 21
197.396063
  0
LINE
  8
1
 62
7
  6
CONTINUOUS
 10
159.750005
 20
197.400000
 11
159.750005
 21
202.600000
  0
LINE
  8
1
 62
7
  6
DASHDOT
 10
158.051167
 20
200.000000
 11
180.831983
 21
200.000000
  0
LINE
  8
1
 62
7
  6
CONTINUOUS
 10
130.000000
 20
199.950000
 11
130.000000
 21
201.205000
  0
LINE
  8
1
 62
7
  6
CONTINUOUS
 10
130.000000
 20
195.250000
 11
130.000000
 21
195.040000
  0
LINE
  8
1
 62
7
  6
CONTINUOUS
 10
98.000000
 20
194.950000
 11
125.000000
 21
194.950000
  0
LINE
  8
1
 62
7
  6
DASHDOT
 10
88.365592
 20
200.000000
 11
133.285714
 21
200.000000
  0
LINE
  8
1
 62
7
  6
CONTINUOUS
 10
90.000000
 20
204.750000
 11
98.000000
 21
204.750000
  0
LINE
  8
1
 62
7
  6
CONTINUOUS
 10
90.000000
 20
204.750000
 11
90.000000
 21
195.250000
  0
LINE
  8
1
 62
7
  6
CONTINUOUS
 10
90.000000
 20
195.250000
 11
98.000000
 21
195.250000
  0
LINE
  8
1
 62
7
  6
CONTINUOUS
 10
125.000000
 20
206.000000
 11
130.000000
 21
206.000000
  0
LINE
  8
1
 62
7
  6
CONTINUOUS
 10
125.000000
 20
194.950000
 11
125.000000
 21
194.000000
  0
LINE
  8
1
 62
7
  6
CONTINUOUS
 10
125.000000
 20
194.000000
 11
130.000000
 21
194.000000
  0
LINE
  8
1
 62
7
  6
CONTINUOUS
 10
130.000000
 20
194.000000
 11
130.000000
 21
206.000000
  0
LINE
  8
1
 62
7
  6
CONTINUOUS
 10
98.000000
 20
195.000000
 11
99.000000
 21
194.000000
  0
LINE
  8
1
 62
7
  6
CONTINUOUS
 10
98.000000
 20
205.000000
 11
99.000000
 21
206.000000
  0
LINE
  8
1
 62
7
  6
CONTINUOUS
 10
98.000000
 20
195.250000
 11
98.000000
 21
195.000000
  0
LINE
  8
1
 62
3
  6
DASHDOT
 10
123.031741
 20
203.700001
 11
130.215802
 21
203.700001
  0
LINE
  8
1
 62
7
  6
CONTINUOUS
 10
125.000000
 20
194.950000
 11
120.000000
 21
194.950000
  0
LINE
  8
1
 62
7
  6
CONTINUOUS
 10
120.000000
 20
194.950000
 11
120.000000
 21
194.000000
  0
LINE
  8
1
 62
7
  6
CONTINUOUS
 10
120.000000
 20
194.000000
 11
99.000000
 21
194.000000
  0
LINE
  8
1
 62
7
  6
CONTINUOUS
 10
98.000000
 20
205.050000
 11
120.000000
 21
205.050000
  0
LINE
  8
1
 62
7
  6
CONTINUOUS
 10
125.000000
 20
205.050000
 11
120.000000
 21
205.050000
  0
LINE
  8
1
 62
7
  6
CONTINUOUS
 10
120.000000
 20
206.000000
 11
99.000000
 21
206.000000
  0
LINE
  8
1
 62
7
  6
DOT
 10
90.000000
 20
196.000000
 11
96.000000
 21
196.000000
  0
LINE
  8
1
 62
7
  6
DOT
 10
90.000000
 20
196.406000
 11
96.000000
 21
196.406000
  0
LINE
  8
1
 62
7
  6
DOT
 10
90.000000
 20
203.594000
 11
96.000000
 21
203.594000
  0
LINE
  8
1
 62
7
  6
DOT
 10
90.000000
 20
204.000000
 11
96.000000
 21
204.000000
  0
LINE
  8
1
 62
7
  6
CONTINUOUS
 10
98.000000
 20
195.250000
 11
98.000000
 21
205.000000
  0
LINE
  8
1
 62
7
  6
CONTINUOUS
 10
120.000000
 20
194.950000
 11
120.000000
 21
206.000000
  0
LINE
  8
1
 62
7
  6
CONTINUOUS
 10
125.000000
 20
194.950000
 11
125.000000
 21
206.000000
  0
ARC
  8
1
 62
7
  6
DOT
 10
104.886734
 20
200.000569
 40
5.000000
 50
-36.869899
 51
36.869899
  0
ARC
  8
1
 62
7
  6
DOT
 10
112.886734
 20
200.000569
 40
5.000000
 50
143.130101
 51
-143.130101
  0
LINE
  8
1
 62
7
  6
DOT
 10
108.556607
 20
202.500569
 11
99.763949
 21
202.500569
  0
LINE
  8
1
 62
7
  6
DOT
 10
108.556607
 20
197.500569
 11
99.581247
 21
197.500569
  0
LINE
  8
1
 62
7
  6
DOT
 10
130.000000
 20
200.000000
 11
109.216861
 21
202.500569
  0
LINE
  8
1
 62
7
  6
DOT
 10
130.000000
 20
200.000000
 11
109.216861
 21
197.500569
  0
DIMENSION
  8
2
 62
134
  6
CONTINUOUS
  2
*D1
 10
90.000000
 20
181.080354
 11
94.276434
 21
181.080354
 70
     0
  1
8
 13
90.000000
 23
194.250000
 14
98.000000
 24
194.250000
 50
0.000000
  0
DIMENSION
  8
2
 62
134
  6
CONTINUOUS
  2
*D2
 10
98.000000
 20
181.080354
 11
108.285550
 21
181.080354
 70
     0
  1
22
 13
98.000000
 23
194.250000
 14
120.000000
 24
193.950000
 50
0.000000
  0
DIMENSION
  8
2
 62
134
  6
CONTINUOUS
  2
*D3
 10
120.000000
 20
181.080354
 11
124.799616
 21
181.080354
 70
     0
  1
10
 13
120.000000
 23
193.950000
 14
130.004267
 24
193.913460
 50
0.000000
  0
DIMENSION
  8
2
 62
134
  6
CONTINUOUS
  2
*D4
 10
139.135562
 20
194.000000
 11
139.135562
 21
188.614478
 70
     0
  1
φ12
 13
139.135562
 23
194.000000
 14
139.135562
 24
206.000000
 50
90.000000
  0
DIMENSION
  8
2
 62
134
  6
CONTINUOUS
  2
*D5
 10
130.004267
 20
181.080354
 11
137.020866
 21
181.080354
 70
     0
  1
14.5
 13
130.004267
 23
193.913460
 14
144.504267
 24
193.300000
 50
0.000000
  0
DIMENSION
  8
2
 62
134
  6
CONTINUOUS
  2
*D6
 10
90.000000
 20
174.587447
 11
110.045389
 21
174.587447
 70
     0
  1
40
 13
90.000000
 23
194.250000
 14
130.004267
 24
193.913460
 50
0.000000
  0
DIMENSION
  8
2
 62
134
  6
CONTINUOUS
  2
*D7
 10
130.004267
 20
174.587447
 11
145.789862
 21
174.587447
 70
     0
  1
30
 13
130.004267
 23
193.913460
 14
159.750005
 24
194.500000
 50
0.000000
  0
DIMENSION
  8
2
 62
134
  6
CONTINUOUS
  2
*D8
 10
153.398834
 20
195.500000
 11
153.398834
 21
211.236479
 70
     0
  1
φ9
 13
153.398834
 23
195.500000
 14
153.398834
 24
204.500062
 50
90.000000
  0
TEXT
  8
6
 62
14
  6
CONTINUOUS
 10
73.445656
 20
184.563558
 40
4.000000
 41
1.000000
  1
①
  7
KANJI
 50
0.000000
 51
0.000000
  0
DIMENSION
  8
3
 62
134
  6
CONTINUOUS
  2
*D9
 10
116.932990
 20
194.000000
 11
116.932990
 21
221.813283
 70
     0
  1
ﾍｯﾄﾞ取付ﾈｼﾞ
 13
125.339644
 23
194.000000
 14
124.745297
 24
206.000000
 50
90.000000
  0
TEXT
  8
2
 62
134
  6
CONTINUOUS
 10
120.932990
 20
212.469334
 40
4.000000
 41
1.000000
  1
M12P1.75
  7
KANJI
 50
90.000000
 51
0.000000
  0
TEXT
  8
6
 62
14
  6
CONTINUOUS
 10
116.932990
 20
206.813283
 40
4.000000
 41
1.000000
  1
③
  7
KANJI
 50
90.000000
 51
0.000000
  0
DIMENSION
  8
2
 62
134
  6
CONTINUOUS
  2
*D10
 10
170.750005
 20
197.400000
 11
170.750005
 21
209.786538
 70
     0
  1
φ5.2
 13
172.750005
 23
197.400000
 14
171.750005
 24
202.600000
 50
90.000000
  0
TEXT
  8
3
 62
7
  6
DOT
 10
90.338440
 20
162.161948
 40
4.000000
 41
1.000000
  1
重量８ｇ(ﾌｧｲﾊﾞ部を除く)
  7
KANJI
 50
0.000000
 51
0.000000
  0
LINE
  8
3
 62
134
  6
CONTINUOUS
 10
95.000000
 20
216.037648
 11
104.049838
 21
236.904961
  0
LINE
  8
3
 62
134
  6
CONTINUOUS
 10
104.049838
 20
236.904961
 11
83.873549
 21
236.904961
  0
TEXT
  8
3
 62
134
  6
CONTINUOUS
 10
83.873549
 20
236.826075
 40
4.000000
 41
1.000000
  1
φ4計装ｴｱｰ
  7
KANJI
 50
0.000000
 51
30.000000
  0
LINE
  8
3
 62
134
  6
CONTINUOUS
 10
95.000000
 20
216.037648
 11
95.293742
 21
218.015959
  0
LINE
  8
3
 62
134
  6
CONTINUOUS
 10
95.000000
 20
216.037648
 11
96.243544
 21
217.604044
  0
LINE
  8
3
 62
134
  6
CONTINUOUS
 10
95.293742
 20
218.015959
 11
96.243544
 21
217.604044
  0
LINE
  8
3
 62
134
  6
CONTINUOUS
 10
95.192161
 20
216.480736
 11
95.339032
 21
217.469892
  0
LINE
  8
3
 62
134
  6
CONTINUOUS
 10
95.192161
 20
216.480736
 11
95.813933
 21
217.263934
  0
LINE
  8
3
 62
134
  6
CONTINUOUS
 10
95.339032
 20
217.469892
 11
95.813933
 21
217.263934
  0
TEXT
  8
6
 62
14
  6
CONTINUOUS
 10
77.890170
 20
236.904961
 40
4.000000
 41
1.000000
  1
⑥
  7
KANJI
 50
0.000000
 51
0.000000
  0
DIMENSION
  8
2
 62
134
  6
CONTINUOUS
  2
*D11
 10
96.591797
 20
195.250000
 11
96.591797
 21
228.881859
 70
     0
  1
φ9.5
 13
94.007698
 23
195.250000
 14
94.007698
 24
204.750000
 50
90.000000
  0
TEXT
  8
2
 62
134
  6
CONTINUOUS
 10
94.191797
 20
232.381859
 40
2.000000
 41
1.000000
  1
+0.1
  7
KANJI
 50
90.000000
 51
0.000000
  0
TEXT
  8
2
 62
134
  6
CONTINUOUS
 10
96.591797
 20
232.381859
 40
2.000000
 41
1.000000
  1
-0.2
  7
KANJI
 50
90.000000
 51
0.000000
  0
LINE
  8
3
 62
214
  6
CONTINUOUS
 10
108.051201
 20
198.728711
 11
87.139172
 21
184.715193
  0
LINE
  8
3
 62
214
  6
CONTINUOUS
 10
87.139172
 20
184.715193
 11
78.221746
 21
184.715193
  0
TEXT
  8
3
 62
214
  6
CONTINUOUS
 10
78.221746
 20
184.715193
 40
4.000000
 41
1.000000
  1
ﾚﾝｽﾞ
  7
KANJI
 50
0.000000
 51
0.000000
  0
LINE
  8
3
 62
214
  6
CONTINUOUS
 10
108.051201
 20
198.728711
 11
106.734525
 21
197.223267
  0
LINE
  8
3
 62
214
  6
CONTINUOUS
 10
108.051201
 20
198.728711
 11
106.158204
 21
198.083296
  0
LINE
  8
3
 62
214
  6
CONTINUOUS
 10
106.734525
 20
197.223267
 11
106.158204
 21
198.083296
  0
LINE
  8
3
 62
214
  6
CONTINUOUS
 10
107.649992
 20
198.459854
 11
106.991654
 21
197.707131
  0
LINE
  8
3
 62
214
  6
CONTINUOUS
 10
107.649992
 20
198.459854
 11
106.703493
 21
198.137146
  0
LINE
  8
3
 62
214
  6
CONTINUOUS
 10
106.991654
 20
197.707131
 11
106.703493
 21
198.137146
  0
LINE
  8
1
 62
214
  6
CONTINUOUS
 10
130.004267
 20
205.086540
 11
131.004267
 21
205.086540
  0
LINE
  8
1
 62
7
  6
DASHDOT
 10
124.843129
 20
200.000000
 11
146.138323
 21
200.000000
  0
LINE
  8
1
 62
214
  6
CONTINUOUS
 10
131.004267
 20
194.000000
 11
144.204267
 21
194.000000
  0
LINE
  8
1
 62
214
  6
CONTINUOUS
 10
144.504267
 20
194.300000
 11
144.204267
 21
194.000000
  0
LINE
  8
1
 62
7
  6
CONTINUOUS
 10
131.004267
 20
198.304134
 11
144.504267
 21
198.304134
  0
LINE
  8
1
 62
7
  6
CONTINUOUS
 10
131.004267
 20
197.621813
 11
144.504267
 21
197.621813
  0
LINE
  8
1
 62
7
  6
CONTINUOUS
 10
131.004267
 20
196.966317
 11
144.504267
 21
196.966317
  0
LINE
  8
1
 62
7
  6
CONTINUOUS
 10
131.004267
 20
196.350404
 11
144.504267
 21
196.350404
  0
LINE
  8
1
 62
7
  6
CONTINUOUS
 10
131.004267
 20
195.786062
 11
144.504267
 21
195.786062
  0
LINE
  8
1
 62
7
  6
CONTINUOUS
 10
131.004267
 20
195.284276
 11
144.504267
 21
195.284276
  0
LINE
  8
1
 62
7
  6
CONTINUOUS
 10
131.004267
 20
194.854813
 11
144.504267
 21
194.854813
  0
LINE
  8
1
 62
7
  6
CONTINUOUS
 10
131.004267
 20
194.506030
 11
144.504267
 21
194.506030
  0
LINE
  8
1
 62
7
  6
CONTINUOUS
 10
131.004267
 20
194.244718
 11
144.504267
 21
194.244718
  0
LINE
  8
1
 62
214
  6
CONTINUOUS
 10
131.004267
 20
206.000000
 11
131.004267
 21
205.086540
  0
LINE
  8
1
 62
214
  6
CONTINUOUS
 10
131.004267
 20
206.000000
 11
144.204267
 21
206.000000
  0
LINE
  8
1
 62
214
  6
CONTINUOUS
 10
144.504267
 20
203.100000
 11
144.504267
 21
205.700000
  0
LINE
  8
1
 62
214
  6
CONTINUOUS
 10
144.204267
 20
206.000000
 11
144.504267
 21
205.700000
  0
LINE
  8
1
 62
214
  6
CONTINUOUS
 10
144.504267
 20
203.100000
 11
144.504267
 21
194.300000
  0
LINE
  8
1
 62
214
  6
CONTINUOUS
 10
130.004267
 20
194.913460
 11
131.004267
 21
194.913460
  0
LINE
  8
1
 62
7
  6
CONTINUOUS
 10
131.004267
 20
199.325871
 11
144.504267
 21
199.325871
  0
LINE
  8
1
 62
7
  6
CONTINUOUS
 10
131.004267
 20
201.695866
 11
144.504267
 21
201.695866
  0
LINE
  8
1
 62
7
  6
CONTINUOUS
 10
131.004267
 20
202.378187
 11
144.504267
 21
202.378187
  0
LINE
  8
1
 62
7
  6
CONTINUOUS
 10
131.004267
 20
203.033683
 11
144.504267
 21
203.033683
  0
LINE
  8
1
 62
7
  6
CONTINUOUS
 10
131.004267
 20
203.649596
 11
144.504267
 21
203.649596
  0
LINE
  8
1
 62
7
  6
CONTINUOUS
 10
131.004267
 20
204.213938
 11
144.504267
 21
204.213938
  0
LINE
  8
1
 62
7
  6
CONTINUOUS
 10
131.004267
 20
204.715724
 11
144.504267
 21
204.715724
  0
LINE
  8
1
 62
7
  6
CONTINUOUS
 10
131.004267
 20
205.145187
 11
144.504267
 21
205.145187
  0
LINE
  8
1
 62
7
  6
CONTINUOUS
 10
131.004267
 20
205.493970
 11
144.504267
 21
205.493970
  0
LINE
  8
1
 62
7
  6
CONTINUOUS
 10
131.004267
 20
205.755282
 11
144.504267
 21
205.755282
  0
LINE
  8
1
 62
7
  6
CONTINUOUS
 10
131.004267
 20
200.674129
 11
144.504267
 21
200.674129
  0
LINE
  8
1
 62
214
  6
CONTINUOUS
 10
131.004267
 20
194.000000
 11
131.004267
 21
205.086540
  0
LINE
  8
1
 62
214
  6
CONTINUOUS
 10
130.004267
 20
205.086540
 11
130.004267
 21
194.913460
  0
LINE
  8
1
 62
14
  6
CONTINUOUS
 10
144.750005
 20
202.450000
 11
144.750005
 21
203.000000
  0
LINE
  8
1
 62
14
  6
CONTINUOUS
 10
144.750005
 20
202.450000
 11
144.750005
 21
197.000000
  0
LINE
  8
1
 62
7
  6
CONTINUOUS
 10
159.750005
 20
204.500062
 11
159.750005
 21
195.500000
  0
LINE
  8
1
 62
7
  6
DASHDOT
 10
156.750005
 20
198.462974
 11
156.750005
 21
201.501064
  0
LINE
  8
1
 62
14
  6
CONTINUOUS
 10
151.550005
 20
202.828588
 11
151.550005
 21
197.171536
  0
LINE
  8
1
 62
14
  6
CONTINUOUS
 10
151.550005
 20
197.171536
 11
148.750005
 21
202.828588
  0
LINE
  8
1
 62
14
  6
CONTINUOUS
 10
148.750005
 20
197.171536
 11
151.550005
 21
202.828588
  0
LINE
  8
1
 62
14
  6
CONTINUOUS
 10
148.750005
 20
197.171536
 11
151.550005
 21
197.171536
  0
LINE
  8
1
 62
14
  6
CONTINUOUS
 10
148.750005
 20
202.828588
 11
151.550005
 21
202.828588
  0
LINE
  8
1
 62
14
  6
CONTINUOUS
 10
148.750005
 20
202.828588
 11
148.750005
 21
197.171536
  0
LINE
  8
1
 62
14
  6
CONTINUOUS
 10
146.750005
 20
197.171536
 11
146.750005
 21
202.828588
  0
LINE
  8
1
 62
14
  6
CONTINUOUS
 10
144.750005
 20
202.450000
 11
146.750005
 21
203.000000
  0
LINE
  8
1
 62
14
  6
CONTINUOUS
 10
144.750005
 20
197.550000
 11
146.750005
 21
197.000000
  0
LINE
  8
1
 62
14
  6
CONTINUOUS
 10
146.750005
 20
195.500000
 11
146.750005
 21
197.171536
  0
LINE
  8
1
 62
14
  6
CONTINUOUS
 10
146.750005
 20
204.500062
 11
146.750005
 21
202.828588
  0
LINE
  8
1
 62
7
  6
CONTINUOUS
 10
159.750005
 20
195.500000
 11
146.750005
 21
195.500000
  0
LINE
  8
1
 62
7
  6
CONTINUOUS
 10
159.750005
 20
204.500062
 11
146.750005
 21
204.500062
  0
CIRCLE
  8
1
 62
7
  6
CONTINUOUS
 10
156.750005
 20
200.000062
 40
0.782631
  0
CIRCLE
  8
1
 62
7
  6
CONTINUOUS
 10
156.750005
 20
200.000062
 40
1.000000
  0
LINE
  8
1
 62
14
  6
CONTINUOUS
 10
144.504267
 20
202.450000
 11
144.750005
 21
202.450000
  0
LINE
  8
1
 62
14
  6
CONTINUOUS
 10
144.504267
 20
197.550000
 11
144.750005
 21
197.550000
  0
LINE
  8
1
 62
14
  6
CONTINUOUS
 10
144.504267
 20
203.000000
 11
146.750005
 21
203.000000
  0
LINE
  8
1
 62
14
  6
CONTINUOUS
 10
144.504267
 20
197.000000
 11
146.750005
 21
197.000000
  0
LINE
  8
1
 62
7
  6
DASHDOT
 10
142.638297
 20
200.000000
 11
160.802351
 21
200.000000
  0
TEXT
  8
5
 62
7
  6
CONTINUOUS
 10
87.148745
 20
25.637626
 40
4.000000
 41
1.000000
  1
2016/06/10
  7
KANJI
 50
0.000000
 51
0.000000
  0
TEXT
  8
5
 62
7
  6
CONTINUOUS
 10
150.609559
 20
32.539202
 40
4.000000
 41
1.000000
  1
FTKX φ6丸ﾍｯﾄﾞ　外形図
  7
KANJI
 50
0.000000
 51
0.000000
  0
TEXT
  8
5
 62
7
  6
CONTINUOUS
 10
150.609559
 20
25.027341
 40
4.000000
 41
1.000000
  1
ＦＴＨＸ－Ｒ
  7
KANJI
 50
0.000000
 51
0.000000
  0
LINE
  8
10
 62
7
  6
CONTINUOUS
 10
103.373566
 20
122.131259
 11
35.874255
 21
122.131259
  0
LINE
  8
10
 62
7
  6
CONTINUOUS
 10
35.874255
 20
126.797809
 11
103.373566
 21
126.797809
  0
LINE
  8
10
 62
7
  6
CONTINUOUS
 10
35.874255
 20
131.464359
 11
103.373566
 21
131.464359
  0
TEXT
  8
10
 62
7
  6
CONTINUOUS
 10
36.159527
 20
132.195207
 40
3.999900
 41
1.000000
  1
該当機種
  7
KANJI
 50
0.000000
 51
0.000000
  0
LINE
  8
10
 62
7
  6
CONTINUOUS
 10
35.874255
 20
117.464709
 11
103.373566
 21
117.464709
  0
LINE
  8
10
 62
7
  6
CONTINUOUS
 10
103.088295
 20
112.798159
 11
35.588983
 21
112.798159
  0
LINE
  8
10
 62
7
  6
CONTINUOUS
 10
35.588983
 20
108.131609
 11
103.088295
 21
108.131609
  0
LINE
  8
10
 62
7
  6
CONTINUOUS
 10
103.373566
 20
103.465059
 11
35.874255
 21
103.465059
  0
LINE
  8
10
 62
7
  6
CONTINUOUS
 10
35.874255
 20
131.464359
 11
35.874255
 21
103.465059
  0
LINE
  8
10
 62
134
  6
CONTINUOUS
 10
103.373566
 20
131.464359
 11
103.373566
 21
103.465059
  0
TEXT
  8
10
 62
7
  6
CONTINUOUS
 10
38.142611
 20
126.785875
 40
3.999900
 41
1.000000
  1
FTHX-0050R
  7
KANJI
 50
0.000000
 51
0.000000
  0
TEXT
  8
10
 62
7
  6
CONTINUOUS
 10
38.142611
 20
122.119325
 40
3.999900
 41
1.000000
  1
FTHX-0100R
  7
KANJI
 50
0.000000
 51
0.000000
  0
TEXT
  8
10
 62
7
  6
CONTINUOUS
 10
38.142611
 20
117.452775
 40
3.999900
 41
1.000000
  1
FTHX-0200R
  7
KANJI
 50
0.000000
 51
0.000000
  0
TEXT
  8
10
 62
7
  6
CONTINUOUS
 10
37.857339
 20
112.786225
 40
3.999900
 41
1.000000
  1
FTHX-0300R
  7
KANJI
 50
0.000000
 51
0.000000
  0
TEXT
  8
10
 62
7
  6
CONTINUOUS
 10
37.857339
 20
108.119675
 40
3.999900
 41
1.000000
  1
FTHX-0500R
  7
KANJI
 50
0.000000
 51
0.000000
  0
TEXT
  8
10
 62
7
  6
CONTINUOUS
 10
38.142611
 20
103.453125
 40
3.999900
 41
1.000000
  1
FTHX-1000R
  7
KANJI
 50
0.000000
 51
0.000000
  0
TEXT
  8
5
 62
7
  6
DOT
 10
148.573081
 20
17.393209
 40
4.000000
 41
1.000000
  1
０１５－８７９－Ａ１０３
  7
KANJI
 50
0.000000
 51
0.000000
  0
ENDSEC
  0
EOF
