  0
SECTION
  2
HEADER
  9
$ACADVER
  1
AC1009
  9
$INSBASE
 10
0.000000
 20
0.000000
  9
$EXTMIN
 10
0.000000
 20
0.000000
  9
$EXTMAX
 10
105.000000
 20
148.500000
  9
$LIMMIN
 10
0.000000
 20
0.000000
  9
$LIMMAX
 10
105.000000
 20
148.500000
  9
$VIEWCTR
 10
52.500000
 20
74.250000
  9
$VIEWSIZE
 40
148.500000
  9
$PEXTMIN
 10
0.000000
 20
0.000000
 30
0.000000
  9
$PEXTMAX
 10
210.000000
 20
297.000000
 30
0.000000
  9
$SNAPMODE
 70
     0
  9
$SNAPUNIT
 10
1.000000
 20
1.000000
  9
$SNAPBASE
 10
0.000000
 20
0.000000
  9
$SNAPANG
 50
0.000000
  9
$SNAPISOPAIR
 70
     0
  9
$SNAPSTYLE
 70
     0
  9
$GRIDMODE
 70
     0
  9
$GRIDUNIT
 10
0.000000
 20
0.000000
  9
$ORTHOMODE
 70
     0
  9
$REGENMODE
 70
     1
  9
$FILLMODE
 70
     1
  9
$QTEXTMODE
 70
     0
  9
$DRAGMODE
 70
     2
  9
$LTSCALE
 40
0.125000
  9
$OSMODE
 70
     0
  9
$ATTMODE
 70
     1
  9
$TEXTSIZE
 40
2.000000
  9
$TRACEWID
 40
0.050000
  9
$TEXTSTYLE
  7
STANDARD
  9
$CLAYER
  8
0
  9
$CELTYPE
  6
BYLAYER
  9
$CECOLOR
 62
   256
  9
$DIMSCALE
 40
1.000000
  9
$DIMASZ
 40
1.000000
  9
$DIMEXO
 40
0.000000
  9
$DIMDLI
 40
0.500000
  9
$DIMRND
 40
0.000000
  9
$DIMDLE
 40
0.000000
  9
$DIMEXE
 40
0.000000
  9
$DIMTP
 40
0.000000
  9
$DIMTM
 40
0.000000
  9
$DIMTXT
 40
4.000000
  9
$DIMCEN
 40
0.000000
  9
$DIMTSZ
 40
0.000000
  9
$DIMTOL
 70
     0
  9
$DIMLIM
 70
     0
  9
$DIMTIH
 70
     1
  9
$DIMTOH
 70
     1
  9
$DIMSE1
 70
     0
  9
$DIMSE2
 70
     0
  9
$DIMTAD
 70
     0
  9
$DIMZIN
 70
     0
  9
$DIMBLK
  1

  9
$DIMASO
 70
     0
  9
$DIMSHO
 70
     0
  9
$DIMPOST
  1

  9
$DIMAPOST
  1

  9
$DIMALT
 70
     0
  9
$DIMALTD
 70
     0
  9
$DIMALTF
 40
25.400000
  9
$DIMLFAC
 40
1.000000
  9
$DIMTOFL
 70
     0
  9
$DIMTVP
 40
0.000000
  9
$DIMTIX
 70
     0
  9
$DIMSOXD
 70
     0
  9
$DIMSAH
 70
     0
  9
$DIMBLKL
  1

  9
$DIMBLKR
  1

  9
$LUNITS
 70
     2
  9
$LUPREC
 70
     2
  9
$AXISMODE
 70
     0
  9
$AXISUNIT
 10
1.000000
 20
1.000000
  9
$SKETCHINC
 40
0.000000
  9
$FILLETRAD
 40
0.000000
  9
$AUNITS
 70
     1
  9
$AUPREC
 70
     2
  9
$MENU
  1
ACAD
  9
$ELEVATION
 40
0.000000
  9
$THICKNESS
 40
0.000000
  9
$VIEWDIR
 10
0.000000
 20
0.000000
 30
1.000000
  9
$LIMCHECK
 70
     1
  9
$BLIPMODE
 70
     1
  9
$CHAMFERA
 40
0.000000
  9
$CHAMFERB
 40
0.000000
  9
$FASTZOOM
 70
     1
  9
$SKPOLY
 70
     0
  9
$TDCREATE
 40
0.000000
  9
$TDUPDATE
 40
0.000000
  9
$TDINDWG
 40
0.000000
  9
$TDUSRTIMER
 40
0.000000
  9
$USRTIMER
 70
     1
  9
$ANGBASE
 50
0.000000
  9
$ANGDIR
 70
     0
  9
$PDMODE
 70
     0
  9
$PDSIZE
 40
0.000000
  9
$PLINEWID
 40
0.000000
  9
$COORDS
 70
     2
  9
$USERI1
 70
     0
  9
$USERI2
 70
     0
  9
$USERI3
 70
     0
  9
$USERI4
 70
     0
  9
$USERI5
 70
     0
  9
$USERR1
 40
0.000000
  9
$USERR2
 40
0.000000
  9
$USERR3
 40
0.000000
  9
$USERR4
 40
0.000000
  9
$USERR5
 40
0.000000
  0
ENDSEC
  0
SECTION
  2
TABLES
  0
TABLE
  2
LTYPE
 70
     5
  0
LTYPE
  2
CONTINUOUS
 70
    64
  3
Solid line
 72
    65
 73
     0
 40
0.0
  0
LTYPE
  2
HIDDEN
 70
    64
  3
------------------------
 72
    65
 73
     2
 40
12.6
 49
8.4
 49
-4.2
  0
LTYPE
  2
DOT
 70
    64
  3
････････････････････････
 72
    65
 73
     2
 40
8.0
 49
6.0
 49
-2.0
  0
LTYPE
  2
DASHDOT
 70
    64
  3
--･--･--･--･--･--･--･--
 72
    65
 73
     4
 40
50.5
 49
30.0
 49
-9.0
 49
2.5
 49
-9.0
  0
LTYPE
  2
DIVIDE
 70
    64
  3
--･･--･･--･･--･･--･･--
 72
    65
 73
     6
 40
58.0
 49
30.0
 49
-9.0
 49
2.5
 49
-5.0
 49
2.5
 49
-9.0
  0
LTYPE
  2
ACAD_ISO06W100
 70
    64
  3
____ ... ____ ... ____
 72
    65
 73
     8
 40
37.5
 49
24.0
 49
-3.0
 49
0.5
 49
-3.0
 49
0.5
 49
-3.0
 49
0.5
 49
-3.0
  0
LTYPE
  2
ACAD_ISO14W100
 70
    64
  3
__ . . . __ . . . __ . . . 
 72
    65
 73
     8
 40
25.5
 49
12.0
 49
-3.0
 49
0.5
 49
-3.0
 49
0.5
 49
-3.0
 49
0.5
 49
-3.0
  0
ENDTAB
  0
TABLE
  2
LAYER
 70
5
  0
LAYER
  2
1
 70
64
 62
7
  6
CONTINUOUS
  0
LAYER
  2
2
 70
64
 62
134
  6
CONTINUOUS
  0
LAYER
  2
5
 70
64
 62
94
  6
CONTINUOUS
  0
LAYER
  2
6
 70
64
 62
7
  6
CONTINUOUS
  0
LAYER
  2
11
 70
64
 62
251
  6
CONTINUOUS
  0
ENDTAB
  0
TABLE
  2
STYLE
 70
     2
  0
STYLE
  2
STANDARD
 70
    64
 40
0.0
 41
1.0
 50
0.0
 71
     0
 42
0.2
  3
TXT
  4

  0
STYLE
  2
KANJI
 70
    64
 40
0.0
 41
1.0
 50
0.0
 71
     0
 42
0.2
  3
TXT
  4
BIGFONT
  0
ENDTAB
  0
TABLE
  2
VIEW
 70
     0
  0
ENDTAB
  0
ENDSEC
  0
SECTION
  2
BLOCKS
  0
BLOCK
  8
2
 62
134
  6
CONTINUOUS
  2
*D1
 70
    65
 10
0.0
 20
0.0
  0
LINE
  8
2
 62
134
  6
CONTINUOUS
 10
45.343298
 20
120.069914
 11
45.343298
 21
96.669914
  0
LINE
  8
2
 62
134
  6
CONTINUOUS
 10
44.843298
 20
120.069914
 11
66.354976
 21
120.069914
  0
LINE
  8
2
 62
134
  6
CONTINUOUS
 10
45.343298
 20
120.069914
 11
45.602117
 21
119.103989
  0
LINE
  8
2
 62
134
  6
CONTINUOUS
 10
45.343298
 20
120.069914
 11
45.084479
 21
119.103989
  0
LINE
  8
2
 62
134
  6
CONTINUOUS
 10
45.602117
 20
119.103989
 11
45.084479
 21
119.103989
  0
LINE
  8
2
 62
134
  6
CONTINUOUS
 10
45.343298
 20
119.828433
 11
45.472708
 21
119.345470
  0
LINE
  8
2
 62
134
  6
CONTINUOUS
 10
45.343298
 20
119.828433
 11
45.213889
 21
119.345470
  0
LINE
  8
2
 62
134
  6
CONTINUOUS
 10
45.472708
 20
119.345470
 11
45.213889
 21
119.345470
  0
LINE
  8
2
 62
134
  6
CONTINUOUS
 10
45.343298
 20
96.669914
 11
45.084479
 21
97.635840
  0
LINE
  8
2
 62
134
  6
CONTINUOUS
 10
45.343298
 20
96.669914
 11
45.602117
 21
97.635840
  0
LINE
  8
2
 62
134
  6
CONTINUOUS
 10
45.084479
 20
97.635840
 11
45.602117
 21
97.635840
  0
LINE
  8
2
 62
134
  6
CONTINUOUS
 10
45.343298
 20
96.911396
 11
45.213889
 21
97.394359
  0
LINE
  8
2
 62
134
  6
CONTINUOUS
 10
45.343298
 20
96.911396
 11
45.472708
 21
97.394359
  0
LINE
  8
2
 62
134
  6
CONTINUOUS
 10
45.213889
 20
97.394359
 11
45.472708
 21
97.394359
  0
TEXT
  8
2
 62
134
  6
CONTINUOUS
 10
45.343298
 20
110.839725
 40
2.000000
 41
0.500000
  1
24
  7
KANJI
 50
90.000000
 51
0.000000
  0
ENDBLK
  0
BLOCK
  8
2
 62
134
  6
CONTINUOUS
  2
*D2
 70
    65
 10
0.0
 20
0.0
  0
LINE
  8
2
 62
134
  6
CONTINUOUS
 10
29.397694
 20
89.669914
 11
29.397694
 21
103.669914
  0
LINE
  8
2
 62
134
  6
CONTINUOUS
 10
28.897694
 20
89.669914
 11
34.954976
 21
89.669914
  0
LINE
  8
2
 62
134
  6
CONTINUOUS
 10
28.897694
 20
103.669914
 11
34.954976
 21
103.669914
  0
LINE
  8
2
 62
134
  6
CONTINUOUS
 10
29.397694
 20
89.669914
 11
29.138875
 21
90.635840
  0
LINE
  8
2
 62
134
  6
CONTINUOUS
 10
29.397694
 20
89.669914
 11
29.656513
 21
90.635840
  0
LINE
  8
2
 62
134
  6
CONTINUOUS
 10
29.138875
 20
90.635840
 11
29.656513
 21
90.635840
  0
LINE
  8
2
 62
134
  6
CONTINUOUS
 10
29.397694
 20
89.911396
 11
29.268284
 21
90.394359
  0
LINE
  8
2
 62
134
  6
CONTINUOUS
 10
29.397694
 20
89.911396
 11
29.527103
 21
90.394359
  0
LINE
  8
2
 62
134
  6
CONTINUOUS
 10
29.268284
 20
90.394359
 11
29.527103
 21
90.394359
  0
LINE
  8
2
 62
134
  6
CONTINUOUS
 10
29.397694
 20
103.669914
 11
29.656513
 21
102.703989
  0
LINE
  8
2
 62
134
  6
CONTINUOUS
 10
29.397694
 20
103.669914
 11
29.138875
 21
102.703989
  0
LINE
  8
2
 62
134
  6
CONTINUOUS
 10
29.656513
 20
102.703989
 11
29.138875
 21
102.703989
  0
LINE
  8
2
 62
134
  6
CONTINUOUS
 10
29.397694
 20
103.428433
 11
29.527103
 21
102.945470
  0
LINE
  8
2
 62
134
  6
CONTINUOUS
 10
29.397694
 20
103.428433
 11
29.268284
 21
102.945470
  0
LINE
  8
2
 62
134
  6
CONTINUOUS
 10
29.527103
 20
102.945470
 11
29.268284
 21
102.945470
  0
TEXT
  8
2
 62
134
  6
CONTINUOUS
 10
29.397694
 20
94.669914
 40
2.000000
 41
1.000000
  1
φ14
  7
KANJI
 50
90.000000
 51
0.000000
  0
ENDBLK
  0
BLOCK
  8
2
 62
134
  6
CONTINUOUS
  2
*D3
 70
    65
 10
0.0
 20
0.0
  0
LINE
  8
2
 62
134
  6
CONTINUOUS
 10
64.954976
 20
85.399013
 11
60.254976
 21
85.399013
  0
LINE
  8
2
 62
134
  6
CONTINUOUS
 10
64.954976
 20
84.899013
 11
64.954976
 21
92.469914
  0
LINE
  8
2
 62
134
  6
CONTINUOUS
 10
60.254976
 20
84.899013
 11
60.254976
 21
91.007385
  0
LINE
  8
2
 62
134
  6
CONTINUOUS
 10
64.954976
 20
85.399013
 11
63.989050
 21
85.140194
  0
LINE
  8
2
 62
134
  6
CONTINUOUS
 10
64.954976
 20
85.399013
 11
63.989050
 21
85.657832
  0
LINE
  8
2
 62
134
  6
CONTINUOUS
 10
63.989050
 20
85.140194
 11
63.989050
 21
85.657832
  0
LINE
  8
2
 62
134
  6
CONTINUOUS
 10
64.713495
 20
85.399013
 11
64.230532
 21
85.269603
  0
LINE
  8
2
 62
134
  6
CONTINUOUS
 10
64.713495
 20
85.399013
 11
64.230532
 21
85.528423
  0
LINE
  8
2
 62
134
  6
CONTINUOUS
 10
64.230532
 20
85.269603
 11
64.230532
 21
85.528423
  0
LINE
  8
2
 62
134
  6
CONTINUOUS
 10
60.254976
 20
85.399013
 11
61.220902
 21
85.657832
  0
LINE
  8
2
 62
134
  6
CONTINUOUS
 10
60.254976
 20
85.399013
 11
61.220902
 21
85.140194
  0
LINE
  8
2
 62
134
  6
CONTINUOUS
 10
61.220902
 20
85.657832
 11
61.220902
 21
85.140194
  0
LINE
  8
2
 62
134
  6
CONTINUOUS
 10
60.496458
 20
85.399013
 11
60.979421
 21
85.528423
  0
LINE
  8
2
 62
134
  6
CONTINUOUS
 10
60.496458
 20
85.399013
 11
60.979421
 21
85.269603
  0
LINE
  8
2
 62
134
  6
CONTINUOUS
 10
60.979421
 20
85.528423
 11
60.979421
 21
85.269603
  0
TEXT
  8
2
 62
134
  6
CONTINUOUS
 10
61.296487
 20
85.399013
 40
2.000000
 41
0.500000
  1
4.7
  7
KANJI
 50
0.000000
 51
0.000000
  0
ENDBLK
  0
BLOCK
  8
2
 62
134
  6
CONTINUOUS
  2
*D4
 70
    65
 10
0.0
 20
0.0
  0
LINE
  8
2
 62
134
  6
CONTINUOUS
 10
34.954976
 20
85.399013
 11
60.254976
 21
85.399013
  0
LINE
  8
2
 62
134
  6
CONTINUOUS
 10
34.954976
 20
84.899013
 11
34.954976
 21
89.669914
  0
LINE
  8
2
 62
134
  6
CONTINUOUS
 10
60.254976
 20
84.899013
 11
60.254976
 21
91.007385
  0
LINE
  8
2
 62
134
  6
CONTINUOUS
 10
34.954976
 20
85.399013
 11
35.920902
 21
85.657832
  0
LINE
  8
2
 62
134
  6
CONTINUOUS
 10
34.954976
 20
85.399013
 11
35.920902
 21
85.140194
  0
LINE
  8
2
 62
134
  6
CONTINUOUS
 10
35.920902
 20
85.657832
 11
35.920902
 21
85.140194
  0
LINE
  8
2
 62
134
  6
CONTINUOUS
 10
35.196458
 20
85.399013
 11
35.679421
 21
85.528423
  0
LINE
  8
2
 62
134
  6
CONTINUOUS
 10
35.196458
 20
85.399013
 11
35.679421
 21
85.269603
  0
LINE
  8
2
 62
134
  6
CONTINUOUS
 10
35.679421
 20
85.528423
 11
35.679421
 21
85.269603
  0
LINE
  8
2
 62
134
  6
CONTINUOUS
 10
60.254976
 20
85.399013
 11
59.289050
 21
85.140194
  0
LINE
  8
2
 62
134
  6
CONTINUOUS
 10
60.254976
 20
85.399013
 11
59.289050
 21
85.657832
  0
LINE
  8
2
 62
134
  6
CONTINUOUS
 10
59.289050
 20
85.140194
 11
59.289050
 21
85.657832
  0
LINE
  8
2
 62
134
  6
CONTINUOUS
 10
60.013495
 20
85.399013
 11
59.530532
 21
85.269603
  0
LINE
  8
2
 62
134
  6
CONTINUOUS
 10
60.013495
 20
85.399013
 11
59.530532
 21
85.528423
  0
LINE
  8
2
 62
134
  6
CONTINUOUS
 10
59.530532
 20
85.269603
 11
59.530532
 21
85.528423
  0
TEXT
  8
2
 62
134
  6
CONTINUOUS
 10
45.304822
 20
85.399013
 40
2.000000
 41
0.500000
  1
25.3
  7
KANJI
 50
0.000000
 51
0.000000
  0
ENDBLK
  0
BLOCK
  8
2
 62
134
  6
CONTINUOUS
  2
*D5
 70
    65
 10
0.0
 20
0.0
  0
LINE
  8
2
 62
134
  6
CONTINUOUS
 10
70.906539
 20
92.669914
 11
70.906539
 21
100.669914
  0
LINE
  8
2
 62
134
  6
CONTINUOUS
 10
71.406539
 20
92.669914
 11
65.154976
 21
92.669914
  0
LINE
  8
2
 62
134
  6
CONTINUOUS
 10
71.406539
 20
100.669914
 11
65.154976
 21
100.669914
  0
LINE
  8
2
 62
134
  6
CONTINUOUS
 10
70.906539
 20
92.669914
 11
70.647720
 21
93.635840
  0
LINE
  8
2
 62
134
  6
CONTINUOUS
 10
70.906539
 20
92.669914
 11
71.165358
 21
93.635840
  0
LINE
  8
2
 62
134
  6
CONTINUOUS
 10
70.647720
 20
93.635840
 11
71.165358
 21
93.635840
  0
LINE
  8
2
 62
134
  6
CONTINUOUS
 10
70.906539
 20
92.911396
 11
70.777130
 21
93.394359
  0
LINE
  8
2
 62
134
  6
CONTINUOUS
 10
70.906539
 20
92.911396
 11
71.035949
 21
93.394359
  0
LINE
  8
2
 62
134
  6
CONTINUOUS
 10
70.777130
 20
93.394359
 11
71.035949
 21
93.394359
  0
LINE
  8
2
 62
134
  6
CONTINUOUS
 10
70.906539
 20
100.669914
 11
71.165358
 21
99.703989
  0
LINE
  8
2
 62
134
  6
CONTINUOUS
 10
70.906539
 20
100.669914
 11
70.647720
 21
99.703989
  0
LINE
  8
2
 62
134
  6
CONTINUOUS
 10
71.165358
 20
99.703989
 11
70.647720
 21
99.703989
  0
LINE
  8
2
 62
134
  6
CONTINUOUS
 10
70.906539
 20
100.428433
 11
71.035949
 21
99.945470
  0
LINE
  8
2
 62
134
  6
CONTINUOUS
 10
70.906539
 20
100.428433
 11
70.777130
 21
99.945470
  0
LINE
  8
2
 62
134
  6
CONTINUOUS
 10
71.035949
 20
99.945470
 11
70.777130
 21
99.945470
  0
TEXT
  8
2
 62
134
  6
CONTINUOUS
 10
70.906539
 20
93.169914
 40
2.000000
 41
0.500000
  1
M8P0.75
  7
KANJI
 50
90.000000
 51
0.000000
  0
ENDBLK
  0
ENDSEC
  0
SECTION
  2
ENTITIES
  0
TEXT
  8
5
 62
94
  6
CONTINUOUS
 10
62.215971
 20
12.429830
 40
0.875000
 41
4.000000
  1
製図
  7
KANJI
 50
-90.000000
 51
0.000000
  0
TEXT
  8
5
 62
94
  6
CONTINUOUS
 10
72.132362
 20
12.347876
 40
0.875000
 41
4.000000
  1
図番
  7
KANJI
 50
-90.000000
 51
0.000000
  0
TEXT
  8
5
 62
94
  6
CONTINUOUS
 10
72.132362
 20
18.986121
 40
0.875000
 41
4.000000
  1
図　名
  7
KANJI
 50
-90.000000
 51
0.000000
  0
TEXT
  8
5
 62
94
  6
CONTINUOUS
 10
39.678720
 20
16.281651
 40
0.875000
 41
4.000000
  1
日付
  7
KANJI
 50
-90.000000
 51
0.000000
  0
TEXT
  8
5
 62
94
  6
CONTINUOUS
 10
57.216799
 20
16.363605
 40
0.875000
 41
4.000000
  1
図法
  7
KANJI
 50
-90.000000
 51
0.000000
  0
TEXT
  8
5
 62
94
  6
CONTINUOUS
 10
57.134846
 20
20.379333
 40
0.875000
 41
4.000000
  1
尺度
  7
KANJI
 50
-90.000000
 51
0.000000
  0
TEXT
  8
5
 62
94
  6
CONTINUOUS
 10
39.678720
 20
20.297379
 40
0.875000
 41
4.000000
  1
公差
  7
KANJI
 50
-90.000000
 51
0.000000
  0
TEXT
  8
5
 62
94
  6
CONTINUOUS
 10
39.678720
 20
12.347876
 40
0.875000
 41
4.000000
  1
承認
  7
KANJI
 50
-90.000000
 51
0.000000
  0
TEXT
  8
5
 62
94
  6
CONTINUOUS
 10
52.217627
 20
12.347876
 40
0.875000
 41
4.000000
  1
設計
  7
KANJI
 50
-90.000000
 51
0.000000
  0
TEXT
  8
5
 62
94
  6
CONTINUOUS
 10
48.939481
 20
5.381816
 40
2.250000
 41
1.888889
  1
ジャパンセンサー株式会社
  7
KANJI
 50
0.000000
 51
0.000000
  0
LINE
  8
5
 62
94
  6
CONTINUOUS
 10
39.234597
 20
20.604085
 11
99.234597
 21
20.604085
  0
LINE
  8
5
 62
94
  6
CONTINUOUS
 10
39.234597
 20
4.604085
 11
39.234597
 21
20.604085
  0
LINE
  8
5
 62
94
  6
CONTINUOUS
 10
99.234597
 20
8.604085
 11
39.234597
 21
8.604085
  0
LINE
  8
5
 62
94
  6
CONTINUOUS
 10
71.734597
 20
20.604085
 11
71.734597
 21
8.604085
  0
LINE
  8
5
 62
94
  6
CONTINUOUS
 10
99.234597
 20
12.604085
 11
39.234597
 21
12.604085
  0
LINE
  8
5
 62
94
  6
CONTINUOUS
 10
74.234597
 20
8.604085
 11
74.234597
 21
20.604085
  0
LINE
  8
5
 62
94
  6
CONTINUOUS
 10
59.234597
 20
20.604085
 11
59.234597
 21
12.604085
  0
LINE
  8
5
 62
94
  6
CONTINUOUS
 10
41.734597
 20
8.604085
 11
41.734597
 21
20.604085
  0
LINE
  8
5
 62
94
  6
CONTINUOUS
 10
39.234597
 20
16.604085
 11
71.734597
 21
16.604085
  0
LINE
  8
5
 62
94
  6
CONTINUOUS
 10
56.734597
 20
20.604085
 11
56.734597
 21
12.604085
  0
LINE
  8
5
 62
94
  6
CONTINUOUS
 10
51.734597
 20
8.604085
 11
51.734597
 21
12.604085
  0
LINE
  8
5
 62
94
  6
CONTINUOUS
 10
61.734597
 20
8.604085
 11
61.734597
 21
12.604085
  0
LINE
  8
5
 62
94
  6
CONTINUOUS
 10
54.234597
 20
12.604085
 11
54.234597
 21
8.604085
  0
LINE
  8
5
 62
94
  6
CONTINUOUS
 10
64.234597
 20
12.604085
 11
64.234597
 21
8.604085
  0
TEXT
  8
5
 62
94
  6
CONTINUOUS
 10
61.232528
 20
13.249366
 40
2.000000
 41
1.000000
  1
三角法
  7
KANJI
 50
0.000000
 51
0.000000
  0
LINE
  8
5
 62
94
  6
CONTINUOUS
 10
75.556448
 20
16.589321
 11
97.626822
 21
16.589321
  0
TEXT
  8
5
 62
94
  6
CONTINUOUS
 10
55.824656
 20
9.573573
 40
2.000000
 41
1.000000
  1
須藤
  7
KANJI
 50
0.000000
 51
0.000000
  0
TEXT
  8
5
 62
94
  6
CONTINUOUS
 10
62.548081
 20
17.466289
 40
2.000000
 41
1.000000
  1
２／１
  7
KANJI
 50
0.000000
 51
0.000000
  0
TEXT
  8
5
 62
94
  6
CONTINUOUS
 10
65.824656
 20
9.573573
 40
2.000000
 41
1.000000
  1
須藤
  7
KANJI
 50
0.000000
 51
0.000000
  0
LINE
  8
5
 62
94
  6
CONTINUOUS
 10
6.734597
 20
142.104085
 11
6.734597
 21
4.604085
  0
LINE
  8
5
 62
94
  6
CONTINUOUS
 10
6.734597
 20
4.604085
 11
99.234597
 21
4.604085
  0
LINE
  8
5
 62
94
  6
CONTINUOUS
 10
99.234597
 20
4.604085
 11
99.234597
 21
142.104085
  0
LINE
  8
5
 62
94
  6
CONTINUOUS
 10
99.234597
 20
142.104085
 11
6.734597
 21
142.104085
  0
LINE
  8
1
 62
7
  6
CONTINUOUS
 10
55.954976
 20
89.669914
 11
35.454976
 21
89.669914
  0
LINE
  8
1
 62
7
  6
CONTINUOUS
 10
55.954976
 20
92.111840
 11
55.954976
 21
89.669914
  0
LINE
  8
1
 62
7
  6
CONTINUOUS
 10
56.954976
 20
92.111840
 11
55.954976
 21
92.111840
  0
LINE
  8
1
 62
7
  6
DASHDOT
 10
52.954976
 20
104.743938
 11
52.954976
 21
97.842229
  0
LINE
  8
1
 62
7
  6
CONTINUOUS
 10
55.954976
 20
103.669914
 11
35.454976
 21
103.669914
  0
LINE
  8
1
 62
7
  6
CONTINUOUS
 10
55.954976
 20
101.227989
 11
55.954976
 21
103.669914
  0
LINE
  8
1
 62
7
  6
CONTINUOUS
 10
56.954976
 20
101.227989
 11
55.954976
 21
101.227989
  0
LINE
  8
1
 62
7
  6
CONTINUOUS
 10
60.254976
 20
92.669914
 11
64.654976
 21
92.669914
  0
LINE
  8
1
 62
7
  6
CONTINUOUS
 10
60.254976
 20
100.669914
 11
64.654976
 21
100.669914
  0
LINE
  8
1
 62
7
  6
CONTINUOUS
 10
60.254976
 20
93.075914
 11
59.254976
 21
93.075914
  0
LINE
  8
1
 62
7
  6
CONTINUOUS
 10
60.254976
 20
92.669914
 11
60.254976
 21
93.075914
  0
LINE
  8
1
 62
7
  6
CONTINUOUS
 10
64.954976
 20
93.075914
 11
60.254976
 21
93.075914
  0
LINE
  8
1
 62
7
  6
CONTINUOUS
 10
60.254976
 20
100.263914
 11
59.254976
 21
100.263914
  0
LINE
  8
1
 62
7
  6
CONTINUOUS
 10
60.254976
 20
100.669914
 11
60.254976
 21
100.263914
  0
LINE
  8
1
 62
7
  6
CONTINUOUS
 10
64.954976
 20
100.263914
 11
60.254976
 21
100.263914
  0
LINE
  8
1
 62
7
  6
CONTINUOUS
 10
64.654976
 20
92.669914
 11
64.954976
 21
92.969914
  0
LINE
  8
1
 62
7
  6
CONTINUOUS
 10
64.954976
 20
100.369914
 11
64.954976
 21
92.969914
  0
LINE
  8
1
 62
7
  6
CONTINUOUS
 10
64.654976
 20
100.669914
 11
64.954976
 21
100.369914
  0
LINE
  8
1
 62
7
  6
CONTINUOUS
 10
34.954976
 20
90.169914
 11
35.454976
 21
89.669914
  0
LINE
  8
1
 62
7
  6
CONTINUOUS
 10
34.954976
 20
90.169914
 11
34.954976
 21
103.169914
  0
LINE
  8
1
 62
7
  6
CONTINUOUS
 10
34.954976
 20
103.169914
 11
35.454976
 21
103.669914
  0
LINE
  8
1
 62
7
  6
DASHDOT
 10
33.210712
 20
96.669914
 11
66.717496
 21
96.669914
  0
LINE
  8
1
 62
7
  6
DOT
 10
56.954976
 20
101.227989
 11
56.954976
 21
101.669914
  0
LINE
  8
1
 62
7
  6
DOT
 10
56.954976
 20
101.669914
 11
59.254976
 21
101.669914
  0
LINE
  8
1
 62
7
  6
DOT
 10
56.954976
 20
101.227989
 11
59.254976
 21
101.227989
  0
LINE
  8
1
 62
7
  6
DOT
 10
51.454976
 20
103.669914
 11
51.454976
 21
100.669914
  0
LINE
  8
1
 62
7
  6
DOT
 10
51.654976
 20
103.669914
 11
51.654976
 21
100.669914
  0
LINE
  8
1
 62
7
  6
DOT
 10
54.260564
 20
103.669914
 11
54.260564
 21
100.669914
  0
LINE
  8
1
 62
7
  6
DOT
 10
54.454976
 20
103.669914
 11
54.454976
 21
100.669914
  0
LINE
  8
1
 62
7
  6
DOT
 10
56.954976
 20
92.111840
 11
56.954976
 21
91.669914
  0
LINE
  8
1
 62
7
  6
DOT
 10
56.954976
 20
91.669914
 11
59.254976
 21
91.669914
  0
LINE
  8
1
 62
7
  6
DOT
 10
56.954976
 20
92.111840
 11
59.254976
 21
92.111840
  0
LINE
  8
1
 62
7
  6
DOT
 10
54.954976
 20
100.669914
 11
55.536915
 21
99.669914
  0
LINE
  8
1
 62
7
  6
DOT
 10
55.536915
 20
99.669914
 11
64.954976
 21
99.669914
  0
LINE
  8
1
 62
7
  6
DOT
 10
34.954976
 20
100.669914
 11
54.954976
 21
100.669914
  0
LINE
  8
1
 62
7
  6
DOT
 10
54.954976
 20
92.669914
 11
55.536915
 21
93.669914
  0
LINE
  8
1
 62
7
  6
DOT
 10
55.536915
 20
93.669914
 11
64.954976
 21
93.669914
  0
LINE
  8
1
 62
7
  6
DOT
 10
34.954976
 20
92.669914
 11
54.954976
 21
92.669914
  0
LINE
  8
1
 62
7
  6
DOT
 10
55.536915
 20
99.669914
 11
55.536915
 21
93.669914
  0
LINE
  8
1
 62
7
  6
DOT
 10
54.954976
 20
100.651706
 11
54.954976
 21
92.688123
  0
LINE
  8
1
 62
7
  6
CONTINUOUS
 10
35.454976
 20
103.669914
 11
35.454976
 21
89.669914
  0
LINE
  8
1
 62
7
  6
CONTINUOUS
 10
64.654976
 20
100.669914
 11
64.654976
 21
92.669914
  0
LINE
  8
1
 62
7
  6
DOT
 10
59.254976
 20
101.669914
 11
59.254976
 21
100.263914
  0
LINE
  8
1
 62
7
  6
DOT
 10
59.254976
 20
91.669914
 11
59.254976
 21
93.075914
  0
LINE
  8
1
 62
7
  6
CONTINUOUS
 10
57.054976
 20
102.669914
 11
60.254976
 21
102.669914
  0
LINE
  8
1
 62
7
  6
CONTINUOUS
 10
57.054976
 20
90.669914
 11
60.254976
 21
90.669914
  0
LINE
  8
1
 62
7
  6
CONTINUOUS
 10
60.254976
 20
91.669914
 11
60.254976
 21
90.669914
  0
LINE
  8
1
 62
7
  6
CONTINUOUS
 10
57.054976
 20
102.669914
 11
57.054976
 21
90.669914
  0
LINE
  8
1
 62
7
  6
DASHDOT
 10
63.517991
 20
96.669914
 11
54.502264
 21
96.669914
  0
LINE
  8
1
 62
7
  6
CONTINUOUS
 10
60.254976
 20
91.507385
 11
60.254976
 21
102.669914
  0
LINE
  8
1
 62
7
  6
DOT
 10
59.554976
 20
101.669914
 11
60.254976
 21
101.669914
  0
LINE
  8
1
 62
7
  6
DOT
 10
57.054976
 20
101.227989
 11
59.554976
 21
101.227989
  0
LINE
  8
1
 62
7
  6
DOT
 10
57.054976
 20
101.669914
 11
59.554976
 21
101.669914
  0
LINE
  8
1
 62
7
  6
DOT
 10
59.554976
 20
91.669914
 11
60.254976
 21
91.669914
  0
LINE
  8
1
 62
7
  6
DOT
 10
57.054976
 20
92.111840
 11
59.554976
 21
92.111840
  0
LINE
  8
1
 62
7
  6
DOT
 10
57.054976
 20
91.669914
 11
59.554976
 21
91.669914
  0
LINE
  8
1
 62
7
  6
DOT
 10
59.554976
 20
101.669914
 11
59.554976
 21
91.669914
  0
CIRCLE
  8
11
 62
251
  6
CONTINUOUS
 10
59.850061
 20
92.575914
 40
0.500000
  0
CIRCLE
  8
11
 62
251
  6
CONTINUOUS
 10
59.850061
 20
100.763914
 40
0.500000
  0
LINE
  8
6
 62
7
  6
DASHDOT
 10
52.954976
 20
120.329181
 11
52.954976
 21
100.466295
  0
LINE
  8
6
 62
7
  6
DASHDOT
 10
47.660784
 20
115.169914
 11
68.936456
 21
115.169914
  0
ARC
  8
6
 62
7
  6
CONTINUOUS
 10
52.737679
 20
105.887073
 40
5.304476
 50
61.553795
 51
78.946170
  0
ARC
  8
6
 62
7
  6
CONTINUOUS
 10
52.954972
 20
106.966320
 40
4.203594
 50
79.032543
 51
100.972113
  0
ARC
  8
6
 62
7
  6
CONTINUOUS
 10
53.172341
 20
105.886904
 40
5.304656
 50
101.057966
 51
118.445979
  0
ARC
  8
6
 62
7
  6
CONTINUOUS
 10
55.958339
 20
109.090929
 40
2.177562
 50
42.110188
 51
65.706506
  0
ARC
  8
6
 62
7
  6
CONTINUOUS
 10
56.419075
 20
110.118282
 40
1.051632
 50
65.557952
 51
114.446393
  0
ARC
  8
6
 62
7
  6
CONTINUOUS
 10
56.879952
 20
109.090754
 40
2.177779
 50
114.297085
 51
137.888779
  0
ARC
  8
6
 62
7
  6
CONTINUOUS
 10
49.030131
 20
108.898901
 40
2.177566
 50
-65.706337
 51
-42.110130
  0
ARC
  8
6
 62
7
  6
CONTINUOUS
 10
49.490873
 20
107.871547
 40
1.051633
 50
-114.446468
 51
-65.557877
  0
ARC
  8
6
 62
7
  6
CONTINUOUS
 10
49.951749
 20
108.899076
 40
2.177780
 50
-137.888771
 51
-114.297093
  0
ARC
  8
6
 62
7
  6
CONTINUOUS
 10
52.737679
 20
112.102756
 40
5.304476
 50
-78.946170
 51
-61.553795
  0
ARC
  8
6
 62
7
  6
CONTINUOUS
 10
52.954970
 20
111.023508
 40
4.203594
 50
-100.972077
 51
-79.032507
  0
ARC
  8
6
 62
7
  6
CONTINUOUS
 10
53.172344
 20
112.102924
 40
5.304657
 50
-118.446013
 51
-101.058000
  0
ARC
  8
6
 62
7
  6
CONTINUOUS
 10
55.958339
 20
108.898900
 40
2.177562
 50
-65.706506
 51
-42.110188
  0
ARC
  8
6
 62
7
  6
CONTINUOUS
 10
56.419074
 20
107.871546
 40
1.051632
 50
-114.446327
 51
-65.557886
  0
ARC
  8
6
 62
7
  6
CONTINUOUS
 10
56.879954
 20
108.899074
 40
2.177780
 50
-137.888831
 51
-114.297137
  0
ARC
  8
6
 62
7
  6
CONTINUOUS
 10
49.030134
 20
109.090927
 40
2.177564
 50
42.110182
 51
65.706389
  0
ARC
  8
6
 62
7
  6
CONTINUOUS
 10
49.490873
 20
110.118281
 40
1.051633
 50
65.557877
 51
114.446468
  0
ARC
  8
6
 62
7
  6
CONTINUOUS
 10
49.951747
 20
109.090752
 40
2.177779
 50
114.297041
 51
137.888719
  0
LINE
  8
6
 62
7
  6
CONTINUOUS
 10
54.724374
 20
112.747265
 11
53.839675
 21
113.958589
  0
LINE
  8
6
 62
7
  6
CONTINUOUS
 10
53.839675
 20
113.958589
 11
52.954976
 21
115.169914
  0
LINE
  8
6
 62
7
  6
CONTINUOUS
 10
54.724374
 20
112.747265
 11
55.839675
 21
112.458589
  0
LINE
  8
6
 62
7
  6
CONTINUOUS
 10
55.839675
 20
112.458589
 11
56.954976
 21
112.169914
  0
ARC
  8
6
 62
7
  6
CONTINUOUS
 10
52.954976
 20
115.169914
 40
4.000000
 50
90.000003
 51
180.000000
  0
ARC
  8
6
 62
7
  6
CONTINUOUS
 10
52.954976
 20
115.169914
 40
3.000000
 50
90.000003
 51
180.000000
  0
ARC
  8
6
 62
7
  6
CONTINUOUS
 10
67.854976
 20
119.869915
 40
0.200000
 50
0.000000
 51
90.000000
  0
ARC
  8
6
 62
7
  6
CONTINUOUS
 10
67.854976
 20
110.469914
 40
0.200000
 50
-90.000000
 51
0.000000
  0
ARC
  8
6
 62
7
  6
CONTINUOUS
 10
52.986349
 20
115.138541
 40
4.000000
 50
90.000003
 51
180.000000
  0
LINE
  8
6
 62
7
  6
CONTINUOUS
 10
48.954976
 20
111.169914
 11
56.954976
 21
111.169914
  0
LINE
  8
6
 62
7
  6
CONTINUOUS
 10
52.954976
 20
119.169914
 11
63.454976
 21
119.169914
  0
LINE
  8
6
 62
7
  6
CONTINUOUS
 10
65.454976
 20
119.169914
 11
65.454976
 21
111.169914
  0
LINE
  8
6
 62
7
  6
CONTINUOUS
 10
56.954976
 20
112.169914
 11
56.954976
 21
111.169914
  0
LINE
  8
6
 62
7
  6
CONTINUOUS
 10
48.954976
 20
115.169914
 11
48.954976
 21
111.169914
  0
LINE
  8
6
 62
7
  6
CONTINUOUS
 10
57.954976
 20
118.169914
 11
57.954976
 21
112.169914
  0
LINE
  8
6
 62
7
  6
CONTINUOUS
 10
58.532326
 20
111.169914
 11
63.454976
 21
111.169914
  0
LINE
  8
6
 62
7
  6
CONTINUOUS
 10
56.954976
 20
112.169914
 11
57.954976
 21
112.169914
  0
LINE
  8
6
 62
7
  6
CONTINUOUS
 10
52.954976
 20
118.169914
 11
57.954976
 21
118.169914
  0
LINE
  8
6
 62
7
  6
CONTINUOUS
 10
57.954976
 20
112.169914
 11
58.532326
 21
111.169914
  0
LINE
  8
6
 62
7
  6
CONTINUOUS
 10
48.986349
 20
112.169914
 11
56.954976
 21
112.169914
  0
LINE
  8
6
 62
7
  6
CONTINUOUS
 10
49.954976
 20
115.169914
 11
49.954976
 21
112.747265
  0
LINE
  8
6
 62
7
  6
CONTINUOUS
 10
49.954976
 20
112.747265
 11
54.724374
 21
112.747265
  0
LINE
  8
6
 62
7
  6
CONTINUOUS
 10
58.532326
 20
119.138541
 11
58.532326
 21
111.169914
  0
LINE
  8
6
 62
7
  6
CONTINUOUS
 10
63.454976
 20
119.169914
 11
63.454976
 21
111.169914
  0
LINE
  8
6
 62
7
  6
CONTINUOUS
 10
63.454975
 20
119.169915
 11
65.454975
 21
119.065099
  0
LINE
  8
6
 62
7
  6
CONTINUOUS
 10
63.454976
 20
111.169914
 11
65.454976
 21
111.274730
  0
LINE
  8
6
 62
7
  6
CONTINUOUS
 10
66.154976
 20
118.969914
 11
66.154976
 21
111.369914
  0
LINE
  8
6
 62
7
  6
CONTINUOUS
 10
65.954976
 20
119.169914
 11
65.454976
 21
119.169914
  0
LINE
  8
6
 62
7
  6
CONTINUOUS
 10
65.954976
 20
111.169914
 11
65.454976
 21
111.169914
  0
LINE
  8
6
 62
7
  6
CONTINUOUS
 10
66.854976
 20
117.769914
 11
66.154976
 21
117.769914
  0
LINE
  8
6
 62
7
  6
CONTINUOUS
 10
66.854976
 20
112.569914
 11
66.154976
 21
112.569914
  0
LINE
  8
6
 62
7
  6
CONTINUOUS
 10
65.954977
 20
119.169914
 11
66.154977
 21
118.969914
  0
LINE
  8
6
 62
7
  6
CONTINUOUS
 10
66.154976
 20
111.369914
 11
65.954976
 21
111.169914
  0
LINE
  8
6
 62
7
  6
CONTINUOUS
 10
66.854976
 20
120.069914
 11
66.854976
 21
110.269914
  0
LINE
  8
6
 62
7
  6
CONTINUOUS
 10
68.054976
 20
119.869915
 11
68.054976
 21
110.469914
  0
LINE
  8
6
 62
7
  6
HIDDEN
 10
57.054976
 20
117.169914
 11
57.054976
 21
113.169914
  0
LINE
  8
6
 62
7
  6
CONTINUOUS
 10
67.854976
 20
120.069914
 11
66.854976
 21
120.069914
  0
LINE
  8
6
 62
7
  6
CONTINUOUS
 10
67.854976
 20
110.269914
 11
66.854976
 21
110.269914
  0
LINE
  8
6
 62
7
  6
HIDDEN
 10
57.054976
 20
113.169914
 11
68.054976
 21
113.169914
  0
LINE
  8
6
 62
7
  6
HIDDEN
 10
57.054976
 20
117.169914
 11
68.054976
 21
117.169914
  0
LINE
  8
6
 62
7
  6
CONTINUOUS
 10
65.954976
 20
119.169914
 11
65.954976
 21
111.169914
  0
LINE
  8
6
 62
7
  6
CONTINUOUS
 10
48.986349
 20
115.138541
 11
48.986349
 21
112.169914
  0
LINE
  8
6
 62
7
  6
CONTINUOUS
 10
52.986349
 20
119.138541
 11
58.532326
 21
119.138541
  0
LINE
  8
6
 62
7
  6
CONTINUOUS
 10
57.954976
 20
118.169914
 11
58.532326
 21
119.138541
  0
LINE
  8
6
 62
7
  6
CONTINUOUS
 10
54.184476
 20
103.669914
 11
54.184476
 21
101.199413
  0
LINE
  8
6
 62
7
  6
CONTINUOUS
 10
51.725476
 20
103.669914
 11
51.725476
 21
101.199413
  0
LINE
  8
6
 62
7
  6
CONTINUOUS
 10
51.454976
 20
103.025575
 11
51.454976
 21
101.469913
  0
LINE
  8
6
 62
7
  6
CONTINUOUS
 10
54.454976
 20
103.025575
 11
54.454976
 21
101.469913
  0
LINE
  8
6
 62
7
  6
CONTINUOUS
 10
51.704976
 20
103.669914
 11
51.704976
 21
103.169914
  0
LINE
  8
6
 62
7
  6
CONTINUOUS
 10
50.204976
 20
104.169914
 11
55.704976
 21
104.169914
  0
LINE
  8
6
 62
7
  6
CONTINUOUS
 10
51.754975
 20
101.169914
 11
54.154977
 21
101.169914
  0
LINE
  8
6
 62
7
  6
CONTINUOUS
 10
51.704976
 20
103.169914
 11
54.204976
 21
103.169914
  0
LINE
  8
6
 62
7
  6
CONTINUOUS
 10
50.104978
 20
105.669914
 11
50.104978
 21
104.469913
  0
LINE
  8
6
 62
7
  6
CONTINUOUS
 10
55.804974
 20
105.669914
 11
55.804974
 21
104.469913
  0
LINE
  8
6
 62
7
  6
CONTINUOUS
 10
54.204976
 20
103.669914
 11
54.204976
 21
103.169914
  0
LINE
  8
6
 62
7
  6
CONTINUOUS
 10
55.804975
 20
104.469914
 11
55.504975
 21
104.169915
  0
LINE
  8
6
 62
7
  6
CONTINUOUS
 10
50.104976
 20
104.469914
 11
50.404975
 21
104.169915
  0
LINE
  8
6
 62
7
  6
CONTINUOUS
 10
51.454977
 20
103.025575
 11
51.704977
 21
103.169913
  0
LINE
  8
6
 62
7
  6
CONTINUOUS
 10
54.204976
 20
103.169913
 11
54.454974
 21
103.025577
  0
LINE
  8
6
 62
7
  6
CONTINUOUS
 10
51.454975
 20
101.469916
 11
51.754977
 21
101.169914
  0
LINE
  8
6
 62
7
  6
CONTINUOUS
 10
54.454977
 20
101.469913
 11
54.154977
 21
101.169913
  0
LINE
  8
6
 62
7
  6
CONTINUOUS
 10
51.454976
 20
101.469913
 11
54.454976
 21
101.469913
  0
LINE
  8
6
 62
7
  6
CONTINUOUS
 10
51.454976
 20
103.025575
 11
54.454976
 21
103.025575
  0
LINE
  8
6
 62
7
  6
CONTINUOUS
 10
50.104978
 20
104.469913
 11
55.804974
 21
104.469913
  0
LINE
  8
6
 62
7
  6
CONTINUOUS
 10
50.204976
 20
103.669914
 11
55.704976
 21
103.669914
  0
LINE
  8
6
 62
7
  6
CONTINUOUS
 10
50.204976
 20
104.169914
 11
50.204976
 21
103.669914
  0
LINE
  8
6
 62
7
  6
CONTINUOUS
 10
55.704976
 20
104.169914
 11
55.704976
 21
103.669914
  0
LINE
  8
6
 62
7
  6
CONTINUOUS
 10
48.336175
 20
110.551111
 11
48.336175
 21
107.438717
  0
LINE
  8
6
 62
7
  6
CONTINUOUS
 10
57.573777
 20
110.551111
 11
57.573777
 21
107.438717
  0
LINE
  8
6
 62
7
  6
CONTINUOUS
 10
50.645574
 20
110.551111
 11
50.645574
 21
107.438717
  0
LINE
  8
6
 62
7
  6
CONTINUOUS
 10
55.264378
 20
110.551111
 11
55.264378
 21
107.438717
  0
LINE
  8
6
 62
7
  6
CONTINUOUS
 10
56.954975
 20
111.169915
 11
57.573780
 21
110.551110
  0
LINE
  8
6
 62
7
  6
CONTINUOUS
 10
48.336175
 20
107.438715
 11
50.104975
 21
105.669914
  0
LINE
  8
6
 62
7
  6
CONTINUOUS
 10
55.804976
 20
105.669914
 11
57.573779
 21
107.438716
  0
LINE
  8
6
 62
7
  6
CONTINUOUS
 10
50.104978
 20
105.669914
 11
55.804974
 21
105.669914
  0
LINE
  8
6
 62
7
  6
CONTINUOUS
 10
48.336173
 20
110.551112
 11
48.954976
 21
111.169914
  0
LINE
  8
2
 62
134
  6
CONTINUOUS
 10
68.250123
 20
115.169914
 11
76.336772
 21
123.295997
  0
LINE
  8
2
 62
134
  6
CONTINUOUS
 10
76.336772
 20
123.295997
 11
61.326509
 21
123.295997
  0
TEXT
  8
2
 62
134
  6
CONTINUOUS
 10
61.326509
 20
123.166509
 40
2.000000
 41
1.000000
  1
φ4ﾁｭｰﾌﾞﾌｨﾃｨﾝｸﾞ
  7
KANJI
 50
0.000000
 51
0.000000
  0
LINE
  8
2
 62
134
  6
CONTINUOUS
 10
68.250123
 20
115.169914
 11
68.748016
 21
116.037153
  0
LINE
  8
2
 62
134
  6
CONTINUOUS
 10
68.250123
 20
115.169914
 11
69.114930
 21
115.672019
  0
LINE
  8
2
 62
134
  6
CONTINUOUS
 10
68.748016
 20
116.037153
 11
69.114930
 21
115.672019
  0
LINE
  8
2
 62
134
  6
CONTINUOUS
 10
68.420461
 20
115.341082
 11
68.669407
 21
115.774702
  0
LINE
  8
2
 62
134
  6
CONTINUOUS
 10
68.420461
 20
115.341082
 11
68.852864
 21
115.592135
  0
LINE
  8
2
 62
134
  6
CONTINUOUS
 10
68.669407
 20
115.774702
 11
68.852864
 21
115.592135
  0
TEXT
  8
2
 62
134
  6
CONTINUOUS
 10
62.670938
 20
121.298906
 40
2.000000
 41
1.000000
  1
計装ｴｱ入口
  7
KANJI
 50
0.000000
 51
0.000000
  0
DIMENSION
  8
2
 62
134
  6
CONTINUOUS
  2
*D1
 10
45.343298
 20
120.069914
 11
45.343298
 21
111.839725
 70
     0
  1
24
 13
66.354976
 23
120.069914
 14
45.343298
 24
96.669914
 50
-90.000000
  0
DIMENSION
  8
2
 62
134
  6
CONTINUOUS
  2
*D2
 10
29.397694
 20
89.669914
 11
29.397694
 21
96.669914
 70
     0
  1
φ14
 13
34.954976
 23
89.669914
 14
34.954976
 24
103.669914
 50
90.000000
  0
DIMENSION
  8
2
 62
134
  6
CONTINUOUS
  2
*D3
 10
64.954976
 20
85.399013
 11
62.796487
 21
85.399013
 70
     0
  1
4.7
 13
64.954976
 23
92.469914
 14
60.254976
 24
91.007385
 50
180.000000
  0
DIMENSION
  8
2
 62
134
  6
CONTINUOUS
  2
*D4
 10
34.954976
 20
85.399013
 11
47.304822
 21
85.399013
 70
     0
  1
25.3
 13
34.954976
 23
89.669914
 14
60.254976
 24
91.007385
 50
0.000000
  0
DIMENSION
  8
2
 62
134
  6
CONTINUOUS
  2
*D5
 10
70.906539
 20
92.669914
 11
70.906539
 21
96.669914
 70
     0
  1
M8P0.75
 13
65.154976
 23
92.669914
 14
65.154976
 24
100.669914
 50
90.000000
  0
LINE
  8
2
 62
134
  6
CONTINUOUS
 10
57.714979
 20
90.669914
 11
54.296626
 21
83.282888
  0
LINE
  8
2
 62
134
  6
CONTINUOUS
 10
54.296626
 20
83.282888
 11
50.924671
 21
83.282888
  0
TEXT
  8
2
 62
134
  6
CONTINUOUS
 10
50.924671
 20
83.323582
 40
2.000000
 41
0.500000
  1
ﾅｯﾄ
  7
KANJI
 50
0.000000
 51
0.000000
  0
LINE
  8
2
 62
134
  6
CONTINUOUS
 10
57.714979
 20
90.669914
 11
57.544213
 21
89.684603
  0
LINE
  8
2
 62
134
  6
CONTINUOUS
 10
57.714979
 20
90.669914
 11
57.074435
 21
89.901993
  0
LINE
  8
2
 62
134
  6
CONTINUOUS
 10
57.544213
 20
89.684603
 11
57.074435
 21
89.901993
  0
LINE
  8
2
 62
134
  6
CONTINUOUS
 10
57.613565
 20
90.450760
 11
57.528182
 21
89.958104
  0
LINE
  8
2
 62
134
  6
CONTINUOUS
 10
57.613565
 20
90.450760
 11
57.293293
 21
90.066799
  0
LINE
  8
2
 62
134
  6
CONTINUOUS
 10
57.528182
 20
89.958104
 11
57.293293
 21
90.066799
  0
LINE
  8
2
 62
134
  6
CONTINUOUS
 10
60.152112
 20
92.177461
 11
67.074754
 21
83.282888
  0
LINE
  8
2
 62
134
  6
CONTINUOUS
 10
67.074754
 20
83.282888
 11
72.257877
 21
83.282888
  0
TEXT
  8
2
 62
134
  6
CONTINUOUS
 10
67.257877
 20
83.293795
 40
2.000000
 41
0.500000
  1
Oﾘﾝｸﾞ
  7
KANJI
 50
0.000000
 51
0.000000
  0
LINE
  8
2
 62
134
  6
CONTINUOUS
 10
60.152112
 20
92.177461
 11
60.949628
 21
91.574164
  0
LINE
  8
2
 62
134
  6
CONTINUOUS
 10
60.152112
 20
92.177461
 11
60.541133
 21
91.256232
  0
LINE
  8
2
 62
134
  6
CONTINUOUS
 10
60.949628
 20
91.574164
 11
60.541133
 21
91.256232
  0
LINE
  8
2
 62
134
  6
CONTINUOUS
 10
60.300429
 20
91.986895
 11
60.699187
 21
91.685246
  0
LINE
  8
2
 62
134
  6
CONTINUOUS
 10
60.300429
 20
91.986895
 11
60.494939
 21
91.526281
  0
LINE
  8
2
 62
134
  6
CONTINUOUS
 10
60.699187
 20
91.685246
 11
60.494939
 21
91.526281
  0
TEXT
  8
5
 62
94
  6
CONTINUOUS
 10
75.695594
 20
13.530056
 40
2.000000
 41
1.000000
  1
φ6ｴｱﾊﾟｰｼﾞﾌｰﾄﾞ 外形図
  7
KANJI
 50
0.000000
 51
0.000000
  0
TEXT
  8
5
 62
94
  6
CONTINUOUS
 10
76.811453
 20
17.600784
 40
2.000000
 41
1.000000
  1
ＴＭＰＸ－０６
  7
KANJI
 50
0.000000
 51
0.000000
  0
TEXT
  8
5
 62
94
  6
CONTINUOUS
 10
74.586475
 20
9.654404
 40
2.000000
 41
1.000000
  1
００５－０６５－Ａ１２２
  7
KANJI
 50
0.000000
 51
0.000000
  0
TEXT
  8
5
 62
94
  6
CONTINUOUS
 10
44.277904
 20
13.519931
 40
2.000000
 41
0.500000
  1
2013/04/23
  7
KANJI
 50
0.000000
 51
0.000000
  0
ENDSEC
  0
EOF
