  0
SECTION
  2
HEADER
  9
$ACADVER
  1
AC1009
  9
$INSBASE
 10
0.000000
 20
0.000000
  9
$EXTMIN
 10
0.000000
 20
0.000000
  9
$EXTMAX
 10
105.000000
 20
148.500000
  9
$LIMMIN
 10
0.000000
 20
0.000000
  9
$LIMMAX
 10
105.000000
 20
148.500000
  9
$VIEWCTR
 10
52.500000
 20
74.250000
  9
$VIEWSIZE
 40
148.500000
  9
$PEXTMIN
 10
0.000000
 20
0.000000
 30
0.000000
  9
$PEXTMAX
 10
210.000000
 20
297.000000
 30
0.000000
  9
$SNAPMODE
 70
     0
  9
$SNAPUNIT
 10
1.000000
 20
1.000000
  9
$SNAPBASE
 10
0.000000
 20
0.000000
  9
$SNAPANG
 50
0.000000
  9
$SNAPISOPAIR
 70
     0
  9
$SNAPSTYLE
 70
     0
  9
$GRIDMODE
 70
     0
  9
$GRIDUNIT
 10
0.000000
 20
0.000000
  9
$ORTHOMODE
 70
     0
  9
$REGENMODE
 70
     1
  9
$FILLMODE
 70
     1
  9
$QTEXTMODE
 70
     0
  9
$DRAGMODE
 70
     2
  9
$LTSCALE
 40
0.125000
  9
$OSMODE
 70
     0
  9
$ATTMODE
 70
     1
  9
$TEXTSIZE
 40
2.000000
  9
$TRACEWID
 40
0.050000
  9
$TEXTSTYLE
  7
STANDARD
  9
$CLAYER
  8
0
  9
$CELTYPE
  6
BYLAYER
  9
$CECOLOR
 62
   256
  9
$DIMSCALE
 40
1.000000
  9
$DIMASZ
 40
1.000000
  9
$DIMEXO
 40
0.000000
  9
$DIMDLI
 40
0.500000
  9
$DIMRND
 40
0.000000
  9
$DIMDLE
 40
0.000000
  9
$DIMEXE
 40
0.000000
  9
$DIMTP
 40
0.000000
  9
$DIMTM
 40
0.000000
  9
$DIMTXT
 40
4.000000
  9
$DIMCEN
 40
0.000000
  9
$DIMTSZ
 40
0.000000
  9
$DIMTOL
 70
     0
  9
$DIMLIM
 70
     0
  9
$DIMTIH
 70
     1
  9
$DIMTOH
 70
     1
  9
$DIMSE1
 70
     0
  9
$DIMSE2
 70
     0
  9
$DIMTAD
 70
     0
  9
$DIMZIN
 70
     0
  9
$DIMBLK
  1

  9
$DIMASO
 70
     0
  9
$DIMSHO
 70
     0
  9
$DIMPOST
  1

  9
$DIMAPOST
  1

  9
$DIMALT
 70
     0
  9
$DIMALTD
 70
     0
  9
$DIMALTF
 40
25.400000
  9
$DIMLFAC
 40
1.000000
  9
$DIMTOFL
 70
     0
  9
$DIMTVP
 40
0.000000
  9
$DIMTIX
 70
     0
  9
$DIMSOXD
 70
     0
  9
$DIMSAH
 70
     0
  9
$DIMBLKL
  1

  9
$DIMBLKR
  1

  9
$LUNITS
 70
     2
  9
$LUPREC
 70
     2
  9
$AXISMODE
 70
     0
  9
$AXISUNIT
 10
1.000000
 20
1.000000
  9
$SKETCHINC
 40
0.000000
  9
$FILLETRAD
 40
0.000000
  9
$AUNITS
 70
     1
  9
$AUPREC
 70
     2
  9
$MENU
  1
ACAD
  9
$ELEVATION
 40
0.000000
  9
$THICKNESS
 40
0.000000
  9
$VIEWDIR
 10
0.000000
 20
0.000000
 30
1.000000
  9
$LIMCHECK
 70
     1
  9
$BLIPMODE
 70
     1
  9
$CHAMFERA
 40
0.000000
  9
$CHAMFERB
 40
0.000000
  9
$FASTZOOM
 70
     1
  9
$SKPOLY
 70
     0
  9
$TDCREATE
 40
0.000000
  9
$TDUPDATE
 40
0.000000
  9
$TDINDWG
 40
0.000000
  9
$TDUSRTIMER
 40
0.000000
  9
$USRTIMER
 70
     1
  9
$ANGBASE
 50
0.000000
  9
$ANGDIR
 70
     0
  9
$PDMODE
 70
     0
  9
$PDSIZE
 40
0.000000
  9
$PLINEWID
 40
0.000000
  9
$COORDS
 70
     2
  9
$USERI1
 70
     0
  9
$USERI2
 70
     0
  9
$USERI3
 70
     0
  9
$USERI4
 70
     0
  9
$USERI5
 70
     0
  9
$USERR1
 40
0.000000
  9
$USERR2
 40
0.000000
  9
$USERR3
 40
0.000000
  9
$USERR4
 40
0.000000
  9
$USERR5
 40
0.000000
  0
ENDSEC
  0
SECTION
  2
TABLES
  0
TABLE
  2
LTYPE
 70
     5
  0
LTYPE
  2
CONTINUOUS
 70
    64
  3
Solid line
 72
    65
 73
     0
 40
0.0
  0
LTYPE
  2
HIDDEN
 70
    64
  3
------------------------
 72
    65
 73
     2
 40
12.6
 49
8.4
 49
-4.2
  0
LTYPE
  2
DOT
 70
    64
  3
････････････････････････
 72
    65
 73
     2
 40
8.0
 49
6.0
 49
-2.0
  0
LTYPE
  2
DASHDOT
 70
    64
  3
--･--･--･--･--･--･--･--
 72
    65
 73
     4
 40
50.5
 49
30.0
 49
-9.0
 49
2.5
 49
-9.0
  0
LTYPE
  2
DIVIDE
 70
    64
  3
--･･--･･--･･--･･--･･--
 72
    65
 73
     6
 40
58.0
 49
30.0
 49
-9.0
 49
2.5
 49
-5.0
 49
2.5
 49
-9.0
  0
LTYPE
  2
ACAD_ISO06W100
 70
    64
  3
____ ... ____ ... ____
 72
    65
 73
     8
 40
37.5
 49
24.0
 49
-3.0
 49
0.5
 49
-3.0
 49
0.5
 49
-3.0
 49
0.5
 49
-3.0
  0
LTYPE
  2
ACAD_ISO14W100
 70
    64
  3
__ . . . __ . . . __ . . . 
 72
    65
 73
     8
 40
25.5
 49
12.0
 49
-3.0
 49
0.5
 49
-3.0
 49
0.5
 49
-3.0
 49
0.5
 49
-3.0
  0
ENDTAB
  0
TABLE
  2
LAYER
 70
3
  0
LAYER
  2
1
 70
64
 62
7
  6
CONTINUOUS
  0
LAYER
  2
2
 70
64
 62
134
  6
CONTINUOUS
  0
LAYER
  2
5
 70
64
 62
94
  6
CONTINUOUS
  0
ENDTAB
  0
TABLE
  2
STYLE
 70
     2
  0
STYLE
  2
STANDARD
 70
    64
 40
0.0
 41
1.0
 50
0.0
 71
     0
 42
0.2
  3
TXT
  4

  0
STYLE
  2
KANJI
 70
    64
 40
0.0
 41
1.0
 50
0.0
 71
     0
 42
0.2
  3
TXT
  4
BIGFONT
  0
ENDTAB
  0
TABLE
  2
VIEW
 70
     0
  0
ENDTAB
  0
ENDSEC
  0
SECTION
  2
BLOCKS
  0
BLOCK
  8
2
 62
134
  6
CONTINUOUS
  2
*D1
 70
    65
 10
0.0
 20
0.0
  0
LINE
  8
2
 62
134
  6
CONTINUOUS
 10
37.958420
 20
91.169914
 11
37.958420
 21
102.169914
  0
LINE
  8
2
 62
134
  6
CONTINUOUS
 10
37.458420
 20
91.169914
 11
41.994780
 21
91.169914
  0
LINE
  8
2
 62
134
  6
CONTINUOUS
 10
37.458420
 20
102.169914
 11
41.994780
 21
102.169914
  0
LINE
  8
2
 62
134
  6
CONTINUOUS
 10
37.958420
 20
91.169914
 11
37.699601
 21
92.135840
  0
LINE
  8
2
 62
134
  6
CONTINUOUS
 10
37.958420
 20
91.169914
 11
38.217239
 21
92.135840
  0
LINE
  8
2
 62
134
  6
CONTINUOUS
 10
37.699601
 20
92.135840
 11
38.217239
 21
92.135840
  0
LINE
  8
2
 62
134
  6
CONTINUOUS
 10
37.958420
 20
91.411396
 11
37.829010
 21
91.894359
  0
LINE
  8
2
 62
134
  6
CONTINUOUS
 10
37.958420
 20
91.411396
 11
38.087830
 21
91.894359
  0
LINE
  8
2
 62
134
  6
CONTINUOUS
 10
37.829010
 20
91.894359
 11
38.087830
 21
91.894359
  0
LINE
  8
2
 62
134
  6
CONTINUOUS
 10
37.958420
 20
102.169914
 11
38.217239
 21
101.203989
  0
LINE
  8
2
 62
134
  6
CONTINUOUS
 10
37.958420
 20
102.169914
 11
37.699601
 21
101.203989
  0
LINE
  8
2
 62
134
  6
CONTINUOUS
 10
38.217239
 20
101.203989
 11
37.699601
 21
101.203989
  0
LINE
  8
2
 62
134
  6
CONTINUOUS
 10
37.958420
 20
101.928433
 11
38.087830
 21
101.445470
  0
LINE
  8
2
 62
134
  6
CONTINUOUS
 10
37.958420
 20
101.928433
 11
37.829010
 21
101.445470
  0
LINE
  8
2
 62
134
  6
CONTINUOUS
 10
38.087830
 20
101.445470
 11
37.829010
 21
101.445470
  0
TEXT
  8
2
 62
134
  6
CONTINUOUS
 10
37.958420
 20
94.669914
 40
2.000000
 41
1.000000
  1
φ11
  7
KANJI
 50
90.000000
 51
0.000000
  0
ENDBLK
  0
BLOCK
  8
2
 62
134
  6
CONTINUOUS
  2
*D2
 70
    65
 10
0.0
 20
0.0
  0
LINE
  8
2
 62
134
  6
CONTINUOUS
 10
53.994780
 20
83.402145
 11
41.994780
 21
83.402145
  0
LINE
  8
2
 62
134
  6
CONTINUOUS
 10
53.994780
 20
82.902145
 11
53.994780
 21
92.469914
  0
LINE
  8
2
 62
134
  6
CONTINUOUS
 10
41.994780
 20
82.902145
 11
41.994780
 21
91.169914
  0
LINE
  8
2
 62
134
  6
CONTINUOUS
 10
53.994780
 20
83.402145
 11
53.028854
 21
83.143326
  0
LINE
  8
2
 62
134
  6
CONTINUOUS
 10
53.994780
 20
83.402145
 11
53.028854
 21
83.660964
  0
LINE
  8
2
 62
134
  6
CONTINUOUS
 10
53.028854
 20
83.143326
 11
53.028854
 21
83.660964
  0
LINE
  8
2
 62
134
  6
CONTINUOUS
 10
53.753299
 20
83.402145
 11
53.270336
 21
83.272735
  0
LINE
  8
2
 62
134
  6
CONTINUOUS
 10
53.753299
 20
83.402145
 11
53.270336
 21
83.531554
  0
LINE
  8
2
 62
134
  6
CONTINUOUS
 10
53.270336
 20
83.272735
 11
53.270336
 21
83.531554
  0
LINE
  8
2
 62
134
  6
CONTINUOUS
 10
41.994780
 20
83.402145
 11
42.960706
 21
83.660964
  0
LINE
  8
2
 62
134
  6
CONTINUOUS
 10
41.994780
 20
83.402145
 11
42.960706
 21
83.143326
  0
LINE
  8
2
 62
134
  6
CONTINUOUS
 10
42.960706
 20
83.660964
 11
42.960706
 21
83.143326
  0
LINE
  8
2
 62
134
  6
CONTINUOUS
 10
42.236262
 20
83.402145
 11
42.719225
 21
83.531554
  0
LINE
  8
2
 62
134
  6
CONTINUOUS
 10
42.236262
 20
83.402145
 11
42.719225
 21
83.272735
  0
LINE
  8
2
 62
134
  6
CONTINUOUS
 10
42.719225
 20
83.531554
 11
42.719225
 21
83.272735
  0
TEXT
  8
2
 62
134
  6
CONTINUOUS
 10
46.743039
 20
83.402145
 40
2.000000
 41
0.500000
  1
12
  7
KANJI
 50
0.000000
 51
0.000000
  0
ENDBLK
  0
BLOCK
  8
2
 62
134
  6
CONTINUOUS
  2
*D3
 70
    65
 10
0.0
 20
0.0
  0
LINE
  8
2
 62
134
  6
CONTINUOUS
 10
58.439800
 20
92.669914
 11
58.439800
 21
100.669914
  0
LINE
  8
2
 62
134
  6
CONTINUOUS
 10
58.939800
 20
92.669914
 11
54.194780
 21
92.669914
  0
LINE
  8
2
 62
134
  6
CONTINUOUS
 10
58.939800
 20
100.669914
 11
54.194780
 21
100.669914
  0
LINE
  8
2
 62
134
  6
CONTINUOUS
 10
58.439800
 20
92.669914
 11
58.180981
 21
93.635840
  0
LINE
  8
2
 62
134
  6
CONTINUOUS
 10
58.439800
 20
92.669914
 11
58.698619
 21
93.635840
  0
LINE
  8
2
 62
134
  6
CONTINUOUS
 10
58.180981
 20
93.635840
 11
58.698619
 21
93.635840
  0
LINE
  8
2
 62
134
  6
CONTINUOUS
 10
58.439800
 20
92.911396
 11
58.310391
 21
93.394359
  0
LINE
  8
2
 62
134
  6
CONTINUOUS
 10
58.439800
 20
92.911396
 11
58.569210
 21
93.394359
  0
LINE
  8
2
 62
134
  6
CONTINUOUS
 10
58.310391
 20
93.394359
 11
58.569210
 21
93.394359
  0
LINE
  8
2
 62
134
  6
CONTINUOUS
 10
58.439800
 20
100.669914
 11
58.698619
 21
99.703989
  0
LINE
  8
2
 62
134
  6
CONTINUOUS
 10
58.439800
 20
100.669914
 11
58.180981
 21
99.703989
  0
LINE
  8
2
 62
134
  6
CONTINUOUS
 10
58.698619
 20
99.703989
 11
58.180981
 21
99.703989
  0
LINE
  8
2
 62
134
  6
CONTINUOUS
 10
58.439800
 20
100.428433
 11
58.569210
 21
99.945470
  0
LINE
  8
2
 62
134
  6
CONTINUOUS
 10
58.439800
 20
100.428433
 11
58.310391
 21
99.945470
  0
LINE
  8
2
 62
134
  6
CONTINUOUS
 10
58.569210
 20
99.945470
 11
58.310391
 21
99.945470
  0
TEXT
  8
2
 62
134
  6
CONTINUOUS
 10
58.439800
 20
93.169914
 40
2.000000
 41
0.500000
  1
M8P0.75
  7
KANJI
 50
90.000000
 51
0.000000
  0
ENDBLK
  0
BLOCK
  8
2
 62
134
  6
CONTINUOUS
  2
*D4
 70
    65
 10
0.0
 20
0.0
  0
LINE
  8
2
 62
134
  6
CONTINUOUS
 10
53.994780
 20
87.130878
 11
48.994780
 21
87.130878
  0
LINE
  8
2
 62
134
  6
CONTINUOUS
 10
53.994780
 20
86.630878
 11
53.994780
 21
92.469914
  0
LINE
  8
2
 62
134
  6
CONTINUOUS
 10
48.994780
 20
86.630878
 11
48.994780
 21
92.169914
  0
LINE
  8
2
 62
134
  6
CONTINUOUS
 10
53.994780
 20
87.130878
 11
53.028854
 21
86.872059
  0
LINE
  8
2
 62
134
  6
CONTINUOUS
 10
53.994780
 20
87.130878
 11
53.028854
 21
87.389697
  0
LINE
  8
2
 62
134
  6
CONTINUOUS
 10
53.028854
 20
86.872059
 11
53.028854
 21
87.389697
  0
LINE
  8
2
 62
134
  6
CONTINUOUS
 10
53.753299
 20
87.130878
 11
53.270336
 21
87.001469
  0
LINE
  8
2
 62
134
  6
CONTINUOUS
 10
53.753299
 20
87.130878
 11
53.270336
 21
87.260288
  0
LINE
  8
2
 62
134
  6
CONTINUOUS
 10
53.270336
 20
87.001469
 11
53.270336
 21
87.260288
  0
LINE
  8
2
 62
134
  6
CONTINUOUS
 10
48.994780
 20
87.130878
 11
49.960706
 21
87.389697
  0
LINE
  8
2
 62
134
  6
CONTINUOUS
 10
48.994780
 20
87.130878
 11
49.960706
 21
86.872059
  0
LINE
  8
2
 62
134
  6
CONTINUOUS
 10
49.960706
 20
87.389697
 11
49.960706
 21
86.872059
  0
LINE
  8
2
 62
134
  6
CONTINUOUS
 10
49.236262
 20
87.130878
 11
49.719225
 21
87.260288
  0
LINE
  8
2
 62
134
  6
CONTINUOUS
 10
49.236262
 20
87.130878
 11
49.719225
 21
87.001469
  0
LINE
  8
2
 62
134
  6
CONTINUOUS
 10
49.719225
 20
87.260288
 11
49.719225
 21
87.001469
  0
TEXT
  8
2
 62
134
  6
CONTINUOUS
 10
51.163103
 20
87.130878
 40
2.000000
 41
0.500000
  1
5
  7
KANJI
 50
0.000000
 51
0.000000
  0
ENDBLK
  0
ENDSEC
  0
SECTION
  2
ENTITIES
  0
TEXT
  8
5
 62
94
  6
CONTINUOUS
 10
62.215971
 20
12.429830
 40
0.875000
 41
4.000000
  1
製図
  7
KANJI
 50
-90.000000
 51
0.000000
  0
TEXT
  8
5
 62
94
  6
CONTINUOUS
 10
72.132362
 20
12.347876
 40
0.875000
 41
4.000000
  1
図番
  7
KANJI
 50
-90.000000
 51
0.000000
  0
TEXT
  8
5
 62
94
  6
CONTINUOUS
 10
72.132362
 20
18.986121
 40
0.875000
 41
4.000000
  1
図　名
  7
KANJI
 50
-90.000000
 51
0.000000
  0
TEXT
  8
5
 62
94
  6
CONTINUOUS
 10
39.678720
 20
16.281651
 40
0.875000
 41
4.000000
  1
日付
  7
KANJI
 50
-90.000000
 51
0.000000
  0
TEXT
  8
5
 62
94
  6
CONTINUOUS
 10
57.216799
 20
16.363605
 40
0.875000
 41
4.000000
  1
図法
  7
KANJI
 50
-90.000000
 51
0.000000
  0
TEXT
  8
5
 62
94
  6
CONTINUOUS
 10
57.134846
 20
20.379333
 40
0.875000
 41
4.000000
  1
尺度
  7
KANJI
 50
-90.000000
 51
0.000000
  0
TEXT
  8
5
 62
94
  6
CONTINUOUS
 10
39.678720
 20
20.297379
 40
0.875000
 41
4.000000
  1
公差
  7
KANJI
 50
-90.000000
 51
0.000000
  0
TEXT
  8
5
 62
94
  6
CONTINUOUS
 10
39.678720
 20
12.347876
 40
0.875000
 41
4.000000
  1
承認
  7
KANJI
 50
-90.000000
 51
0.000000
  0
TEXT
  8
5
 62
94
  6
CONTINUOUS
 10
52.217627
 20
12.347876
 40
0.875000
 41
4.000000
  1
設計
  7
KANJI
 50
-90.000000
 51
0.000000
  0
TEXT
  8
5
 62
94
  6
CONTINUOUS
 10
48.939481
 20
5.381816
 40
2.250000
 41
1.888889
  1
ジャパンセンサー株式会社
  7
KANJI
 50
0.000000
 51
0.000000
  0
LINE
  8
5
 62
94
  6
CONTINUOUS
 10
39.234597
 20
20.604085
 11
99.234597
 21
20.604085
  0
LINE
  8
5
 62
94
  6
CONTINUOUS
 10
39.234597
 20
4.604085
 11
39.234597
 21
20.604085
  0
LINE
  8
5
 62
94
  6
CONTINUOUS
 10
99.234597
 20
8.604085
 11
39.234597
 21
8.604085
  0
LINE
  8
5
 62
94
  6
CONTINUOUS
 10
71.734597
 20
20.604085
 11
71.734597
 21
8.604085
  0
LINE
  8
5
 62
94
  6
CONTINUOUS
 10
99.234597
 20
12.604085
 11
39.234597
 21
12.604085
  0
LINE
  8
5
 62
94
  6
CONTINUOUS
 10
74.234597
 20
8.604085
 11
74.234597
 21
20.604085
  0
LINE
  8
5
 62
94
  6
CONTINUOUS
 10
59.234597
 20
20.604085
 11
59.234597
 21
12.604085
  0
LINE
  8
5
 62
94
  6
CONTINUOUS
 10
41.734597
 20
8.604085
 11
41.734597
 21
20.604085
  0
LINE
  8
5
 62
94
  6
CONTINUOUS
 10
39.234597
 20
16.604085
 11
71.734597
 21
16.604085
  0
LINE
  8
5
 62
94
  6
CONTINUOUS
 10
56.734597
 20
20.604085
 11
56.734597
 21
12.604085
  0
LINE
  8
5
 62
94
  6
CONTINUOUS
 10
51.734597
 20
8.604085
 11
51.734597
 21
12.604085
  0
LINE
  8
5
 62
94
  6
CONTINUOUS
 10
61.734597
 20
8.604085
 11
61.734597
 21
12.604085
  0
LINE
  8
5
 62
94
  6
CONTINUOUS
 10
54.234597
 20
12.604085
 11
54.234597
 21
8.604085
  0
LINE
  8
5
 62
94
  6
CONTINUOUS
 10
64.234597
 20
12.604085
 11
64.234597
 21
8.604085
  0
TEXT
  8
5
 62
94
  6
CONTINUOUS
 10
61.232528
 20
13.249366
 40
2.000000
 41
1.000000
  1
三角法
  7
KANJI
 50
0.000000
 51
0.000000
  0
LINE
  8
5
 62
94
  6
CONTINUOUS
 10
75.556448
 20
16.589321
 11
97.626822
 21
16.589321
  0
TEXT
  8
5
 62
94
  6
CONTINUOUS
 10
55.824656
 20
9.573573
 40
2.000000
 41
1.000000
  1
須藤
  7
KANJI
 50
0.000000
 51
0.000000
  0
TEXT
  8
5
 62
94
  6
CONTINUOUS
 10
62.548081
 20
17.466289
 40
2.000000
 41
1.000000
  1
２／１
  7
KANJI
 50
0.000000
 51
0.000000
  0
TEXT
  8
5
 62
94
  6
CONTINUOUS
 10
65.824656
 20
9.573573
 40
2.000000
 41
1.000000
  1
須藤
  7
KANJI
 50
0.000000
 51
0.000000
  0
LINE
  8
5
 62
94
  6
CONTINUOUS
 10
6.734597
 20
142.104085
 11
6.734597
 21
4.604085
  0
LINE
  8
5
 62
94
  6
CONTINUOUS
 10
6.734597
 20
4.604085
 11
99.234597
 21
4.604085
  0
LINE
  8
5
 62
94
  6
CONTINUOUS
 10
99.234597
 20
4.604085
 11
99.234597
 21
142.104085
  0
LINE
  8
5
 62
94
  6
CONTINUOUS
 10
99.234597
 20
142.104085
 11
6.734597
 21
142.104085
  0
TEXT
  8
5
 62
94
  6
CONTINUOUS
 10
44.277904
 20
13.519931
 40
2.000000
 41
0.500000
  1
2013/04/20
  7
KANJI
 50
0.000000
 51
0.000000
  0
TEXT
  8
5
 62
94
  6
CONTINUOUS
 10
75.695594
 20
13.530056
 40
2.000000
 41
1.000000
  1
φ6窓材 外形図
  7
KANJI
 50
0.000000
 51
0.000000
  0
LINE
  8
1
 62
7
  6
CONTINUOUS
 10
53.994780
 20
92.969914
 11
53.994780
 21
100.369914
  0
LINE
  8
1
 62
7
  6
CONTINUOUS
 10
41.994780
 20
91.669914
 11
41.994780
 21
101.669914
  0
LINE
  8
1
 62
7
  6
CONTINUOUS
 10
53.694780
 20
92.669914
 11
53.994780
 21
92.969914
  0
LINE
  8
1
 62
7
  6
CONTINUOUS
 10
49.994780
 20
92.669914
 11
53.694780
 21
92.669914
  0
LINE
  8
1
 62
7
  6
CONTINUOUS
 10
41.994780
 20
91.669914
 11
42.494780
 21
91.169914
  0
LINE
  8
1
 62
7
  6
CONTINUOUS
 10
49.994780
 20
93.075914
 11
48.994780
 21
93.075914
  0
LINE
  8
1
 62
7
  6
CONTINUOUS
 10
49.994780
 20
92.669914
 11
49.994780
 21
93.075914
  0
LINE
  8
1
 62
7
  6
CONTINUOUS
 10
53.994780
 20
93.075914
 11
49.994780
 21
93.075914
  0
LINE
  8
1
 62
7
  6
CONTINUOUS
 10
53.694780
 20
100.669914
 11
53.994780
 21
100.369914
  0
LINE
  8
1
 62
7
  6
CONTINUOUS
 10
49.994780
 20
100.669914
 11
53.694780
 21
100.669914
  0
LINE
  8
1
 62
7
  6
CONTINUOUS
 10
41.994780
 20
101.669914
 11
42.494780
 21
102.169914
  0
LINE
  8
1
 62
7
  6
CONTINUOUS
 10
49.994780
 20
100.263914
 11
48.994780
 21
100.263914
  0
LINE
  8
1
 62
7
  6
CONTINUOUS
 10
53.994780
 20
100.263914
 11
49.994780
 21
100.263914
  0
LINE
  8
1
 62
7
  6
DASHDOT
 10
39.753141
 20
96.669914
 11
55.757300
 21
96.669914
  0
LINE
  8
1
 62
7
  6
DOT
 10
45.493546
 20
92.169924
 11
46.256182
 21
92.619914
  0
LINE
  8
1
 62
7
  6
DOT
 10
45.493546
 20
101.169905
 11
46.256182
 21
100.728888
  0
LINE
  8
1
 62
7
  6
DOT
 10
47.194780
 20
92.619914
 11
41.994780
 21
92.619914
  0
LINE
  8
1
 62
7
  6
DOT
 10
47.194780
 20
93.669916
 11
47.194780
 21
92.619914
  0
LINE
  8
1
 62
7
  6
DOT
 10
47.194780
 20
100.719914
 11
41.994780
 21
100.719914
  0
LINE
  8
1
 62
7
  6
DOT
 10
47.194780
 20
99.669913
 11
47.194780
 21
100.719914
  0
LINE
  8
1
 62
7
  6
DOT
 10
46.494780
 20
93.669916
 11
46.494780
 21
99.669913
  0
LINE
  8
1
 62
7
  6
DOT
 10
45.493546
 20
101.169905
 11
41.994780
 21
101.169905
  0
LINE
  8
1
 62
7
  6
DOT
 10
53.994780
 20
99.469914
 11
46.494780
 21
99.469912
  0
LINE
  8
1
 62
7
  6
DOT
 10
45.493546
 20
92.169924
 11
41.994780
 21
92.169924
  0
LINE
  8
1
 62
7
  6
DOT
 10
53.994780
 20
93.869914
 11
46.494780
 21
93.869916
  0
LINE
  8
1
 62
7
  6
DOT
 10
47.194780
 20
99.669913
 11
46.494780
 21
99.669913
  0
LINE
  8
1
 62
7
  6
DOT
 10
47.194780
 20
93.669916
 11
46.494780
 21
93.669916
  0
LINE
  8
1
 62
7
  6
CONTINUOUS
 10
49.994780
 20
100.669914
 11
49.994780
 21
93.075914
  0
LINE
  8
1
 62
7
  6
CONTINUOUS
 10
42.494780
 20
102.169914
 11
42.494780
 21
91.169914
  0
LINE
  8
1
 62
7
  6
CONTINUOUS
 10
53.694780
 20
100.669914
 11
53.694780
 21
92.669914
  0
LINE
  8
1
 62
7
  6
DOT
 10
46.494780
 20
100.669914
 11
45.493546
 21
100.669914
  0
LINE
  8
1
 62
7
  6
DOT
 10
46.494780
 20
92.669914
 11
45.493546
 21
92.669914
  0
LINE
  8
1
 62
7
  6
DOT
 10
46.494780
 20
92.669914
 11
46.494780
 21
100.669914
  0
LINE
  8
1
 62
7
  6
DOT
 10
45.493546
 20
100.669914
 11
45.493546
 21
92.669914
  0
LINE
  8
1
 62
7
  6
DOT
 10
45.493546
 20
92.169924
 11
41.994780
 21
92.169924
  0
LINE
  8
2
 62
134
  6
CONTINUOUS
 10
45.927155
 20
97.144687
 11
36.010858
 21
100.955316
  0
LINE
  8
2
 62
134
  6
CONTINUOUS
 10
36.010858
 20
100.955316
 11
31.456004
 21
100.955316
  0
TEXT
  8
2
 62
134
  6
CONTINUOUS
 10
31.456004
 20
100.998619
 40
2.000000
 41
1.000000
  1
窓材
  7
KANJI
 50
0.000000
 51
0.000000
  0
LINE
  8
2
 62
134
  6
CONTINUOUS
 10
45.927155
 20
97.144687
 11
44.932671
 21
97.249575
  0
LINE
  8
2
 62
134
  6
CONTINUOUS
 10
45.927155
 20
97.144687
 11
45.118351
 21
97.732765
  0
LINE
  8
2
 62
134
  6
CONTINUOUS
 10
44.932671
 20
97.249575
 11
45.118351
 21
97.732765
  0
LINE
  8
2
 62
134
  6
CONTINUOUS
 10
45.701744
 20
97.231308
 11
45.204502
 21
97.283752
  0
LINE
  8
2
 62
134
  6
CONTINUOUS
 10
45.701744
 20
97.231308
 11
45.297342
 21
97.525347
  0
LINE
  8
2
 62
134
  6
CONTINUOUS
 10
45.204502
 20
97.283752
 11
45.297342
 21
97.525347
  0
DIMENSION
  8
2
 62
134
  6
CONTINUOUS
  2
*D1
 10
37.958420
 20
91.169914
 11
37.958420
 21
96.669914
 70
     0
  1
φ11
 13
41.994780
 23
91.169914
 14
41.994780
 24
102.169914
 50
90.000000
  0
DIMENSION
  8
2
 62
134
  6
CONTINUOUS
  2
*D2
 10
53.994780
 20
83.402145
 11
47.743039
 21
83.402145
 70
     0
  1
12
 13
53.994780
 23
92.469914
 14
41.994780
 24
91.169914
 50
180.000000
  0
DIMENSION
  8
2
 62
134
  6
CONTINUOUS
  2
*D3
 10
58.439800
 20
92.669914
 11
58.439800
 21
96.669914
 70
     0
  1
M8P0.75
 13
54.194780
 23
92.669914
 14
54.194780
 24
100.669914
 50
90.000000
  0
TEXT
  8
5
 62
94
  6
CONTINUOUS
 10
76.811453
 20
17.600784
 40
2.000000
 41
1.000000
  1
ＴＭＤＸ－０６Ｓ
  7
KANJI
 50
0.000000
 51
0.000000
  0
TEXT
  8
5
 62
94
  6
CONTINUOUS
 10
74.797591
 20
9.573573
 40
2.000000
 41
1.000000
  1
００５－０６５－Ａ１１２
  7
KANJI
 50
0.000000
 51
0.000000
  0
LINE
  8
1
 62
7
  6
CONTINUOUS
 10
48.994780
 20
92.669914
 11
48.994780
 21
91.169915
  0
LINE
  8
1
 62
7
  6
CONTINUOUS
 10
48.994780
 20
91.169914
 11
42.494780
 21
91.169914
  0
LINE
  8
1
 62
7
  6
CONTINUOUS
 10
48.994780
 20
102.169914
 11
42.494780
 21
102.169914
  0
LINE
  8
1
 62
7
  6
CONTINUOUS
 10
48.994780
 20
92.669914
 11
48.994780
 21
102.169914
  0
LINE
  8
1
 62
7
  6
CONTINUOUS
 10
42.494780
 20
97.624979
 11
48.994780
 21
97.624979
  0
LINE
  8
1
 62
7
  6
CONTINUOUS
 10
42.494780
 20
98.551025
 11
48.994780
 21
98.551025
  0
LINE
  8
1
 62
7
  6
CONTINUOUS
 10
42.494780
 20
99.419914
 11
48.994780
 21
99.419914
  0
LINE
  8
1
 62
7
  6
CONTINUOUS
 10
42.494780
 20
100.205246
 11
48.994780
 21
100.205246
  0
LINE
  8
1
 62
7
  6
CONTINUOUS
 10
48.994780
 20
100.883159
 11
42.494780
 21
100.883159
  0
LINE
  8
1
 62
7
  6
CONTINUOUS
 10
48.994780
 20
101.433054
 11
42.494780
 21
101.433054
  0
LINE
  8
1
 62
7
  6
CONTINUOUS
 10
48.994780
 20
101.838224
 11
42.494780
 21
101.838224
  0
LINE
  8
1
 62
7
  6
CONTINUOUS
 10
42.494780
 20
102.086357
 11
48.994780
 21
102.086357
  0
LINE
  8
1
 62
7
  6
CONTINUOUS
 10
42.494780
 20
95.714849
 11
48.994780
 21
95.714849
  0
LINE
  8
1
 62
7
  6
CONTINUOUS
 10
42.494780
 20
94.788804
 11
48.994780
 21
94.788804
  0
LINE
  8
1
 62
7
  6
CONTINUOUS
 10
42.494780
 20
93.919915
 11
48.994780
 21
93.919915
  0
LINE
  8
1
 62
7
  6
CONTINUOUS
 10
42.494780
 20
93.134583
 11
48.994780
 21
93.134583
  0
LINE
  8
1
 62
7
  6
CONTINUOUS
 10
48.994780
 20
92.456670
 11
42.494780
 21
92.456670
  0
LINE
  8
1
 62
7
  6
CONTINUOUS
 10
48.994780
 20
91.906774
 11
42.494780
 21
91.906774
  0
LINE
  8
1
 62
7
  6
CONTINUOUS
 10
48.994780
 20
91.501605
 11
42.494780
 21
91.501605
  0
LINE
  8
1
 62
7
  6
CONTINUOUS
 10
42.494780
 20
91.253472
 11
48.994780
 21
91.253472
  0
LINE
  8
1
 62
7
  6
CONTINUOUS
 10
42.494780
 20
96.669914
 11
48.994780
 21
96.669914
  0
DIMENSION
  8
2
 62
134
  6
CONTINUOUS
  2
*D4
 10
53.994780
 20
87.130878
 11
51.663103
 21
87.130878
 70
     0
  1
5
 13
53.994780
 23
92.469914
 14
48.994780
 24
92.169914
 50
180.000000
  0
ENDSEC
  0
EOF
