  0
SECTION
  2
HEADER
  9
$ACADVER
  1
AC1009
  9
$INSBASE
 10
0.000000
 20
0.000000
  9
$EXTMIN
 10
0.000000
 20
0.000000
  9
$EXTMAX
 10
105.000000
 20
148.500000
  9
$LIMMIN
 10
0.000000
 20
0.000000
  9
$LIMMAX
 10
105.000000
 20
148.500000
  9
$VIEWCTR
 10
52.500000
 20
74.250000
  9
$VIEWSIZE
 40
148.500000
  9
$PEXTMIN
 10
0.000000
 20
0.000000
 30
0.000000
  9
$PEXTMAX
 10
210.000000
 20
297.000000
 30
0.000000
  9
$SNAPMODE
 70
     0
  9
$SNAPUNIT
 10
1.000000
 20
1.000000
  9
$SNAPBASE
 10
0.000000
 20
0.000000
  9
$SNAPANG
 50
0.000000
  9
$SNAPISOPAIR
 70
     0
  9
$SNAPSTYLE
 70
     0
  9
$GRIDMODE
 70
     0
  9
$GRIDUNIT
 10
0.000000
 20
0.000000
  9
$ORTHOMODE
 70
     0
  9
$REGENMODE
 70
     1
  9
$FILLMODE
 70
     1
  9
$QTEXTMODE
 70
     0
  9
$DRAGMODE
 70
     2
  9
$LTSCALE
 40
0.125000
  9
$OSMODE
 70
     0
  9
$ATTMODE
 70
     1
  9
$TEXTSIZE
 40
2.000000
  9
$TRACEWID
 40
0.050000
  9
$TEXTSTYLE
  7
STANDARD
  9
$CLAYER
  8
0
  9
$CELTYPE
  6
BYLAYER
  9
$CECOLOR
 62
   256
  9
$DIMSCALE
 40
1.000000
  9
$DIMASZ
 40
1.000000
  9
$DIMEXO
 40
0.000000
  9
$DIMDLI
 40
0.500000
  9
$DIMRND
 40
0.000000
  9
$DIMDLE
 40
0.000000
  9
$DIMEXE
 40
0.000000
  9
$DIMTP
 40
0.000000
  9
$DIMTM
 40
0.000000
  9
$DIMTXT
 40
4.000000
  9
$DIMCEN
 40
0.000000
  9
$DIMTSZ
 40
0.000000
  9
$DIMTOL
 70
     0
  9
$DIMLIM
 70
     0
  9
$DIMTIH
 70
     1
  9
$DIMTOH
 70
     1
  9
$DIMSE1
 70
     0
  9
$DIMSE2
 70
     0
  9
$DIMTAD
 70
     0
  9
$DIMZIN
 70
     0
  9
$DIMBLK
  1

  9
$DIMASO
 70
     0
  9
$DIMSHO
 70
     0
  9
$DIMPOST
  1

  9
$DIMAPOST
  1

  9
$DIMALT
 70
     0
  9
$DIMALTD
 70
     0
  9
$DIMALTF
 40
25.400000
  9
$DIMLFAC
 40
1.000000
  9
$DIMTOFL
 70
     0
  9
$DIMTVP
 40
0.000000
  9
$DIMTIX
 70
     0
  9
$DIMSOXD
 70
     0
  9
$DIMSAH
 70
     0
  9
$DIMBLKL
  1

  9
$DIMBLKR
  1

  9
$LUNITS
 70
     2
  9
$LUPREC
 70
     2
  9
$AXISMODE
 70
     0
  9
$AXISUNIT
 10
1.000000
 20
1.000000
  9
$SKETCHINC
 40
0.000000
  9
$FILLETRAD
 40
0.000000
  9
$AUNITS
 70
     1
  9
$AUPREC
 70
     2
  9
$MENU
  1
ACAD
  9
$ELEVATION
 40
0.000000
  9
$THICKNESS
 40
0.000000
  9
$VIEWDIR
 10
0.000000
 20
0.000000
 30
1.000000
  9
$LIMCHECK
 70
     1
  9
$BLIPMODE
 70
     1
  9
$CHAMFERA
 40
0.000000
  9
$CHAMFERB
 40
0.000000
  9
$FASTZOOM
 70
     1
  9
$SKPOLY
 70
     0
  9
$TDCREATE
 40
0.000000
  9
$TDUPDATE
 40
0.000000
  9
$TDINDWG
 40
0.000000
  9
$TDUSRTIMER
 40
0.000000
  9
$USRTIMER
 70
     1
  9
$ANGBASE
 50
0.000000
  9
$ANGDIR
 70
     0
  9
$PDMODE
 70
     0
  9
$PDSIZE
 40
0.000000
  9
$PLINEWID
 40
0.000000
  9
$COORDS
 70
     2
  9
$USERI1
 70
     0
  9
$USERI2
 70
     0
  9
$USERI3
 70
     0
  9
$USERI4
 70
     0
  9
$USERI5
 70
     0
  9
$USERR1
 40
0.000000
  9
$USERR2
 40
0.000000
  9
$USERR3
 40
0.000000
  9
$USERR4
 40
0.000000
  9
$USERR5
 40
0.000000
  0
ENDSEC
  0
SECTION
  2
TABLES
  0
TABLE
  2
LTYPE
 70
     5
  0
LTYPE
  2
CONTINUOUS
 70
    64
  3
Solid line
 72
    65
 73
     0
 40
0.0
  0
LTYPE
  2
HIDDEN
 70
    64
  3
------------------------
 72
    65
 73
     2
 40
12.6
 49
8.4
 49
-4.2
  0
LTYPE
  2
DOT
 70
    64
  3
････････････････････････
 72
    65
 73
     2
 40
8.0
 49
6.0
 49
-2.0
  0
LTYPE
  2
DASHDOT
 70
    64
  3
--･--･--･--･--･--･--･--
 72
    65
 73
     4
 40
50.5
 49
30.0
 49
-9.0
 49
2.5
 49
-9.0
  0
LTYPE
  2
DIVIDE
 70
    64
  3
--･･--･･--･･--･･--･･--
 72
    65
 73
     6
 40
58.0
 49
30.0
 49
-9.0
 49
2.5
 49
-5.0
 49
2.5
 49
-9.0
  0
LTYPE
  2
ACAD_ISO06W100
 70
    64
  3
____ ... ____ ... ____
 72
    65
 73
     8
 40
37.5
 49
24.0
 49
-3.0
 49
0.5
 49
-3.0
 49
0.5
 49
-3.0
 49
0.5
 49
-3.0
  0
LTYPE
  2
ACAD_ISO14W100
 70
    64
  3
__ . . . __ . . . __ . . . 
 72
    65
 73
     8
 40
25.5
 49
12.0
 49
-3.0
 49
0.5
 49
-3.0
 49
0.5
 49
-3.0
 49
0.5
 49
-3.0
  0
ENDTAB
  0
TABLE
  2
LAYER
 70
3
  0
LAYER
  2
1
 70
64
 62
7
  6
CONTINUOUS
  0
LAYER
  2
2
 70
64
 62
134
  6
CONTINUOUS
  0
LAYER
  2
5
 70
64
 62
94
  6
CONTINUOUS
  0
ENDTAB
  0
TABLE
  2
STYLE
 70
     2
  0
STYLE
  2
STANDARD
 70
    64
 40
0.0
 41
1.0
 50
0.0
 71
     0
 42
0.2
  3
TXT
  4

  0
STYLE
  2
KANJI
 70
    64
 40
0.0
 41
1.0
 50
0.0
 71
     0
 42
0.2
  3
TXT
  4
BIGFONT
  0
ENDTAB
  0
TABLE
  2
VIEW
 70
     0
  0
ENDTAB
  0
ENDSEC
  0
SECTION
  2
BLOCKS
  0
BLOCK
  8
2
 62
134
  6
CONTINUOUS
  2
*D1
 70
    65
 10
0.0
 20
0.0
  0
LINE
  8
2
 62
134
  6
CONTINUOUS
 10
65.409635
 20
110.455242
 11
54.409635
 21
110.455242
  0
LINE
  8
2
 62
134
  6
CONTINUOUS
 10
65.409635
 20
110.955242
 11
65.409635
 21
106.904996
  0
LINE
  8
2
 62
134
  6
CONTINUOUS
 10
54.409635
 20
110.955242
 11
54.409635
 21
106.489030
  0
LINE
  8
2
 62
134
  6
CONTINUOUS
 10
65.409635
 20
110.455242
 11
64.443709
 21
110.196423
  0
LINE
  8
2
 62
134
  6
CONTINUOUS
 10
65.409635
 20
110.455242
 11
64.443709
 21
110.714061
  0
LINE
  8
2
 62
134
  6
CONTINUOUS
 10
64.443709
 20
110.196423
 11
64.443709
 21
110.714061
  0
LINE
  8
2
 62
134
  6
CONTINUOUS
 10
65.168153
 20
110.455242
 11
64.685190
 21
110.325833
  0
LINE
  8
2
 62
134
  6
CONTINUOUS
 10
65.168153
 20
110.455242
 11
64.685190
 21
110.584652
  0
LINE
  8
2
 62
134
  6
CONTINUOUS
 10
64.685190
 20
110.325833
 11
64.685190
 21
110.584652
  0
LINE
  8
2
 62
134
  6
CONTINUOUS
 10
54.409635
 20
110.455242
 11
55.375560
 21
110.714061
  0
LINE
  8
2
 62
134
  6
CONTINUOUS
 10
54.409635
 20
110.455242
 11
55.375560
 21
110.196423
  0
LINE
  8
2
 62
134
  6
CONTINUOUS
 10
55.375560
 20
110.714061
 11
55.375560
 21
110.196423
  0
LINE
  8
2
 62
134
  6
CONTINUOUS
 10
54.651116
 20
110.455242
 11
55.134079
 21
110.584652
  0
LINE
  8
2
 62
134
  6
CONTINUOUS
 10
54.651116
 20
110.455242
 11
55.134079
 21
110.325833
  0
LINE
  8
2
 62
134
  6
CONTINUOUS
 10
55.134079
 20
110.584652
 11
55.134079
 21
110.325833
  0
TEXT
  8
2
 62
134
  6
CONTINUOUS
 10
58.122836
 20
110.455242
 40
2.000000
 41
0.500000
  1
11
  7
KANJI
 50
0.000000
 51
0.000000
  0
ENDBLK
  0
BLOCK
  8
2
 62
134
  6
CONTINUOUS
  2
*D2
 70
    65
 10
0.0
 20
0.0
  0
LINE
  8
2
 62
134
  6
CONTINUOUS
 10
69.405880
 20
106.404996
 11
69.405880
 21
101.404996
  0
LINE
  8
2
 62
134
  6
CONTINUOUS
 10
69.905880
 20
106.404996
 11
65.909635
 21
106.404996
  0
LINE
  8
2
 62
134
  6
CONTINUOUS
 10
69.905880
 20
101.404996
 11
65.909635
 21
101.404996
  0
LINE
  8
2
 62
134
  6
CONTINUOUS
 10
69.405880
 20
106.404996
 11
69.664699
 21
105.439070
  0
LINE
  8
2
 62
134
  6
CONTINUOUS
 10
69.405880
 20
106.404996
 11
69.147061
 21
105.439070
  0
LINE
  8
2
 62
134
  6
CONTINUOUS
 10
69.664699
 20
105.439070
 11
69.147061
 21
105.439070
  0
LINE
  8
2
 62
134
  6
CONTINUOUS
 10
69.405880
 20
106.163514
 11
69.535290
 21
105.680551
  0
LINE
  8
2
 62
134
  6
CONTINUOUS
 10
69.405880
 20
106.163514
 11
69.276471
 21
105.680551
  0
LINE
  8
2
 62
134
  6
CONTINUOUS
 10
69.535290
 20
105.680551
 11
69.276471
 21
105.680551
  0
LINE
  8
2
 62
134
  6
CONTINUOUS
 10
69.405880
 20
101.404996
 11
69.147061
 21
102.370922
  0
LINE
  8
2
 62
134
  6
CONTINUOUS
 10
69.405880
 20
101.404996
 11
69.664699
 21
102.370922
  0
LINE
  8
2
 62
134
  6
CONTINUOUS
 10
69.147061
 20
102.370922
 11
69.664699
 21
102.370922
  0
LINE
  8
2
 62
134
  6
CONTINUOUS
 10
69.405880
 20
101.646477
 11
69.276471
 21
102.129440
  0
LINE
  8
2
 62
134
  6
CONTINUOUS
 10
69.405880
 20
101.646477
 11
69.535290
 21
102.129440
  0
LINE
  8
2
 62
134
  6
CONTINUOUS
 10
69.276471
 20
102.129440
 11
69.535290
 21
102.129440
  0
TEXT
  8
2
 62
134
  6
CONTINUOUS
 10
69.405880
 20
101.101910
 40
2.000000
 41
1.000000
  1
φ5
  7
KANJI
 50
90.000000
 51
0.000000
  0
ENDBLK
  0
ENDSEC
  0
SECTION
  2
ENTITIES
  0
TEXT
  8
5
 62
94
  6
CONTINUOUS
 10
62.215971
 20
12.429830
 40
0.875000
 41
4.000000
  1
製図
  7
KANJI
 50
-90.000000
 51
0.000000
  0
TEXT
  8
5
 62
94
  6
CONTINUOUS
 10
72.132362
 20
12.347876
 40
0.875000
 41
4.000000
  1
図番
  7
KANJI
 50
-90.000000
 51
0.000000
  0
TEXT
  8
5
 62
94
  6
CONTINUOUS
 10
72.132362
 20
18.986121
 40
0.875000
 41
4.000000
  1
図　名
  7
KANJI
 50
-90.000000
 51
0.000000
  0
TEXT
  8
5
 62
94
  6
CONTINUOUS
 10
39.678720
 20
16.281651
 40
0.875000
 41
4.000000
  1
日付
  7
KANJI
 50
-90.000000
 51
0.000000
  0
TEXT
  8
5
 62
94
  6
CONTINUOUS
 10
57.216799
 20
16.363605
 40
0.875000
 41
4.000000
  1
図法
  7
KANJI
 50
-90.000000
 51
0.000000
  0
TEXT
  8
5
 62
94
  6
CONTINUOUS
 10
57.134846
 20
20.379333
 40
0.875000
 41
4.000000
  1
尺度
  7
KANJI
 50
-90.000000
 51
0.000000
  0
TEXT
  8
5
 62
94
  6
CONTINUOUS
 10
39.678720
 20
20.297379
 40
0.875000
 41
4.000000
  1
公差
  7
KANJI
 50
-90.000000
 51
0.000000
  0
TEXT
  8
5
 62
94
  6
CONTINUOUS
 10
39.678720
 20
12.347876
 40
0.875000
 41
4.000000
  1
承認
  7
KANJI
 50
-90.000000
 51
0.000000
  0
TEXT
  8
5
 62
94
  6
CONTINUOUS
 10
52.217627
 20
12.347876
 40
0.875000
 41
4.000000
  1
設計
  7
KANJI
 50
-90.000000
 51
0.000000
  0
TEXT
  8
5
 62
94
  6
CONTINUOUS
 10
48.939481
 20
5.381816
 40
2.250000
 41
1.888889
  1
ジャパンセンサー株式会社
  7
KANJI
 50
0.000000
 51
0.000000
  0
LINE
  8
5
 62
94
  6
CONTINUOUS
 10
39.234597
 20
20.604085
 11
99.234597
 21
20.604085
  0
LINE
  8
5
 62
94
  6
CONTINUOUS
 10
39.234597
 20
4.604085
 11
39.234597
 21
20.604085
  0
LINE
  8
5
 62
94
  6
CONTINUOUS
 10
99.234597
 20
8.604085
 11
39.234597
 21
8.604085
  0
LINE
  8
5
 62
94
  6
CONTINUOUS
 10
71.734597
 20
20.604085
 11
71.734597
 21
8.604085
  0
LINE
  8
5
 62
94
  6
CONTINUOUS
 10
99.234597
 20
12.604085
 11
39.234597
 21
12.604085
  0
LINE
  8
5
 62
94
  6
CONTINUOUS
 10
74.234597
 20
8.604085
 11
74.234597
 21
20.604085
  0
LINE
  8
5
 62
94
  6
CONTINUOUS
 10
59.234597
 20
20.604085
 11
59.234597
 21
12.604085
  0
LINE
  8
5
 62
94
  6
CONTINUOUS
 10
41.734597
 20
8.604085
 11
41.734597
 21
20.604085
  0
LINE
  8
5
 62
94
  6
CONTINUOUS
 10
39.234597
 20
16.604085
 11
71.734597
 21
16.604085
  0
LINE
  8
5
 62
94
  6
CONTINUOUS
 10
56.734597
 20
20.604085
 11
56.734597
 21
12.604085
  0
LINE
  8
5
 62
94
  6
CONTINUOUS
 10
51.734597
 20
8.604085
 11
51.734597
 21
12.604085
  0
LINE
  8
5
 62
94
  6
CONTINUOUS
 10
61.734597
 20
8.604085
 11
61.734597
 21
12.604085
  0
LINE
  8
5
 62
94
  6
CONTINUOUS
 10
54.234597
 20
12.604085
 11
54.234597
 21
8.604085
  0
LINE
  8
5
 62
94
  6
CONTINUOUS
 10
64.234597
 20
12.604085
 11
64.234597
 21
8.604085
  0
TEXT
  8
5
 62
94
  6
CONTINUOUS
 10
61.232528
 20
13.249366
 40
2.000000
 41
1.000000
  1
三角法
  7
KANJI
 50
0.000000
 51
0.000000
  0
TEXT
  8
5
 62
94
  6
CONTINUOUS
 10
55.824656
 20
9.573573
 40
2.000000
 41
1.000000
  1
須藤
  7
KANJI
 50
0.000000
 51
0.000000
  0
TEXT
  8
5
 62
94
  6
CONTINUOUS
 10
62.548081
 20
17.466289
 40
2.000000
 41
1.000000
  1
２／１
  7
KANJI
 50
0.000000
 51
0.000000
  0
TEXT
  8
5
 62
94
  6
CONTINUOUS
 10
65.824656
 20
9.573573
 40
2.000000
 41
1.000000
  1
須藤
  7
KANJI
 50
0.000000
 51
0.000000
  0
LINE
  8
5
 62
94
  6
CONTINUOUS
 10
6.734597
 20
142.104085
 11
6.734597
 21
4.604085
  0
LINE
  8
5
 62
94
  6
CONTINUOUS
 10
6.734597
 20
4.604085
 11
99.234597
 21
4.604085
  0
LINE
  8
5
 62
94
  6
CONTINUOUS
 10
99.234597
 20
4.604085
 11
99.234597
 21
142.104085
  0
LINE
  8
5
 62
94
  6
CONTINUOUS
 10
99.234597
 20
142.104085
 11
6.734597
 21
142.104085
  0
LINE
  8
1
 62
7
  6
CONTINUOUS
 10
40.304221
 20
109.204996
 11
40.866459
 21
109.204996
  0
LINE
  8
1
 62
7
  6
CONTINUOUS
 10
40.866459
 20
105.804996
 11
40.304221
 21
105.804996
  0
LINE
  8
1
 62
7
  6
DASHDOT
 10
29.889989
 20
107.504996
 11
40.866459
 21
107.504996
  0
LINE
  8
1
 62
7
  6
CONTINUOUS
 10
40.866459
 20
109.204996
 11
40.304221
 21
109.204996
  0
LINE
  8
1
 62
7
  6
CONTINUOUS
 10
40.304221
 20
105.804996
 11
40.866459
 21
105.804996
  0
LINE
  8
1
 62
7
  6
CONTINUOUS
 10
51.937621
 20
105.504996
 11
51.937621
 21
109.504996
  0
LINE
  8
1
 62
7
  6
CONTINUOUS
 10
51.937621
 20
109.504996
 11
40.866459
 21
109.504996
  0
LINE
  8
1
 62
7
  6
CONTINUOUS
 10
40.866459
 20
109.504996
 11
40.866459
 21
105.504996
  0
LINE
  8
1
 62
7
  6
CONTINUOUS
 10
40.866459
 20
105.504996
 11
51.937621
 21
105.504996
  0
ARC
  8
1
 62
7
  6
CONTINUOUS
 10
37.673370
 20
100.060042
 40
5.000000
 50
103.087568
 51
116.235785
  0
LINE
  8
1
 62
7
  6
CONTINUOUS
 10
40.304221
 20
105.804996
 11
36.541170
 21
104.930167
  0
ARC
  8
1
 62
7
  6
CONTINUOUS
 10
34.004221
 20
107.504996
 40
3.300000
 50
63.717964
 51
-63.764215
  0
ARC
  8
1
 62
7
  6
CONTINUOUS
 10
37.679379
 20
114.946986
 40
5.000000
 50
-116.282036
 51
-103.064883
  0
LINE
  8
1
 62
7
  6
CONTINUOUS
 10
40.304221
 20
109.204996
 11
36.549107
 21
110.076412
  0
CIRCLE
  8
1
 62
7
  6
CONTINUOUS
 10
34.004221
 20
107.504996
 40
1.850000
  0
ARC
  8
1
 62
7
  6
CONTINUOUS
 10
37.673370
 20
114.949950
 40
5.000000
 50
-116.235785
 51
-103.087568
  0
LINE
  8
1
 62
7
  6
CONTINUOUS
 10
40.304221
 20
109.204996
 11
36.541170
 21
110.079825
  0
ARC
  8
1
 62
7
  6
CONTINUOUS
 10
34.004221
 20
107.504996
 40
3.300000
 50
63.764215
 51
-63.717964
  0
ARC
  8
1
 62
7
  6
CONTINUOUS
 10
37.679379
 20
100.063006
 40
5.000000
 50
103.064883
 51
116.282036
  0
LINE
  8
1
 62
7
  6
CONTINUOUS
 10
40.304221
 20
105.804996
 11
36.549107
 21
104.933579
  0
CIRCLE
  8
1
 62
7
  6
CONTINUOUS
 10
34.004221
 20
107.504996
 40
1.850000
  0
LINE
  8
1
 62
7
  6
DASHDOT
 10
29.889989
 20
107.504996
 11
52.604503
 21
107.504996
  0
LINE
  8
1
 62
7
  6
CONTINUOUS
 10
40.304221
 20
98.604996
 11
40.866459
 21
98.604996
  0
LINE
  8
1
 62
7
  6
CONTINUOUS
 10
40.866459
 20
102.004996
 11
40.304221
 21
102.004996
  0
LINE
  8
1
 62
7
  6
DASHDOT
 10
29.889989
 20
100.304996
 11
40.866459
 21
100.304996
  0
LINE
  8
1
 62
7
  6
CONTINUOUS
 10
40.866459
 20
98.604996
 11
40.304221
 21
98.604996
  0
LINE
  8
1
 62
7
  6
CONTINUOUS
 10
40.304221
 20
102.004996
 11
40.866459
 21
102.004996
  0
LINE
  8
1
 62
7
  6
CONTINUOUS
 10
51.937621
 20
102.304996
 11
51.937621
 21
98.304996
  0
LINE
  8
1
 62
7
  6
CONTINUOUS
 10
51.937621
 20
98.304996
 11
40.866459
 21
98.304996
  0
LINE
  8
1
 62
7
  6
CONTINUOUS
 10
40.866459
 20
98.304996
 11
40.866459
 21
102.304996
  0
LINE
  8
1
 62
7
  6
CONTINUOUS
 10
40.866459
 20
102.304996
 11
51.937621
 21
102.304996
  0
ARC
  8
1
 62
7
  6
CONTINUOUS
 10
37.673370
 20
107.749950
 40
5.000000
 50
-116.235785
 51
-103.087568
  0
LINE
  8
1
 62
7
  6
CONTINUOUS
 10
40.304221
 20
102.004996
 11
36.541170
 21
102.879825
  0
ARC
  8
1
 62
7
  6
CONTINUOUS
 10
34.004221
 20
100.304996
 40
3.300000
 50
63.764215
 51
-63.717964
  0
ARC
  8
1
 62
7
  6
CONTINUOUS
 10
37.679379
 20
92.863006
 40
5.000000
 50
103.064883
 51
116.282036
  0
LINE
  8
1
 62
7
  6
CONTINUOUS
 10
40.304221
 20
98.604996
 11
36.549107
 21
97.733579
  0
CIRCLE
  8
1
 62
7
  6
CONTINUOUS
 10
34.004221
 20
100.304996
 40
1.850000
  0
ARC
  8
1
 62
7
  6
CONTINUOUS
 10
37.673370
 20
92.860042
 40
5.000000
 50
103.087568
 51
116.235785
  0
LINE
  8
1
 62
7
  6
CONTINUOUS
 10
40.304221
 20
98.604996
 11
36.541170
 21
97.730167
  0
ARC
  8
1
 62
7
  6
CONTINUOUS
 10
34.004221
 20
100.304996
 40
3.300000
 50
63.717964
 51
-63.764215
  0
ARC
  8
1
 62
7
  6
CONTINUOUS
 10
37.679379
 20
107.746986
 40
5.000000
 50
-116.282036
 51
-103.064883
  0
LINE
  8
1
 62
7
  6
CONTINUOUS
 10
40.304221
 20
102.004996
 11
36.549107
 21
102.876412
  0
CIRCLE
  8
1
 62
7
  6
CONTINUOUS
 10
34.004221
 20
100.304996
 40
1.850000
  0
LINE
  8
1
 62
7
  6
DASHDOT
 10
29.889989
 20
100.304996
 11
52.604503
 21
100.304996
  0
LINE
  8
1
 62
7
  6
DASHDOT
 10
34.004221
 20
111.312192
 11
34.004221
 21
96.497799
  0
LINE
  8
1
 62
7
  6
DASHDOT
 10
34.004221
 20
96.248929
 11
34.004221
 21
111.561063
  0
TEXT
  8
2
 62
134
  6
CONTINUOUS
 10
28.696180
 20
113.785884
 40
3.000000
 41
1.000000
  1
M3圧着端子
  7
KANJI
 50
0.000000
 51
0.000000
  0
TEXT
  8
5
 62
94
  6
CONTINUOUS
 10
44.277904
 20
13.519931
 40
2.000000
 41
0.500000
  1
2014/01/28
  7
KANJI
 50
0.000000
 51
0.000000
  0
TEXT
  8
5
 62
94
  6
CONTINUOUS
 10
75.566654
 20
13.207707
 40
2.000000
 41
1.000000
  1
外形図
  7
KANJI
 50
0.000000
 51
0.000000
  0
TEXT
  8
5
 62
94
  6
CONTINUOUS
 10
75.566654
 20
15.464153
 40
2.000000
 41
1.000000
  1
ｱﾅﾛｸﾞ出力用終端ｺﾝﾃﾞﾝｻ
  7
KANJI
 50
0.000000
 51
0.000000
  0
TEXT
  8
5
 62
94
  6
CONTINUOUS
 10
75.199705
 20
18.052073
 40
2.000000
 41
1.000000
  1
ＴＣ－１０５Ｔ
  7
KANJI
 50
0.000000
 51
0.000000
  0
LINE
  8
1
 62
7
  6
DASHDOT
 10
29.622676
 20
103.904996
 11
66.183453
 21
103.904996
  0
LINE
  8
1
 62
7
  6
CONTINUOUS
 10
65.409635
 20
106.404996
 11
65.409635
 21
101.404996
  0
LINE
  8
1
 62
7
  6
CONTINUOUS
 10
54.409635
 20
101.820961
 11
54.410016
 21
101.818972
  0
LINE
  8
1
 62
7
  6
CONTINUOUS
 10
54.410016
 20
101.818972
 11
54.411150
 21
101.813059
  0
LINE
  8
1
 62
7
  6
CONTINUOUS
 10
54.411150
 20
101.813059
 11
54.413010
 21
101.803389
  0
LINE
  8
1
 62
7
  6
CONTINUOUS
 10
54.413010
 20
101.803389
 11
54.415563
 21
101.790244
  0
LINE
  8
1
 62
7
  6
CONTINUOUS
 10
54.415563
 20
101.790244
 11
54.418779
 21
101.774024
  0
LINE
  8
1
 62
7
  6
CONTINUOUS
 10
54.418779
 20
101.774024
 11
54.422639
 21
101.755246
  0
LINE
  8
1
 62
7
  6
CONTINUOUS
 10
54.422639
 20
101.755246
 11
54.427143
 21
101.734534
  0
LINE
  8
1
 62
7
  6
CONTINUOUS
 10
54.427143
 20
101.734534
 11
54.432297
 21
101.712591
  0
LINE
  8
1
 62
7
  6
CONTINUOUS
 10
54.432297
 20
101.712591
 11
54.438103
 21
101.690168
  0
LINE
  8
1
 62
7
  6
CONTINUOUS
 10
54.438103
 20
101.690168
 11
54.444535
 21
101.668017
  0
LINE
  8
1
 62
7
  6
CONTINUOUS
 10
54.444535
 20
101.668017
 11
54.451514
 21
101.646846
  0
LINE
  8
1
 62
7
  6
CONTINUOUS
 10
54.451514
 20
101.646846
 11
54.458885
 21
101.627270
  0
LINE
  8
1
 62
7
  6
CONTINUOUS
 10
54.458885
 20
101.627270
 11
54.466410
 21
101.609784
  0
LINE
  8
1
 62
7
  6
CONTINUOUS
 10
54.466410
 20
101.609784
 11
54.473770
 21
101.594742
  0
LINE
  8
1
 62
7
  6
CONTINUOUS
 10
54.473770
 20
101.594742
 11
54.480582
 21
101.582362
  0
LINE
  8
1
 62
7
  6
CONTINUOUS
 10
54.480582
 20
101.582362
 11
54.486441
 21
101.572746
  0
LINE
  8
1
 62
7
  6
CONTINUOUS
 10
54.486441
 20
101.572746
 11
54.490957
 21
101.565912
  0
LINE
  8
1
 62
7
  6
CONTINUOUS
 10
54.490957
 20
101.565912
 11
54.493809
 21
101.561833
  0
LINE
  8
1
 62
7
  6
CONTINUOUS
 10
54.493809
 20
101.561833
 11
54.494785
 21
101.560478
  0
LINE
  8
1
 62
7
  6
CONTINUOUS
 10
54.494785
 20
101.560478
 11
54.495768
 21
101.559132
  0
LINE
  8
1
 62
7
  6
CONTINUOUS
 10
54.495768
 20
101.559132
 11
54.498739
 21
101.555181
  0
LINE
  8
1
 62
7
  6
CONTINUOUS
 10
54.498739
 20
101.555181
 11
54.503750
 21
101.548879
  0
LINE
  8
1
 62
7
  6
CONTINUOUS
 10
54.503750
 20
101.548879
 11
54.510854
 21
101.540619
  0
LINE
  8
1
 62
7
  6
CONTINUOUS
 10
54.510854
 20
101.540619
 11
54.520070
 21
101.530886
  0
LINE
  8
1
 62
7
  6
CONTINUOUS
 10
54.520070
 20
101.530886
 11
54.531338
 21
101.520218
  0
LINE
  8
1
 62
7
  6
CONTINUOUS
 10
54.531338
 20
101.520218
 11
54.544487
 21
101.509144
  0
LINE
  8
1
 62
7
  6
CONTINUOUS
 10
54.544487
 20
101.509144
 11
54.559218
 21
101.498153
  0
LINE
  8
1
 62
7
  6
CONTINUOUS
 10
54.559218
 20
101.498153
 11
54.575105
 21
101.487648
  0
LINE
  8
1
 62
7
  6
CONTINUOUS
 10
54.575105
 20
101.487648
 11
54.591623
 21
101.477941
  0
LINE
  8
1
 62
7
  6
CONTINUOUS
 10
54.591623
 20
101.477941
 11
54.608184
 21
101.469237
  0
LINE
  8
1
 62
7
  6
CONTINUOUS
 10
54.608184
 20
101.469237
 11
54.624189
 21
101.461651
  0
LINE
  8
1
 62
7
  6
CONTINUOUS
 10
54.624189
 20
101.461651
 11
54.639075
 21
101.455221
  0
LINE
  8
1
 62
7
  6
CONTINUOUS
 10
54.639075
 20
101.455221
 11
54.652354
 21
101.449928
  0
LINE
  8
1
 62
7
  6
CONTINUOUS
 10
54.652354
 20
101.449928
 11
54.663637
 21
101.445723
  0
LINE
  8
1
 62
7
  6
CONTINUOUS
 10
54.663637
 20
101.445723
 11
54.672641
 21
101.442541
  0
LINE
  8
1
 62
7
  6
CONTINUOUS
 10
54.672641
 20
101.442541
 11
54.679177
 21
101.440319
  0
LINE
  8
1
 62
7
  6
CONTINUOUS
 10
54.679177
 20
101.440319
 11
54.683136
 21
101.439008
  0
LINE
  8
1
 62
7
  6
CONTINUOUS
 10
54.683136
 20
101.439008
 11
54.684461
 21
101.438574
  0
LINE
  8
1
 62
7
  6
CONTINUOUS
 10
54.684461
 20
101.438574
 11
54.685782
 21
101.438145
  0
LINE
  8
1
 62
7
  6
CONTINUOUS
 10
54.685782
 20
101.438145
 11
54.689691
 21
101.436890
  0
LINE
  8
1
 62
7
  6
CONTINUOUS
 10
54.689691
 20
101.436890
 11
54.696029
 21
101.434908
  0
LINE
  8
1
 62
7
  6
CONTINUOUS
 10
54.696029
 20
101.434908
 11
54.704559
 21
101.432347
  0
LINE
  8
1
 62
7
  6
CONTINUOUS
 10
54.704559
 20
101.432347
 11
54.714999
 21
101.429387
  0
LINE
  8
1
 62
7
  6
CONTINUOUS
 10
54.714999
 20
101.429387
 11
54.727054
 21
101.426219
  0
LINE
  8
1
 62
7
  6
CONTINUOUS
 10
54.727054
 20
101.426219
 11
54.740441
 21
101.423020
  0
LINE
  8
1
 62
7
  6
CONTINUOUS
 10
54.740441
 20
101.423020
 11
54.754904
 21
101.419943
  0
LINE
  8
1
 62
7
  6
CONTINUOUS
 10
54.754904
 20
101.419943
 11
54.770203
 21
101.417100
  0
LINE
  8
1
 62
7
  6
CONTINUOUS
 10
54.770203
 20
101.417100
 11
54.786093
 21
101.414561
  0
LINE
  8
1
 62
7
  6
CONTINUOUS
 10
54.786093
 20
101.414561
 11
54.802298
 21
101.412359
  0
LINE
  8
1
 62
7
  6
CONTINUOUS
 10
54.802298
 20
101.412359
 11
54.818475
 21
101.410494
  0
LINE
  8
1
 62
7
  6
CONTINUOUS
 10
54.818475
 20
101.410494
 11
54.834199
 21
101.408948
  0
LINE
  8
1
 62
7
  6
CONTINUOUS
 10
54.834199
 20
101.408948
 11
54.848959
 21
101.407692
  0
LINE
  8
1
 62
7
  6
CONTINUOUS
 10
54.848959
 20
101.407692
 11
54.862180
 21
101.406699
  0
LINE
  8
1
 62
7
  6
CONTINUOUS
 10
54.862180
 20
101.406699
 11
54.873266
 21
101.405946
  0
LINE
  8
1
 62
7
  6
CONTINUOUS
 10
54.873266
 20
101.405946
 11
54.881657
 21
101.405416
  0
LINE
  8
1
 62
7
  6
CONTINUOUS
 10
54.881657
 20
101.405416
 11
54.886895
 21
101.405101
  0
LINE
  8
1
 62
7
  6
CONTINUOUS
 10
54.886895
 20
101.405101
 11
54.888675
 21
101.404996
  0
LINE
  8
1
 62
7
  6
CONTINUOUS
 10
54.888675
 20
101.404996
 11
54.890466
 21
101.404892
  0
LINE
  8
1
 62
7
  6
CONTINUOUS
 10
54.890466
 20
101.404892
 11
54.895846
 21
101.404586
  0
LINE
  8
1
 62
7
  6
CONTINUOUS
 10
54.895846
 20
101.404586
 11
54.904823
 21
101.404100
  0
LINE
  8
1
 62
7
  6
CONTINUOUS
 10
54.904823
 20
101.404100
 11
54.917372
 21
101.403468
  0
LINE
  8
1
 62
7
  6
CONTINUOUS
 10
54.917372
 20
101.403468
 11
54.933378
 21
101.402739
  0
LINE
  8
1
 62
7
  6
CONTINUOUS
 10
54.933378
 20
101.402739
 11
54.952589
 21
101.401977
  0
LINE
  8
1
 62
7
  6
CONTINUOUS
 10
54.952589
 20
101.401977
 11
54.974576
 21
101.401255
  0
LINE
  8
1
 62
7
  6
CONTINUOUS
 10
54.974576
 20
101.401255
 11
54.998728
 21
101.400649
  0
LINE
  8
1
 62
7
  6
CONTINUOUS
 10
54.998728
 20
101.400649
 11
55.024263
 21
101.400230
  0
LINE
  8
1
 62
7
  6
CONTINUOUS
 10
55.024263
 20
101.400230
 11
55.050289
 21
101.400056
  0
LINE
  8
1
 62
7
  6
CONTINUOUS
 10
55.050289
 20
101.400056
 11
55.075870
 21
101.400160
  0
LINE
  8
1
 62
7
  6
CONTINUOUS
 10
55.075870
 20
101.400160
 11
55.100107
 21
101.400542
  0
LINE
  8
1
 62
7
  6
CONTINUOUS
 10
55.100107
 20
101.400542
 11
55.122211
 21
101.401166
  0
LINE
  8
1
 62
7
  6
CONTINUOUS
 10
55.122211
 20
101.401166
 11
55.141557
 21
101.401963
  0
LINE
  8
1
 62
7
  6
CONTINUOUS
 10
55.141557
 20
101.401963
 11
55.157702
 21
101.402838
  0
LINE
  8
1
 62
7
  6
CONTINUOUS
 10
55.157702
 20
101.402838
 11
55.170379
 21
101.403678
  0
LINE
  8
1
 62
7
  6
CONTINUOUS
 10
55.170379
 20
101.403678
 11
55.179459
 21
101.404375
  0
LINE
  8
1
 62
7
  6
CONTINUOUS
 10
55.179459
 20
101.404375
 11
55.184905
 21
101.404835
  0
LINE
  8
1
 62
7
  6
CONTINUOUS
 10
55.184905
 20
101.404835
 11
55.186719
 21
101.404996
  0
LINE
  8
1
 62
7
  6
CONTINUOUS
 10
55.186719
 20
101.404996
 11
55.188523
 21
101.405159
  0
LINE
  8
1
 62
7
  6
CONTINUOUS
 10
55.188523
 20
101.405159
 11
55.193831
 21
101.405664
  0
LINE
  8
1
 62
7
  6
CONTINUOUS
 10
55.193831
 20
101.405664
 11
55.202342
 21
101.406548
  0
LINE
  8
1
 62
7
  6
CONTINUOUS
 10
55.202342
 20
101.406548
 11
55.213592
 21
101.407874
  0
LINE
  8
1
 62
7
  6
CONTINUOUS
 10
55.213592
 20
101.407874
 11
55.227008
 21
101.409717
  0
LINE
  8
1
 62
7
  6
CONTINUOUS
 10
55.227008
 20
101.409717
 11
55.241963
 21
101.412161
  0
LINE
  8
1
 62
7
  6
CONTINUOUS
 10
55.241963
 20
101.412161
 11
55.257835
 21
101.415280
  0
LINE
  8
1
 62
7
  6
CONTINUOUS
 10
55.257835
 20
101.415280
 11
55.274050
 21
101.419128
  0
LINE
  8
1
 62
7
  6
CONTINUOUS
 10
55.274050
 20
101.419128
 11
55.290117
 21
101.423717
  0
LINE
  8
1
 62
7
  6
CONTINUOUS
 10
55.290117
 20
101.423717
 11
55.305633
 21
101.429006
  0
LINE
  8
1
 62
7
  6
CONTINUOUS
 10
55.305633
 20
101.429006
 11
55.320280
 21
101.434885
  0
LINE
  8
1
 62
7
  6
CONTINUOUS
 10
55.320280
 20
101.434885
 11
55.333811
 21
101.441172
  0
LINE
  8
1
 62
7
  6
CONTINUOUS
 10
55.333811
 20
101.441172
 11
55.346023
 21
101.447616
  0
LINE
  8
1
 62
7
  6
CONTINUOUS
 10
55.346023
 20
101.447616
 11
55.356741
 21
101.453910
  0
LINE
  8
1
 62
7
  6
CONTINUOUS
 10
55.356741
 20
101.453910
 11
55.365800
 21
101.459711
  0
LINE
  8
1
 62
7
  6
CONTINUOUS
 10
55.365800
 20
101.459711
 11
55.373048
 21
101.464673
  0
LINE
  8
1
 62
7
  6
CONTINUOUS
 10
55.373048
 20
101.464673
 11
55.378343
 21
101.468479
  0
LINE
  8
1
 62
7
  6
CONTINUOUS
 10
55.378343
 20
101.468479
 11
55.381570
 21
101.470873
  0
LINE
  8
1
 62
7
  6
CONTINUOUS
 10
55.381570
 20
101.470873
 11
55.382655
 21
101.471690
  0
LINE
  8
1
 62
7
  6
CONTINUOUS
 10
55.382655
 20
101.471690
 11
55.383739
 21
101.472514
  0
LINE
  8
1
 62
7
  6
CONTINUOUS
 10
55.383739
 20
101.472514
 11
55.386960
 21
101.474995
  0
LINE
  8
1
 62
7
  6
CONTINUOUS
 10
55.386960
 20
101.474995
 11
55.392221
 21
101.479163
  0
LINE
  8
1
 62
7
  6
CONTINUOUS
 10
55.392221
 20
101.479163
 11
55.399365
 21
101.485035
  0
LINE
  8
1
 62
7
  6
CONTINUOUS
 10
55.399365
 20
101.485035
 11
55.408176
 21
101.492589
  0
LINE
  8
1
 62
7
  6
CONTINUOUS
 10
55.408176
 20
101.492589
 11
55.418385
 21
101.501727
  0
LINE
  8
1
 62
7
  6
CONTINUOUS
 10
55.418385
 20
101.501727
 11
55.429680
 21
101.512252
  0
LINE
  8
1
 62
7
  6
CONTINUOUS
 10
55.429680
 20
101.512252
 11
55.441715
 21
101.523863
  0
LINE
  8
1
 62
7
  6
CONTINUOUS
 10
55.441715
 20
101.523863
 11
55.454127
 21
101.536161
  0
LINE
  8
1
 62
7
  6
CONTINUOUS
 10
55.454127
 20
101.536161
 11
55.466546
 21
101.548681
  0
LINE
  8
1
 62
7
  6
CONTINUOUS
 10
55.466546
 20
101.548681
 11
55.478616
 21
101.560940
  0
LINE
  8
1
 62
7
  6
CONTINUOUS
 10
55.478616
 20
101.560940
 11
55.490006
 21
101.572478
  0
LINE
  8
1
 62
7
  6
CONTINUOUS
 10
55.490006
 20
101.572478
 11
55.500421
 21
101.582904
  0
LINE
  8
1
 62
7
  6
CONTINUOUS
 10
55.500421
 20
101.582904
 11
55.509612
 21
101.591926
  0
LINE
  8
1
 62
7
  6
CONTINUOUS
 10
55.509612
 20
101.591926
 11
55.517375
 21
101.599361
  0
LINE
  8
1
 62
7
  6
CONTINUOUS
 10
55.517375
 20
101.599361
 11
55.523557
 21
101.605124
  0
LINE
  8
1
 62
7
  6
CONTINUOUS
 10
55.523557
 20
101.605124
 11
55.528045
 21
101.609204
  0
LINE
  8
1
 62
7
  6
CONTINUOUS
 10
55.528045
 20
101.609204
 11
55.530765
 21
101.611629
  0
LINE
  8
1
 62
7
  6
CONTINUOUS
 10
55.530765
 20
101.611629
 11
55.531677
 21
101.612433
  0
LINE
  8
1
 62
7
  6
CONTINUOUS
 10
55.531677
 20
101.612433
 11
55.532586
 21
101.613231
  0
LINE
  8
1
 62
7
  6
CONTINUOUS
 10
55.532586
 20
101.613231
 11
55.535278
 21
101.615564
  0
LINE
  8
1
 62
7
  6
CONTINUOUS
 10
55.535278
 20
101.615564
 11
55.539650
 21
101.619266
  0
LINE
  8
1
 62
7
  6
CONTINUOUS
 10
55.539650
 20
101.619266
 11
55.545546
 21
101.624076
  0
LINE
  8
1
 62
7
  6
CONTINUOUS
 10
55.545546
 20
101.624076
 11
55.552776
 21
101.629672
  0
LINE
  8
1
 62
7
  6
CONTINUOUS
 10
55.552776
 20
101.629672
 11
55.561132
 21
101.635705
  0
LINE
  8
1
 62
7
  6
CONTINUOUS
 10
55.561132
 20
101.635705
 11
55.570410
 21
101.641831
  0
LINE
  8
1
 62
7
  6
CONTINUOUS
 10
55.570410
 20
101.641831
 11
55.580412
 21
101.647743
  0
LINE
  8
1
 62
7
  6
CONTINUOUS
 10
55.580412
 20
101.647743
 11
55.590946
 21
101.653196
  0
LINE
  8
1
 62
7
  6
CONTINUOUS
 10
55.590946
 20
101.653196
 11
55.601817
 21
101.658015
  0
LINE
  8
1
 62
7
  6
CONTINUOUS
 10
55.601817
 20
101.658015
 11
55.612812
 21
101.662107
  0
LINE
  8
1
 62
7
  6
CONTINUOUS
 10
55.612812
 20
101.662107
 11
55.623686
 21
101.665445
  0
LINE
  8
1
 62
7
  6
CONTINUOUS
 10
55.623686
 20
101.665445
 11
55.634154
 21
101.668061
  0
LINE
  8
1
 62
7
  6
CONTINUOUS
 10
55.634154
 20
101.668061
 11
55.643888
 21
101.670031
  0
LINE
  8
1
 62
7
  6
CONTINUOUS
 10
55.643888
 20
101.670031
 11
55.652533
 21
101.671450
  0
LINE
  8
1
 62
7
  6
CONTINUOUS
 10
55.652533
 20
101.671450
 11
55.659730
 21
101.672422
  0
LINE
  8
1
 62
7
  6
CONTINUOUS
 10
55.659730
 20
101.672422
 11
55.665148
 21
101.673040
  0
LINE
  8
1
 62
7
  6
CONTINUOUS
 10
55.665148
 20
101.673040
 11
55.668516
 21
101.673379
  0
LINE
  8
1
 62
7
  6
CONTINUOUS
 10
55.668516
 20
101.673379
 11
55.669660
 21
101.673486
  0
LINE
  8
1
 62
7
  6
CONTINUOUS
 10
55.669660
 20
101.673486
 11
55.670808
 21
101.673590
  0
LINE
  8
1
 62
7
  6
CONTINUOUS
 10
55.670808
 20
101.673590
 11
55.674252
 21
101.673882
  0
LINE
  8
1
 62
7
  6
CONTINUOUS
 10
55.674252
 20
101.673882
 11
55.679986
 21
101.674300
  0
LINE
  8
1
 62
7
  6
CONTINUOUS
 10
55.679986
 20
101.674300
 11
55.687985
 21
101.674760
  0
LINE
  8
1
 62
7
  6
CONTINUOUS
 10
55.687985
 20
101.674760
 11
55.698195
 21
101.675169
  0
LINE
  8
1
 62
7
  6
CONTINUOUS
 10
55.698195
 20
101.675169
 11
55.710508
 21
101.675446
  0
LINE
  8
1
 62
7
  6
CONTINUOUS
 10
55.710508
 20
101.675446
 11
55.724748
 21
101.675540
  0
LINE
  8
1
 62
7
  6
CONTINUOUS
 10
55.724748
 20
101.675540
 11
55.740657
 21
101.675435
  0
LINE
  8
1
 62
7
  6
CONTINUOUS
 10
55.740657
 20
101.675435
 11
55.757888
 21
101.675158
  0
LINE
  8
1
 62
7
  6
CONTINUOUS
 10
55.757888
 20
101.675158
 11
55.776006
 21
101.674765
  0
LINE
  8
1
 62
7
  6
CONTINUOUS
 10
55.776006
 20
101.674765
 11
55.794498
 21
101.674330
  0
LINE
  8
1
 62
7
  6
CONTINUOUS
 10
55.794498
 20
101.674330
 11
55.812793
 21
101.673925
  0
LINE
  8
1
 62
7
  6
CONTINUOUS
 10
55.812793
 20
101.673925
 11
55.830285
 21
101.673609
  0
LINE
  8
1
 62
7
  6
CONTINUOUS
 10
55.830285
 20
101.673609
 11
55.846364
 21
101.673412
  0
LINE
  8
1
 62
7
  6
CONTINUOUS
 10
55.846364
 20
101.673412
 11
55.860444
 21
101.673333
  0
LINE
  8
1
 62
7
  6
CONTINUOUS
 10
55.860444
 20
101.673333
 11
55.872001
 21
101.673345
  0
LINE
  8
1
 62
7
  6
CONTINUOUS
 10
55.872001
 20
101.673345
 11
55.880592
 21
101.673404
  0
LINE
  8
1
 62
7
  6
CONTINUOUS
 10
55.880592
 20
101.673404
 11
55.885885
 21
101.673462
  0
LINE
  8
1
 62
7
  6
CONTINUOUS
 10
55.885885
 20
101.673462
 11
55.887673
 21
101.673486
  0
LINE
  8
1
 62
7
  6
CONTINUOUS
 10
55.887673
 20
101.673486
 11
55.889464
 21
101.673512
  0
LINE
  8
1
 62
7
  6
CONTINUOUS
 10
55.889464
 20
101.673512
 11
55.894810
 21
101.673601
  0
LINE
  8
1
 62
7
  6
CONTINUOUS
 10
55.894810
 20
101.673601
 11
55.903617
 21
101.673783
  0
LINE
  8
1
 62
7
  6
CONTINUOUS
 10
55.903617
 20
101.673783
 11
55.915715
 21
101.674093
  0
LINE
  8
1
 62
7
  6
CONTINUOUS
 10
55.915715
 20
101.674093
 11
55.930828
 21
101.674557
  0
LINE
  8
1
 62
7
  6
CONTINUOUS
 10
55.930828
 20
101.674557
 11
55.948558
 21
101.675175
  0
LINE
  8
1
 62
7
  6
CONTINUOUS
 10
55.948558
 20
101.675175
 11
55.968381
 21
101.675909
  0
LINE
  8
1
 62
7
  6
CONTINUOUS
 10
55.968381
 20
101.675909
 11
55.989654
 21
101.676687
  0
LINE
  8
1
 62
7
  6
CONTINUOUS
 10
55.989654
 20
101.676687
 11
56.011644
 21
101.677404
  0
LINE
  8
1
 62
7
  6
CONTINUOUS
 10
56.011644
 20
101.677404
 11
56.033580
 21
101.677947
  0
LINE
  8
1
 62
7
  6
CONTINUOUS
 10
56.033580
 20
101.677947
 11
56.054710
 21
101.678213
  0
LINE
  8
1
 62
7
  6
CONTINUOUS
 10
56.054710
 20
101.678213
 11
56.074355
 21
101.678138
  0
LINE
  8
1
 62
7
  6
CONTINUOUS
 10
56.074355
 20
101.678138
 11
56.091959
 21
101.677710
  0
LINE
  8
1
 62
7
  6
CONTINUOUS
 10
56.091959
 20
101.677710
 11
56.107121
 21
101.676982
  0
LINE
  8
1
 62
7
  6
CONTINUOUS
 10
56.107121
 20
101.676982
 11
56.119593
 21
101.676062
  0
LINE
  8
1
 62
7
  6
CONTINUOUS
 10
56.119593
 20
101.676062
 11
56.129264
 21
101.675101
  0
LINE
  8
1
 62
7
  6
CONTINUOUS
 10
56.129264
 20
101.675101
 11
56.136122
 21
101.674261
  0
LINE
  8
1
 62
7
  6
CONTINUOUS
 10
56.136122
 20
101.674261
 11
56.140206
 21
101.673689
  0
LINE
  8
1
 62
7
  6
CONTINUOUS
 10
56.140206
 20
101.673689
 11
56.141562
 21
101.673486
  0
LINE
  8
1
 62
7
  6
CONTINUOUS
 10
56.141562
 20
101.673486
 11
56.142907
 21
101.673278
  0
LINE
  8
1
 62
7
  6
CONTINUOUS
 10
56.142907
 20
101.673278
 11
56.146851
 21
101.672629
  0
LINE
  8
1
 62
7
  6
CONTINUOUS
 10
56.146851
 20
101.672629
 11
56.153128
 21
101.671470
  0
LINE
  8
1
 62
7
  6
CONTINUOUS
 10
56.153128
 20
101.671470
 11
56.161332
 21
101.669704
  0
LINE
  8
1
 62
7
  6
CONTINUOUS
 10
56.161332
 20
101.669704
 11
56.170973
 21
101.667229
  0
LINE
  8
1
 62
7
  6
CONTINUOUS
 10
56.170973
 20
101.667229
 11
56.181527
 21
101.663966
  0
LINE
  8
1
 62
7
  6
CONTINUOUS
 10
56.181527
 20
101.663966
 11
56.192497
 21
101.659883
  0
LINE
  8
1
 62
7
  6
CONTINUOUS
 10
56.192497
 20
101.659883
 11
56.203450
 21
101.655010
  0
LINE
  8
1
 62
7
  6
CONTINUOUS
 10
56.203450
 20
101.655010
 11
56.214046
 21
101.649449
  0
LINE
  8
1
 62
7
  6
CONTINUOUS
 10
56.214046
 20
101.649449
 11
56.224041
 21
101.643368
  0
LINE
  8
1
 62
7
  6
CONTINUOUS
 10
56.224041
 20
101.643368
 11
56.233278
 21
101.636990
  0
LINE
  8
1
 62
7
  6
CONTINUOUS
 10
56.233278
 20
101.636990
 11
56.241660
 21
101.630572
  0
LINE
  8
1
 62
7
  6
CONTINUOUS
 10
56.241660
 20
101.630572
 11
56.249125
 21
101.624384
  0
LINE
  8
1
 62
7
  6
CONTINUOUS
 10
56.249125
 20
101.624384
 11
56.255621
 21
101.618683
  0
LINE
  8
1
 62
7
  6
CONTINUOUS
 10
56.255621
 20
101.618683
 11
56.261090
 21
101.613701
  0
LINE
  8
1
 62
7
  6
CONTINUOUS
 10
56.261090
 20
101.613701
 11
56.265461
 21
101.609631
  0
LINE
  8
1
 62
7
  6
CONTINUOUS
 10
56.265461
 20
101.609631
 11
56.268658
 21
101.606622
  0
LINE
  8
1
 62
7
  6
CONTINUOUS
 10
56.268658
 20
101.606622
 11
56.270609
 21
101.604776
  0
LINE
  8
1
 62
7
  6
CONTINUOUS
 10
56.270609
 20
101.604776
 11
56.271266
 21
101.604154
  0
LINE
  8
1
 62
7
  6
CONTINUOUS
 10
56.271266
 20
101.604154
 11
56.271922
 21
101.603532
  0
LINE
  8
1
 62
7
  6
CONTINUOUS
 10
56.271922
 20
101.603532
 11
56.273875
 21
101.601679
  0
LINE
  8
1
 62
7
  6
CONTINUOUS
 10
56.273875
 20
101.601679
 11
56.277073
 21
101.598641
  0
LINE
  8
1
 62
7
  6
CONTINUOUS
 10
56.277073
 20
101.598641
 11
56.281429
 21
101.594491
  0
LINE
  8
1
 62
7
  6
CONTINUOUS
 10
56.281429
 20
101.594491
 11
56.286824
 21
101.589335
  0
LINE
  8
1
 62
7
  6
CONTINUOUS
 10
56.286824
 20
101.589335
 11
56.293107
 21
101.583310
  0
LINE
  8
1
 62
7
  6
CONTINUOUS
 10
56.293107
 20
101.583310
 11
56.300097
 21
101.576582
  0
LINE
  8
1
 62
7
  6
CONTINUOUS
 10
56.300097
 20
101.576582
 11
56.307589
 21
101.569343
  0
LINE
  8
1
 62
7
  6
CONTINUOUS
 10
56.307589
 20
101.569343
 11
56.315364
 21
101.561804
  0
LINE
  8
1
 62
7
  6
CONTINUOUS
 10
56.315364
 20
101.561804
 11
56.323193
 21
101.554187
  0
LINE
  8
1
 62
7
  6
CONTINUOUS
 10
56.323193
 20
101.554187
 11
56.330850
 21
101.546715
  0
LINE
  8
1
 62
7
  6
CONTINUOUS
 10
56.330850
 20
101.546715
 11
56.338119
 21
101.539603
  0
LINE
  8
1
 62
7
  6
CONTINUOUS
 10
56.338119
 20
101.539603
 11
56.344804
 21
101.533048
  0
LINE
  8
1
 62
7
  6
CONTINUOUS
 10
56.344804
 20
101.533048
 11
56.350733
 21
101.527224
  0
LINE
  8
1
 62
7
  6
CONTINUOUS
 10
56.350733
 20
101.527224
 11
56.355766
 21
101.522274
  0
LINE
  8
1
 62
7
  6
CONTINUOUS
 10
56.355766
 20
101.522274
 11
56.359788
 21
101.518314
  0
LINE
  8
1
 62
7
  6
CONTINUOUS
 10
56.359788
 20
101.518314
 11
56.362718
 21
101.515427
  0
LINE
  8
1
 62
7
  6
CONTINUOUS
 10
56.362718
 20
101.515427
 11
56.364497
 21
101.513674
  0
LINE
  8
1
 62
7
  6
CONTINUOUS
 10
56.364497
 20
101.513674
 11
56.365094
 21
101.513085
  0
LINE
  8
1
 62
7
  6
CONTINUOUS
 10
56.365094
 20
101.513085
 11
56.365690
 21
101.512498
  0
LINE
  8
1
 62
7
  6
CONTINUOUS
 10
56.365690
 20
101.512498
 11
56.367456
 21
101.510757
  0
LINE
  8
1
 62
7
  6
CONTINUOUS
 10
56.367456
 20
101.510757
 11
56.370329
 21
101.507927
  0
LINE
  8
1
 62
7
  6
CONTINUOUS
 10
56.370329
 20
101.507927
 11
56.374214
 21
101.504110
  0
LINE
  8
1
 62
7
  6
CONTINUOUS
 10
56.374214
 20
101.504110
 11
56.378992
 21
101.499447
  0
LINE
  8
1
 62
7
  6
CONTINUOUS
 10
56.378992
 20
101.499447
 11
56.384533
 21
101.494108
  0
LINE
  8
1
 62
7
  6
CONTINUOUS
 10
56.384533
 20
101.494108
 11
56.390700
 21
101.488287
  0
LINE
  8
1
 62
7
  6
CONTINUOUS
 10
56.390700
 20
101.488287
 11
56.397359
 21
101.482192
  0
LINE
  8
1
 62
7
  6
CONTINUOUS
 10
56.397359
 20
101.482192
 11
56.404376
 21
101.476032
  0
LINE
  8
1
 62
7
  6
CONTINUOUS
 10
56.404376
 20
101.476032
 11
56.411610
 21
101.470007
  0
LINE
  8
1
 62
7
  6
CONTINUOUS
 10
56.411610
 20
101.470007
 11
56.418910
 21
101.464298
  0
LINE
  8
1
 62
7
  6
CONTINUOUS
 10
56.418910
 20
101.464298
 11
56.426106
 21
101.459056
  0
LINE
  8
1
 62
7
  6
CONTINUOUS
 10
56.426106
 20
101.459056
 11
56.433005
 21
101.454398
  0
LINE
  8
1
 62
7
  6
CONTINUOUS
 10
56.433005
 20
101.454398
 11
56.439392
 21
101.450406
  0
LINE
  8
1
 62
7
  6
CONTINUOUS
 10
56.439392
 20
101.450406
 11
56.445041
 21
101.447126
  0
LINE
  8
1
 62
7
  6
CONTINUOUS
 10
56.445041
 20
101.447126
 11
56.449726
 21
101.444581
  0
LINE
  8
1
 62
7
  6
CONTINUOUS
 10
56.449726
 20
101.444581
 11
56.453242
 21
101.442773
  0
LINE
  8
1
 62
7
  6
CONTINUOUS
 10
56.453242
 20
101.442773
 11
56.455423
 21
101.441693
  0
LINE
  8
1
 62
7
  6
CONTINUOUS
 10
56.455423
 20
101.441693
 11
56.456163
 21
101.441334
  0
LINE
  8
1
 62
7
  6
CONTINUOUS
 10
56.456163
 20
101.441334
 11
56.456905
 21
101.440978
  0
LINE
  8
1
 62
7
  6
CONTINUOUS
 10
56.456905
 20
101.440978
 11
56.459130
 21
101.439931
  0
LINE
  8
1
 62
7
  6
CONTINUOUS
 10
56.459130
 20
101.439931
 11
56.462824
 21
101.438259
  0
LINE
  8
1
 62
7
  6
CONTINUOUS
 10
56.462824
 20
101.438259
 11
56.467958
 21
101.436064
  0
LINE
  8
1
 62
7
  6
CONTINUOUS
 10
56.467958
 20
101.436064
 11
56.474475
 21
101.433467
  0
LINE
  8
1
 62
7
  6
CONTINUOUS
 10
56.474475
 20
101.433467
 11
56.482276
 21
101.430600
  0
LINE
  8
1
 62
7
  6
CONTINUOUS
 10
56.482276
 20
101.430600
 11
56.491213
 21
101.427591
  0
LINE
  8
1
 62
7
  6
CONTINUOUS
 10
56.491213
 20
101.427591
 11
56.501084
 21
101.424555
  0
LINE
  8
1
 62
7
  6
CONTINUOUS
 10
56.501084
 20
101.424555
 11
56.511634
 21
101.421583
  0
LINE
  8
1
 62
7
  6
CONTINUOUS
 10
56.511634
 20
101.421583
 11
56.522560
 21
101.418747
  0
LINE
  8
1
 62
7
  6
CONTINUOUS
 10
56.522560
 20
101.418747
 11
56.533531
 21
101.416099
  0
LINE
  8
1
 62
7
  6
CONTINUOUS
 10
56.533531
 20
101.416099
 11
56.544200
 21
101.413673
  0
LINE
  8
1
 62
7
  6
CONTINUOUS
 10
56.544200
 20
101.413673
 11
56.554225
 21
101.411496
  0
LINE
  8
1
 62
7
  6
CONTINUOUS
 10
56.554225
 20
101.411496
 11
56.563285
 21
101.409594
  0
LINE
  8
1
 62
7
  6
CONTINUOUS
 10
56.563285
 20
101.409594
 11
56.571096
 21
101.407987
  0
LINE
  8
1
 62
7
  6
CONTINUOUS
 10
56.571096
 20
101.407987
 11
56.577419
 21
101.406702
  0
LINE
  8
1
 62
7
  6
CONTINUOUS
 10
56.577419
 20
101.406702
 11
56.582068
 21
101.405762
  0
LINE
  8
1
 62
7
  6
CONTINUOUS
 10
56.582068
 20
101.405762
 11
56.584911
 21
101.405189
  0
LINE
  8
1
 62
7
  6
CONTINUOUS
 10
56.584911
 20
101.405189
 11
56.585867
 21
101.404996
  0
LINE
  8
1
 62
7
  6
CONTINUOUS
 10
65.409635
 20
101.404996
 11
56.635541
 21
101.404996
  0
LINE
  8
1
 62
7
  6
CONTINUOUS
 10
54.409635
 20
105.989030
 11
54.410016
 21
105.991020
  0
LINE
  8
1
 62
7
  6
CONTINUOUS
 10
54.410016
 20
105.991020
 11
54.411150
 21
105.996932
  0
LINE
  8
1
 62
7
  6
CONTINUOUS
 10
54.411150
 20
105.996932
 11
54.413010
 21
106.006602
  0
LINE
  8
1
 62
7
  6
CONTINUOUS
 10
54.413010
 20
106.006602
 11
54.415563
 21
106.019748
  0
LINE
  8
1
 62
7
  6
CONTINUOUS
 10
54.415563
 20
106.019748
 11
54.418779
 21
106.035968
  0
LINE
  8
1
 62
7
  6
CONTINUOUS
 10
54.418779
 20
106.035968
 11
54.422639
 21
106.054746
  0
LINE
  8
1
 62
7
  6
CONTINUOUS
 10
54.422639
 20
106.054746
 11
54.427143
 21
106.075458
  0
LINE
  8
1
 62
7
  6
CONTINUOUS
 10
54.427143
 20
106.075458
 11
54.432297
 21
106.097401
  0
LINE
  8
1
 62
7
  6
CONTINUOUS
 10
54.432297
 20
106.097401
 11
54.438103
 21
106.119824
  0
LINE
  8
1
 62
7
  6
CONTINUOUS
 10
54.438103
 20
106.119824
 11
54.444535
 21
106.141974
  0
LINE
  8
1
 62
7
  6
CONTINUOUS
 10
54.444535
 20
106.141974
 11
54.451514
 21
106.163146
  0
LINE
  8
1
 62
7
  6
CONTINUOUS
 10
54.451514
 20
106.163146
 11
54.458885
 21
106.182722
  0
LINE
  8
1
 62
7
  6
CONTINUOUS
 10
54.458885
 20
106.182722
 11
54.466410
 21
106.200208
  0
LINE
  8
1
 62
7
  6
CONTINUOUS
 10
54.466410
 20
106.200208
 11
54.473770
 21
106.215250
  0
LINE
  8
1
 62
7
  6
CONTINUOUS
 10
54.473770
 20
106.215250
 11
54.480582
 21
106.227629
  0
LINE
  8
1
 62
7
  6
CONTINUOUS
 10
54.480582
 20
106.227629
 11
54.486441
 21
106.237245
  0
LINE
  8
1
 62
7
  6
CONTINUOUS
 10
54.486441
 20
106.237245
 11
54.490957
 21
106.244080
  0
LINE
  8
1
 62
7
  6
CONTINUOUS
 10
54.490957
 20
106.244080
 11
54.493809
 21
106.248159
  0
LINE
  8
1
 62
7
  6
CONTINUOUS
 10
54.493809
 20
106.248159
 11
54.494785
 21
106.249514
  0
LINE
  8
1
 62
7
  6
CONTINUOUS
 10
54.494785
 20
106.249514
 11
54.495768
 21
106.250860
  0
LINE
  8
1
 62
7
  6
CONTINUOUS
 10
54.495768
 20
106.250860
 11
54.498739
 21
106.254811
  0
LINE
  8
1
 62
7
  6
CONTINUOUS
 10
54.498739
 20
106.254811
 11
54.503750
 21
106.261112
  0
LINE
  8
1
 62
7
  6
CONTINUOUS
 10
54.503750
 20
106.261112
 11
54.510854
 21
106.269373
  0
LINE
  8
1
 62
7
  6
CONTINUOUS
 10
54.510854
 20
106.269373
 11
54.520070
 21
106.279105
  0
LINE
  8
1
 62
7
  6
CONTINUOUS
 10
54.520070
 20
106.279105
 11
54.531338
 21
106.289774
  0
LINE
  8
1
 62
7
  6
CONTINUOUS
 10
54.531338
 20
106.289774
 11
54.544487
 21
106.300847
  0
LINE
  8
1
 62
7
  6
CONTINUOUS
 10
54.544487
 20
106.300847
 11
54.559218
 21
106.311839
  0
LINE
  8
1
 62
7
  6
CONTINUOUS
 10
54.559218
 20
106.311839
 11
54.575105
 21
106.322343
  0
LINE
  8
1
 62
7
  6
CONTINUOUS
 10
54.575105
 20
106.322343
 11
54.591623
 21
106.332051
  0
LINE
  8
1
 62
7
  6
CONTINUOUS
 10
54.591623
 20
106.332051
 11
54.608184
 21
106.340755
  0
LINE
  8
1
 62
7
  6
CONTINUOUS
 10
54.608184
 20
106.340755
 11
54.624189
 21
106.348340
  0
LINE
  8
1
 62
7
  6
CONTINUOUS
 10
54.624189
 20
106.348340
 11
54.639075
 21
106.354771
  0
LINE
  8
1
 62
7
  6
CONTINUOUS
 10
54.639075
 20
106.354771
 11
54.652354
 21
106.360063
  0
LINE
  8
1
 62
7
  6
CONTINUOUS
 10
54.652354
 20
106.360063
 11
54.663637
 21
106.364269
  0
LINE
  8
1
 62
7
  6
CONTINUOUS
 10
54.663637
 20
106.364269
 11
54.672641
 21
106.367451
  0
LINE
  8
1
 62
7
  6
CONTINUOUS
 10
54.672641
 20
106.367451
 11
54.679177
 21
106.369673
  0
LINE
  8
1
 62
7
  6
CONTINUOUS
 10
54.679177
 20
106.369673
 11
54.683136
 21
106.370984
  0
LINE
  8
1
 62
7
  6
CONTINUOUS
 10
54.683136
 20
106.370984
 11
54.684461
 21
106.371417
  0
LINE
  8
1
 62
7
  6
CONTINUOUS
 10
54.684461
 20
106.371417
 11
54.685782
 21
106.371847
  0
LINE
  8
1
 62
7
  6
CONTINUOUS
 10
54.685782
 20
106.371847
 11
54.689691
 21
106.373101
  0
LINE
  8
1
 62
7
  6
CONTINUOUS
 10
54.689691
 20
106.373101
 11
54.696029
 21
106.375083
  0
LINE
  8
1
 62
7
  6
CONTINUOUS
 10
54.696029
 20
106.375083
 11
54.704559
 21
106.377644
  0
LINE
  8
1
 62
7
  6
CONTINUOUS
 10
54.704559
 20
106.377644
 11
54.714999
 21
106.380604
  0
LINE
  8
1
 62
7
  6
CONTINUOUS
 10
54.714999
 20
106.380604
 11
54.727054
 21
106.383773
  0
LINE
  8
1
 62
7
  6
CONTINUOUS
 10
54.727054
 20
106.383773
 11
54.740441
 21
106.386971
  0
LINE
  8
1
 62
7
  6
CONTINUOUS
 10
54.740441
 20
106.386971
 11
54.754904
 21
106.390048
  0
LINE
  8
1
 62
7
  6
CONTINUOUS
 10
54.754904
 20
106.390048
 11
54.770203
 21
106.392892
  0
LINE
  8
1
 62
7
  6
CONTINUOUS
 10
54.770203
 20
106.392892
 11
54.786093
 21
106.395430
  0
LINE
  8
1
 62
7
  6
CONTINUOUS
 10
54.786093
 20
106.395430
 11
54.802298
 21
106.397633
  0
LINE
  8
1
 62
7
  6
CONTINUOUS
 10
54.802298
 20
106.397633
 11
54.818475
 21
106.399497
  0
LINE
  8
1
 62
7
  6
CONTINUOUS
 10
54.818475
 20
106.399497
 11
54.834199
 21
106.401044
  0
LINE
  8
1
 62
7
  6
CONTINUOUS
 10
54.834199
 20
106.401044
 11
54.848959
 21
106.402299
  0
LINE
  8
1
 62
7
  6
CONTINUOUS
 10
54.848959
 20
106.402299
 11
54.862180
 21
106.403292
  0
LINE
  8
1
 62
7
  6
CONTINUOUS
 10
54.862180
 20
106.403292
 11
54.873266
 21
106.404046
  0
LINE
  8
1
 62
7
  6
CONTINUOUS
 10
54.873266
 20
106.404046
 11
54.881657
 21
106.404576
  0
LINE
  8
1
 62
7
  6
CONTINUOUS
 10
54.881657
 20
106.404576
 11
54.886895
 21
106.404891
  0
LINE
  8
1
 62
7
  6
CONTINUOUS
 10
54.886895
 20
106.404891
 11
54.888675
 21
106.404996
  0
LINE
  8
1
 62
7
  6
CONTINUOUS
 10
54.888675
 20
106.404996
 11
54.890466
 21
106.405100
  0
LINE
  8
1
 62
7
  6
CONTINUOUS
 10
54.890466
 20
106.405100
 11
54.895846
 21
106.405405
  0
LINE
  8
1
 62
7
  6
CONTINUOUS
 10
54.895846
 20
106.405405
 11
54.904823
 21
106.405892
  0
LINE
  8
1
 62
7
  6
CONTINUOUS
 10
54.904823
 20
106.405892
 11
54.917372
 21
106.406524
  0
LINE
  8
1
 62
7
  6
CONTINUOUS
 10
54.917372
 20
106.406524
 11
54.933378
 21
106.407253
  0
LINE
  8
1
 62
7
  6
CONTINUOUS
 10
54.933378
 20
106.407253
 11
54.952589
 21
106.408014
  0
LINE
  8
1
 62
7
  6
CONTINUOUS
 10
54.952589
 20
106.408014
 11
54.974576
 21
106.408737
  0
LINE
  8
1
 62
7
  6
CONTINUOUS
 10
54.974576
 20
106.408737
 11
54.998728
 21
106.409343
  0
LINE
  8
1
 62
7
  6
CONTINUOUS
 10
54.998728
 20
106.409343
 11
55.024263
 21
106.409762
  0
LINE
  8
1
 62
7
  6
CONTINUOUS
 10
55.024263
 20
106.409762
 11
55.050289
 21
106.409935
  0
LINE
  8
1
 62
7
  6
CONTINUOUS
 10
55.050289
 20
106.409935
 11
55.075870
 21
106.409831
  0
LINE
  8
1
 62
7
  6
CONTINUOUS
 10
55.075870
 20
106.409831
 11
55.100107
 21
106.409450
  0
LINE
  8
1
 62
7
  6
CONTINUOUS
 10
55.100107
 20
106.409450
 11
55.122211
 21
106.408826
  0
LINE
  8
1
 62
7
  6
CONTINUOUS
 10
55.122211
 20
106.408826
 11
55.141557
 21
106.408029
  0
LINE
  8
1
 62
7
  6
CONTINUOUS
 10
55.141557
 20
106.408029
 11
55.157702
 21
106.407154
  0
LINE
  8
1
 62
7
  6
CONTINUOUS
 10
55.157702
 20
106.407154
 11
55.170379
 21
106.406313
  0
LINE
  8
1
 62
7
  6
CONTINUOUS
 10
55.170379
 20
106.406313
 11
55.179459
 21
106.405616
  0
LINE
  8
1
 62
7
  6
CONTINUOUS
 10
55.179459
 20
106.405616
 11
55.184905
 21
106.405156
  0
LINE
  8
1
 62
7
  6
CONTINUOUS
 10
55.184905
 20
106.405156
 11
55.186719
 21
106.404996
  0
LINE
  8
1
 62
7
  6
CONTINUOUS
 10
55.186719
 20
106.404996
 11
55.188523
 21
106.404832
  0
LINE
  8
1
 62
7
  6
CONTINUOUS
 10
55.188523
 20
106.404832
 11
55.193831
 21
106.404328
  0
LINE
  8
1
 62
7
  6
CONTINUOUS
 10
55.193831
 20
106.404328
 11
55.202342
 21
106.403444
  0
LINE
  8
1
 62
7
  6
CONTINUOUS
 10
55.202342
 20
106.403444
 11
55.213592
 21
106.402118
  0
LINE
  8
1
 62
7
  6
CONTINUOUS
 10
55.213592
 20
106.402118
 11
55.227008
 21
106.400275
  0
LINE
  8
1
 62
7
  6
CONTINUOUS
 10
55.227008
 20
106.400275
 11
55.241963
 21
106.397831
  0
LINE
  8
1
 62
7
  6
CONTINUOUS
 10
55.241963
 20
106.397831
 11
55.257835
 21
106.394712
  0
LINE
  8
1
 62
7
  6
CONTINUOUS
 10
55.257835
 20
106.394712
 11
55.274050
 21
106.390864
  0
LINE
  8
1
 62
7
  6
CONTINUOUS
 10
55.274050
 20
106.390864
 11
55.290117
 21
106.386274
  0
LINE
  8
1
 62
7
  6
CONTINUOUS
 10
55.290117
 20
106.386274
 11
55.305633
 21
106.380985
  0
LINE
  8
1
 62
7
  6
CONTINUOUS
 10
55.305633
 20
106.380985
 11
55.320280
 21
106.375107
  0
LINE
  8
1
 62
7
  6
CONTINUOUS
 10
55.320280
 20
106.375107
 11
55.333811
 21
106.368820
  0
LINE
  8
1
 62
7
  6
CONTINUOUS
 10
55.333811
 20
106.368820
 11
55.346023
 21
106.362375
  0
LINE
  8
1
 62
7
  6
CONTINUOUS
 10
55.346023
 20
106.362375
 11
55.356741
 21
106.356082
  0
LINE
  8
1
 62
7
  6
CONTINUOUS
 10
55.356741
 20
106.356082
 11
55.365800
 21
106.350281
  0
LINE
  8
1
 62
7
  6
CONTINUOUS
 10
55.365800
 20
106.350281
 11
55.373048
 21
106.345319
  0
LINE
  8
1
 62
7
  6
CONTINUOUS
 10
55.373048
 20
106.345319
 11
55.378343
 21
106.341513
  0
LINE
  8
1
 62
7
  6
CONTINUOUS
 10
55.378343
 20
106.341513
 11
55.381570
 21
106.339119
  0
LINE
  8
1
 62
7
  6
CONTINUOUS
 10
55.381570
 20
106.339119
 11
55.382655
 21
106.338301
  0
LINE
  8
1
 62
7
  6
CONTINUOUS
 10
55.382655
 20
106.338301
 11
55.383739
 21
106.337478
  0
LINE
  8
1
 62
7
  6
CONTINUOUS
 10
55.383739
 20
106.337478
 11
55.386960
 21
106.334996
  0
LINE
  8
1
 62
7
  6
CONTINUOUS
 10
55.386960
 20
106.334996
 11
55.392221
 21
106.330829
  0
LINE
  8
1
 62
7
  6
CONTINUOUS
 10
55.392221
 20
106.330829
 11
55.399365
 21
106.324957
  0
LINE
  8
1
 62
7
  6
CONTINUOUS
 10
55.399365
 20
106.324957
 11
55.408176
 21
106.317403
  0
LINE
  8
1
 62
7
  6
CONTINUOUS
 10
55.408176
 20
106.317403
 11
55.418385
 21
106.308265
  0
LINE
  8
1
 62
7
  6
CONTINUOUS
 10
55.418385
 20
106.308265
 11
55.429680
 21
106.297739
  0
LINE
  8
1
 62
7
  6
CONTINUOUS
 10
55.429680
 20
106.297739
 11
55.441715
 21
106.286129
  0
LINE
  8
1
 62
7
  6
CONTINUOUS
 10
55.441715
 20
106.286129
 11
55.454127
 21
106.273831
  0
LINE
  8
1
 62
7
  6
CONTINUOUS
 10
55.454127
 20
106.273831
 11
55.466546
 21
106.261310
  0
LINE
  8
1
 62
7
  6
CONTINUOUS
 10
55.466546
 20
106.261310
 11
55.478616
 21
106.249052
  0
LINE
  8
1
 62
7
  6
CONTINUOUS
 10
55.478616
 20
106.249052
 11
55.490006
 21
106.237514
  0
LINE
  8
1
 62
7
  6
CONTINUOUS
 10
55.490006
 20
106.237514
 11
55.500421
 21
106.227088
  0
LINE
  8
1
 62
7
  6
CONTINUOUS
 10
55.500421
 20
106.227088
 11
55.509612
 21
106.218065
  0
LINE
  8
1
 62
7
  6
CONTINUOUS
 10
55.509612
 20
106.218065
 11
55.517375
 21
106.210630
  0
LINE
  8
1
 62
7
  6
CONTINUOUS
 10
55.517375
 20
106.210630
 11
55.523557
 21
106.204867
  0
LINE
  8
1
 62
7
  6
CONTINUOUS
 10
55.523557
 20
106.204867
 11
55.528045
 21
106.200787
  0
LINE
  8
1
 62
7
  6
CONTINUOUS
 10
55.528045
 20
106.200787
 11
55.530765
 21
106.198362
  0
LINE
  8
1
 62
7
  6
CONTINUOUS
 10
55.530765
 20
106.198362
 11
55.531677
 21
106.197559
  0
LINE
  8
1
 62
7
  6
CONTINUOUS
 10
55.531677
 20
106.197559
 11
55.532586
 21
106.196761
  0
LINE
  8
1
 62
7
  6
CONTINUOUS
 10
55.532586
 20
106.196761
 11
55.535278
 21
106.194427
  0
LINE
  8
1
 62
7
  6
CONTINUOUS
 10
55.535278
 20
106.194427
 11
55.539650
 21
106.190726
  0
LINE
  8
1
 62
7
  6
CONTINUOUS
 10
55.539650
 20
106.190726
 11
55.545546
 21
106.185916
  0
LINE
  8
1
 62
7
  6
CONTINUOUS
 10
55.545546
 20
106.185916
 11
55.552776
 21
106.180319
  0
LINE
  8
1
 62
7
  6
CONTINUOUS
 10
55.552776
 20
106.180319
 11
55.561132
 21
106.174286
  0
LINE
  8
1
 62
7
  6
CONTINUOUS
 10
55.561132
 20
106.174286
 11
55.570410
 21
106.168161
  0
LINE
  8
1
 62
7
  6
CONTINUOUS
 10
55.570410
 20
106.168161
 11
55.580412
 21
106.162249
  0
LINE
  8
1
 62
7
  6
CONTINUOUS
 10
55.580412
 20
106.162249
 11
55.590946
 21
106.156796
  0
LINE
  8
1
 62
7
  6
CONTINUOUS
 10
55.590946
 20
106.156796
 11
55.601817
 21
106.151976
  0
LINE
  8
1
 62
7
  6
CONTINUOUS
 10
55.601817
 20
106.151976
 11
55.612812
 21
106.147885
  0
LINE
  8
1
 62
7
  6
CONTINUOUS
 10
55.612812
 20
106.147885
 11
55.623686
 21
106.144547
  0
LINE
  8
1
 62
7
  6
CONTINUOUS
 10
55.623686
 20
106.144547
 11
55.634154
 21
106.141930
  0
LINE
  8
1
 62
7
  6
CONTINUOUS
 10
55.634154
 20
106.141930
 11
55.643888
 21
106.139961
  0
LINE
  8
1
 62
7
  6
CONTINUOUS
 10
55.643888
 20
106.139961
 11
55.652533
 21
106.138541
  0
LINE
  8
1
 62
7
  6
CONTINUOUS
 10
55.652533
 20
106.138541
 11
55.659730
 21
106.137570
  0
LINE
  8
1
 62
7
  6
CONTINUOUS
 10
55.659730
 20
106.137570
 11
55.665148
 21
106.136952
  0
LINE
  8
1
 62
7
  6
CONTINUOUS
 10
55.665148
 20
106.136952
 11
55.668516
 21
106.136613
  0
LINE
  8
1
 62
7
  6
CONTINUOUS
 10
55.668516
 20
106.136613
 11
55.669660
 21
106.136506
  0
LINE
  8
1
 62
7
  6
CONTINUOUS
 10
55.669660
 20
106.136506
 11
55.670808
 21
106.136401
  0
LINE
  8
1
 62
7
  6
CONTINUOUS
 10
55.670808
 20
106.136401
 11
55.674252
 21
106.136110
  0
LINE
  8
1
 62
7
  6
CONTINUOUS
 10
55.674252
 20
106.136110
 11
55.679986
 21
106.135691
  0
LINE
  8
1
 62
7
  6
CONTINUOUS
 10
55.679986
 20
106.135691
 11
55.687985
 21
106.135231
  0
LINE
  8
1
 62
7
  6
CONTINUOUS
 10
55.687985
 20
106.135231
 11
55.698195
 21
106.134823
  0
LINE
  8
1
 62
7
  6
CONTINUOUS
 10
55.698195
 20
106.134823
 11
55.710508
 21
106.134545
  0
LINE
  8
1
 62
7
  6
CONTINUOUS
 10
55.710508
 20
106.134545
 11
55.724748
 21
106.134452
  0
LINE
  8
1
 62
7
  6
CONTINUOUS
 10
55.724748
 20
106.134452
 11
55.740657
 21
106.134556
  0
LINE
  8
1
 62
7
  6
CONTINUOUS
 10
55.740657
 20
106.134556
 11
55.757888
 21
106.134833
  0
LINE
  8
1
 62
7
  6
CONTINUOUS
 10
55.757888
 20
106.134833
 11
55.776006
 21
106.135226
  0
LINE
  8
1
 62
7
  6
CONTINUOUS
 10
55.776006
 20
106.135226
 11
55.794498
 21
106.135662
  0
LINE
  8
1
 62
7
  6
CONTINUOUS
 10
55.794498
 20
106.135662
 11
55.812793
 21
106.136067
  0
LINE
  8
1
 62
7
  6
CONTINUOUS
 10
55.812793
 20
106.136067
 11
55.830285
 21
106.136383
  0
LINE
  8
1
 62
7
  6
CONTINUOUS
 10
55.830285
 20
106.136383
 11
55.846364
 21
106.136580
  0
LINE
  8
1
 62
7
  6
CONTINUOUS
 10
55.846364
 20
106.136580
 11
55.860444
 21
106.136659
  0
LINE
  8
1
 62
7
  6
CONTINUOUS
 10
55.860444
 20
106.136659
 11
55.872001
 21
106.136646
  0
LINE
  8
1
 62
7
  6
CONTINUOUS
 10
55.872001
 20
106.136646
 11
55.880592
 21
106.136588
  0
LINE
  8
1
 62
7
  6
CONTINUOUS
 10
55.880592
 20
106.136588
 11
55.885885
 21
106.136529
  0
LINE
  8
1
 62
7
  6
CONTINUOUS
 10
55.885885
 20
106.136529
 11
55.887673
 21
106.136506
  0
LINE
  8
1
 62
7
  6
CONTINUOUS
 10
55.887673
 20
106.136506
 11
55.889464
 21
106.136480
  0
LINE
  8
1
 62
7
  6
CONTINUOUS
 10
55.889464
 20
106.136480
 11
55.894810
 21
106.136391
  0
LINE
  8
1
 62
7
  6
CONTINUOUS
 10
55.894810
 20
106.136391
 11
55.903617
 21
106.136209
  0
LINE
  8
1
 62
7
  6
CONTINUOUS
 10
55.903617
 20
106.136209
 11
55.915715
 21
106.135899
  0
LINE
  8
1
 62
7
  6
CONTINUOUS
 10
55.915715
 20
106.135899
 11
55.930828
 21
106.135435
  0
LINE
  8
1
 62
7
  6
CONTINUOUS
 10
55.930828
 20
106.135435
 11
55.948558
 21
106.134817
  0
LINE
  8
1
 62
7
  6
CONTINUOUS
 10
55.948558
 20
106.134817
 11
55.968381
 21
106.134082
  0
LINE
  8
1
 62
7
  6
CONTINUOUS
 10
55.968381
 20
106.134082
 11
55.989654
 21
106.133304
  0
LINE
  8
1
 62
7
  6
CONTINUOUS
 10
55.989654
 20
106.133304
 11
56.011644
 21
106.132587
  0
LINE
  8
1
 62
7
  6
CONTINUOUS
 10
56.011644
 20
106.132587
 11
56.033580
 21
106.132045
  0
LINE
  8
1
 62
7
  6
CONTINUOUS
 10
56.033580
 20
106.132045
 11
56.054710
 21
106.131778
  0
LINE
  8
1
 62
7
  6
CONTINUOUS
 10
56.054710
 20
106.131778
 11
56.074355
 21
106.131854
  0
LINE
  8
1
 62
7
  6
CONTINUOUS
 10
56.074355
 20
106.131854
 11
56.091959
 21
106.132281
  0
LINE
  8
1
 62
7
  6
CONTINUOUS
 10
56.091959
 20
106.132281
 11
56.107121
 21
106.133010
  0
LINE
  8
1
 62
7
  6
CONTINUOUS
 10
56.107121
 20
106.133010
 11
56.119593
 21
106.133930
  0
LINE
  8
1
 62
7
  6
CONTINUOUS
 10
56.119593
 20
106.133930
 11
56.129264
 21
106.134891
  0
LINE
  8
1
 62
7
  6
CONTINUOUS
 10
56.129264
 20
106.134891
 11
56.136122
 21
106.135731
  0
LINE
  8
1
 62
7
  6
CONTINUOUS
 10
56.136122
 20
106.135731
 11
56.140206
 21
106.136303
  0
LINE
  8
1
 62
7
  6
CONTINUOUS
 10
56.140206
 20
106.136303
 11
56.141562
 21
106.136506
  0
LINE
  8
1
 62
7
  6
CONTINUOUS
 10
56.141562
 20
106.136506
 11
56.142907
 21
106.136713
  0
LINE
  8
1
 62
7
  6
CONTINUOUS
 10
56.142907
 20
106.136713
 11
56.146851
 21
106.137362
  0
LINE
  8
1
 62
7
  6
CONTINUOUS
 10
56.146851
 20
106.137362
 11
56.153128
 21
106.138521
  0
LINE
  8
1
 62
7
  6
CONTINUOUS
 10
56.153128
 20
106.138521
 11
56.161332
 21
106.140288
  0
LINE
  8
1
 62
7
  6
CONTINUOUS
 10
56.161332
 20
106.140288
 11
56.170973
 21
106.142763
  0
LINE
  8
1
 62
7
  6
CONTINUOUS
 10
56.170973
 20
106.142763
 11
56.181527
 21
106.146026
  0
LINE
  8
1
 62
7
  6
CONTINUOUS
 10
56.181527
 20
106.146026
 11
56.192497
 21
106.150109
  0
LINE
  8
1
 62
7
  6
CONTINUOUS
 10
56.192497
 20
106.150109
 11
56.203450
 21
106.154982
  0
LINE
  8
1
 62
7
  6
CONTINUOUS
 10
56.203450
 20
106.154982
 11
56.214046
 21
106.160543
  0
LINE
  8
1
 62
7
  6
CONTINUOUS
 10
56.214046
 20
106.160543
 11
56.224041
 21
106.166624
  0
LINE
  8
1
 62
7
  6
CONTINUOUS
 10
56.224041
 20
106.166624
 11
56.233278
 21
106.173002
  0
LINE
  8
1
 62
7
  6
CONTINUOUS
 10
56.233278
 20
106.173002
 11
56.241660
 21
106.179419
  0
LINE
  8
1
 62
7
  6
CONTINUOUS
 10
56.241660
 20
106.179419
 11
56.249125
 21
106.185608
  0
LINE
  8
1
 62
7
  6
CONTINUOUS
 10
56.249125
 20
106.185608
 11
56.255621
 21
106.191309
  0
LINE
  8
1
 62
7
  6
CONTINUOUS
 10
56.255621
 20
106.191309
 11
56.261090
 21
106.196291
  0
LINE
  8
1
 62
7
  6
CONTINUOUS
 10
56.261090
 20
106.196291
 11
56.265461
 21
106.200360
  0
LINE
  8
1
 62
7
  6
CONTINUOUS
 10
56.265461
 20
106.200360
 11
56.268658
 21
106.203370
  0
LINE
  8
1
 62
7
  6
CONTINUOUS
 10
56.268658
 20
106.203370
 11
56.270609
 21
106.205216
  0
LINE
  8
1
 62
7
  6
CONTINUOUS
 10
56.270609
 20
106.205216
 11
56.271266
 21
106.205838
  0
LINE
  8
1
 62
7
  6
CONTINUOUS
 10
56.271266
 20
106.205838
 11
56.271922
 21
106.206460
  0
LINE
  8
1
 62
7
  6
CONTINUOUS
 10
56.271922
 20
106.206460
 11
56.273875
 21
106.208312
  0
LINE
  8
1
 62
7
  6
CONTINUOUS
 10
56.273875
 20
106.208312
 11
56.277073
 21
106.211351
  0
LINE
  8
1
 62
7
  6
CONTINUOUS
 10
56.277073
 20
106.211351
 11
56.281429
 21
106.215501
  0
LINE
  8
1
 62
7
  6
CONTINUOUS
 10
56.281429
 20
106.215501
 11
56.286824
 21
106.220657
  0
LINE
  8
1
 62
7
  6
CONTINUOUS
 10
56.286824
 20
106.220657
 11
56.293107
 21
106.226682
  0
LINE
  8
1
 62
7
  6
CONTINUOUS
 10
56.293107
 20
106.226682
 11
56.300097
 21
106.233410
  0
LINE
  8
1
 62
7
  6
CONTINUOUS
 10
56.300097
 20
106.233410
 11
56.307589
 21
106.240649
  0
LINE
  8
1
 62
7
  6
CONTINUOUS
 10
56.307589
 20
106.240649
 11
56.315364
 21
106.248188
  0
LINE
  8
1
 62
7
  6
CONTINUOUS
 10
56.315364
 20
106.248188
 11
56.323193
 21
106.255805
  0
LINE
  8
1
 62
7
  6
CONTINUOUS
 10
56.323193
 20
106.255805
 11
56.330850
 21
106.263277
  0
LINE
  8
1
 62
7
  6
CONTINUOUS
 10
56.330850
 20
106.263277
 11
56.338119
 21
106.270389
  0
LINE
  8
1
 62
7
  6
CONTINUOUS
 10
56.338119
 20
106.270389
 11
56.344804
 21
106.276943
  0
LINE
  8
1
 62
7
  6
CONTINUOUS
 10
56.344804
 20
106.276943
 11
56.350733
 21
106.282768
  0
LINE
  8
1
 62
7
  6
CONTINUOUS
 10
56.350733
 20
106.282768
 11
56.355766
 21
106.287718
  0
LINE
  8
1
 62
7
  6
CONTINUOUS
 10
56.355766
 20
106.287718
 11
56.359788
 21
106.291678
  0
LINE
  8
1
 62
7
  6
CONTINUOUS
 10
56.359788
 20
106.291678
 11
56.362718
 21
106.294564
  0
LINE
  8
1
 62
7
  6
CONTINUOUS
 10
56.362718
 20
106.294564
 11
56.364497
 21
106.296318
  0
LINE
  8
1
 62
7
  6
CONTINUOUS
 10
56.364497
 20
106.296318
 11
56.365094
 21
106.296906
  0
LINE
  8
1
 62
7
  6
CONTINUOUS
 10
56.365094
 20
106.296906
 11
56.365690
 21
106.297494
  0
LINE
  8
1
 62
7
  6
CONTINUOUS
 10
56.365690
 20
106.297494
 11
56.367456
 21
106.299234
  0
LINE
  8
1
 62
7
  6
CONTINUOUS
 10
56.367456
 20
106.299234
 11
56.370329
 21
106.302065
  0
LINE
  8
1
 62
7
  6
CONTINUOUS
 10
56.370329
 20
106.302065
 11
56.374214
 21
106.305882
  0
LINE
  8
1
 62
7
  6
CONTINUOUS
 10
56.374214
 20
106.305882
 11
56.378992
 21
106.310545
  0
LINE
  8
1
 62
7
  6
CONTINUOUS
 10
56.378992
 20
106.310545
 11
56.384533
 21
106.315884
  0
LINE
  8
1
 62
7
  6
CONTINUOUS
 10
56.384533
 20
106.315884
 11
56.390700
 21
106.321704
  0
LINE
  8
1
 62
7
  6
CONTINUOUS
 10
56.390700
 20
106.321704
 11
56.397359
 21
106.327799
  0
LINE
  8
1
 62
7
  6
CONTINUOUS
 10
56.397359
 20
106.327799
 11
56.404376
 21
106.333960
  0
LINE
  8
1
 62
7
  6
CONTINUOUS
 10
56.404376
 20
106.333960
 11
56.411610
 21
106.339984
  0
LINE
  8
1
 62
7
  6
CONTINUOUS
 10
56.411610
 20
106.339984
 11
56.418910
 21
106.345694
  0
LINE
  8
1
 62
7
  6
CONTINUOUS
 10
56.418910
 20
106.345694
 11
56.426106
 21
106.350936
  0
LINE
  8
1
 62
7
  6
CONTINUOUS
 10
56.426106
 20
106.350936
 11
56.433005
 21
106.355594
  0
LINE
  8
1
 62
7
  6
CONTINUOUS
 10
56.433005
 20
106.355594
 11
56.439392
 21
106.359586
  0
LINE
  8
1
 62
7
  6
CONTINUOUS
 10
56.439392
 20
106.359586
 11
56.445041
 21
106.362865
  0
LINE
  8
1
 62
7
  6
CONTINUOUS
 10
56.445041
 20
106.362865
 11
56.449726
 21
106.365410
  0
LINE
  8
1
 62
7
  6
CONTINUOUS
 10
56.449726
 20
106.365410
 11
56.453242
 21
106.367219
  0
LINE
  8
1
 62
7
  6
CONTINUOUS
 10
56.453242
 20
106.367219
 11
56.455423
 21
106.368299
  0
LINE
  8
1
 62
7
  6
CONTINUOUS
 10
56.455423
 20
106.368299
 11
56.456163
 21
106.368658
  0
LINE
  8
1
 62
7
  6
CONTINUOUS
 10
56.456163
 20
106.368658
 11
56.456905
 21
106.369014
  0
LINE
  8
1
 62
7
  6
CONTINUOUS
 10
56.456905
 20
106.369014
 11
56.459130
 21
106.370061
  0
LINE
  8
1
 62
7
  6
CONTINUOUS
 10
56.459130
 20
106.370061
 11
56.462824
 21
106.371732
  0
LINE
  8
1
 62
7
  6
CONTINUOUS
 10
56.462824
 20
106.371732
 11
56.467958
 21
106.373928
  0
LINE
  8
1
 62
7
  6
CONTINUOUS
 10
56.467958
 20
106.373928
 11
56.474475
 21
106.376525
  0
LINE
  8
1
 62
7
  6
CONTINUOUS
 10
56.474475
 20
106.376525
 11
56.482276
 21
106.379392
  0
LINE
  8
1
 62
7
  6
CONTINUOUS
 10
56.482276
 20
106.379392
 11
56.491213
 21
106.382400
  0
LINE
  8
1
 62
7
  6
CONTINUOUS
 10
56.491213
 20
106.382400
 11
56.501084
 21
106.385437
  0
LINE
  8
1
 62
7
  6
CONTINUOUS
 10
56.501084
 20
106.385437
 11
56.511634
 21
106.388409
  0
LINE
  8
1
 62
7
  6
CONTINUOUS
 10
56.511634
 20
106.388409
 11
56.522560
 21
106.391244
  0
LINE
  8
1
 62
7
  6
CONTINUOUS
 10
56.522560
 20
106.391244
 11
56.533531
 21
106.393893
  0
LINE
  8
1
 62
7
  6
CONTINUOUS
 10
56.533531
 20
106.393893
 11
56.544200
 21
106.396319
  0
LINE
  8
1
 62
7
  6
CONTINUOUS
 10
56.544200
 20
106.396319
 11
56.554225
 21
106.398495
  0
LINE
  8
1
 62
7
  6
CONTINUOUS
 10
56.554225
 20
106.398495
 11
56.563285
 21
106.400398
  0
LINE
  8
1
 62
7
  6
CONTINUOUS
 10
56.563285
 20
106.400398
 11
56.571096
 21
106.402004
  0
LINE
  8
1
 62
7
  6
CONTINUOUS
 10
56.571096
 20
106.402004
 11
56.577419
 21
106.403290
  0
LINE
  8
1
 62
7
  6
CONTINUOUS
 10
56.577419
 20
106.403290
 11
56.582068
 21
106.404229
  0
LINE
  8
1
 62
7
  6
CONTINUOUS
 10
56.582068
 20
106.404229
 11
56.584911
 21
106.404803
  0
LINE
  8
1
 62
7
  6
CONTINUOUS
 10
56.584911
 20
106.404803
 11
56.585867
 21
106.404996
  0
LINE
  8
1
 62
7
  6
CONTINUOUS
 10
65.409635
 20
106.404996
 11
56.635541
 21
106.404996
  0
LINE
  8
1
 62
7
  6
CONTINUOUS
 10
54.409635
 20
101.755246
 11
54.409635
 21
105.989030
  0
DIMENSION
  8
2
 62
134
  6
CONTINUOUS
  2
*D1
 10
65.409635
 20
110.455242
 11
60.372836
 21
110.455242
 70
     0
  1
11
 13
65.409635
 23
106.904996
 14
54.409635
 24
106.489030
 50
180.000000
  0
TEXT
  8
2
 62
134
  6
CONTINUOUS
 10
60.622836
 20
111.655242
 40
1.000000
 41
0.500000
  1
+1.5
  7
KANJI
 50
0.000000
 51
0.000000
  0
DIMENSION
  8
2
 62
134
  6
CONTINUOUS
  2
*D2
 10
69.405880
 20
106.404996
 11
69.405880
 21
103.851910
 70
     0
  1
φ5
 13
65.909635
 23
106.404996
 14
65.909635
 24
101.404996
 50
-90.000000
  0
TEXT
  8
2
 62
134
  6
CONTINUOUS
 10
68.205880
 20
104.601910
 40
1.000000
 41
0.500000
  1
+0.5
  7
KANJI
 50
90.000000
 51
0.000000
  0
LINE
  8
1
 62
7
  6
CONTINUOUS
 10
54.534635
 20
105.121502
 11
51.937621
 21
106.620888
  0
LINE
  8
1
 62
7
  6
CONTINUOUS
 10
51.937621
 20
106.043538
 11
54.409635
 21
104.616321
  0
LINE
  8
1
 62
7
  6
DASHDOT
 10
55.308108
 20
104.386262
 11
51.453442
 21
106.611755
  0
LINE
  8
1
 62
7
  6
CONTINUOUS
 10
54.534635
 20
102.688489
 11
51.937621
 21
101.189103
  0
LINE
  8
1
 62
7
  6
CONTINUOUS
 10
51.937621
 20
101.766453
 11
54.409635
 21
103.193671
  0
LINE
  8
1
 62
7
  6
DASHDOT
 10
55.308108
 20
103.423730
 11
51.453442
 21
101.198237
  0
TEXT
  8
2
 62
134
  6
CONTINUOUS
 10
40.340307
 20
84.466561
 40
2.000000
 41
1.000000
  1
静電容量：1μF
  7
KANJI
 50
0.000000
 51
0.000000
  0
TEXT
  8
2
 62
134
  6
CONTINUOUS
 10
40.340307
 20
82.025686
 40
2.000000
 41
1.000000
  1
定格電圧：50V
  7
KANJI
 50
0.000000
 51
0.000000
  0
TEXT
  8
2
 62
134
  6
CONTINUOUS
 10
40.065117
 20
75.692378
 40
2.000000
 41
1.000000
  1
質量：0.5g
  7
KANJI
 50
0.000000
 51
0.000000
  0
TEXT
  8
2
 62
134
  6
CONTINUOUS
 10
40.337189
 20
79.569390
 40
2.000000
 41
1.000000
  1
極性：両極性
  7
KANJI
 50
0.000000
 51
0.000000
  0
TEXT
  8
5
 62
94
  6
CONTINUOUS
 10
74.610994
 20
9.646300
 40
2.000000
 41
1.000000
  1
００５－０６５－Ａ１８５
  7
KANJI
 50
0.000000
 51
0.000000
  0
ENDSEC
  0
EOF
