  0
SECTION
  2
HEADER
  9
$ACADVER
  1
AC1009
  9
$INSBASE
 10
0.000000
 20
0.000000
  9
$EXTMIN
 10
0.000000
 20
0.000000
  9
$EXTMAX
 10
105.000000
 20
148.500000
  9
$LIMMIN
 10
0.000000
 20
0.000000
  9
$LIMMAX
 10
105.000000
 20
148.500000
  9
$VIEWCTR
 10
52.500000
 20
74.250000
  9
$VIEWSIZE
 40
148.500000
  9
$PEXTMIN
 10
0.000000
 20
0.000000
 30
0.000000
  9
$PEXTMAX
 10
210.000000
 20
297.000000
 30
0.000000
  9
$SNAPMODE
 70
     0
  9
$SNAPUNIT
 10
1.000000
 20
1.000000
  9
$SNAPBASE
 10
0.000000
 20
0.000000
  9
$SNAPANG
 50
0.000000
  9
$SNAPISOPAIR
 70
     0
  9
$SNAPSTYLE
 70
     0
  9
$GRIDMODE
 70
     0
  9
$GRIDUNIT
 10
0.000000
 20
0.000000
  9
$ORTHOMODE
 70
     0
  9
$REGENMODE
 70
     1
  9
$FILLMODE
 70
     1
  9
$QTEXTMODE
 70
     0
  9
$DRAGMODE
 70
     2
  9
$LTSCALE
 40
0.125000
  9
$OSMODE
 70
     0
  9
$ATTMODE
 70
     1
  9
$TEXTSIZE
 40
2.000000
  9
$TRACEWID
 40
0.050000
  9
$TEXTSTYLE
  7
STANDARD
  9
$CLAYER
  8
0
  9
$CELTYPE
  6
BYLAYER
  9
$CECOLOR
 62
   256
  9
$DIMSCALE
 40
1.000000
  9
$DIMASZ
 40
1.000000
  9
$DIMEXO
 40
0.000000
  9
$DIMDLI
 40
0.500000
  9
$DIMRND
 40
0.000000
  9
$DIMDLE
 40
0.000000
  9
$DIMEXE
 40
0.000000
  9
$DIMTP
 40
0.000000
  9
$DIMTM
 40
0.000000
  9
$DIMTXT
 40
4.000000
  9
$DIMCEN
 40
0.000000
  9
$DIMTSZ
 40
0.000000
  9
$DIMTOL
 70
     0
  9
$DIMLIM
 70
     0
  9
$DIMTIH
 70
     1
  9
$DIMTOH
 70
     1
  9
$DIMSE1
 70
     0
  9
$DIMSE2
 70
     0
  9
$DIMTAD
 70
     0
  9
$DIMZIN
 70
     0
  9
$DIMBLK
  1

  9
$DIMASO
 70
     0
  9
$DIMSHO
 70
     0
  9
$DIMPOST
  1

  9
$DIMAPOST
  1

  9
$DIMALT
 70
     0
  9
$DIMALTD
 70
     0
  9
$DIMALTF
 40
25.400000
  9
$DIMLFAC
 40
1.000000
  9
$DIMTOFL
 70
     0
  9
$DIMTVP
 40
0.000000
  9
$DIMTIX
 70
     0
  9
$DIMSOXD
 70
     0
  9
$DIMSAH
 70
     0
  9
$DIMBLKL
  1

  9
$DIMBLKR
  1

  9
$LUNITS
 70
     2
  9
$LUPREC
 70
     2
  9
$AXISMODE
 70
     0
  9
$AXISUNIT
 10
1.000000
 20
1.000000
  9
$SKETCHINC
 40
0.000000
  9
$FILLETRAD
 40
0.000000
  9
$AUNITS
 70
     1
  9
$AUPREC
 70
     2
  9
$MENU
  1
ACAD
  9
$ELEVATION
 40
0.000000
  9
$THICKNESS
 40
0.000000
  9
$VIEWDIR
 10
0.000000
 20
0.000000
 30
1.000000
  9
$LIMCHECK
 70
     1
  9
$BLIPMODE
 70
     1
  9
$CHAMFERA
 40
0.000000
  9
$CHAMFERB
 40
0.000000
  9
$FASTZOOM
 70
     1
  9
$SKPOLY
 70
     0
  9
$TDCREATE
 40
0.000000
  9
$TDUPDATE
 40
0.000000
  9
$TDINDWG
 40
0.000000
  9
$TDUSRTIMER
 40
0.000000
  9
$USRTIMER
 70
     1
  9
$ANGBASE
 50
0.000000
  9
$ANGDIR
 70
     0
  9
$PDMODE
 70
     0
  9
$PDSIZE
 40
0.000000
  9
$PLINEWID
 40
0.000000
  9
$COORDS
 70
     2
  9
$USERI1
 70
     0
  9
$USERI2
 70
     0
  9
$USERI3
 70
     0
  9
$USERI4
 70
     0
  9
$USERI5
 70
     0
  9
$USERR1
 40
0.000000
  9
$USERR2
 40
0.000000
  9
$USERR3
 40
0.000000
  9
$USERR4
 40
0.000000
  9
$USERR5
 40
0.000000
  0
ENDSEC
  0
SECTION
  2
TABLES
  0
TABLE
  2
LTYPE
 70
     5
  0
LTYPE
  2
CONTINUOUS
 70
    64
  3
Solid line
 72
    65
 73
     0
 40
0.0
  0
LTYPE
  2
HIDDEN
 70
    64
  3
------------------------
 72
    65
 73
     2
 40
12.6
 49
8.4
 49
-4.2
  0
LTYPE
  2
DOT
 70
    64
  3
････････････････････････
 72
    65
 73
     2
 40
8.0
 49
6.0
 49
-2.0
  0
LTYPE
  2
DASHDOT
 70
    64
  3
--･--･--･--･--･--･--･--
 72
    65
 73
     4
 40
50.5
 49
30.0
 49
-9.0
 49
2.5
 49
-9.0
  0
LTYPE
  2
DIVIDE
 70
    64
  3
--･･--･･--･･--･･--･･--
 72
    65
 73
     6
 40
58.0
 49
30.0
 49
-9.0
 49
2.5
 49
-5.0
 49
2.5
 49
-9.0
  0
LTYPE
  2
ACAD_ISO06W100
 70
    64
  3
____ ... ____ ... ____
 72
    65
 73
     8
 40
37.5
 49
24.0
 49
-3.0
 49
0.5
 49
-3.0
 49
0.5
 49
-3.0
 49
0.5
 49
-3.0
  0
LTYPE
  2
ACAD_ISO14W100
 70
    64
  3
__ . . . __ . . . __ . . . 
 72
    65
 73
     8
 40
25.5
 49
12.0
 49
-3.0
 49
0.5
 49
-3.0
 49
0.5
 49
-3.0
 49
0.5
 49
-3.0
  0
ENDTAB
  0
TABLE
  2
LAYER
 70
3
  0
LAYER
  2
1
 70
64
 62
7
  6
CONTINUOUS
  0
LAYER
  2
2
 70
64
 62
134
  6
CONTINUOUS
  0
LAYER
  2
5
 70
64
 62
94
  6
CONTINUOUS
  0
ENDTAB
  0
TABLE
  2
STYLE
 70
     2
  0
STYLE
  2
STANDARD
 70
    64
 40
0.0
 41
1.0
 50
0.0
 71
     0
 42
0.2
  3
TXT
  4

  0
STYLE
  2
KANJI
 70
    64
 40
0.0
 41
1.0
 50
0.0
 71
     0
 42
0.2
  3
TXT
  4
BIGFONT
  0
ENDTAB
  0
TABLE
  2
VIEW
 70
     0
  0
ENDTAB
  0
ENDSEC
  0
SECTION
  2
BLOCKS
  0
BLOCK
  8
2
 62
134
  6
CONTINUOUS
  2
*D1
 70
    65
 10
0.0
 20
0.0
  0
LINE
  8
2
 62
134
  6
CONTINUOUS
 10
57.764216
 20
92.369914
 11
57.764216
 21
103.502573
  0
LINE
  8
2
 62
134
  6
CONTINUOUS
 10
57.764216
 20
96.369914
 11
58.023035
 21
95.403989
  0
LINE
  8
2
 62
134
  6
CONTINUOUS
 10
57.764216
 20
96.369914
 11
57.505397
 21
95.403989
  0
LINE
  8
2
 62
134
  6
CONTINUOUS
 10
58.023035
 20
95.403989
 11
57.505397
 21
95.403989
  0
LINE
  8
2
 62
134
  6
CONTINUOUS
 10
57.764216
 20
96.128433
 11
57.893626
 21
95.645470
  0
LINE
  8
2
 62
134
  6
CONTINUOUS
 10
57.764216
 20
96.128433
 11
57.634807
 21
95.645470
  0
LINE
  8
2
 62
134
  6
CONTINUOUS
 10
57.893626
 20
95.645470
 11
57.634807
 21
95.645470
  0
LINE
  8
2
 62
134
  6
CONTINUOUS
 10
57.764216
 20
96.969914
 11
57.505397
 21
97.935840
  0
LINE
  8
2
 62
134
  6
CONTINUOUS
 10
57.764216
 20
96.969914
 11
58.023035
 21
97.935840
  0
LINE
  8
2
 62
134
  6
CONTINUOUS
 10
57.505397
 20
97.935840
 11
58.023035
 21
97.935840
  0
LINE
  8
2
 62
134
  6
CONTINUOUS
 10
57.764216
 20
97.211396
 11
57.634807
 21
97.694359
  0
LINE
  8
2
 62
134
  6
CONTINUOUS
 10
57.764216
 20
97.211396
 11
57.893626
 21
97.694359
  0
LINE
  8
2
 62
134
  6
CONTINUOUS
 10
57.634807
 20
97.694359
 11
57.893626
 21
97.694359
  0
TEXT
  8
2
 62
134
  6
CONTINUOUS
 10
57.764216
 20
98.502573
 40
2.000000
 41
1.000000
  1
φ0.6
  7
KANJI
 50
90.000000
 51
0.000000
  0
ENDBLK
  0
BLOCK
  8
2
 62
134
  6
CONTINUOUS
  2
*D2
 70
    65
 10
0.0
 20
0.0
  0
LINE
  8
2
 62
134
  6
CONTINUOUS
 10
43.071154
 20
89.000046
 11
52.571154
 21
89.000046
  0
LINE
  8
2
 62
134
  6
CONTINUOUS
 10
43.071154
 20
88.500046
 11
43.071154
 21
94.937752
  0
LINE
  8
2
 62
134
  6
CONTINUOUS
 10
52.571154
 20
88.500046
 11
52.571154
 21
94.937752
  0
LINE
  8
2
 62
134
  6
CONTINUOUS
 10
43.071154
 20
89.000046
 11
44.037080
 21
89.258865
  0
LINE
  8
2
 62
134
  6
CONTINUOUS
 10
43.071154
 20
89.000046
 11
44.037080
 21
88.741227
  0
LINE
  8
2
 62
134
  6
CONTINUOUS
 10
44.037080
 20
89.258865
 11
44.037080
 21
88.741227
  0
LINE
  8
2
 62
134
  6
CONTINUOUS
 10
43.312636
 20
89.000046
 11
43.795599
 21
89.129456
  0
LINE
  8
2
 62
134
  6
CONTINUOUS
 10
43.312636
 20
89.000046
 11
43.795599
 21
88.870637
  0
LINE
  8
2
 62
134
  6
CONTINUOUS
 10
43.795599
 20
89.129456
 11
43.795599
 21
88.870637
  0
LINE
  8
2
 62
134
  6
CONTINUOUS
 10
52.571154
 20
89.000046
 11
51.605229
 21
88.741227
  0
LINE
  8
2
 62
134
  6
CONTINUOUS
 10
52.571154
 20
89.000046
 11
51.605229
 21
89.258865
  0
LINE
  8
2
 62
134
  6
CONTINUOUS
 10
51.605229
 20
88.741227
 11
51.605229
 21
89.258865
  0
LINE
  8
2
 62
134
  6
CONTINUOUS
 10
52.329673
 20
89.000046
 11
51.846710
 21
88.870637
  0
LINE
  8
2
 62
134
  6
CONTINUOUS
 10
52.329673
 20
89.000046
 11
51.846710
 21
89.129456
  0
LINE
  8
2
 62
134
  6
CONTINUOUS
 10
51.846710
 20
88.870637
 11
51.846710
 21
89.129456
  0
TEXT
  8
2
 62
134
  6
CONTINUOUS
 10
44.661396
 20
89.000046
 40
2.000000
 41
0.500000
  1
9.5
  7
KANJI
 50
0.000000
 51
0.000000
  0
ENDBLK
  0
BLOCK
  8
2
 62
134
  6
CONTINUOUS
  2
*D3
 70
    65
 10
0.0
 20
0.0
  0
LINE
  8
2
 62
134
  6
CONTINUOUS
 10
48.734215
 20
110.383033
 11
48.734215
 21
90.911384
  0
LINE
  8
2
 62
134
  6
CONTINUOUS
 10
48.734215
 20
98.411380
 11
48.475396
 21
99.377305
  0
LINE
  8
2
 62
134
  6
CONTINUOUS
 10
48.734215
 20
98.411380
 11
48.993034
 21
99.377305
  0
LINE
  8
2
 62
134
  6
CONTINUOUS
 10
48.475396
 20
99.377305
 11
48.993034
 21
99.377305
  0
LINE
  8
2
 62
134
  6
CONTINUOUS
 10
48.734215
 20
98.652861
 11
48.604805
 21
99.135824
  0
LINE
  8
2
 62
134
  6
CONTINUOUS
 10
48.734215
 20
98.652861
 11
48.863624
 21
99.135824
  0
LINE
  8
2
 62
134
  6
CONTINUOUS
 10
48.604805
 20
99.135824
 11
48.863624
 21
99.135824
  0
LINE
  8
2
 62
134
  6
CONTINUOUS
 10
48.734215
 20
94.911384
 11
48.993034
 21
93.945458
  0
LINE
  8
2
 62
134
  6
CONTINUOUS
 10
48.734215
 20
94.911384
 11
48.475396
 21
93.945458
  0
LINE
  8
2
 62
134
  6
CONTINUOUS
 10
48.993034
 20
93.945458
 11
48.475396
 21
93.945458
  0
LINE
  8
2
 62
134
  6
CONTINUOUS
 10
48.734215
 20
94.669902
 11
48.863624
 21
94.186940
  0
LINE
  8
2
 62
134
  6
CONTINUOUS
 10
48.734215
 20
94.669902
 11
48.604805
 21
94.186940
  0
LINE
  8
2
 62
134
  6
CONTINUOUS
 10
48.863624
 20
94.186940
 11
48.604805
 21
94.186940
  0
TEXT
  8
2
 62
134
  6
CONTINUOUS
 10
48.734215
 20
99.883033
 40
2.000000
 41
1.000000
  1
φ3.5
  7
KANJI
 50
90.000000
 51
0.000000
  0
ENDBLK
  0
BLOCK
  8
2
 62
134
  6
CONTINUOUS
  2
*D4
 70
    65
 10
0.0
 20
0.0
  0
LINE
  8
2
 62
134
  6
CONTINUOUS
 10
52.571154
 20
89.000046
 11
70.834727
 21
89.000046
  0
LINE
  8
2
 62
134
  6
CONTINUOUS
 10
52.571154
 20
88.500046
 11
52.571154
 21
94.937752
  0
LINE
  8
2
 62
134
  6
CONTINUOUS
 10
70.834727
 20
88.500046
 11
70.834727
 21
95.869914
  0
LINE
  8
2
 62
134
  6
CONTINUOUS
 10
52.571154
 20
89.000046
 11
53.537080
 21
89.258865
  0
LINE
  8
2
 62
134
  6
CONTINUOUS
 10
52.571154
 20
89.000046
 11
53.537080
 21
88.741227
  0
LINE
  8
2
 62
134
  6
CONTINUOUS
 10
53.537080
 20
89.258865
 11
53.537080
 21
88.741227
  0
LINE
  8
2
 62
134
  6
CONTINUOUS
 10
52.812636
 20
89.000046
 11
53.295599
 21
89.129456
  0
LINE
  8
2
 62
134
  6
CONTINUOUS
 10
52.812636
 20
89.000046
 11
53.295599
 21
88.870637
  0
LINE
  8
2
 62
134
  6
CONTINUOUS
 10
53.295599
 20
89.129456
 11
53.295599
 21
88.870637
  0
LINE
  8
2
 62
134
  6
CONTINUOUS
 10
70.834727
 20
89.000046
 11
69.868801
 21
88.741227
  0
LINE
  8
2
 62
134
  6
CONTINUOUS
 10
70.834727
 20
89.000046
 11
69.868801
 21
89.258865
  0
LINE
  8
2
 62
134
  6
CONTINUOUS
 10
69.868801
 20
88.741227
 11
69.868801
 21
89.258865
  0
LINE
  8
2
 62
134
  6
CONTINUOUS
 10
70.593245
 20
89.000046
 11
70.110282
 21
88.870637
  0
LINE
  8
2
 62
134
  6
CONTINUOUS
 10
70.593245
 20
89.000046
 11
70.110282
 21
89.129456
  0
LINE
  8
2
 62
134
  6
CONTINUOUS
 10
70.110282
 20
88.870637
 11
70.110282
 21
89.129456
  0
TEXT
  8
2
 62
134
  6
CONTINUOUS
 10
58.104419
 20
89.000046
 40
2.000000
 41
0.500000
  1
38
  7
KANJI
 50
0.000000
 51
0.000000
  0
ENDBLK
  0
BLOCK
  8
2
 62
134
  6
CONTINUOUS
  2
*D5
 70
    65
 10
0.0
 20
0.0
  0
LINE
  8
2
 62
134
  6
CONTINUOUS
 10
24.807582
 20
89.000046
 11
43.071154
 21
89.000046
  0
LINE
  8
2
 62
134
  6
CONTINUOUS
 10
24.807582
 20
88.500046
 11
24.807582
 21
95.869914
  0
LINE
  8
2
 62
134
  6
CONTINUOUS
 10
43.071154
 20
88.500046
 11
43.071154
 21
94.937752
  0
LINE
  8
2
 62
134
  6
CONTINUOUS
 10
24.807582
 20
89.000046
 11
25.773508
 21
89.258865
  0
LINE
  8
2
 62
134
  6
CONTINUOUS
 10
24.807582
 20
89.000046
 11
25.773508
 21
88.741227
  0
LINE
  8
2
 62
134
  6
CONTINUOUS
 10
25.773508
 20
89.258865
 11
25.773508
 21
88.741227
  0
LINE
  8
2
 62
134
  6
CONTINUOUS
 10
25.049064
 20
89.000046
 11
25.532027
 21
89.129456
  0
LINE
  8
2
 62
134
  6
CONTINUOUS
 10
25.049064
 20
89.000046
 11
25.532027
 21
88.870637
  0
LINE
  8
2
 62
134
  6
CONTINUOUS
 10
25.532027
 20
89.129456
 11
25.532027
 21
88.870637
  0
LINE
  8
2
 62
134
  6
CONTINUOUS
 10
43.071154
 20
89.000046
 11
42.105229
 21
88.741227
  0
LINE
  8
2
 62
134
  6
CONTINUOUS
 10
43.071154
 20
89.000046
 11
42.105229
 21
89.258865
  0
LINE
  8
2
 62
134
  6
CONTINUOUS
 10
42.105229
 20
88.741227
 11
42.105229
 21
89.258865
  0
LINE
  8
2
 62
134
  6
CONTINUOUS
 10
42.829673
 20
89.000046
 11
42.346710
 21
88.870637
  0
LINE
  8
2
 62
134
  6
CONTINUOUS
 10
42.829673
 20
89.000046
 11
42.346710
 21
89.129456
  0
LINE
  8
2
 62
134
  6
CONTINUOUS
 10
42.346710
 20
88.870637
 11
42.346710
 21
89.129456
  0
TEXT
  8
2
 62
134
  6
CONTINUOUS
 10
31.501803
 20
89.000046
 40
2.000000
 41
0.500000
  1
38
  7
KANJI
 50
0.000000
 51
0.000000
  0
ENDBLK
  0
ENDSEC
  0
SECTION
  2
ENTITIES
  0
TEXT
  8
5
 62
94
  6
CONTINUOUS
 10
62.215971
 20
12.429830
 40
0.875000
 41
4.000000
  1
製図
  7
KANJI
 50
-90.000000
 51
0.000000
  0
TEXT
  8
5
 62
94
  6
CONTINUOUS
 10
72.132362
 20
12.347876
 40
0.875000
 41
4.000000
  1
図番
  7
KANJI
 50
-90.000000
 51
0.000000
  0
TEXT
  8
5
 62
94
  6
CONTINUOUS
 10
72.132362
 20
18.986121
 40
0.875000
 41
4.000000
  1
図　名
  7
KANJI
 50
-90.000000
 51
0.000000
  0
TEXT
  8
5
 62
94
  6
CONTINUOUS
 10
39.678720
 20
16.281651
 40
0.875000
 41
4.000000
  1
日付
  7
KANJI
 50
-90.000000
 51
0.000000
  0
TEXT
  8
5
 62
94
  6
CONTINUOUS
 10
57.216799
 20
16.363605
 40
0.875000
 41
4.000000
  1
図法
  7
KANJI
 50
-90.000000
 51
0.000000
  0
TEXT
  8
5
 62
94
  6
CONTINUOUS
 10
57.134846
 20
20.379333
 40
0.875000
 41
4.000000
  1
尺度
  7
KANJI
 50
-90.000000
 51
0.000000
  0
TEXT
  8
5
 62
94
  6
CONTINUOUS
 10
39.678720
 20
20.297379
 40
0.875000
 41
4.000000
  1
公差
  7
KANJI
 50
-90.000000
 51
0.000000
  0
TEXT
  8
5
 62
94
  6
CONTINUOUS
 10
39.678720
 20
12.347876
 40
0.875000
 41
4.000000
  1
承認
  7
KANJI
 50
-90.000000
 51
0.000000
  0
TEXT
  8
5
 62
94
  6
CONTINUOUS
 10
52.217627
 20
12.347876
 40
0.875000
 41
4.000000
  1
設計
  7
KANJI
 50
-90.000000
 51
0.000000
  0
TEXT
  8
5
 62
94
  6
CONTINUOUS
 10
48.939481
 20
5.381816
 40
2.250000
 41
1.888889
  1
ジャパンセンサー株式会社
  7
KANJI
 50
0.000000
 51
0.000000
  0
LINE
  8
5
 62
94
  6
CONTINUOUS
 10
39.234597
 20
20.604085
 11
99.234597
 21
20.604085
  0
LINE
  8
5
 62
94
  6
CONTINUOUS
 10
39.234597
 20
4.604085
 11
39.234597
 21
20.604085
  0
LINE
  8
5
 62
94
  6
CONTINUOUS
 10
99.234597
 20
8.604085
 11
39.234597
 21
8.604085
  0
LINE
  8
5
 62
94
  6
CONTINUOUS
 10
71.734597
 20
20.604085
 11
71.734597
 21
8.604085
  0
LINE
  8
5
 62
94
  6
CONTINUOUS
 10
99.234597
 20
12.604085
 11
39.234597
 21
12.604085
  0
LINE
  8
5
 62
94
  6
CONTINUOUS
 10
74.234597
 20
8.604085
 11
74.234597
 21
20.604085
  0
LINE
  8
5
 62
94
  6
CONTINUOUS
 10
59.234597
 20
20.604085
 11
59.234597
 21
12.604085
  0
LINE
  8
5
 62
94
  6
CONTINUOUS
 10
41.734597
 20
8.604085
 11
41.734597
 21
20.604085
  0
LINE
  8
5
 62
94
  6
CONTINUOUS
 10
39.234597
 20
16.604085
 11
71.734597
 21
16.604085
  0
LINE
  8
5
 62
94
  6
CONTINUOUS
 10
56.734597
 20
20.604085
 11
56.734597
 21
12.604085
  0
LINE
  8
5
 62
94
  6
CONTINUOUS
 10
51.734597
 20
8.604085
 11
51.734597
 21
12.604085
  0
LINE
  8
5
 62
94
  6
CONTINUOUS
 10
61.734597
 20
8.604085
 11
61.734597
 21
12.604085
  0
LINE
  8
5
 62
94
  6
CONTINUOUS
 10
54.234597
 20
12.604085
 11
54.234597
 21
8.604085
  0
LINE
  8
5
 62
94
  6
CONTINUOUS
 10
64.234597
 20
12.604085
 11
64.234597
 21
8.604085
  0
TEXT
  8
5
 62
94
  6
CONTINUOUS
 10
61.232528
 20
13.249366
 40
2.000000
 41
1.000000
  1
三角法
  7
KANJI
 50
0.000000
 51
0.000000
  0
TEXT
  8
5
 62
94
  6
CONTINUOUS
 10
55.824656
 20
9.573573
 40
2.000000
 41
1.000000
  1
須藤
  7
KANJI
 50
0.000000
 51
0.000000
  0
TEXT
  8
5
 62
94
  6
CONTINUOUS
 10
62.548081
 20
17.466289
 40
2.000000
 41
1.000000
  1
２／１
  7
KANJI
 50
0.000000
 51
0.000000
  0
TEXT
  8
5
 62
94
  6
CONTINUOUS
 10
65.824656
 20
9.573573
 40
2.000000
 41
1.000000
  1
須藤
  7
KANJI
 50
0.000000
 51
0.000000
  0
LINE
  8
5
 62
94
  6
CONTINUOUS
 10
6.734597
 20
142.104085
 11
6.734597
 21
4.604085
  0
LINE
  8
5
 62
94
  6
CONTINUOUS
 10
6.734597
 20
4.604085
 11
99.234597
 21
4.604085
  0
LINE
  8
5
 62
94
  6
CONTINUOUS
 10
99.234597
 20
4.604085
 11
99.234597
 21
142.104085
  0
LINE
  8
5
 62
94
  6
CONTINUOUS
 10
99.234597
 20
142.104085
 11
6.734597
 21
142.104085
  0
TEXT
  8
5
 62
94
  6
CONTINUOUS
 10
44.277904
 20
13.519931
 40
2.000000
 41
0.500000
  1
2014/01/24
  7
KANJI
 50
0.000000
 51
0.000000
  0
TEXT
  8
5
 62
94
  6
CONTINUOUS
 10
75.566654
 20
15.464153
 40
2.000000
 41
1.000000
  1
0～5V/0～10V 変換抵抗
  7
KANJI
 50
0.000000
 51
0.000000
  0
TEXT
  8
5
 62
94
  6
CONTINUOUS
 10
75.566654
 20
13.207707
 40
2.000000
 41
1.000000
  1
外形図
  7
KANJI
 50
0.000000
 51
0.000000
  0
LINE
  8
1
 62
7
  6
CONTINUOUS
 10
24.807582
 20
96.969914
 11
24.807582
 21
96.369914
  0
LINE
  8
1
 62
7
  6
DASHDOT
 10
35.162337
 20
96.669914
 11
71.723115
 21
96.669914
  0
LINE
  8
1
 62
7
  6
DASHDOT
 10
23.064774
 20
96.669914
 11
34.519321
 21
96.669914
  0
LINE
  8
1
 62
7
  6
CONTINUOUS
 10
34.817864
 20
97.430650
 11
34.404497
 21
96.029794
  0
LINE
  8
1
 62
7
  6
CONTINUOUS
 10
35.100202
 20
97.430650
 11
34.686834
 21
96.029794
  0
LINE
  8
1
 62
7
  6
CONTINUOUS
 10
24.807582
 20
96.369914
 11
34.504860
 21
96.369914
  0
LINE
  8
1
 62
7
  6
CONTINUOUS
 10
34.681909
 20
96.969914
 11
24.807582
 21
96.969914
  0
LINE
  8
1
 62
7
  6
CONTINUOUS
 10
43.071154
 20
96.969914
 11
34.964247
 21
96.969914
  0
LINE
  8
1
 62
7
  6
CONTINUOUS
 10
34.787197
 20
96.369914
 11
43.071154
 21
96.369914
  0
LINE
  8
1
 62
7
  6
CONTINUOUS
 10
70.834727
 20
96.369914
 11
70.834727
 21
96.969914
  0
LINE
  8
1
 62
7
  6
DASHDOT
 10
72.577535
 20
96.669914
 11
61.122988
 21
96.669914
  0
LINE
  8
1
 62
7
  6
CONTINUOUS
 10
60.824445
 20
95.909178
 11
61.237812
 21
97.310035
  0
LINE
  8
1
 62
7
  6
CONTINUOUS
 10
60.542107
 20
95.909178
 11
60.955475
 21
97.310035
  0
LINE
  8
1
 62
7
  6
CONTINUOUS
 10
70.834727
 20
96.969914
 11
61.137449
 21
96.969914
  0
LINE
  8
1
 62
7
  6
CONTINUOUS
 10
60.960399
 20
96.369914
 11
70.834727
 21
96.369914
  0
LINE
  8
1
 62
7
  6
CONTINUOUS
 10
52.571154
 20
96.369914
 11
60.678062
 21
96.369914
  0
LINE
  8
1
 62
7
  6
CONTINUOUS
 10
60.855111
 20
96.969914
 11
52.571154
 21
96.969914
  0
LINE
  8
1
 62
7
  6
CONTINUOUS
 10
52.571154
 20
97.902077
 11
52.570416
 21
97.903357
  0
LINE
  8
1
 62
7
  6
CONTINUOUS
 10
52.570416
 20
97.903357
 11
52.568220
 21
97.907162
  0
LINE
  8
1
 62
7
  6
CONTINUOUS
 10
52.568220
 20
97.907162
 11
52.564619
 21
97.913387
  0
LINE
  8
1
 62
7
  6
CONTINUOUS
 10
52.564619
 20
97.913387
 11
52.559686
 21
97.921864
  0
LINE
  8
1
 62
7
  6
CONTINUOUS
 10
52.559686
 20
97.921864
 11
52.553497
 21
97.932359
  0
LINE
  8
1
 62
7
  6
CONTINUOUS
 10
52.553497
 20
97.932359
 11
52.546118
 21
97.944584
  0
LINE
  8
1
 62
7
  6
CONTINUOUS
 10
52.546118
 20
97.944584
 11
52.537596
 21
97.958204
  0
LINE
  8
1
 62
7
  6
CONTINUOUS
 10
52.537596
 20
97.958204
 11
52.527971
 21
97.972843
  0
LINE
  8
1
 62
7
  6
CONTINUOUS
 10
52.527971
 20
97.972843
 11
52.517293
 21
97.988099
  0
LINE
  8
1
 62
7
  6
CONTINUOUS
 10
52.517293
 20
97.988099
 11
52.505658
 21
98.003552
  0
LINE
  8
1
 62
7
  6
CONTINUOUS
 10
52.505658
 20
98.003552
 11
52.493243
 21
98.018778
  0
LINE
  8
1
 62
7
  6
CONTINUOUS
 10
52.493243
 20
98.018778
 11
52.480330
 21
98.033362
  0
LINE
  8
1
 62
7
  6
CONTINUOUS
 10
52.480330
 20
98.033362
 11
52.467327
 21
98.046905
  0
LINE
  8
1
 62
7
  6
CONTINUOUS
 10
52.467327
 20
98.046905
 11
52.454760
 21
98.059043
  0
LINE
  8
1
 62
7
  6
CONTINUOUS
 10
52.454760
 20
98.059043
 11
52.443238
 21
98.069447
  0
LINE
  8
1
 62
7
  6
CONTINUOUS
 10
52.443238
 20
98.069447
 11
52.433404
 21
98.077840
  0
LINE
  8
1
 62
7
  6
CONTINUOUS
 10
52.433404
 20
98.077840
 11
52.425865
 21
98.083999
  0
LINE
  8
1
 62
7
  6
CONTINUOUS
 10
52.425865
 20
98.083999
 11
52.421121
 21
98.087761
  0
LINE
  8
1
 62
7
  6
CONTINUOUS
 10
52.421121
 20
98.087761
 11
52.419502
 21
98.089025
  0
LINE
  8
1
 62
7
  6
CONTINUOUS
 10
52.419502
 20
98.089025
 11
52.417870
 21
98.090290
  0
LINE
  8
1
 62
7
  6
CONTINUOUS
 10
52.417870
 20
98.090290
 11
52.412950
 21
98.094048
  0
LINE
  8
1
 62
7
  6
CONTINUOUS
 10
52.412950
 20
98.094048
 11
52.404678
 21
98.100191
  0
LINE
  8
1
 62
7
  6
CONTINUOUS
 10
52.404678
 20
98.100191
 11
52.392992
 21
98.108533
  0
LINE
  8
1
 62
7
  6
CONTINUOUS
 10
52.392992
 20
98.108533
 11
52.377892
 21
98.118817
  0
LINE
  8
1
 62
7
  6
CONTINUOUS
 10
52.377892
 20
98.118817
 11
52.359493
 21
98.130707
  0
LINE
  8
1
 62
7
  6
CONTINUOUS
 10
52.359493
 20
98.130707
 11
52.338077
 21
98.143806
  0
LINE
  8
1
 62
7
  6
CONTINUOUS
 10
52.338077
 20
98.143806
 11
52.314119
 21
98.157665
  0
LINE
  8
1
 62
7
  6
CONTINUOUS
 10
52.314119
 20
98.157665
 11
52.288282
 21
98.171809
  0
LINE
  8
1
 62
7
  6
CONTINUOUS
 10
52.288282
 20
98.171809
 11
52.261386
 21
98.185765
  0
LINE
  8
1
 62
7
  6
CONTINUOUS
 10
52.261386
 20
98.185765
 11
52.234352
 21
98.199090
  0
LINE
  8
1
 62
7
  6
CONTINUOUS
 10
52.234352
 20
98.199090
 11
52.208129
 21
98.211398
  0
LINE
  8
1
 62
7
  6
CONTINUOUS
 10
52.208129
 20
98.211398
 11
52.183627
 21
98.222383
  0
LINE
  8
1
 62
7
  6
CONTINUOUS
 10
52.183627
 20
98.222383
 11
52.161654
 21
98.231826
  0
LINE
  8
1
 62
7
  6
CONTINUOUS
 10
52.161654
 20
98.231826
 11
52.142881
 21
98.239592
  0
LINE
  8
1
 62
7
  6
CONTINUOUS
 10
52.142881
 20
98.239592
 11
52.127819
 21
98.245623
  0
LINE
  8
1
 62
7
  6
CONTINUOUS
 10
52.127819
 20
98.245623
 11
52.116835
 21
98.249908
  0
LINE
  8
1
 62
7
  6
CONTINUOUS
 10
52.116835
 20
98.249908
 11
52.110160
 21
98.252464
  0
LINE
  8
1
 62
7
  6
CONTINUOUS
 10
52.110160
 20
98.252464
 11
52.107921
 21
98.253313
  0
LINE
  8
1
 62
7
  6
CONTINUOUS
 10
52.107921
 20
98.253313
 11
52.105687
 21
98.254157
  0
LINE
  8
1
 62
7
  6
CONTINUOUS
 10
52.105687
 20
98.254157
 11
52.099066
 21
98.256633
  0
LINE
  8
1
 62
7
  6
CONTINUOUS
 10
52.099066
 20
98.256633
 11
52.088296
 21
98.260584
  0
LINE
  8
1
 62
7
  6
CONTINUOUS
 10
52.088296
 20
98.260584
 11
52.073747
 21
98.265772
  0
LINE
  8
1
 62
7
  6
CONTINUOUS
 10
52.073747
 20
98.265772
 11
52.055885
 21
98.271908
  0
LINE
  8
1
 62
7
  6
CONTINUOUS
 10
52.055885
 20
98.271908
 11
52.035231
 21
98.278692
  0
LINE
  8
1
 62
7
  6
CONTINUOUS
 10
52.035231
 20
98.278692
 11
52.012336
 21
98.285837
  0
LINE
  8
1
 62
7
  6
CONTINUOUS
 10
52.012336
 20
98.285837
 11
51.987753
 21
98.293097
  0
LINE
  8
1
 62
7
  6
CONTINUOUS
 10
51.987753
 20
98.293097
 11
51.962037
 21
98.300279
  0
LINE
  8
1
 62
7
  6
CONTINUOUS
 10
51.962037
 20
98.300279
 11
51.935746
 21
98.307237
  0
LINE
  8
1
 62
7
  6
CONTINUOUS
 10
51.935746
 20
98.307237
 11
51.909463
 21
98.313867
  0
LINE
  8
1
 62
7
  6
CONTINUOUS
 10
51.909463
 20
98.313867
 11
51.883810
 21
98.320085
  0
LINE
  8
1
 62
7
  6
CONTINUOUS
 10
51.883810
 20
98.320085
 11
51.859456
 21
98.325808
  0
LINE
  8
1
 62
7
  6
CONTINUOUS
 10
51.859456
 20
98.325808
 11
51.837113
 21
98.330945
  0
LINE
  8
1
 62
7
  6
CONTINUOUS
 10
51.837113
 20
98.330945
 11
51.817514
 21
98.335389
  0
LINE
  8
1
 62
7
  6
CONTINUOUS
 10
51.817514
 20
98.335389
 11
51.801369
 21
98.339022
  0
LINE
  8
1
 62
7
  6
CONTINUOUS
 10
51.801369
 20
98.339022
 11
51.789318
 21
98.341723
  0
LINE
  8
1
 62
7
  6
CONTINUOUS
 10
51.789318
 20
98.341723
 11
51.781867
 21
98.343391
  0
LINE
  8
1
 62
7
  6
CONTINUOUS
 10
51.781867
 20
98.343391
 11
51.779346
 21
98.343955
  0
LINE
  8
1
 62
7
  6
CONTINUOUS
 10
51.779346
 20
98.343955
 11
51.776817
 21
98.344521
  0
LINE
  8
1
 62
7
  6
CONTINUOUS
 10
51.776817
 20
98.344521
 11
51.769254
 21
98.346212
  0
LINE
  8
1
 62
7
  6
CONTINUOUS
 10
51.769254
 20
98.346212
 11
51.756738
 21
98.349007
  0
LINE
  8
1
 62
7
  6
CONTINUOUS
 10
51.756738
 20
98.349007
 11
51.739431
 21
98.352859
  0
LINE
  8
1
 62
7
  6
CONTINUOUS
 10
51.739431
 20
98.352859
 11
51.717604
 21
98.357684
  0
LINE
  8
1
 62
7
  6
CONTINUOUS
 10
51.717604
 20
98.357684
 11
51.691673
 21
98.363351
  0
LINE
  8
1
 62
7
  6
CONTINUOUS
 10
51.691673
 20
98.363351
 11
51.662216
 21
98.369675
  0
LINE
  8
1
 62
7
  6
CONTINUOUS
 10
51.662216
 20
98.369675
 11
51.629983
 21
98.376424
  0
LINE
  8
1
 62
7
  6
CONTINUOUS
 10
51.629983
 20
98.376424
 11
51.595876
 21
98.383329
  0
LINE
  8
1
 62
7
  6
CONTINUOUS
 10
51.595876
 20
98.383329
 11
51.560914
 21
98.390109
  0
LINE
  8
1
 62
7
  6
CONTINUOUS
 10
51.560914
 20
98.390109
 11
51.526180
 21
98.396499
  0
LINE
  8
1
 62
7
  6
CONTINUOUS
 10
51.526180
 20
98.396499
 11
51.492761
 21
98.402273
  0
LINE
  8
1
 62
7
  6
CONTINUOUS
 10
51.492761
 20
98.402273
 11
51.461688
 21
98.407270
  0
LINE
  8
1
 62
7
  6
CONTINUOUS
 10
51.461688
 20
98.407270
 11
51.433885
 21
98.411400
  0
LINE
  8
1
 62
7
  6
CONTINUOUS
 10
51.433885
 20
98.411400
 11
51.410134
 21
98.414645
  0
LINE
  8
1
 62
7
  6
CONTINUOUS
 10
51.410134
 20
98.414645
 11
51.391058
 21
98.417045
  0
LINE
  8
1
 62
7
  6
CONTINUOUS
 10
51.391058
 20
98.417045
 11
51.377122
 21
98.418673
  0
LINE
  8
1
 62
7
  6
CONTINUOUS
 10
51.377122
 20
98.418673
 11
51.368640
 21
98.419610
  0
LINE
  8
1
 62
7
  6
CONTINUOUS
 10
51.368640
 20
98.419610
 11
51.365793
 21
98.419914
  0
LINE
  8
1
 62
7
  6
CONTINUOUS
 10
51.365793
 20
98.419914
 11
51.362950
 21
98.420214
  0
LINE
  8
1
 62
7
  6
CONTINUOUS
 10
51.362950
 20
98.420214
 11
51.354516
 21
98.421074
  0
LINE
  8
1
 62
7
  6
CONTINUOUS
 10
51.354516
 20
98.421074
 11
51.340772
 21
98.422382
  0
LINE
  8
1
 62
7
  6
CONTINUOUS
 10
51.340772
 20
98.422382
 11
51.322160
 21
98.423973
  0
LINE
  8
1
 62
7
  6
CONTINUOUS
 10
51.322160
 20
98.423973
 11
51.299246
 21
98.425646
  0
LINE
  8
1
 62
7
  6
CONTINUOUS
 10
51.299246
 20
98.425646
 11
51.272683
 21
98.427197
  0
LINE
  8
1
 62
7
  6
CONTINUOUS
 10
51.272683
 20
98.427197
 11
51.243178
 21
98.428445
  0
LINE
  8
1
 62
7
  6
CONTINUOUS
 10
51.243178
 20
98.428445
 11
51.211467
 21
98.429251
  0
LINE
  8
1
 62
7
  6
CONTINUOUS
 10
51.211467
 20
98.429251
 11
51.178305
 21
98.429537
  0
LINE
  8
1
 62
7
  6
CONTINUOUS
 10
51.178305
 20
98.429537
 11
51.144463
 21
98.429289
  0
LINE
  8
1
 62
7
  6
CONTINUOUS
 10
51.144463
 20
98.429289
 11
51.110741
 21
98.428553
  0
LINE
  8
1
 62
7
  6
CONTINUOUS
 10
51.110741
 20
98.428553
 11
51.077972
 21
98.427425
  0
LINE
  8
1
 62
7
  6
CONTINUOUS
 10
51.077972
 20
98.427425
 11
51.047024
 21
98.426037
  0
LINE
  8
1
 62
7
  6
CONTINUOUS
 10
51.047024
 20
98.426037
 11
51.018791
 21
98.424536
  0
LINE
  8
1
 62
7
  6
CONTINUOUS
 10
51.018791
 20
98.424536
 11
50.994159
 21
98.423072
  0
LINE
  8
1
 62
7
  6
CONTINUOUS
 10
50.994159
 20
98.423072
 11
50.973969
 21
98.421779
  0
LINE
  8
1
 62
7
  6
CONTINUOUS
 10
50.973969
 20
98.421779
 11
50.958957
 21
98.420772
  0
LINE
  8
1
 62
7
  6
CONTINUOUS
 10
50.958957
 20
98.420772
 11
50.949703
 21
98.420133
  0
LINE
  8
1
 62
7
  6
CONTINUOUS
 10
50.949703
 20
98.420133
 11
50.946576
 21
98.419914
  0
LINE
  8
1
 62
7
  6
CONTINUOUS
 10
50.946576
 20
98.419914
 11
50.943442
 21
98.419694
  0
LINE
  8
1
 62
7
  6
CONTINUOUS
 10
50.943442
 20
98.419694
 11
50.934083
 21
98.419027
  0
LINE
  8
1
 62
7
  6
CONTINUOUS
 10
50.934083
 20
98.419027
 11
50.918645
 21
98.417897
  0
LINE
  8
1
 62
7
  6
CONTINUOUS
 10
50.918645
 20
98.417897
 11
50.897406
 21
98.416275
  0
LINE
  8
1
 62
7
  6
CONTINUOUS
 10
50.897406
 20
98.416275
 11
50.870822
 21
98.414120
  0
LINE
  8
1
 62
7
  6
CONTINUOUS
 10
50.870822
 20
98.414120
 11
50.839559
 21
98.411380
  0
LINE
  8
1
 62
7
  6
CONTINUOUS
 10
50.839559
 20
98.411380
 11
50.804513
 21
98.408001
  0
LINE
  8
1
 62
7
  6
CONTINUOUS
 10
50.804513
 20
98.408001
 11
50.766799
 21
98.403940
  0
LINE
  8
1
 62
7
  6
CONTINUOUS
 10
50.766799
 20
98.403940
 11
50.727690
 21
98.399178
  0
LINE
  8
1
 62
7
  6
CONTINUOUS
 10
50.727690
 20
98.399178
 11
50.688549
 21
98.393742
  0
LINE
  8
1
 62
7
  6
CONTINUOUS
 10
50.688549
 20
98.393742
 11
50.650717
 21
98.387721
  0
LINE
  8
1
 62
7
  6
CONTINUOUS
 10
50.650717
 20
98.387721
 11
50.615415
 21
98.381280
  0
LINE
  8
1
 62
7
  6
CONTINUOUS
 10
50.615415
 20
98.381280
 11
50.583658
 21
98.374657
  0
LINE
  8
1
 62
7
  6
CONTINUOUS
 10
50.583658
 20
98.374657
 11
50.556203
 21
98.368160
  0
LINE
  8
1
 62
7
  6
CONTINUOUS
 10
50.556203
 20
98.368160
 11
50.533534
 21
98.362142
  0
LINE
  8
1
 62
7
  6
CONTINUOUS
 10
50.533534
 20
98.362142
 11
50.515893
 21
98.356971
  0
LINE
  8
1
 62
7
  6
CONTINUOUS
 10
50.515893
 20
98.356971
 11
50.503345
 21
98.352990
  0
LINE
  8
1
 62
7
  6
CONTINUOUS
 10
50.503345
 20
98.352990
 11
50.495856
 21
98.350478
  0
LINE
  8
1
 62
7
  6
CONTINUOUS
 10
50.495856
 20
98.350478
 11
50.493368
 21
98.349620
  0
LINE
  8
1
 62
7
  6
CONTINUOUS
 10
50.493368
 20
98.349620
 11
50.490896
 21
98.348755
  0
LINE
  8
1
 62
7
  6
CONTINUOUS
 10
50.490896
 20
98.348755
 11
50.483642
 21
98.346143
  0
LINE
  8
1
 62
7
  6
CONTINUOUS
 10
50.483642
 20
98.346143
 11
50.472067
 21
98.341745
  0
LINE
  8
1
 62
7
  6
CONTINUOUS
 10
50.472067
 20
98.341745
 11
50.456867
 21
98.335527
  0
LINE
  8
1
 62
7
  6
CONTINUOUS
 10
50.456867
 20
98.335527
 11
50.438884
 21
98.327497
  0
LINE
  8
1
 62
7
  6
CONTINUOUS
 10
50.438884
 20
98.327497
 11
50.419004
 21
98.317741
  0
LINE
  8
1
 62
7
  6
CONTINUOUS
 10
50.419004
 20
98.317741
 11
50.398059
 21
98.306454
  0
LINE
  8
1
 62
7
  6
CONTINUOUS
 10
50.398059
 20
98.306454
 11
50.376768
 21
98.293947
  0
LINE
  8
1
 62
7
  6
CONTINUOUS
 10
50.376768
 20
98.293947
 11
50.355696
 21
98.280643
  0
LINE
  8
1
 62
7
  6
CONTINUOUS
 10
50.355696
 20
98.280643
 11
50.335264
 21
98.267038
  0
LINE
  8
1
 62
7
  6
CONTINUOUS
 10
50.335264
 20
98.267038
 11
50.315781
 21
98.253658
  0
LINE
  8
1
 62
7
  6
CONTINUOUS
 10
50.315781
 20
98.253658
 11
50.297494
 21
98.241009
  0
LINE
  8
1
 62
7
  6
CONTINUOUS
 10
50.297494
 20
98.241009
 11
50.280645
 21
98.229528
  0
LINE
  8
1
 62
7
  6
CONTINUOUS
 10
50.280645
 20
98.229528
 11
50.265506
 21
98.219547
  0
LINE
  8
1
 62
7
  6
CONTINUOUS
 10
50.265506
 20
98.219547
 11
50.252398
 21
98.211286
  0
LINE
  8
1
 62
7
  6
CONTINUOUS
 10
50.252398
 20
98.211286
 11
50.241678
 21
98.204856
  0
LINE
  8
1
 62
7
  6
CONTINUOUS
 10
50.241678
 20
98.204856
 11
50.233701
 21
98.200288
  0
LINE
  8
1
 62
7
  6
CONTINUOUS
 10
50.233701
 20
98.200288
 11
50.228775
 21
98.197566
  0
LINE
  8
1
 62
7
  6
CONTINUOUS
 10
50.228775
 20
98.197566
 11
50.227108
 21
98.196662
  0
LINE
  8
1
 62
7
  6
CONTINUOUS
 10
50.227108
 20
98.196662
 11
50.225437
 21
98.195765
  0
LINE
  8
1
 62
7
  6
CONTINUOUS
 10
50.225437
 20
98.195765
 11
50.220438
 21
98.193136
  0
LINE
  8
1
 62
7
  6
CONTINUOUS
 10
50.220438
 20
98.193136
 11
50.212165
 21
98.188950
  0
LINE
  8
1
 62
7
  6
CONTINUOUS
 10
50.212165
 20
98.188950
 11
50.200720
 21
98.183478
  0
LINE
  8
1
 62
7
  6
CONTINUOUS
 10
50.200720
 20
98.183478
 11
50.186274
 21
98.177047
  0
LINE
  8
1
 62
7
  6
CONTINUOUS
 10
50.186274
 20
98.177047
 11
50.169084
 21
98.170005
  0
LINE
  8
1
 62
7
  6
CONTINUOUS
 10
50.169084
 20
98.170005
 11
50.149507
 21
98.162685
  0
LINE
  8
1
 62
7
  6
CONTINUOUS
 10
50.149507
 20
98.162685
 11
50.128005
 21
98.155376
  0
LINE
  8
1
 62
7
  6
CONTINUOUS
 10
50.128005
 20
98.155376
 11
50.105142
 21
98.148307
  0
LINE
  8
1
 62
7
  6
CONTINUOUS
 10
50.105142
 20
98.148307
 11
50.081565
 21
98.141642
  0
LINE
  8
1
 62
7
  6
CONTINUOUS
 10
50.081565
 20
98.141642
 11
50.057975
 21
98.135488
  0
LINE
  8
1
 62
7
  6
CONTINUOUS
 10
50.057975
 20
98.135488
 11
50.035099
 21
98.129909
  0
LINE
  8
1
 62
7
  6
CONTINUOUS
 10
50.035099
 20
98.129909
 11
50.013649
 21
98.124948
  0
LINE
  8
1
 62
7
  6
CONTINUOUS
 10
50.013649
 20
98.124948
 11
49.994289
 21
98.120636
  0
LINE
  8
1
 62
7
  6
CONTINUOUS
 10
49.994289
 20
98.120636
 11
49.977614
 21
98.117012
  0
LINE
  8
1
 62
7
  6
CONTINUOUS
 10
49.977614
 20
98.117012
 11
49.964120
 21
98.114120
  0
LINE
  8
1
 62
7
  6
CONTINUOUS
 10
49.964120
 20
98.114120
 11
49.954201
 21
98.112007
  0
LINE
  8
1
 62
7
  6
CONTINUOUS
 10
49.954201
 20
98.112007
 11
49.948137
 21
98.110718
  0
LINE
  8
1
 62
7
  6
CONTINUOUS
 10
49.948137
 20
98.110718
 11
49.946097
 21
98.110285
  0
LINE
  8
1
 62
7
  6
CONTINUOUS
 10
52.571154
 20
95.437752
 11
52.570416
 21
95.436472
  0
LINE
  8
1
 62
7
  6
CONTINUOUS
 10
52.570416
 20
95.436472
 11
52.568220
 21
95.432667
  0
LINE
  8
1
 62
7
  6
CONTINUOUS
 10
52.568220
 20
95.432667
 11
52.564619
 21
95.426441
  0
LINE
  8
1
 62
7
  6
CONTINUOUS
 10
52.564619
 20
95.426441
 11
52.559686
 21
95.417965
  0
LINE
  8
1
 62
7
  6
CONTINUOUS
 10
52.559686
 20
95.417965
 11
52.553497
 21
95.407470
  0
LINE
  8
1
 62
7
  6
CONTINUOUS
 10
52.553497
 20
95.407470
 11
52.546118
 21
95.395245
  0
LINE
  8
1
 62
7
  6
CONTINUOUS
 10
52.546118
 20
95.395245
 11
52.537596
 21
95.381625
  0
LINE
  8
1
 62
7
  6
CONTINUOUS
 10
52.537596
 20
95.381625
 11
52.527971
 21
95.366986
  0
LINE
  8
1
 62
7
  6
CONTINUOUS
 10
52.527971
 20
95.366986
 11
52.517293
 21
95.351730
  0
LINE
  8
1
 62
7
  6
CONTINUOUS
 10
52.517293
 20
95.351730
 11
52.505658
 21
95.336277
  0
LINE
  8
1
 62
7
  6
CONTINUOUS
 10
52.505658
 20
95.336277
 11
52.493243
 21
95.321050
  0
LINE
  8
1
 62
7
  6
CONTINUOUS
 10
52.493243
 20
95.321050
 11
52.480330
 21
95.306467
  0
LINE
  8
1
 62
7
  6
CONTINUOUS
 10
52.480330
 20
95.306467
 11
52.467327
 21
95.292923
  0
LINE
  8
1
 62
7
  6
CONTINUOUS
 10
52.467327
 20
95.292923
 11
52.454760
 21
95.280786
  0
LINE
  8
1
 62
7
  6
CONTINUOUS
 10
52.454760
 20
95.280786
 11
52.443238
 21
95.270382
  0
LINE
  8
1
 62
7
  6
CONTINUOUS
 10
52.443238
 20
95.270382
 11
52.433404
 21
95.261989
  0
LINE
  8
1
 62
7
  6
CONTINUOUS
 10
52.433404
 20
95.261989
 11
52.425865
 21
95.255830
  0
LINE
  8
1
 62
7
  6
CONTINUOUS
 10
52.425865
 20
95.255830
 11
52.421121
 21
95.252068
  0
LINE
  8
1
 62
7
  6
CONTINUOUS
 10
52.421121
 20
95.252068
 11
52.419502
 21
95.250803
  0
LINE
  8
1
 62
7
  6
CONTINUOUS
 10
52.419502
 20
95.250803
 11
52.417870
 21
95.249539
  0
LINE
  8
1
 62
7
  6
CONTINUOUS
 10
52.417870
 20
95.249539
 11
52.412950
 21
95.245781
  0
LINE
  8
1
 62
7
  6
CONTINUOUS
 10
52.412950
 20
95.245781
 11
52.404678
 21
95.239638
  0
LINE
  8
1
 62
7
  6
CONTINUOUS
 10
52.404678
 20
95.239638
 11
52.392992
 21
95.231295
  0
LINE
  8
1
 62
7
  6
CONTINUOUS
 10
52.392992
 20
95.231295
 11
52.377892
 21
95.221012
  0
LINE
  8
1
 62
7
  6
CONTINUOUS
 10
52.377892
 20
95.221012
 11
52.359493
 21
95.209122
  0
LINE
  8
1
 62
7
  6
CONTINUOUS
 10
52.359493
 20
95.209122
 11
52.338077
 21
95.196023
  0
LINE
  8
1
 62
7
  6
CONTINUOUS
 10
52.338077
 20
95.196023
 11
52.314119
 21
95.182164
  0
LINE
  8
1
 62
7
  6
CONTINUOUS
 10
52.314119
 20
95.182164
 11
52.288282
 21
95.168020
  0
LINE
  8
1
 62
7
  6
CONTINUOUS
 10
52.288282
 20
95.168020
 11
52.261386
 21
95.154064
  0
LINE
  8
1
 62
7
  6
CONTINUOUS
 10
52.261386
 20
95.154064
 11
52.234352
 21
95.140739
  0
LINE
  8
1
 62
7
  6
CONTINUOUS
 10
52.234352
 20
95.140739
 11
52.208129
 21
95.128431
  0
LINE
  8
1
 62
7
  6
CONTINUOUS
 10
52.208129
 20
95.128431
 11
52.183627
 21
95.117446
  0
LINE
  8
1
 62
7
  6
CONTINUOUS
 10
52.183627
 20
95.117446
 11
52.161654
 21
95.108003
  0
LINE
  8
1
 62
7
  6
CONTINUOUS
 10
52.161654
 20
95.108003
 11
52.142881
 21
95.100236
  0
LINE
  8
1
 62
7
  6
CONTINUOUS
 10
52.142881
 20
95.100236
 11
52.127819
 21
95.094206
  0
LINE
  8
1
 62
7
  6
CONTINUOUS
 10
52.127819
 20
95.094206
 11
52.116835
 21
95.089921
  0
LINE
  8
1
 62
7
  6
CONTINUOUS
 10
52.116835
 20
95.089921
 11
52.110160
 21
95.087365
  0
LINE
  8
1
 62
7
  6
CONTINUOUS
 10
52.110160
 20
95.087365
 11
52.107921
 21
95.086515
  0
LINE
  8
1
 62
7
  6
CONTINUOUS
 10
52.107921
 20
95.086515
 11
52.105687
 21
95.085672
  0
LINE
  8
1
 62
7
  6
CONTINUOUS
 10
52.105687
 20
95.085672
 11
52.099066
 21
95.083196
  0
LINE
  8
1
 62
7
  6
CONTINUOUS
 10
52.099066
 20
95.083196
 11
52.088296
 21
95.079245
  0
LINE
  8
1
 62
7
  6
CONTINUOUS
 10
52.088296
 20
95.079245
 11
52.073747
 21
95.074057
  0
LINE
  8
1
 62
7
  6
CONTINUOUS
 10
52.073747
 20
95.074057
 11
52.055885
 21
95.067920
  0
LINE
  8
1
 62
7
  6
CONTINUOUS
 10
52.055885
 20
95.067920
 11
52.035231
 21
95.061137
  0
LINE
  8
1
 62
7
  6
CONTINUOUS
 10
52.035231
 20
95.061137
 11
52.012336
 21
95.053992
  0
LINE
  8
1
 62
7
  6
CONTINUOUS
 10
52.012336
 20
95.053992
 11
51.987753
 21
95.046732
  0
LINE
  8
1
 62
7
  6
CONTINUOUS
 10
51.987753
 20
95.046732
 11
51.962037
 21
95.039550
  0
LINE
  8
1
 62
7
  6
CONTINUOUS
 10
51.962037
 20
95.039550
 11
51.935746
 21
95.032591
  0
LINE
  8
1
 62
7
  6
CONTINUOUS
 10
51.935746
 20
95.032591
 11
51.909463
 21
95.025961
  0
LINE
  8
1
 62
7
  6
CONTINUOUS
 10
51.909463
 20
95.025961
 11
51.883810
 21
95.019744
  0
LINE
  8
1
 62
7
  6
CONTINUOUS
 10
51.883810
 20
95.019744
 11
51.859456
 21
95.014021
  0
LINE
  8
1
 62
7
  6
CONTINUOUS
 10
51.859456
 20
95.014021
 11
51.837113
 21
95.008884
  0
LINE
  8
1
 62
7
  6
CONTINUOUS
 10
51.837113
 20
95.008884
 11
51.817514
 21
95.004439
  0
LINE
  8
1
 62
7
  6
CONTINUOUS
 10
51.817514
 20
95.004439
 11
51.801369
 21
95.000807
  0
LINE
  8
1
 62
7
  6
CONTINUOUS
 10
51.801369
 20
95.000807
 11
51.789318
 21
94.998106
  0
LINE
  8
1
 62
7
  6
CONTINUOUS
 10
51.789318
 20
94.998106
 11
51.781867
 21
94.996438
  0
LINE
  8
1
 62
7
  6
CONTINUOUS
 10
51.781867
 20
94.996438
 11
51.779346
 21
94.995874
  0
LINE
  8
1
 62
7
  6
CONTINUOUS
 10
51.779346
 20
94.995874
 11
51.776817
 21
94.995308
  0
LINE
  8
1
 62
7
  6
CONTINUOUS
 10
51.776817
 20
94.995308
 11
51.769254
 21
94.993617
  0
LINE
  8
1
 62
7
  6
CONTINUOUS
 10
51.769254
 20
94.993617
 11
51.756738
 21
94.990822
  0
LINE
  8
1
 62
7
  6
CONTINUOUS
 10
51.756738
 20
94.990822
 11
51.739431
 21
94.986970
  0
LINE
  8
1
 62
7
  6
CONTINUOUS
 10
51.739431
 20
94.986970
 11
51.717604
 21
94.982145
  0
LINE
  8
1
 62
7
  6
CONTINUOUS
 10
51.717604
 20
94.982145
 11
51.691673
 21
94.976478
  0
LINE
  8
1
 62
7
  6
CONTINUOUS
 10
51.691673
 20
94.976478
 11
51.662216
 21
94.970154
  0
LINE
  8
1
 62
7
  6
CONTINUOUS
 10
51.662216
 20
94.970154
 11
51.629983
 21
94.963405
  0
LINE
  8
1
 62
7
  6
CONTINUOUS
 10
51.629983
 20
94.963405
 11
51.595876
 21
94.956500
  0
LINE
  8
1
 62
7
  6
CONTINUOUS
 10
51.595876
 20
94.956500
 11
51.560914
 21
94.949720
  0
LINE
  8
1
 62
7
  6
CONTINUOUS
 10
51.560914
 20
94.949720
 11
51.526180
 21
94.943330
  0
LINE
  8
1
 62
7
  6
CONTINUOUS
 10
51.526180
 20
94.943330
 11
51.492761
 21
94.937555
  0
LINE
  8
1
 62
7
  6
CONTINUOUS
 10
51.492761
 20
94.937555
 11
51.461688
 21
94.932559
  0
LINE
  8
1
 62
7
  6
CONTINUOUS
 10
51.461688
 20
94.932559
 11
51.433885
 21
94.928429
  0
LINE
  8
1
 62
7
  6
CONTINUOUS
 10
51.433885
 20
94.928429
 11
51.410134
 21
94.925184
  0
LINE
  8
1
 62
7
  6
CONTINUOUS
 10
51.410134
 20
94.925184
 11
51.391058
 21
94.922784
  0
LINE
  8
1
 62
7
  6
CONTINUOUS
 10
51.391058
 20
94.922784
 11
51.377122
 21
94.921156
  0
LINE
  8
1
 62
7
  6
CONTINUOUS
 10
51.377122
 20
94.921156
 11
51.368640
 21
94.920219
  0
LINE
  8
1
 62
7
  6
CONTINUOUS
 10
51.368640
 20
94.920219
 11
51.365793
 21
94.919914
  0
LINE
  8
1
 62
7
  6
CONTINUOUS
 10
51.365793
 20
94.919914
 11
51.362950
 21
94.919615
  0
LINE
  8
1
 62
7
  6
CONTINUOUS
 10
51.362950
 20
94.919615
 11
51.354516
 21
94.918755
  0
LINE
  8
1
 62
7
  6
CONTINUOUS
 10
51.354516
 20
94.918755
 11
51.340772
 21
94.917446
  0
LINE
  8
1
 62
7
  6
CONTINUOUS
 10
51.340772
 20
94.917446
 11
51.322160
 21
94.915856
  0
LINE
  8
1
 62
7
  6
CONTINUOUS
 10
51.322160
 20
94.915856
 11
51.299246
 21
94.914183
  0
LINE
  8
1
 62
7
  6
CONTINUOUS
 10
51.299246
 20
94.914183
 11
51.272683
 21
94.912631
  0
LINE
  8
1
 62
7
  6
CONTINUOUS
 10
51.272683
 20
94.912631
 11
51.243178
 21
94.911384
  0
LINE
  8
1
 62
7
  6
CONTINUOUS
 10
51.243178
 20
94.911384
 11
51.211467
 21
94.910578
  0
LINE
  8
1
 62
7
  6
CONTINUOUS
 10
51.211467
 20
94.910578
 11
51.178305
 21
94.910292
  0
LINE
  8
1
 62
7
  6
CONTINUOUS
 10
51.178305
 20
94.910292
 11
51.144463
 21
94.910540
  0
LINE
  8
1
 62
7
  6
CONTINUOUS
 10
51.144463
 20
94.910540
 11
51.110741
 21
94.911276
  0
LINE
  8
1
 62
7
  6
CONTINUOUS
 10
51.110741
 20
94.911276
 11
51.077972
 21
94.912404
  0
LINE
  8
1
 62
7
  6
CONTINUOUS
 10
51.077972
 20
94.912404
 11
51.047024
 21
94.913792
  0
LINE
  8
1
 62
7
  6
CONTINUOUS
 10
51.047024
 20
94.913792
 11
51.018791
 21
94.915292
  0
LINE
  8
1
 62
7
  6
CONTINUOUS
 10
51.018791
 20
94.915292
 11
50.994159
 21
94.916757
  0
LINE
  8
1
 62
7
  6
CONTINUOUS
 10
50.994159
 20
94.916757
 11
50.973969
 21
94.918049
  0
LINE
  8
1
 62
7
  6
CONTINUOUS
 10
50.973969
 20
94.918049
 11
50.958957
 21
94.919057
  0
LINE
  8
1
 62
7
  6
CONTINUOUS
 10
50.958957
 20
94.919057
 11
50.949703
 21
94.919696
  0
LINE
  8
1
 62
7
  6
CONTINUOUS
 10
50.949703
 20
94.919696
 11
50.946576
 21
94.919914
  0
LINE
  8
1
 62
7
  6
CONTINUOUS
 10
50.946576
 20
94.919914
 11
50.943442
 21
94.920135
  0
LINE
  8
1
 62
7
  6
CONTINUOUS
 10
50.943442
 20
94.920135
 11
50.934083
 21
94.920802
  0
LINE
  8
1
 62
7
  6
CONTINUOUS
 10
50.934083
 20
94.920802
 11
50.918645
 21
94.921932
  0
LINE
  8
1
 62
7
  6
CONTINUOUS
 10
50.918645
 20
94.921932
 11
50.897406
 21
94.923554
  0
LINE
  8
1
 62
7
  6
CONTINUOUS
 10
50.897406
 20
94.923554
 11
50.870822
 21
94.925709
  0
LINE
  8
1
 62
7
  6
CONTINUOUS
 10
50.870822
 20
94.925709
 11
50.839559
 21
94.928449
  0
LINE
  8
1
 62
7
  6
CONTINUOUS
 10
50.839559
 20
94.928449
 11
50.804513
 21
94.931828
  0
LINE
  8
1
 62
7
  6
CONTINUOUS
 10
50.804513
 20
94.931828
 11
50.766799
 21
94.935889
  0
LINE
  8
1
 62
7
  6
CONTINUOUS
 10
50.766799
 20
94.935889
 11
50.727690
 21
94.940651
  0
LINE
  8
1
 62
7
  6
CONTINUOUS
 10
50.727690
 20
94.940651
 11
50.688549
 21
94.946087
  0
LINE
  8
1
 62
7
  6
CONTINUOUS
 10
50.688549
 20
94.946087
 11
50.650717
 21
94.952107
  0
LINE
  8
1
 62
7
  6
CONTINUOUS
 10
50.650717
 20
94.952107
 11
50.615415
 21
94.958549
  0
LINE
  8
1
 62
7
  6
CONTINUOUS
 10
50.615415
 20
94.958549
 11
50.583658
 21
94.965172
  0
LINE
  8
1
 62
7
  6
CONTINUOUS
 10
50.583658
 20
94.965172
 11
50.556203
 21
94.971669
  0
LINE
  8
1
 62
7
  6
CONTINUOUS
 10
50.556203
 20
94.971669
 11
50.533534
 21
94.977687
  0
LINE
  8
1
 62
7
  6
CONTINUOUS
 10
50.533534
 20
94.977687
 11
50.515893
 21
94.982858
  0
LINE
  8
1
 62
7
  6
CONTINUOUS
 10
50.515893
 20
94.982858
 11
50.503345
 21
94.986839
  0
LINE
  8
1
 62
7
  6
CONTINUOUS
 10
50.503345
 20
94.986839
 11
50.495856
 21
94.989350
  0
LINE
  8
1
 62
7
  6
CONTINUOUS
 10
50.495856
 20
94.989350
 11
50.493368
 21
94.990209
  0
LINE
  8
1
 62
7
  6
CONTINUOUS
 10
50.493368
 20
94.990209
 11
50.490896
 21
94.991074
  0
LINE
  8
1
 62
7
  6
CONTINUOUS
 10
50.490896
 20
94.991074
 11
50.483642
 21
94.993686
  0
LINE
  8
1
 62
7
  6
CONTINUOUS
 10
50.483642
 20
94.993686
 11
50.472067
 21
94.998084
  0
LINE
  8
1
 62
7
  6
CONTINUOUS
 10
50.472067
 20
94.998084
 11
50.456867
 21
95.004301
  0
LINE
  8
1
 62
7
  6
CONTINUOUS
 10
50.456867
 20
95.004301
 11
50.438884
 21
95.012331
  0
LINE
  8
1
 62
7
  6
CONTINUOUS
 10
50.438884
 20
95.012331
 11
50.419004
 21
95.022088
  0
LINE
  8
1
 62
7
  6
CONTINUOUS
 10
50.419004
 20
95.022088
 11
50.398059
 21
95.033375
  0
LINE
  8
1
 62
7
  6
CONTINUOUS
 10
50.398059
 20
95.033375
 11
50.376768
 21
95.045882
  0
LINE
  8
1
 62
7
  6
CONTINUOUS
 10
50.376768
 20
95.045882
 11
50.355696
 21
95.059186
  0
LINE
  8
1
 62
7
  6
CONTINUOUS
 10
50.355696
 20
95.059186
 11
50.335264
 21
95.072791
  0
LINE
  8
1
 62
7
  6
CONTINUOUS
 10
50.335264
 20
95.072791
 11
50.315781
 21
95.086171
  0
LINE
  8
1
 62
7
  6
CONTINUOUS
 10
50.315781
 20
95.086171
 11
50.297494
 21
95.098819
  0
LINE
  8
1
 62
7
  6
CONTINUOUS
 10
50.297494
 20
95.098819
 11
50.280645
 21
95.110301
  0
LINE
  8
1
 62
7
  6
CONTINUOUS
 10
50.280645
 20
95.110301
 11
50.265506
 21
95.120282
  0
LINE
  8
1
 62
7
  6
CONTINUOUS
 10
50.265506
 20
95.120282
 11
50.252398
 21
95.128543
  0
LINE
  8
1
 62
7
  6
CONTINUOUS
 10
50.252398
 20
95.128543
 11
50.241678
 21
95.134973
  0
LINE
  8
1
 62
7
  6
CONTINUOUS
 10
50.241678
 20
95.134973
 11
50.233701
 21
95.139541
  0
LINE
  8
1
 62
7
  6
CONTINUOUS
 10
50.233701
 20
95.139541
 11
50.228775
 21
95.142263
  0
LINE
  8
1
 62
7
  6
CONTINUOUS
 10
50.228775
 20
95.142263
 11
50.227108
 21
95.143166
  0
LINE
  8
1
 62
7
  6
CONTINUOUS
 10
50.227108
 20
95.143166
 11
50.225437
 21
95.144064
  0
LINE
  8
1
 62
7
  6
CONTINUOUS
 10
50.225437
 20
95.144064
 11
50.220438
 21
95.146693
  0
LINE
  8
1
 62
7
  6
CONTINUOUS
 10
50.220438
 20
95.146693
 11
50.212165
 21
95.150879
  0
LINE
  8
1
 62
7
  6
CONTINUOUS
 10
50.212165
 20
95.150879
 11
50.200720
 21
95.156351
  0
LINE
  8
1
 62
7
  6
CONTINUOUS
 10
50.200720
 20
95.156351
 11
50.186274
 21
95.162782
  0
LINE
  8
1
 62
7
  6
CONTINUOUS
 10
50.186274
 20
95.162782
 11
50.169084
 21
95.169824
  0
LINE
  8
1
 62
7
  6
CONTINUOUS
 10
50.169084
 20
95.169824
 11
50.149507
 21
95.177144
  0
LINE
  8
1
 62
7
  6
CONTINUOUS
 10
50.149507
 20
95.177144
 11
50.128005
 21
95.184453
  0
LINE
  8
1
 62
7
  6
CONTINUOUS
 10
50.128005
 20
95.184453
 11
50.105142
 21
95.191522
  0
LINE
  8
1
 62
7
  6
CONTINUOUS
 10
50.105142
 20
95.191522
 11
50.081565
 21
95.198187
  0
LINE
  8
1
 62
7
  6
CONTINUOUS
 10
50.081565
 20
95.198187
 11
50.057975
 21
95.204341
  0
LINE
  8
1
 62
7
  6
CONTINUOUS
 10
50.057975
 20
95.204341
 11
50.035099
 21
95.209920
  0
LINE
  8
1
 62
7
  6
CONTINUOUS
 10
50.035099
 20
95.209920
 11
50.013649
 21
95.214881
  0
LINE
  8
1
 62
7
  6
CONTINUOUS
 10
50.013649
 20
95.214881
 11
49.994289
 21
95.219193
  0
LINE
  8
1
 62
7
  6
CONTINUOUS
 10
49.994289
 20
95.219193
 11
49.977614
 21
95.222816
  0
LINE
  8
1
 62
7
  6
CONTINUOUS
 10
49.977614
 20
95.222816
 11
49.964120
 21
95.225709
  0
LINE
  8
1
 62
7
  6
CONTINUOUS
 10
49.964120
 20
95.225709
 11
49.954201
 21
95.227822
  0
LINE
  8
1
 62
7
  6
CONTINUOUS
 10
49.954201
 20
95.227822
 11
49.948137
 21
95.229111
  0
LINE
  8
1
 62
7
  6
CONTINUOUS
 10
49.948137
 20
95.229111
 11
49.946097
 21
95.229544
  0
LINE
  8
1
 62
7
  6
CONTINUOUS
 10
52.571154
 20
95.437752
 11
52.571154
 21
97.902077
  0
LINE
  8
1
 62
7
  6
CONTINUOUS
 10
43.071154
 20
95.437752
 11
43.071893
 21
95.436472
  0
LINE
  8
1
 62
7
  6
CONTINUOUS
 10
43.071893
 20
95.436472
 11
43.074089
 21
95.432667
  0
LINE
  8
1
 62
7
  6
CONTINUOUS
 10
43.074089
 20
95.432667
 11
43.077690
 21
95.426441
  0
LINE
  8
1
 62
7
  6
CONTINUOUS
 10
43.077690
 20
95.426441
 11
43.082623
 21
95.417965
  0
LINE
  8
1
 62
7
  6
CONTINUOUS
 10
43.082623
 20
95.417965
 11
43.088811
 21
95.407470
  0
LINE
  8
1
 62
7
  6
CONTINUOUS
 10
43.088811
 20
95.407470
 11
43.096191
 21
95.395245
  0
LINE
  8
1
 62
7
  6
CONTINUOUS
 10
43.096191
 20
95.395245
 11
43.104713
 21
95.381625
  0
LINE
  8
1
 62
7
  6
CONTINUOUS
 10
43.104713
 20
95.381625
 11
43.114338
 21
95.366986
  0
LINE
  8
1
 62
7
  6
CONTINUOUS
 10
43.114338
 20
95.366986
 11
43.125016
 21
95.351730
  0
LINE
  8
1
 62
7
  6
CONTINUOUS
 10
43.125016
 20
95.351730
 11
43.136651
 21
95.336277
  0
LINE
  8
1
 62
7
  6
CONTINUOUS
 10
43.136651
 20
95.336277
 11
43.149066
 21
95.321050
  0
LINE
  8
1
 62
7
  6
CONTINUOUS
 10
43.149066
 20
95.321050
 11
43.161979
 21
95.306467
  0
LINE
  8
1
 62
7
  6
CONTINUOUS
 10
43.161979
 20
95.306467
 11
43.174982
 21
95.292923
  0
LINE
  8
1
 62
7
  6
CONTINUOUS
 10
43.174982
 20
95.292923
 11
43.187549
 21
95.280786
  0
LINE
  8
1
 62
7
  6
CONTINUOUS
 10
43.187549
 20
95.280786
 11
43.199071
 21
95.270382
  0
LINE
  8
1
 62
7
  6
CONTINUOUS
 10
43.199071
 20
95.270382
 11
43.208905
 21
95.261989
  0
LINE
  8
1
 62
7
  6
CONTINUOUS
 10
43.208905
 20
95.261989
 11
43.216444
 21
95.255830
  0
LINE
  8
1
 62
7
  6
CONTINUOUS
 10
43.216444
 20
95.255830
 11
43.221188
 21
95.252068
  0
LINE
  8
1
 62
7
  6
CONTINUOUS
 10
43.221188
 20
95.252068
 11
43.222807
 21
95.250803
  0
LINE
  8
1
 62
7
  6
CONTINUOUS
 10
43.222807
 20
95.250803
 11
43.224438
 21
95.249539
  0
LINE
  8
1
 62
7
  6
CONTINUOUS
 10
43.224438
 20
95.249539
 11
43.229359
 21
95.245781
  0
LINE
  8
1
 62
7
  6
CONTINUOUS
 10
43.229359
 20
95.245781
 11
43.237631
 21
95.239638
  0
LINE
  8
1
 62
7
  6
CONTINUOUS
 10
43.237631
 20
95.239638
 11
43.249317
 21
95.231295
  0
LINE
  8
1
 62
7
  6
CONTINUOUS
 10
43.249317
 20
95.231295
 11
43.264417
 21
95.221012
  0
LINE
  8
1
 62
7
  6
CONTINUOUS
 10
43.264417
 20
95.221012
 11
43.282816
 21
95.209122
  0
LINE
  8
1
 62
7
  6
CONTINUOUS
 10
43.282816
 20
95.209122
 11
43.304232
 21
95.196023
  0
LINE
  8
1
 62
7
  6
CONTINUOUS
 10
43.304232
 20
95.196023
 11
43.328190
 21
95.182164
  0
LINE
  8
1
 62
7
  6
CONTINUOUS
 10
43.328190
 20
95.182164
 11
43.354027
 21
95.168020
  0
LINE
  8
1
 62
7
  6
CONTINUOUS
 10
43.354027
 20
95.168020
 11
43.380923
 21
95.154064
  0
LINE
  8
1
 62
7
  6
CONTINUOUS
 10
43.380923
 20
95.154064
 11
43.407957
 21
95.140739
  0
LINE
  8
1
 62
7
  6
CONTINUOUS
 10
43.407957
 20
95.140739
 11
43.434180
 21
95.128431
  0
LINE
  8
1
 62
7
  6
CONTINUOUS
 10
43.434180
 20
95.128431
 11
43.458682
 21
95.117446
  0
LINE
  8
1
 62
7
  6
CONTINUOUS
 10
43.458682
 20
95.117446
 11
43.480654
 21
95.108003
  0
LINE
  8
1
 62
7
  6
CONTINUOUS
 10
43.480654
 20
95.108003
 11
43.499428
 21
95.100236
  0
LINE
  8
1
 62
7
  6
CONTINUOUS
 10
43.499428
 20
95.100236
 11
43.514490
 21
95.094206
  0
LINE
  8
1
 62
7
  6
CONTINUOUS
 10
43.514490
 20
95.094206
 11
43.525474
 21
95.089921
  0
LINE
  8
1
 62
7
  6
CONTINUOUS
 10
43.525474
 20
95.089921
 11
43.532149
 21
95.087365
  0
LINE
  8
1
 62
7
  6
CONTINUOUS
 10
43.532149
 20
95.087365
 11
43.534387
 21
95.086515
  0
LINE
  8
1
 62
7
  6
CONTINUOUS
 10
43.534387
 20
95.086515
 11
43.536622
 21
95.085672
  0
LINE
  8
1
 62
7
  6
CONTINUOUS
 10
43.536622
 20
95.085672
 11
43.543243
 21
95.083196
  0
LINE
  8
1
 62
7
  6
CONTINUOUS
 10
43.543243
 20
95.083196
 11
43.554013
 21
95.079245
  0
LINE
  8
1
 62
7
  6
CONTINUOUS
 10
43.554013
 20
95.079245
 11
43.568561
 21
95.074057
  0
LINE
  8
1
 62
7
  6
CONTINUOUS
 10
43.568561
 20
95.074057
 11
43.586424
 21
95.067920
  0
LINE
  8
1
 62
7
  6
CONTINUOUS
 10
43.586424
 20
95.067920
 11
43.607078
 21
95.061137
  0
LINE
  8
1
 62
7
  6
CONTINUOUS
 10
43.607078
 20
95.061137
 11
43.629973
 21
95.053992
  0
LINE
  8
1
 62
7
  6
CONTINUOUS
 10
43.629973
 20
95.053992
 11
43.654555
 21
95.046732
  0
LINE
  8
1
 62
7
  6
CONTINUOUS
 10
43.654555
 20
95.046732
 11
43.680272
 21
95.039550
  0
LINE
  8
1
 62
7
  6
CONTINUOUS
 10
43.680272
 20
95.039550
 11
43.706563
 21
95.032591
  0
LINE
  8
1
 62
7
  6
CONTINUOUS
 10
43.706563
 20
95.032591
 11
43.732846
 21
95.025961
  0
LINE
  8
1
 62
7
  6
CONTINUOUS
 10
43.732846
 20
95.025961
 11
43.758499
 21
95.019744
  0
LINE
  8
1
 62
7
  6
CONTINUOUS
 10
43.758499
 20
95.019744
 11
43.782853
 21
95.014021
  0
LINE
  8
1
 62
7
  6
CONTINUOUS
 10
43.782853
 20
95.014021
 11
43.805195
 21
95.008884
  0
LINE
  8
1
 62
7
  6
CONTINUOUS
 10
43.805195
 20
95.008884
 11
43.824795
 21
95.004439
  0
LINE
  8
1
 62
7
  6
CONTINUOUS
 10
43.824795
 20
95.004439
 11
43.840939
 21
95.000807
  0
LINE
  8
1
 62
7
  6
CONTINUOUS
 10
43.840939
 20
95.000807
 11
43.852991
 21
94.998106
  0
LINE
  8
1
 62
7
  6
CONTINUOUS
 10
43.852991
 20
94.998106
 11
43.860442
 21
94.996438
  0
LINE
  8
1
 62
7
  6
CONTINUOUS
 10
43.860442
 20
94.996438
 11
43.862963
 21
94.995874
  0
LINE
  8
1
 62
7
  6
CONTINUOUS
 10
43.862963
 20
94.995874
 11
43.865492
 21
94.995308
  0
LINE
  8
1
 62
7
  6
CONTINUOUS
 10
43.865492
 20
94.995308
 11
43.873055
 21
94.993617
  0
LINE
  8
1
 62
7
  6
CONTINUOUS
 10
43.873055
 20
94.993617
 11
43.885571
 21
94.990822
  0
LINE
  8
1
 62
7
  6
CONTINUOUS
 10
43.885571
 20
94.990822
 11
43.902878
 21
94.986970
  0
LINE
  8
1
 62
7
  6
CONTINUOUS
 10
43.902878
 20
94.986970
 11
43.924705
 21
94.982145
  0
LINE
  8
1
 62
7
  6
CONTINUOUS
 10
43.924705
 20
94.982145
 11
43.950636
 21
94.976478
  0
LINE
  8
1
 62
7
  6
CONTINUOUS
 10
43.950636
 20
94.976478
 11
43.980093
 21
94.970154
  0
LINE
  8
1
 62
7
  6
CONTINUOUS
 10
43.980093
 20
94.970154
 11
44.012326
 21
94.963405
  0
LINE
  8
1
 62
7
  6
CONTINUOUS
 10
44.012326
 20
94.963405
 11
44.046433
 21
94.956500
  0
LINE
  8
1
 62
7
  6
CONTINUOUS
 10
44.046433
 20
94.956500
 11
44.081395
 21
94.949720
  0
LINE
  8
1
 62
7
  6
CONTINUOUS
 10
44.081395
 20
94.949720
 11
44.116129
 21
94.943330
  0
LINE
  8
1
 62
7
  6
CONTINUOUS
 10
44.116129
 20
94.943330
 11
44.149548
 21
94.937555
  0
LINE
  8
1
 62
7
  6
CONTINUOUS
 10
44.149548
 20
94.937555
 11
44.180621
 21
94.932559
  0
LINE
  8
1
 62
7
  6
CONTINUOUS
 10
44.180621
 20
94.932559
 11
44.208424
 21
94.928429
  0
LINE
  8
1
 62
7
  6
CONTINUOUS
 10
44.208424
 20
94.928429
 11
44.232175
 21
94.925184
  0
LINE
  8
1
 62
7
  6
CONTINUOUS
 10
44.232175
 20
94.925184
 11
44.251250
 21
94.922784
  0
LINE
  8
1
 62
7
  6
CONTINUOUS
 10
44.251250
 20
94.922784
 11
44.265187
 21
94.921156
  0
LINE
  8
1
 62
7
  6
CONTINUOUS
 10
44.265187
 20
94.921156
 11
44.273669
 21
94.920219
  0
LINE
  8
1
 62
7
  6
CONTINUOUS
 10
44.273669
 20
94.920219
 11
44.276515
 21
94.919914
  0
LINE
  8
1
 62
7
  6
CONTINUOUS
 10
44.276515
 20
94.919914
 11
44.279359
 21
94.919615
  0
LINE
  8
1
 62
7
  6
CONTINUOUS
 10
44.279359
 20
94.919615
 11
44.287793
 21
94.918755
  0
LINE
  8
1
 62
7
  6
CONTINUOUS
 10
44.287793
 20
94.918755
 11
44.301537
 21
94.917446
  0
LINE
  8
1
 62
7
  6
CONTINUOUS
 10
44.301537
 20
94.917446
 11
44.320149
 21
94.915856
  0
LINE
  8
1
 62
7
  6
CONTINUOUS
 10
44.320149
 20
94.915856
 11
44.343063
 21
94.914183
  0
LINE
  8
1
 62
7
  6
CONTINUOUS
 10
44.343063
 20
94.914183
 11
44.369626
 21
94.912631
  0
LINE
  8
1
 62
7
  6
CONTINUOUS
 10
44.369626
 20
94.912631
 11
44.399131
 21
94.911384
  0
LINE
  8
1
 62
7
  6
CONTINUOUS
 10
44.399131
 20
94.911384
 11
44.430842
 21
94.910578
  0
LINE
  8
1
 62
7
  6
CONTINUOUS
 10
44.430842
 20
94.910578
 11
44.464004
 21
94.910292
  0
LINE
  8
1
 62
7
  6
CONTINUOUS
 10
44.464004
 20
94.910292
 11
44.497846
 21
94.910540
  0
LINE
  8
1
 62
7
  6
CONTINUOUS
 10
44.497846
 20
94.910540
 11
44.531568
 21
94.911276
  0
LINE
  8
1
 62
7
  6
CONTINUOUS
 10
44.531568
 20
94.911276
 11
44.564337
 21
94.912404
  0
LINE
  8
1
 62
7
  6
CONTINUOUS
 10
44.564337
 20
94.912404
 11
44.595285
 21
94.913792
  0
LINE
  8
1
 62
7
  6
CONTINUOUS
 10
44.595285
 20
94.913792
 11
44.623518
 21
94.915292
  0
LINE
  8
1
 62
7
  6
CONTINUOUS
 10
44.623518
 20
94.915292
 11
44.648150
 21
94.916757
  0
LINE
  8
1
 62
7
  6
CONTINUOUS
 10
44.648150
 20
94.916757
 11
44.668340
 21
94.918049
  0
LINE
  8
1
 62
7
  6
CONTINUOUS
 10
44.668340
 20
94.918049
 11
44.683351
 21
94.919057
  0
LINE
  8
1
 62
7
  6
CONTINUOUS
 10
44.683351
 20
94.919057
 11
44.692606
 21
94.919696
  0
LINE
  8
1
 62
7
  6
CONTINUOUS
 10
44.692606
 20
94.919696
 11
44.695733
 21
94.919914
  0
LINE
  8
1
 62
7
  6
CONTINUOUS
 10
44.695733
 20
94.919914
 11
44.698867
 21
94.920135
  0
LINE
  8
1
 62
7
  6
CONTINUOUS
 10
44.698867
 20
94.920135
 11
44.708226
 21
94.920802
  0
LINE
  8
1
 62
7
  6
CONTINUOUS
 10
44.708226
 20
94.920802
 11
44.723664
 21
94.921932
  0
LINE
  8
1
 62
7
  6
CONTINUOUS
 10
44.723664
 20
94.921932
 11
44.744903
 21
94.923554
  0
LINE
  8
1
 62
7
  6
CONTINUOUS
 10
44.744903
 20
94.923554
 11
44.771487
 21
94.925709
  0
LINE
  8
1
 62
7
  6
CONTINUOUS
 10
44.771487
 20
94.925709
 11
44.802750
 21
94.928449
  0
LINE
  8
1
 62
7
  6
CONTINUOUS
 10
44.802750
 20
94.928449
 11
44.837795
 21
94.931828
  0
LINE
  8
1
 62
7
  6
CONTINUOUS
 10
44.837795
 20
94.931828
 11
44.875510
 21
94.935889
  0
LINE
  8
1
 62
7
  6
CONTINUOUS
 10
44.875510
 20
94.935889
 11
44.914618
 21
94.940651
  0
LINE
  8
1
 62
7
  6
CONTINUOUS
 10
44.914618
 20
94.940651
 11
44.953760
 21
94.946087
  0
LINE
  8
1
 62
7
  6
CONTINUOUS
 10
44.953760
 20
94.946087
 11
44.991592
 21
94.952107
  0
LINE
  8
1
 62
7
  6
CONTINUOUS
 10
44.991592
 20
94.952107
 11
45.026894
 21
94.958549
  0
LINE
  8
1
 62
7
  6
CONTINUOUS
 10
45.026894
 20
94.958549
 11
45.058651
 21
94.965172
  0
LINE
  8
1
 62
7
  6
CONTINUOUS
 10
45.058651
 20
94.965172
 11
45.086106
 21
94.971669
  0
LINE
  8
1
 62
7
  6
CONTINUOUS
 10
45.086106
 20
94.971669
 11
45.108775
 21
94.977687
  0
LINE
  8
1
 62
7
  6
CONTINUOUS
 10
45.108775
 20
94.977687
 11
45.126416
 21
94.982858
  0
LINE
  8
1
 62
7
  6
CONTINUOUS
 10
45.126416
 20
94.982858
 11
45.138964
 21
94.986839
  0
LINE
  8
1
 62
7
  6
CONTINUOUS
 10
45.138964
 20
94.986839
 11
45.146453
 21
94.989350
  0
LINE
  8
1
 62
7
  6
CONTINUOUS
 10
45.146453
 20
94.989350
 11
45.148941
 21
94.990209
  0
LINE
  8
1
 62
7
  6
CONTINUOUS
 10
45.148941
 20
94.990209
 11
45.151413
 21
94.991074
  0
LINE
  8
1
 62
7
  6
CONTINUOUS
 10
45.151413
 20
94.991074
 11
45.158667
 21
94.993686
  0
LINE
  8
1
 62
7
  6
CONTINUOUS
 10
45.158667
 20
94.993686
 11
45.170242
 21
94.998084
  0
LINE
  8
1
 62
7
  6
CONTINUOUS
 10
45.170242
 20
94.998084
 11
45.185442
 21
95.004301
  0
LINE
  8
1
 62
7
  6
CONTINUOUS
 10
45.185442
 20
95.004301
 11
45.203424
 21
95.012331
  0
LINE
  8
1
 62
7
  6
CONTINUOUS
 10
45.203424
 20
95.012331
 11
45.223305
 21
95.022088
  0
LINE
  8
1
 62
7
  6
CONTINUOUS
 10
45.223305
 20
95.022088
 11
45.244250
 21
95.033375
  0
LINE
  8
1
 62
7
  6
CONTINUOUS
 10
45.244250
 20
95.033375
 11
45.265541
 21
95.045882
  0
LINE
  8
1
 62
7
  6
CONTINUOUS
 10
45.265541
 20
95.045882
 11
45.286613
 21
95.059186
  0
LINE
  8
1
 62
7
  6
CONTINUOUS
 10
45.286613
 20
95.059186
 11
45.307044
 21
95.072791
  0
LINE
  8
1
 62
7
  6
CONTINUOUS
 10
45.307044
 20
95.072791
 11
45.326528
 21
95.086171
  0
LINE
  8
1
 62
7
  6
CONTINUOUS
 10
45.326528
 20
95.086171
 11
45.344815
 21
95.098819
  0
LINE
  8
1
 62
7
  6
CONTINUOUS
 10
45.344815
 20
95.098819
 11
45.361664
 21
95.110301
  0
LINE
  8
1
 62
7
  6
CONTINUOUS
 10
45.361664
 20
95.110301
 11
45.376803
 21
95.120282
  0
LINE
  8
1
 62
7
  6
CONTINUOUS
 10
45.376803
 20
95.120282
 11
45.389911
 21
95.128543
  0
LINE
  8
1
 62
7
  6
CONTINUOUS
 10
45.389911
 20
95.128543
 11
45.400631
 21
95.134973
  0
LINE
  8
1
 62
7
  6
CONTINUOUS
 10
45.400631
 20
95.134973
 11
45.408608
 21
95.139541
  0
LINE
  8
1
 62
7
  6
CONTINUOUS
 10
45.408608
 20
95.139541
 11
45.413534
 21
95.142263
  0
LINE
  8
1
 62
7
  6
CONTINUOUS
 10
45.413534
 20
95.142263
 11
45.415200
 21
95.143166
  0
LINE
  8
1
 62
7
  6
CONTINUOUS
 10
45.415200
 20
95.143166
 11
45.416872
 21
95.144064
  0
LINE
  8
1
 62
7
  6
CONTINUOUS
 10
45.416872
 20
95.144064
 11
45.421871
 21
95.146693
  0
LINE
  8
1
 62
7
  6
CONTINUOUS
 10
45.421871
 20
95.146693
 11
45.430144
 21
95.150879
  0
LINE
  8
1
 62
7
  6
CONTINUOUS
 10
45.430144
 20
95.150879
 11
45.441589
 21
95.156351
  0
LINE
  8
1
 62
7
  6
CONTINUOUS
 10
45.441589
 20
95.156351
 11
45.456034
 21
95.162782
  0
LINE
  8
1
 62
7
  6
CONTINUOUS
 10
45.456034
 20
95.162782
 11
45.473225
 21
95.169824
  0
LINE
  8
1
 62
7
  6
CONTINUOUS
 10
45.473225
 20
95.169824
 11
45.492802
 21
95.177144
  0
LINE
  8
1
 62
7
  6
CONTINUOUS
 10
45.492802
 20
95.177144
 11
45.514304
 21
95.184453
  0
LINE
  8
1
 62
7
  6
CONTINUOUS
 10
45.514304
 20
95.184453
 11
45.537167
 21
95.191522
  0
LINE
  8
1
 62
7
  6
CONTINUOUS
 10
45.537167
 20
95.191522
 11
45.560744
 21
95.198187
  0
LINE
  8
1
 62
7
  6
CONTINUOUS
 10
45.560744
 20
95.198187
 11
45.584333
 21
95.204341
  0
LINE
  8
1
 62
7
  6
CONTINUOUS
 10
45.584333
 20
95.204341
 11
45.607210
 21
95.209920
  0
LINE
  8
1
 62
7
  6
CONTINUOUS
 10
45.607210
 20
95.209920
 11
45.628660
 21
95.214881
  0
LINE
  8
1
 62
7
  6
CONTINUOUS
 10
45.628660
 20
95.214881
 11
45.648019
 21
95.219193
  0
LINE
  8
1
 62
7
  6
CONTINUOUS
 10
45.648019
 20
95.219193
 11
45.664695
 21
95.222816
  0
LINE
  8
1
 62
7
  6
CONTINUOUS
 10
45.664695
 20
95.222816
 11
45.678189
 21
95.225709
  0
LINE
  8
1
 62
7
  6
CONTINUOUS
 10
45.678189
 20
95.225709
 11
45.688108
 21
95.227822
  0
LINE
  8
1
 62
7
  6
CONTINUOUS
 10
45.688108
 20
95.227822
 11
45.694172
 21
95.229111
  0
LINE
  8
1
 62
7
  6
CONTINUOUS
 10
45.694172
 20
95.229111
 11
45.696212
 21
95.229544
  0
LINE
  8
1
 62
7
  6
CONTINUOUS
 10
43.071154
 20
97.902077
 11
43.071893
 21
97.903357
  0
LINE
  8
1
 62
7
  6
CONTINUOUS
 10
43.071893
 20
97.903357
 11
43.074089
 21
97.907162
  0
LINE
  8
1
 62
7
  6
CONTINUOUS
 10
43.074089
 20
97.907162
 11
43.077690
 21
97.913387
  0
LINE
  8
1
 62
7
  6
CONTINUOUS
 10
43.077690
 20
97.913387
 11
43.082623
 21
97.921864
  0
LINE
  8
1
 62
7
  6
CONTINUOUS
 10
43.082623
 20
97.921864
 11
43.088811
 21
97.932359
  0
LINE
  8
1
 62
7
  6
CONTINUOUS
 10
43.088811
 20
97.932359
 11
43.096191
 21
97.944584
  0
LINE
  8
1
 62
7
  6
CONTINUOUS
 10
43.096191
 20
97.944584
 11
43.104713
 21
97.958204
  0
LINE
  8
1
 62
7
  6
CONTINUOUS
 10
43.104713
 20
97.958204
 11
43.114338
 21
97.972843
  0
LINE
  8
1
 62
7
  6
CONTINUOUS
 10
43.114338
 20
97.972843
 11
43.125016
 21
97.988099
  0
LINE
  8
1
 62
7
  6
CONTINUOUS
 10
43.125016
 20
97.988099
 11
43.136651
 21
98.003552
  0
LINE
  8
1
 62
7
  6
CONTINUOUS
 10
43.136651
 20
98.003552
 11
43.149066
 21
98.018778
  0
LINE
  8
1
 62
7
  6
CONTINUOUS
 10
43.149066
 20
98.018778
 11
43.161979
 21
98.033362
  0
LINE
  8
1
 62
7
  6
CONTINUOUS
 10
43.161979
 20
98.033362
 11
43.174982
 21
98.046905
  0
LINE
  8
1
 62
7
  6
CONTINUOUS
 10
43.174982
 20
98.046905
 11
43.187549
 21
98.059043
  0
LINE
  8
1
 62
7
  6
CONTINUOUS
 10
43.187549
 20
98.059043
 11
43.199071
 21
98.069447
  0
LINE
  8
1
 62
7
  6
CONTINUOUS
 10
43.199071
 20
98.069447
 11
43.208905
 21
98.077840
  0
LINE
  8
1
 62
7
  6
CONTINUOUS
 10
43.208905
 20
98.077840
 11
43.216444
 21
98.083999
  0
LINE
  8
1
 62
7
  6
CONTINUOUS
 10
43.216444
 20
98.083999
 11
43.221188
 21
98.087761
  0
LINE
  8
1
 62
7
  6
CONTINUOUS
 10
43.221188
 20
98.087761
 11
43.222807
 21
98.089025
  0
LINE
  8
1
 62
7
  6
CONTINUOUS
 10
43.222807
 20
98.089025
 11
43.224438
 21
98.090290
  0
LINE
  8
1
 62
7
  6
CONTINUOUS
 10
43.224438
 20
98.090290
 11
43.229359
 21
98.094048
  0
LINE
  8
1
 62
7
  6
CONTINUOUS
 10
43.229359
 20
98.094048
 11
43.237631
 21
98.100191
  0
LINE
  8
1
 62
7
  6
CONTINUOUS
 10
43.237631
 20
98.100191
 11
43.249317
 21
98.108533
  0
LINE
  8
1
 62
7
  6
CONTINUOUS
 10
43.249317
 20
98.108533
 11
43.264417
 21
98.118817
  0
LINE
  8
1
 62
7
  6
CONTINUOUS
 10
43.264417
 20
98.118817
 11
43.282816
 21
98.130707
  0
LINE
  8
1
 62
7
  6
CONTINUOUS
 10
43.282816
 20
98.130707
 11
43.304232
 21
98.143806
  0
LINE
  8
1
 62
7
  6
CONTINUOUS
 10
43.304232
 20
98.143806
 11
43.328190
 21
98.157665
  0
LINE
  8
1
 62
7
  6
CONTINUOUS
 10
43.328190
 20
98.157665
 11
43.354027
 21
98.171809
  0
LINE
  8
1
 62
7
  6
CONTINUOUS
 10
43.354027
 20
98.171809
 11
43.380923
 21
98.185765
  0
LINE
  8
1
 62
7
  6
CONTINUOUS
 10
43.380923
 20
98.185765
 11
43.407957
 21
98.199090
  0
LINE
  8
1
 62
7
  6
CONTINUOUS
 10
43.407957
 20
98.199090
 11
43.434180
 21
98.211398
  0
LINE
  8
1
 62
7
  6
CONTINUOUS
 10
43.434180
 20
98.211398
 11
43.458682
 21
98.222383
  0
LINE
  8
1
 62
7
  6
CONTINUOUS
 10
43.458682
 20
98.222383
 11
43.480654
 21
98.231826
  0
LINE
  8
1
 62
7
  6
CONTINUOUS
 10
43.480654
 20
98.231826
 11
43.499428
 21
98.239592
  0
LINE
  8
1
 62
7
  6
CONTINUOUS
 10
43.499428
 20
98.239592
 11
43.514490
 21
98.245623
  0
LINE
  8
1
 62
7
  6
CONTINUOUS
 10
43.514490
 20
98.245623
 11
43.525474
 21
98.249908
  0
LINE
  8
1
 62
7
  6
CONTINUOUS
 10
43.525474
 20
98.249908
 11
43.532149
 21
98.252464
  0
LINE
  8
1
 62
7
  6
CONTINUOUS
 10
43.532149
 20
98.252464
 11
43.534387
 21
98.253313
  0
LINE
  8
1
 62
7
  6
CONTINUOUS
 10
43.534387
 20
98.253313
 11
43.536622
 21
98.254157
  0
LINE
  8
1
 62
7
  6
CONTINUOUS
 10
43.536622
 20
98.254157
 11
43.543243
 21
98.256633
  0
LINE
  8
1
 62
7
  6
CONTINUOUS
 10
43.543243
 20
98.256633
 11
43.554013
 21
98.260584
  0
LINE
  8
1
 62
7
  6
CONTINUOUS
 10
43.554013
 20
98.260584
 11
43.568561
 21
98.265772
  0
LINE
  8
1
 62
7
  6
CONTINUOUS
 10
43.568561
 20
98.265772
 11
43.586424
 21
98.271908
  0
LINE
  8
1
 62
7
  6
CONTINUOUS
 10
43.586424
 20
98.271908
 11
43.607078
 21
98.278692
  0
LINE
  8
1
 62
7
  6
CONTINUOUS
 10
43.607078
 20
98.278692
 11
43.629973
 21
98.285837
  0
LINE
  8
1
 62
7
  6
CONTINUOUS
 10
43.629973
 20
98.285837
 11
43.654555
 21
98.293097
  0
LINE
  8
1
 62
7
  6
CONTINUOUS
 10
43.654555
 20
98.293097
 11
43.680272
 21
98.300279
  0
LINE
  8
1
 62
7
  6
CONTINUOUS
 10
43.680272
 20
98.300279
 11
43.706563
 21
98.307237
  0
LINE
  8
1
 62
7
  6
CONTINUOUS
 10
43.706563
 20
98.307237
 11
43.732846
 21
98.313867
  0
LINE
  8
1
 62
7
  6
CONTINUOUS
 10
43.732846
 20
98.313867
 11
43.758499
 21
98.320085
  0
LINE
  8
1
 62
7
  6
CONTINUOUS
 10
43.758499
 20
98.320085
 11
43.782853
 21
98.325808
  0
LINE
  8
1
 62
7
  6
CONTINUOUS
 10
43.782853
 20
98.325808
 11
43.805195
 21
98.330945
  0
LINE
  8
1
 62
7
  6
CONTINUOUS
 10
43.805195
 20
98.330945
 11
43.824795
 21
98.335389
  0
LINE
  8
1
 62
7
  6
CONTINUOUS
 10
43.824795
 20
98.335389
 11
43.840939
 21
98.339022
  0
LINE
  8
1
 62
7
  6
CONTINUOUS
 10
43.840939
 20
98.339022
 11
43.852991
 21
98.341723
  0
LINE
  8
1
 62
7
  6
CONTINUOUS
 10
43.852991
 20
98.341723
 11
43.860442
 21
98.343391
  0
LINE
  8
1
 62
7
  6
CONTINUOUS
 10
43.860442
 20
98.343391
 11
43.862963
 21
98.343955
  0
LINE
  8
1
 62
7
  6
CONTINUOUS
 10
43.862963
 20
98.343955
 11
43.865492
 21
98.344521
  0
LINE
  8
1
 62
7
  6
CONTINUOUS
 10
43.865492
 20
98.344521
 11
43.873055
 21
98.346212
  0
LINE
  8
1
 62
7
  6
CONTINUOUS
 10
43.873055
 20
98.346212
 11
43.885571
 21
98.349007
  0
LINE
  8
1
 62
7
  6
CONTINUOUS
 10
43.885571
 20
98.349007
 11
43.902878
 21
98.352859
  0
LINE
  8
1
 62
7
  6
CONTINUOUS
 10
43.902878
 20
98.352859
 11
43.924705
 21
98.357684
  0
LINE
  8
1
 62
7
  6
CONTINUOUS
 10
43.924705
 20
98.357684
 11
43.950636
 21
98.363351
  0
LINE
  8
1
 62
7
  6
CONTINUOUS
 10
43.950636
 20
98.363351
 11
43.980093
 21
98.369675
  0
LINE
  8
1
 62
7
  6
CONTINUOUS
 10
43.980093
 20
98.369675
 11
44.012326
 21
98.376424
  0
LINE
  8
1
 62
7
  6
CONTINUOUS
 10
44.012326
 20
98.376424
 11
44.046433
 21
98.383329
  0
LINE
  8
1
 62
7
  6
CONTINUOUS
 10
44.046433
 20
98.383329
 11
44.081395
 21
98.390109
  0
LINE
  8
1
 62
7
  6
CONTINUOUS
 10
44.081395
 20
98.390109
 11
44.116129
 21
98.396499
  0
LINE
  8
1
 62
7
  6
CONTINUOUS
 10
44.116129
 20
98.396499
 11
44.149548
 21
98.402273
  0
LINE
  8
1
 62
7
  6
CONTINUOUS
 10
44.149548
 20
98.402273
 11
44.180621
 21
98.407270
  0
LINE
  8
1
 62
7
  6
CONTINUOUS
 10
44.180621
 20
98.407270
 11
44.208424
 21
98.411400
  0
LINE
  8
1
 62
7
  6
CONTINUOUS
 10
44.208424
 20
98.411400
 11
44.232175
 21
98.414645
  0
LINE
  8
1
 62
7
  6
CONTINUOUS
 10
44.232175
 20
98.414645
 11
44.251250
 21
98.417045
  0
LINE
  8
1
 62
7
  6
CONTINUOUS
 10
44.251250
 20
98.417045
 11
44.265187
 21
98.418673
  0
LINE
  8
1
 62
7
  6
CONTINUOUS
 10
44.265187
 20
98.418673
 11
44.273669
 21
98.419610
  0
LINE
  8
1
 62
7
  6
CONTINUOUS
 10
44.273669
 20
98.419610
 11
44.276515
 21
98.419914
  0
LINE
  8
1
 62
7
  6
CONTINUOUS
 10
44.276515
 20
98.419914
 11
44.279359
 21
98.420214
  0
LINE
  8
1
 62
7
  6
CONTINUOUS
 10
44.279359
 20
98.420214
 11
44.287793
 21
98.421074
  0
LINE
  8
1
 62
7
  6
CONTINUOUS
 10
44.287793
 20
98.421074
 11
44.301537
 21
98.422382
  0
LINE
  8
1
 62
7
  6
CONTINUOUS
 10
44.301537
 20
98.422382
 11
44.320149
 21
98.423973
  0
LINE
  8
1
 62
7
  6
CONTINUOUS
 10
44.320149
 20
98.423973
 11
44.343063
 21
98.425646
  0
LINE
  8
1
 62
7
  6
CONTINUOUS
 10
44.343063
 20
98.425646
 11
44.369626
 21
98.427197
  0
LINE
  8
1
 62
7
  6
CONTINUOUS
 10
44.369626
 20
98.427197
 11
44.399131
 21
98.428445
  0
LINE
  8
1
 62
7
  6
CONTINUOUS
 10
44.399131
 20
98.428445
 11
44.430842
 21
98.429251
  0
LINE
  8
1
 62
7
  6
CONTINUOUS
 10
44.430842
 20
98.429251
 11
44.464004
 21
98.429537
  0
LINE
  8
1
 62
7
  6
CONTINUOUS
 10
44.464004
 20
98.429537
 11
44.497846
 21
98.429289
  0
LINE
  8
1
 62
7
  6
CONTINUOUS
 10
44.497846
 20
98.429289
 11
44.531568
 21
98.428553
  0
LINE
  8
1
 62
7
  6
CONTINUOUS
 10
44.531568
 20
98.428553
 11
44.564337
 21
98.427425
  0
LINE
  8
1
 62
7
  6
CONTINUOUS
 10
44.564337
 20
98.427425
 11
44.595285
 21
98.426037
  0
LINE
  8
1
 62
7
  6
CONTINUOUS
 10
44.595285
 20
98.426037
 11
44.623518
 21
98.424536
  0
LINE
  8
1
 62
7
  6
CONTINUOUS
 10
44.623518
 20
98.424536
 11
44.648150
 21
98.423072
  0
LINE
  8
1
 62
7
  6
CONTINUOUS
 10
44.648150
 20
98.423072
 11
44.668340
 21
98.421779
  0
LINE
  8
1
 62
7
  6
CONTINUOUS
 10
44.668340
 20
98.421779
 11
44.683351
 21
98.420772
  0
LINE
  8
1
 62
7
  6
CONTINUOUS
 10
44.683351
 20
98.420772
 11
44.692606
 21
98.420133
  0
LINE
  8
1
 62
7
  6
CONTINUOUS
 10
44.692606
 20
98.420133
 11
44.695733
 21
98.419914
  0
LINE
  8
1
 62
7
  6
CONTINUOUS
 10
44.695733
 20
98.419914
 11
44.698867
 21
98.419694
  0
LINE
  8
1
 62
7
  6
CONTINUOUS
 10
44.698867
 20
98.419694
 11
44.708226
 21
98.419027
  0
LINE
  8
1
 62
7
  6
CONTINUOUS
 10
44.708226
 20
98.419027
 11
44.723664
 21
98.417897
  0
LINE
  8
1
 62
7
  6
CONTINUOUS
 10
44.723664
 20
98.417897
 11
44.744903
 21
98.416275
  0
LINE
  8
1
 62
7
  6
CONTINUOUS
 10
44.744903
 20
98.416275
 11
44.771487
 21
98.414120
  0
LINE
  8
1
 62
7
  6
CONTINUOUS
 10
44.771487
 20
98.414120
 11
44.802750
 21
98.411380
  0
LINE
  8
1
 62
7
  6
CONTINUOUS
 10
44.802750
 20
98.411380
 11
44.837795
 21
98.408001
  0
LINE
  8
1
 62
7
  6
CONTINUOUS
 10
44.837795
 20
98.408001
 11
44.875510
 21
98.403940
  0
LINE
  8
1
 62
7
  6
CONTINUOUS
 10
44.875510
 20
98.403940
 11
44.914618
 21
98.399178
  0
LINE
  8
1
 62
7
  6
CONTINUOUS
 10
44.914618
 20
98.399178
 11
44.953760
 21
98.393742
  0
LINE
  8
1
 62
7
  6
CONTINUOUS
 10
44.953760
 20
98.393742
 11
44.991592
 21
98.387721
  0
LINE
  8
1
 62
7
  6
CONTINUOUS
 10
44.991592
 20
98.387721
 11
45.026894
 21
98.381280
  0
LINE
  8
1
 62
7
  6
CONTINUOUS
 10
45.026894
 20
98.381280
 11
45.058651
 21
98.374657
  0
LINE
  8
1
 62
7
  6
CONTINUOUS
 10
45.058651
 20
98.374657
 11
45.086106
 21
98.368160
  0
LINE
  8
1
 62
7
  6
CONTINUOUS
 10
45.086106
 20
98.368160
 11
45.108775
 21
98.362142
  0
LINE
  8
1
 62
7
  6
CONTINUOUS
 10
45.108775
 20
98.362142
 11
45.126416
 21
98.356971
  0
LINE
  8
1
 62
7
  6
CONTINUOUS
 10
45.126416
 20
98.356971
 11
45.138964
 21
98.352990
  0
LINE
  8
1
 62
7
  6
CONTINUOUS
 10
45.138964
 20
98.352990
 11
45.146453
 21
98.350478
  0
LINE
  8
1
 62
7
  6
CONTINUOUS
 10
45.146453
 20
98.350478
 11
45.148941
 21
98.349620
  0
LINE
  8
1
 62
7
  6
CONTINUOUS
 10
45.148941
 20
98.349620
 11
45.151413
 21
98.348755
  0
LINE
  8
1
 62
7
  6
CONTINUOUS
 10
45.151413
 20
98.348755
 11
45.158667
 21
98.346143
  0
LINE
  8
1
 62
7
  6
CONTINUOUS
 10
45.158667
 20
98.346143
 11
45.170242
 21
98.341745
  0
LINE
  8
1
 62
7
  6
CONTINUOUS
 10
45.170242
 20
98.341745
 11
45.185442
 21
98.335527
  0
LINE
  8
1
 62
7
  6
CONTINUOUS
 10
45.185442
 20
98.335527
 11
45.203424
 21
98.327497
  0
LINE
  8
1
 62
7
  6
CONTINUOUS
 10
45.203424
 20
98.327497
 11
45.223305
 21
98.317741
  0
LINE
  8
1
 62
7
  6
CONTINUOUS
 10
45.223305
 20
98.317741
 11
45.244250
 21
98.306454
  0
LINE
  8
1
 62
7
  6
CONTINUOUS
 10
45.244250
 20
98.306454
 11
45.265541
 21
98.293947
  0
LINE
  8
1
 62
7
  6
CONTINUOUS
 10
45.265541
 20
98.293947
 11
45.286613
 21
98.280643
  0
LINE
  8
1
 62
7
  6
CONTINUOUS
 10
45.286613
 20
98.280643
 11
45.307044
 21
98.267038
  0
LINE
  8
1
 62
7
  6
CONTINUOUS
 10
45.307044
 20
98.267038
 11
45.326528
 21
98.253658
  0
LINE
  8
1
 62
7
  6
CONTINUOUS
 10
45.326528
 20
98.253658
 11
45.344815
 21
98.241009
  0
LINE
  8
1
 62
7
  6
CONTINUOUS
 10
45.344815
 20
98.241009
 11
45.361664
 21
98.229528
  0
LINE
  8
1
 62
7
  6
CONTINUOUS
 10
45.361664
 20
98.229528
 11
45.376803
 21
98.219547
  0
LINE
  8
1
 62
7
  6
CONTINUOUS
 10
45.376803
 20
98.219547
 11
45.389911
 21
98.211286
  0
LINE
  8
1
 62
7
  6
CONTINUOUS
 10
45.389911
 20
98.211286
 11
45.400631
 21
98.204856
  0
LINE
  8
1
 62
7
  6
CONTINUOUS
 10
45.400631
 20
98.204856
 11
45.408608
 21
98.200288
  0
LINE
  8
1
 62
7
  6
CONTINUOUS
 10
45.408608
 20
98.200288
 11
45.413534
 21
98.197566
  0
LINE
  8
1
 62
7
  6
CONTINUOUS
 10
45.413534
 20
98.197566
 11
45.415200
 21
98.196662
  0
LINE
  8
1
 62
7
  6
CONTINUOUS
 10
45.415200
 20
98.196662
 11
45.416872
 21
98.195765
  0
LINE
  8
1
 62
7
  6
CONTINUOUS
 10
45.416872
 20
98.195765
 11
45.421871
 21
98.193136
  0
LINE
  8
1
 62
7
  6
CONTINUOUS
 10
45.421871
 20
98.193136
 11
45.430144
 21
98.188950
  0
LINE
  8
1
 62
7
  6
CONTINUOUS
 10
45.430144
 20
98.188950
 11
45.441589
 21
98.183478
  0
LINE
  8
1
 62
7
  6
CONTINUOUS
 10
45.441589
 20
98.183478
 11
45.456034
 21
98.177047
  0
LINE
  8
1
 62
7
  6
CONTINUOUS
 10
45.456034
 20
98.177047
 11
45.473225
 21
98.170005
  0
LINE
  8
1
 62
7
  6
CONTINUOUS
 10
45.473225
 20
98.170005
 11
45.492802
 21
98.162685
  0
LINE
  8
1
 62
7
  6
CONTINUOUS
 10
45.492802
 20
98.162685
 11
45.514304
 21
98.155376
  0
LINE
  8
1
 62
7
  6
CONTINUOUS
 10
45.514304
 20
98.155376
 11
45.537167
 21
98.148307
  0
LINE
  8
1
 62
7
  6
CONTINUOUS
 10
45.537167
 20
98.148307
 11
45.560744
 21
98.141642
  0
LINE
  8
1
 62
7
  6
CONTINUOUS
 10
45.560744
 20
98.141642
 11
45.584333
 21
98.135488
  0
LINE
  8
1
 62
7
  6
CONTINUOUS
 10
45.584333
 20
98.135488
 11
45.607210
 21
98.129909
  0
LINE
  8
1
 62
7
  6
CONTINUOUS
 10
45.607210
 20
98.129909
 11
45.628660
 21
98.124948
  0
LINE
  8
1
 62
7
  6
CONTINUOUS
 10
45.628660
 20
98.124948
 11
45.648019
 21
98.120636
  0
LINE
  8
1
 62
7
  6
CONTINUOUS
 10
45.648019
 20
98.120636
 11
45.664695
 21
98.117012
  0
LINE
  8
1
 62
7
  6
CONTINUOUS
 10
45.664695
 20
98.117012
 11
45.678189
 21
98.114120
  0
LINE
  8
1
 62
7
  6
CONTINUOUS
 10
45.678189
 20
98.114120
 11
45.688108
 21
98.112007
  0
LINE
  8
1
 62
7
  6
CONTINUOUS
 10
45.688108
 20
98.112007
 11
45.694172
 21
98.110718
  0
LINE
  8
1
 62
7
  6
CONTINUOUS
 10
45.694172
 20
98.110718
 11
45.696212
 21
98.110285
  0
LINE
  8
1
 62
7
  6
CONTINUOUS
 10
43.071154
 20
97.902077
 11
43.071154
 21
95.437752
  0
LINE
  8
1
 62
7
  6
CONTINUOUS
 10
45.696212
 20
98.110285
 11
49.946097
 21
98.110285
  0
LINE
  8
1
 62
7
  6
CONTINUOUS
 10
45.696212
 20
95.229544
 11
49.946097
 21
95.229544
  0
LINE
  8
1
 62
7
  6
CONTINUOUS
 10
48.135323
 20
98.411380
 11
50.311569
 21
98.411380
  0
LINE
  8
1
 62
7
  6
CONTINUOUS
 10
48.188402
 20
94.911384
 11
50.338109
 21
94.911384
  0
DIMENSION
  8
2
 62
134
  6
CONTINUOUS
  2
*D1
 10
57.764216
 20
96.369914
 11
57.764216
 21
101.002573
 70
     0
  1
φ0.6
 13
57.764216
 23
96.369914
 14
57.764216
 24
96.969914
 50
90.000000
  0
TEXT
  8
2
 62
134
  6
CONTINUOUS
 10
29.748581
 20
72.139357
 40
2.000000
 41
1.000000
  1
質量：0.5g
  7
KANJI
 50
0.000000
 51
0.000000
  0
DIMENSION
  8
2
 62
134
  6
CONTINUOUS
  2
*D2
 10
43.071154
 20
89.000046
 11
47.911396
 21
89.000046
 70
     0
  1
9.5
 13
43.071154
 23
94.937752
 14
52.571154
 24
94.937752
 50
0.000000
  0
TEXT
  8
2
 62
134
  6
CONTINUOUS
 10
48.161396
 20
89.000046
 40
2.000000
 41
1.000000
  1
±1
  7
KANJI
 50
0.000000
 51
0.000000
  0
DIMENSION
  8
2
 62
134
  6
CONTINUOUS
  2
*D3
 10
48.734215
 20
98.411380
 11
48.734215
 21
105.133033
 70
     0
  1
φ3.5
 13
48.734215
 23
98.411380
 14
48.734215
 24
94.911384
 50
-90.000000
  0
TEXT
  8
2
 62
134
  6
CONTINUOUS
 10
48.734215
 20
105.383033
 40
2.000000
 41
1.000000
  1
±0.5
  7
KANJI
 50
90.000000
 51
0.000000
  0
DIMENSION
  8
2
 62
134
  6
CONTINUOUS
  2
*D4
 10
52.571154
 20
89.000046
 11
60.854419
 21
89.000046
 70
     0
  1
38
 13
52.571154
 23
94.937752
 14
70.834727
 24
95.869914
 50
0.000000
  0
TEXT
  8
2
 62
134
  6
CONTINUOUS
 10
60.604419
 20
89.000046
 40
2.000000
 41
1.000000
  1
±3
  7
KANJI
 50
0.000000
 51
0.000000
  0
DIMENSION
  8
2
 62
134
  6
CONTINUOUS
  2
*D5
 10
24.807582
 20
89.000046
 11
34.251803
 21
89.000046
 70
     0
  1
38
 13
24.807582
 23
95.869914
 14
43.071154
 24
94.937752
 50
0.000000
  0
TEXT
  8
2
 62
134
  6
CONTINUOUS
 10
34.001803
 20
89.000046
 40
2.000000
 41
1.000000
  1
±3
  7
KANJI
 50
0.000000
 51
0.000000
  0
TEXT
  8
2
 62
134
  6
CONTINUOUS
 10
29.935596
 20
77.651063
 40
2.000000
 41
1.000000
  1
抵抗値：250Ω/TR-251N
  7
KANJI
 50
0.000000
 51
0.000000
  0
TEXT
  8
2
 62
134
  6
CONTINUOUS
 10
37.975603
 20
75.043493
 40
2.000000
 41
1.000000
  1
500Ω/TR-501N
  7
KANJI
 50
0.000000
 51
0.000000
  0
TEXT
  8
5
 62
94
  6
CONTINUOUS
 10
75.199705
 20
18.052073
 40
2.000000
 41
0.750000
  1
ＴＲ－２５１Ｎ／ＴＲ－５０１Ｎ
  7
KANJI
 50
0.000000
 51
0.000000
  0
TEXT
  8
5
 62
94
  6
CONTINUOUS
 10
74.610994
 20
9.646300
 40
2.000000
 41
1.000000
  1
００５－０６５－Ａ１８２
  7
KANJI
 50
0.000000
 51
0.000000
  0
ENDSEC
  0
EOF
