  0
SECTION
  2
HEADER
  9
$ACADVER
  1
AC1009
  9
$INSBASE
 10
0.000000
 20
0.000000
  9
$EXTMIN
 10
0.000000
 20
0.000000
  9
$EXTMAX
 10
297.000000
 20
210.000000
  9
$LIMMIN
 10
0.000000
 20
0.000000
  9
$LIMMAX
 10
297.000000
 20
210.000000
  9
$VIEWCTR
 10
148.500000
 20
105.000000
  9
$VIEWSIZE
 40
210.000000
  9
$PEXTMIN
 10
0.000000
 20
0.000000
 30
0.000000
  9
$PEXTMAX
 10
297.000000
 20
210.000000
 30
0.000000
  9
$SNAPMODE
 70
     0
  9
$SNAPUNIT
 10
1.000000
 20
1.000000
  9
$SNAPBASE
 10
0.000000
 20
0.000000
  9
$SNAPANG
 50
0.000000
  9
$SNAPISOPAIR
 70
     0
  9
$SNAPSTYLE
 70
     0
  9
$GRIDMODE
 70
     0
  9
$GRIDUNIT
 10
0.000000
 20
0.000000
  9
$ORTHOMODE
 70
     0
  9
$REGENMODE
 70
     1
  9
$FILLMODE
 70
     1
  9
$QTEXTMODE
 70
     0
  9
$DRAGMODE
 70
     2
  9
$LTSCALE
 40
0.250000
  9
$OSMODE
 70
     0
  9
$ATTMODE
 70
     1
  9
$TEXTSIZE
 40
4.000000
  9
$TRACEWID
 40
0.050000
  9
$TEXTSTYLE
  7
STANDARD
  9
$CLAYER
  8
0
  9
$CELTYPE
  6
BYLAYER
  9
$CECOLOR
 62
   256
  9
$DIMSCALE
 40
1.000000
  9
$DIMASZ
 40
1.000000
  9
$DIMEXO
 40
0.000000
  9
$DIMDLI
 40
0.500000
  9
$DIMRND
 40
0.000000
  9
$DIMDLE
 40
0.000000
  9
$DIMEXE
 40
0.000000
  9
$DIMTP
 40
0.000000
  9
$DIMTM
 40
0.000000
  9
$DIMTXT
 40
4.000000
  9
$DIMCEN
 40
0.000000
  9
$DIMTSZ
 40
0.000000
  9
$DIMTOL
 70
     0
  9
$DIMLIM
 70
     0
  9
$DIMTIH
 70
     1
  9
$DIMTOH
 70
     1
  9
$DIMSE1
 70
     0
  9
$DIMSE2
 70
     0
  9
$DIMTAD
 70
     0
  9
$DIMZIN
 70
     0
  9
$DIMBLK
  1

  9
$DIMASO
 70
     0
  9
$DIMSHO
 70
     0
  9
$DIMPOST
  1

  9
$DIMAPOST
  1

  9
$DIMALT
 70
     0
  9
$DIMALTD
 70
     0
  9
$DIMALTF
 40
25.400000
  9
$DIMLFAC
 40
1.000000
  9
$DIMTOFL
 70
     0
  9
$DIMTVP
 40
0.000000
  9
$DIMTIX
 70
     0
  9
$DIMSOXD
 70
     0
  9
$DIMSAH
 70
     0
  9
$DIMBLKL
  1

  9
$DIMBLKR
  1

  9
$LUNITS
 70
     2
  9
$LUPREC
 70
     2
  9
$AXISMODE
 70
     0
  9
$AXISUNIT
 10
1.000000
 20
1.000000
  9
$SKETCHINC
 40
0.000000
  9
$FILLETRAD
 40
0.000000
  9
$AUNITS
 70
     1
  9
$AUPREC
 70
     2
  9
$MENU
  1
ACAD
  9
$ELEVATION
 40
0.000000
  9
$THICKNESS
 40
0.000000
  9
$VIEWDIR
 10
0.000000
 20
0.000000
 30
1.000000
  9
$LIMCHECK
 70
     1
  9
$BLIPMODE
 70
     1
  9
$CHAMFERA
 40
0.000000
  9
$CHAMFERB
 40
0.000000
  9
$FASTZOOM
 70
     1
  9
$SKPOLY
 70
     0
  9
$TDCREATE
 40
0.000000
  9
$TDUPDATE
 40
0.000000
  9
$TDINDWG
 40
0.000000
  9
$TDUSRTIMER
 40
0.000000
  9
$USRTIMER
 70
     1
  9
$ANGBASE
 50
0.000000
  9
$ANGDIR
 70
     0
  9
$PDMODE
 70
     0
  9
$PDSIZE
 40
0.000000
  9
$PLINEWID
 40
0.000000
  9
$COORDS
 70
     2
  9
$USERI1
 70
     0
  9
$USERI2
 70
     0
  9
$USERI3
 70
     0
  9
$USERI4
 70
     0
  9
$USERI5
 70
     0
  9
$USERR1
 40
0.000000
  9
$USERR2
 40
0.000000
  9
$USERR3
 40
0.000000
  9
$USERR4
 40
0.000000
  9
$USERR5
 40
0.000000
  0
ENDSEC
  0
SECTION
  2
TABLES
  0
TABLE
  2
LTYPE
 70
     5
  0
LTYPE
  2
CONTINUOUS
 70
    64
  3
Solid line
 72
    65
 73
     0
 40
0.0
  0
LTYPE
  2
HIDDEN
 70
    64
  3
------------------------
 72
    65
 73
     2
 40
12.6
 49
8.4
 49
-4.2
  0
LTYPE
  2
DOT
 70
    64
  3
････････････････････････
 72
    65
 73
     2
 40
8.0
 49
6.0
 49
-2.0
  0
LTYPE
  2
DASHDOT
 70
    64
  3
--･--･--･--･--･--･--･--
 72
    65
 73
     4
 40
50.5
 49
30.0
 49
-9.0
 49
2.5
 49
-9.0
  0
LTYPE
  2
DIVIDE
 70
    64
  3
--･･--･･--･･--･･--･･--
 72
    65
 73
     6
 40
58.0
 49
30.0
 49
-9.0
 49
2.5
 49
-5.0
 49
2.5
 49
-9.0
  0
LTYPE
  2
ACAD_ISO06W100
 70
    64
  3
____ ... ____ ... ____
 72
    65
 73
     8
 40
37.5
 49
24.0
 49
-3.0
 49
0.5
 49
-3.0
 49
0.5
 49
-3.0
 49
0.5
 49
-3.0
  0
LTYPE
  2
ACAD_ISO14W100
 70
    64
  3
__ . . . __ . . . __ . . . 
 72
    65
 73
     8
 40
25.5
 49
12.0
 49
-3.0
 49
0.5
 49
-3.0
 49
0.5
 49
-3.0
 49
0.5
 49
-3.0
  0
ENDTAB
  0
TABLE
  2
LAYER
 70
4
  0
LAYER
  2
1
 70
64
 62
7
  6
CONTINUOUS
  0
LAYER
  2
2
 70
64
 62
134
  6
CONTINUOUS
  0
LAYER
  2
4
 70
64
 62
54
  6
CONTINUOUS
  0
LAYER
  2
5
 70
64
 62
94
  6
CONTINUOUS
  0
ENDTAB
  0
TABLE
  2
STYLE
 70
     2
  0
STYLE
  2
STANDARD
 70
    64
 40
0.0
 41
1.0
 50
0.0
 71
     0
 42
0.2
  3
TXT
  4

  0
STYLE
  2
KANJI
 70
    64
 40
0.0
 41
1.0
 50
0.0
 71
     0
 42
0.2
  3
TXT
  4
BIGFONT
  0
ENDTAB
  0
TABLE
  2
VIEW
 70
     0
  0
ENDTAB
  0
ENDSEC
  0
SECTION
  2
BLOCKS
  0
BLOCK
  8
2
 62
134
  6
CONTINUOUS
  2
*D1
 70
    65
 10
0.0
 20
0.0
  0
LINE
  8
2
 62
134
  6
CONTINUOUS
 10
-192.000000
 20
57.961092
 11
-111.071162
 21
57.961092
  0
LINE
  8
2
 62
134
  6
CONTINUOUS
 10
-192.000000
 20
56.961092
 11
-192.000000
 21
79.850000
  0
LINE
  8
2
 62
134
  6
CONTINUOUS
 10
-111.071162
 20
56.961092
 11
-111.071162
 21
67.000000
  0
LINE
  8
2
 62
134
  6
CONTINUOUS
 10
-192.000000
 20
57.961092
 11
-190.068148
 21
58.478730
  0
LINE
  8
2
 62
134
  6
CONTINUOUS
 10
-192.000000
 20
57.961092
 11
-190.068148
 21
57.443454
  0
LINE
  8
2
 62
134
  6
CONTINUOUS
 10
-190.068148
 20
58.478730
 11
-190.068148
 21
57.443454
  0
LINE
  8
2
 62
134
  6
CONTINUOUS
 10
-191.517037
 20
57.961092
 11
-190.551111
 21
58.219911
  0
LINE
  8
2
 62
134
  6
CONTINUOUS
 10
-191.517037
 20
57.961092
 11
-190.551111
 21
57.702273
  0
LINE
  8
2
 62
134
  6
CONTINUOUS
 10
-190.551111
 20
58.219911
 11
-190.551111
 21
57.702273
  0
LINE
  8
2
 62
134
  6
CONTINUOUS
 10
-111.071162
 20
57.961092
 11
-113.003014
 21
57.443454
  0
LINE
  8
2
 62
134
  6
CONTINUOUS
 10
-111.071162
 20
57.961092
 11
-113.003014
 21
58.478730
  0
LINE
  8
2
 62
134
  6
CONTINUOUS
 10
-113.003014
 20
57.443454
 11
-113.003014
 21
58.478730
  0
LINE
  8
2
 62
134
  6
CONTINUOUS
 10
-111.554125
 20
57.961092
 11
-112.520051
 21
57.702273
  0
LINE
  8
2
 62
134
  6
CONTINUOUS
 10
-111.554125
 20
57.961092
 11
-112.520051
 21
58.219911
  0
LINE
  8
2
 62
134
  6
CONTINUOUS
 10
-112.520051
 20
57.702273
 11
-112.520051
 21
58.219911
  0
TEXT
  8
2
 62
134
  6
CONTINUOUS
 10
-155.168345
 20
57.961092
 40
4.000000
 41
0.500000
  1
200mm
  7
KANJI
 50
0.000000
 51
0.000000
  0
ENDBLK
  0
BLOCK
  8
2
 62
134
  6
CONTINUOUS
  2
*D2
 70
    65
 10
0.0
 20
0.0
  0
LINE
  8
2
 62
134
  6
CONTINUOUS
 10
153.420017
 20
284.612651
 11
147.420017
 21
284.612651
  0
LINE
  8
2
 62
134
  6
CONTINUOUS
 10
153.420017
 20
283.612651
 11
153.420017
 21
291.161511
  0
LINE
  8
2
 62
134
  6
CONTINUOUS
 10
147.420017
 20
283.612651
 11
147.420017
 21
291.161511
  0
LINE
  8
2
 62
134
  6
CONTINUOUS
 10
153.420017
 20
284.612651
 11
151.488165
 21
284.095013
  0
LINE
  8
2
 62
134
  6
CONTINUOUS
 10
153.420017
 20
284.612651
 11
151.488165
 21
285.130290
  0
LINE
  8
2
 62
134
  6
CONTINUOUS
 10
151.488165
 20
284.095013
 11
151.488165
 21
285.130290
  0
LINE
  8
2
 62
134
  6
CONTINUOUS
 10
152.937054
 20
284.612651
 11
151.971128
 21
284.353832
  0
LINE
  8
2
 62
134
  6
CONTINUOUS
 10
152.937054
 20
284.612651
 11
151.971128
 21
284.871470
  0
LINE
  8
2
 62
134
  6
CONTINUOUS
 10
151.971128
 20
284.353832
 11
151.971128
 21
284.871470
  0
LINE
  8
2
 62
134
  6
CONTINUOUS
 10
147.420017
 20
284.612651
 11
149.351869
 21
285.130290
  0
LINE
  8
2
 62
134
  6
CONTINUOUS
 10
147.420017
 20
284.612651
 11
149.351869
 21
284.095013
  0
LINE
  8
2
 62
134
  6
CONTINUOUS
 10
149.351869
 20
285.130290
 11
149.351869
 21
284.095013
  0
LINE
  8
2
 62
134
  6
CONTINUOUS
 10
147.902980
 20
284.612651
 11
148.868906
 21
284.871470
  0
LINE
  8
2
 62
134
  6
CONTINUOUS
 10
147.902980
 20
284.612651
 11
148.868906
 21
284.353832
  0
LINE
  8
2
 62
134
  6
CONTINUOUS
 10
148.868906
 20
284.871470
 11
148.868906
 21
284.353832
  0
TEXT
  8
2
 62
134
  6
CONTINUOUS
 10
149.420017
 20
284.612651
 40
4.000000
 41
0.500000
  1
6
  7
KANJI
 50
0.000000
 51
0.000000
  0
ENDBLK
  0
BLOCK
  8
2
 62
134
  6
CONTINUOUS
  2
*D3
 70
    65
 10
0.0
 20
0.0
  0
LINE
  8
2
 62
134
  6
CONTINUOUS
 10
86.109133
 20
290.611511
 11
86.109133
 21
314.823539
  0
LINE
  8
2
 62
134
  6
CONTINUOUS
 10
86.109133
 20
298.611511
 11
86.626771
 21
296.679660
  0
LINE
  8
2
 62
134
  6
CONTINUOUS
 10
86.109133
 20
298.611511
 11
85.591495
 21
296.679660
  0
LINE
  8
2
 62
134
  6
CONTINUOUS
 10
86.626771
 20
296.679660
 11
85.591495
 21
296.679660
  0
LINE
  8
2
 62
134
  6
CONTINUOUS
 10
86.109133
 20
298.128549
 11
86.367952
 21
297.162623
  0
LINE
  8
2
 62
134
  6
CONTINUOUS
 10
86.109133
 20
298.128549
 11
85.850314
 21
297.162623
  0
LINE
  8
2
 62
134
  6
CONTINUOUS
 10
86.367952
 20
297.162623
 11
85.850314
 21
297.162623
  0
LINE
  8
2
 62
134
  6
CONTINUOUS
 10
86.109133
 20
305.611511
 11
85.591495
 21
307.543363
  0
LINE
  8
2
 62
134
  6
CONTINUOUS
 10
86.109133
 20
305.611511
 11
86.626771
 21
307.543363
  0
LINE
  8
2
 62
134
  6
CONTINUOUS
 10
85.591495
 20
307.543363
 11
86.626771
 21
307.543363
  0
LINE
  8
2
 62
134
  6
CONTINUOUS
 10
86.109133
 20
306.094474
 11
85.850314
 21
307.060400
  0
LINE
  8
2
 62
134
  6
CONTINUOUS
 10
86.109133
 20
306.094474
 11
86.367952
 21
307.060400
  0
LINE
  8
2
 62
134
  6
CONTINUOUS
 10
85.850314
 20
307.060400
 11
86.367952
 21
307.060400
  0
TEXT
  8
2
 62
134
  6
CONTINUOUS
 10
86.109133
 20
308.823539
 40
4.000000
 41
1.000000
  1
φ7
  7
KANJI
 50
90.000000
 51
0.000000
  0
ENDBLK
  0
BLOCK
  8
2
 62
134
  6
CONTINUOUS
  2
*D4
 70
    65
 10
0.0
 20
0.0
  0
LINE
  8
2
 62
134
  6
CONTINUOUS
 10
-15.558130
 20
292.611511
 11
-15.558130
 21
311.611511
  0
LINE
  8
2
 62
134
  6
CONTINUOUS
 10
-16.558130
 20
292.611511
 11
-5.421046
 21
292.611511
  0
LINE
  8
2
 62
134
  6
CONTINUOUS
 10
-16.558130
 20
311.611511
 11
-5.421046
 21
311.611511
  0
LINE
  8
2
 62
134
  6
CONTINUOUS
 10
-15.558130
 20
292.611511
 11
-16.075768
 21
294.543363
  0
LINE
  8
2
 62
134
  6
CONTINUOUS
 10
-15.558130
 20
292.611511
 11
-15.040492
 21
294.543363
  0
LINE
  8
2
 62
134
  6
CONTINUOUS
 10
-16.075768
 20
294.543363
 11
-15.040492
 21
294.543363
  0
LINE
  8
2
 62
134
  6
CONTINUOUS
 10
-15.558130
 20
293.094474
 11
-15.816949
 21
294.060400
  0
LINE
  8
2
 62
134
  6
CONTINUOUS
 10
-15.558130
 20
293.094474
 11
-15.299311
 21
294.060400
  0
LINE
  8
2
 62
134
  6
CONTINUOUS
 10
-15.816949
 20
294.060400
 11
-15.299311
 21
294.060400
  0
LINE
  8
2
 62
134
  6
CONTINUOUS
 10
-15.558130
 20
311.611511
 11
-15.040492
 21
309.679660
  0
LINE
  8
2
 62
134
  6
CONTINUOUS
 10
-15.558130
 20
311.611511
 11
-16.075768
 21
309.679660
  0
LINE
  8
2
 62
134
  6
CONTINUOUS
 10
-15.040492
 20
309.679660
 11
-16.075768
 21
309.679660
  0
LINE
  8
2
 62
134
  6
CONTINUOUS
 10
-15.558130
 20
311.128549
 11
-15.299311
 21
310.162623
  0
LINE
  8
2
 62
134
  6
CONTINUOUS
 10
-15.558130
 20
311.128549
 11
-15.816949
 21
310.162623
  0
LINE
  8
2
 62
134
  6
CONTINUOUS
 10
-15.299311
 20
310.162623
 11
-15.816949
 21
310.162623
  0
TEXT
  8
2
 62
134
  6
CONTINUOUS
 10
-15.558130
 20
298.222649
 40
4.000000
 41
1.000000
  1
φ19
  7
KANJI
 50
90.000000
 51
0.000000
  0
ENDBLK
  0
BLOCK
  8
2
 62
134
  6
CONTINUOUS
  2
*D5
 70
    65
 10
0.0
 20
0.0
  0
LINE
  8
2
 62
134
  6
CONTINUOUS
 10
-6.221046
 20
318.291508
 11
42.778954
 21
318.291508
  0
LINE
  8
2
 62
134
  6
CONTINUOUS
 10
-6.221046
 20
319.291508
 11
-6.221046
 21
308.861511
  0
LINE
  8
2
 62
134
  6
CONTINUOUS
 10
42.778954
 20
319.291508
 11
42.778954
 21
308.861511
  0
LINE
  8
2
 62
134
  6
CONTINUOUS
 10
-6.221046
 20
318.291508
 11
-4.289195
 21
318.809146
  0
LINE
  8
2
 62
134
  6
CONTINUOUS
 10
-6.221046
 20
318.291508
 11
-4.289195
 21
317.773870
  0
LINE
  8
2
 62
134
  6
CONTINUOUS
 10
-4.289195
 20
318.809146
 11
-4.289195
 21
317.773870
  0
LINE
  8
2
 62
134
  6
CONTINUOUS
 10
-5.738083
 20
318.291508
 11
-4.772158
 21
318.550327
  0
LINE
  8
2
 62
134
  6
CONTINUOUS
 10
-5.738083
 20
318.291508
 11
-4.772158
 21
318.032689
  0
LINE
  8
2
 62
134
  6
CONTINUOUS
 10
-4.772158
 20
318.550327
 11
-4.772158
 21
318.032689
  0
LINE
  8
2
 62
134
  6
CONTINUOUS
 10
42.778954
 20
318.291508
 11
40.847102
 21
317.773870
  0
LINE
  8
2
 62
134
  6
CONTINUOUS
 10
42.778954
 20
318.291508
 11
40.847102
 21
318.809146
  0
LINE
  8
2
 62
134
  6
CONTINUOUS
 10
40.847102
 20
317.773870
 11
40.847102
 21
318.809146
  0
LINE
  8
2
 62
134
  6
CONTINUOUS
 10
42.295991
 20
318.291508
 11
41.330065
 21
318.032689
  0
LINE
  8
2
 62
134
  6
CONTINUOUS
 10
42.295991
 20
318.291508
 11
41.330065
 21
318.550327
  0
LINE
  8
2
 62
134
  6
CONTINUOUS
 10
41.330065
 20
318.032689
 11
41.330065
 21
318.550327
  0
TEXT
  8
2
 62
134
  6
CONTINUOUS
 10
14.120477
 20
318.291508
 40
4.000000
 41
0.500000
  1
49
  7
KANJI
 50
0.000000
 51
0.000000
  0
ENDBLK
  0
BLOCK
  8
2
 62
134
  6
CONTINUOUS
  2
*D6
 70
    65
 10
0.0
 20
0.0
  0
LINE
  8
2
 62
134
  6
CONTINUOUS
 10
9.278954
 20
246.256604
 11
42.778954
 21
246.256604
  0
LINE
  8
2
 62
134
  6
CONTINUOUS
 10
42.778954
 20
245.256604
 11
42.778954
 21
267.303061
  0
LINE
  8
2
 62
134
  6
CONTINUOUS
 10
9.278954
 20
246.256604
 11
11.210805
 21
246.774242
  0
LINE
  8
2
 62
134
  6
CONTINUOUS
 10
9.278954
 20
246.256604
 11
11.210805
 21
245.738966
  0
LINE
  8
2
 62
134
  6
CONTINUOUS
 10
11.210805
 20
246.774242
 11
11.210805
 21
245.738966
  0
LINE
  8
2
 62
134
  6
CONTINUOUS
 10
9.761917
 20
246.256604
 11
10.727842
 21
246.515423
  0
LINE
  8
2
 62
134
  6
CONTINUOUS
 10
9.761917
 20
246.256604
 11
10.727842
 21
245.997785
  0
LINE
  8
2
 62
134
  6
CONTINUOUS
 10
10.727842
 20
246.515423
 11
10.727842
 21
245.997785
  0
LINE
  8
2
 62
134
  6
CONTINUOUS
 10
42.778954
 20
246.256604
 11
40.847102
 21
245.738966
  0
LINE
  8
2
 62
134
  6
CONTINUOUS
 10
42.778954
 20
246.256604
 11
40.847102
 21
246.774242
  0
LINE
  8
2
 62
134
  6
CONTINUOUS
 10
40.847102
 20
245.738966
 11
40.847102
 21
246.774242
  0
LINE
  8
2
 62
134
  6
CONTINUOUS
 10
42.295991
 20
246.256604
 11
41.330065
 21
245.997785
  0
LINE
  8
2
 62
134
  6
CONTINUOUS
 10
42.295991
 20
246.256604
 11
41.330065
 21
246.515423
  0
LINE
  8
2
 62
134
  6
CONTINUOUS
 10
41.330065
 20
245.997785
 11
41.330065
 21
246.515423
  0
TEXT
  8
2
 62
134
  6
CONTINUOUS
 10
21.703729
 20
246.256604
 40
4.000000
 41
0.500000
  1
33.5
  7
KANJI
 50
0.000000
 51
0.000000
  0
ENDBLK
  0
BLOCK
  8
2
 62
134
  6
CONTINUOUS
  2
*D7
 70
    65
 10
0.0
 20
0.0
  0
LINE
  8
2
 62
134
  6
CONTINUOUS
 10
142.618548
 20
292.161511
 11
142.618548
 21
316.634603
  0
LINE
  8
2
 62
134
  6
CONTINUOUS
 10
143.618548
 20
292.161511
 11
120.778997
 21
292.161511
  0
LINE
  8
2
 62
134
  6
CONTINUOUS
 10
143.618548
 20
316.634603
 11
138.413133
 21
316.634603
  0
LINE
  8
2
 62
134
  6
CONTINUOUS
 10
142.618548
 20
292.161511
 11
142.100910
 21
294.093363
  0
LINE
  8
2
 62
134
  6
CONTINUOUS
 10
142.618548
 20
292.161511
 11
143.136186
 21
294.093363
  0
LINE
  8
2
 62
134
  6
CONTINUOUS
 10
142.100910
 20
294.093363
 11
143.136186
 21
294.093363
  0
LINE
  8
2
 62
134
  6
CONTINUOUS
 10
142.618548
 20
292.644474
 11
142.359729
 21
293.610400
  0
LINE
  8
2
 62
134
  6
CONTINUOUS
 10
142.618548
 20
292.644474
 11
142.877367
 21
293.610400
  0
LINE
  8
2
 62
134
  6
CONTINUOUS
 10
142.359729
 20
293.610400
 11
142.877367
 21
293.610400
  0
LINE
  8
2
 62
134
  6
CONTINUOUS
 10
142.618548
 20
316.634603
 11
143.136186
 21
314.702752
  0
LINE
  8
2
 62
134
  6
CONTINUOUS
 10
142.618548
 20
316.634603
 11
142.100910
 21
314.702752
  0
LINE
  8
2
 62
134
  6
CONTINUOUS
 10
143.136186
 20
314.702752
 11
142.100910
 21
314.702752
  0
LINE
  8
2
 62
134
  6
CONTINUOUS
 10
142.618548
 20
316.151641
 11
142.877367
 21
315.185715
  0
LINE
  8
2
 62
134
  6
CONTINUOUS
 10
142.618548
 20
316.151641
 11
142.359729
 21
315.185715
  0
LINE
  8
2
 62
134
  6
CONTINUOUS
 10
142.877367
 20
315.185715
 11
142.359729
 21
315.185715
  0
TEXT
  8
2
 62
134
  6
CONTINUOUS
 10
142.618548
 20
299.130241
 40
4.000000
 41
0.500000
  1
24.5
  7
KANJI
 50
90.000000
 51
0.000000
  0
ENDBLK
  0
BLOCK
  8
2
 62
134
  6
CONTINUOUS
  2
*D8
 70
    65
 10
0.0
 20
0.0
  0
LINE
  8
2
 62
134
  6
CONTINUOUS
 10
-6.221046
 20
323.571276
 11
115.862166
 21
323.571276
  0
LINE
  8
2
 62
134
  6
CONTINUOUS
 10
-6.221046
 20
324.571276
 11
-6.221046
 21
308.861511
  0
LINE
  8
2
 62
134
  6
CONTINUOUS
 10
115.862166
 20
324.571276
 11
115.862166
 21
314.548473
  0
LINE
  8
2
 62
134
  6
CONTINUOUS
 10
-6.221046
 20
323.571276
 11
-4.289195
 21
324.088914
  0
LINE
  8
2
 62
134
  6
CONTINUOUS
 10
-6.221046
 20
323.571276
 11
-4.289195
 21
323.053638
  0
LINE
  8
2
 62
134
  6
CONTINUOUS
 10
-4.289195
 20
324.088914
 11
-4.289195
 21
323.053638
  0
LINE
  8
2
 62
134
  6
CONTINUOUS
 10
-5.738083
 20
323.571276
 11
-4.772158
 21
323.830095
  0
LINE
  8
2
 62
134
  6
CONTINUOUS
 10
-5.738083
 20
323.571276
 11
-4.772158
 21
323.312457
  0
LINE
  8
2
 62
134
  6
CONTINUOUS
 10
-4.772158
 20
323.830095
 11
-4.772158
 21
323.312457
  0
LINE
  8
2
 62
134
  6
CONTINUOUS
 10
115.862166
 20
323.571276
 11
113.930314
 21
323.053638
  0
LINE
  8
2
 62
134
  6
CONTINUOUS
 10
115.862166
 20
323.571276
 11
113.930314
 21
324.088914
  0
LINE
  8
2
 62
134
  6
CONTINUOUS
 10
113.930314
 20
323.053638
 11
113.930314
 21
324.088914
  0
LINE
  8
2
 62
134
  6
CONTINUOUS
 10
115.379203
 20
323.571276
 11
114.413277
 21
323.312457
  0
LINE
  8
2
 62
134
  6
CONTINUOUS
 10
115.379203
 20
323.571276
 11
114.413277
 21
323.830095
  0
LINE
  8
2
 62
134
  6
CONTINUOUS
 10
114.413277
 20
323.312457
 11
114.413277
 21
323.830095
  0
TEXT
  8
2
 62
134
  6
CONTINUOUS
 10
40.618822
 20
323.571276
 40
4.000000
 41
1.000000
  1
ｹｰﾌﾞﾙ長(標準2m)
  7
KANJI
 50
0.000000
 51
0.000000
  0
ENDBLK
  0
BLOCK
  8
2
 62
134
  6
CONTINUOUS
  2
*D9
 70
    65
 10
0.0
 20
0.0
  0
LINE
  8
2
 62
134
  6
CONTINUOUS
 10
115.862166
 20
323.571276
 11
133.862166
 21
323.571276
  0
LINE
  8
2
 62
134
  6
CONTINUOUS
 10
115.862166
 20
324.571276
 11
115.862166
 21
314.761511
  0
LINE
  8
2
 62
134
  6
CONTINUOUS
 10
133.862166
 20
324.571276
 11
133.862166
 21
314.548473
  0
LINE
  8
2
 62
134
  6
CONTINUOUS
 10
115.862166
 20
323.571276
 11
117.794017
 21
324.088914
  0
LINE
  8
2
 62
134
  6
CONTINUOUS
 10
115.862166
 20
323.571276
 11
117.794017
 21
323.053638
  0
LINE
  8
2
 62
134
  6
CONTINUOUS
 10
117.794017
 20
324.088914
 11
117.794017
 21
323.053638
  0
LINE
  8
2
 62
134
  6
CONTINUOUS
 10
116.345129
 20
323.571276
 11
117.311054
 21
323.830095
  0
LINE
  8
2
 62
134
  6
CONTINUOUS
 10
116.345129
 20
323.571276
 11
117.311054
 21
323.312457
  0
LINE
  8
2
 62
134
  6
CONTINUOUS
 10
117.311054
 20
323.830095
 11
117.311054
 21
323.312457
  0
LINE
  8
2
 62
134
  6
CONTINUOUS
 10
133.862166
 20
323.571276
 11
131.930314
 21
323.053638
  0
LINE
  8
2
 62
134
  6
CONTINUOUS
 10
133.862166
 20
323.571276
 11
131.930314
 21
324.088914
  0
LINE
  8
2
 62
134
  6
CONTINUOUS
 10
131.930314
 20
323.053638
 11
131.930314
 21
324.088914
  0
LINE
  8
2
 62
134
  6
CONTINUOUS
 10
133.379203
 20
323.571276
 11
132.413277
 21
323.312457
  0
LINE
  8
2
 62
134
  6
CONTINUOUS
 10
133.379203
 20
323.571276
 11
132.413277
 21
323.830095
  0
LINE
  8
2
 62
134
  6
CONTINUOUS
 10
132.413277
 20
323.312457
 11
132.413277
 21
323.830095
  0
TEXT
  8
2
 62
134
  6
CONTINUOUS
 10
122.112418
 20
323.571276
 40
4.000000
 41
0.500000
  1
18
  7
KANJI
 50
0.000000
 51
0.000000
  0
ENDBLK
  0
BLOCK
  8
2
 62
134
  6
CONTINUOUS
  2
*D10
 70
    65
 10
0.0
 20
0.0
  0
LINE
  8
2
 62
134
  6
CONTINUOUS
 10
416.579983
 20
284.612651
 11
422.579983
 21
284.612651
  0
LINE
  8
2
 62
134
  6
CONTINUOUS
 10
416.579983
 20
283.612651
 11
416.579983
 21
291.161511
  0
LINE
  8
2
 62
134
  6
CONTINUOUS
 10
422.579983
 20
283.612651
 11
422.579983
 21
291.161511
  0
LINE
  8
2
 62
134
  6
CONTINUOUS
 10
416.579983
 20
284.612651
 11
418.511835
 21
285.130290
  0
LINE
  8
2
 62
134
  6
CONTINUOUS
 10
416.579983
 20
284.612651
 11
418.511835
 21
284.095013
  0
LINE
  8
2
 62
134
  6
CONTINUOUS
 10
418.511835
 20
285.130290
 11
418.511835
 21
284.095013
  0
LINE
  8
2
 62
134
  6
CONTINUOUS
 10
417.062946
 20
284.612651
 11
418.028872
 21
284.871470
  0
LINE
  8
2
 62
134
  6
CONTINUOUS
 10
417.062946
 20
284.612651
 11
418.028872
 21
284.353832
  0
LINE
  8
2
 62
134
  6
CONTINUOUS
 10
418.028872
 20
284.871470
 11
418.028872
 21
284.353832
  0
LINE
  8
2
 62
134
  6
CONTINUOUS
 10
422.579983
 20
284.612651
 11
420.648131
 21
284.095013
  0
LINE
  8
2
 62
134
  6
CONTINUOUS
 10
422.579983
 20
284.612651
 11
420.648131
 21
285.130290
  0
LINE
  8
2
 62
134
  6
CONTINUOUS
 10
420.648131
 20
284.095013
 11
420.648131
 21
285.130290
  0
LINE
  8
2
 62
134
  6
CONTINUOUS
 10
422.097020
 20
284.612651
 11
421.131094
 21
284.353832
  0
LINE
  8
2
 62
134
  6
CONTINUOUS
 10
422.097020
 20
284.612651
 11
421.131094
 21
284.871470
  0
LINE
  8
2
 62
134
  6
CONTINUOUS
 10
421.131094
 20
284.353832
 11
421.131094
 21
284.871470
  0
TEXT
  8
2
 62
134
  6
CONTINUOUS
 10
418.579983
 20
284.612651
 40
4.000000
 41
0.500000
  1
6
  7
KANJI
 50
-0.000000
 51
0.000000
  0
ENDBLK
  0
BLOCK
  8
2
 62
134
  6
CONTINUOUS
  2
*D11
 70
    65
 10
0.0
 20
0.0
  0
LINE
  8
2
 62
134
  6
CONTINUOUS
 10
483.890867
 20
290.611511
 11
483.890867
 21
314.823539
  0
LINE
  8
2
 62
134
  6
CONTINUOUS
 10
483.890867
 20
298.611511
 11
484.408505
 21
296.679660
  0
LINE
  8
2
 62
134
  6
CONTINUOUS
 10
483.890867
 20
298.611511
 11
483.373229
 21
296.679660
  0
LINE
  8
2
 62
134
  6
CONTINUOUS
 10
484.408505
 20
296.679660
 11
483.373229
 21
296.679660
  0
LINE
  8
2
 62
134
  6
CONTINUOUS
 10
483.890867
 20
298.128549
 11
484.149686
 21
297.162623
  0
LINE
  8
2
 62
134
  6
CONTINUOUS
 10
483.890867
 20
298.128549
 11
483.632048
 21
297.162623
  0
LINE
  8
2
 62
134
  6
CONTINUOUS
 10
484.149686
 20
297.162623
 11
483.632048
 21
297.162623
  0
LINE
  8
2
 62
134
  6
CONTINUOUS
 10
483.890867
 20
305.611511
 11
483.373229
 21
307.543363
  0
LINE
  8
2
 62
134
  6
CONTINUOUS
 10
483.890867
 20
305.611511
 11
484.408505
 21
307.543363
  0
LINE
  8
2
 62
134
  6
CONTINUOUS
 10
483.373229
 20
307.543363
 11
484.408505
 21
307.543363
  0
LINE
  8
2
 62
134
  6
CONTINUOUS
 10
483.890867
 20
306.094474
 11
483.632048
 21
307.060400
  0
LINE
  8
2
 62
134
  6
CONTINUOUS
 10
483.890867
 20
306.094474
 11
484.149686
 21
307.060400
  0
LINE
  8
2
 62
134
  6
CONTINUOUS
 10
483.632048
 20
307.060400
 11
484.149686
 21
307.060400
  0
TEXT
  8
2
 62
134
  6
CONTINUOUS
 10
483.890867
 20
308.823539
 40
4.000000
 41
1.000000
  1
φ7
  7
KANJI
 50
90.000000
 51
0.000000
  0
ENDBLK
  0
BLOCK
  8
2
 62
134
  6
CONTINUOUS
  2
*D12
 70
    65
 10
0.0
 20
0.0
  0
LINE
  8
2
 62
134
  6
CONTINUOUS
 10
585.558130
 20
292.611511
 11
585.558130
 21
311.611511
  0
LINE
  8
2
 62
134
  6
CONTINUOUS
 10
586.558130
 20
292.611511
 11
575.421046
 21
292.611511
  0
LINE
  8
2
 62
134
  6
CONTINUOUS
 10
586.558130
 20
311.611511
 11
575.421046
 21
311.611511
  0
LINE
  8
2
 62
134
  6
CONTINUOUS
 10
585.558130
 20
292.611511
 11
585.040492
 21
294.543363
  0
LINE
  8
2
 62
134
  6
CONTINUOUS
 10
585.558130
 20
292.611511
 11
586.075768
 21
294.543363
  0
LINE
  8
2
 62
134
  6
CONTINUOUS
 10
585.040492
 20
294.543363
 11
586.075768
 21
294.543363
  0
LINE
  8
2
 62
134
  6
CONTINUOUS
 10
585.558130
 20
293.094474
 11
585.299311
 21
294.060400
  0
LINE
  8
2
 62
134
  6
CONTINUOUS
 10
585.558130
 20
293.094474
 11
585.816949
 21
294.060400
  0
LINE
  8
2
 62
134
  6
CONTINUOUS
 10
585.299311
 20
294.060400
 11
585.816949
 21
294.060400
  0
LINE
  8
2
 62
134
  6
CONTINUOUS
 10
585.558130
 20
311.611511
 11
586.075768
 21
309.679660
  0
LINE
  8
2
 62
134
  6
CONTINUOUS
 10
585.558130
 20
311.611511
 11
585.040492
 21
309.679660
  0
LINE
  8
2
 62
134
  6
CONTINUOUS
 10
586.075768
 20
309.679660
 11
585.040492
 21
309.679660
  0
LINE
  8
2
 62
134
  6
CONTINUOUS
 10
585.558130
 20
311.128549
 11
585.816949
 21
310.162623
  0
LINE
  8
2
 62
134
  6
CONTINUOUS
 10
585.558130
 20
311.128549
 11
585.299311
 21
310.162623
  0
LINE
  8
2
 62
134
  6
CONTINUOUS
 10
585.816949
 20
310.162623
 11
585.299311
 21
310.162623
  0
TEXT
  8
2
 62
134
  6
CONTINUOUS
 10
585.558130
 20
298.222649
 40
4.000000
 41
1.000000
  1
φ19
  7
KANJI
 50
90.000000
 51
0.000000
  0
ENDBLK
  0
BLOCK
  8
2
 62
134
  6
CONTINUOUS
  2
*D13
 70
    65
 10
0.0
 20
0.0
  0
LINE
  8
2
 62
134
  6
CONTINUOUS
 10
576.221046
 20
318.291508
 11
527.221046
 21
318.291508
  0
LINE
  8
2
 62
134
  6
CONTINUOUS
 10
576.221046
 20
319.291508
 11
576.221046
 21
308.861511
  0
LINE
  8
2
 62
134
  6
CONTINUOUS
 10
527.221046
 20
319.291508
 11
527.221046
 21
308.861511
  0
LINE
  8
2
 62
134
  6
CONTINUOUS
 10
576.221046
 20
318.291508
 11
574.289195
 21
317.773870
  0
LINE
  8
2
 62
134
  6
CONTINUOUS
 10
576.221046
 20
318.291508
 11
574.289195
 21
318.809146
  0
LINE
  8
2
 62
134
  6
CONTINUOUS
 10
574.289195
 20
317.773870
 11
574.289195
 21
318.809146
  0
LINE
  8
2
 62
134
  6
CONTINUOUS
 10
575.738083
 20
318.291508
 11
574.772158
 21
318.032689
  0
LINE
  8
2
 62
134
  6
CONTINUOUS
 10
575.738083
 20
318.291508
 11
574.772158
 21
318.550327
  0
LINE
  8
2
 62
134
  6
CONTINUOUS
 10
574.772158
 20
318.032689
 11
574.772158
 21
318.550327
  0
LINE
  8
2
 62
134
  6
CONTINUOUS
 10
527.221046
 20
318.291508
 11
529.152898
 21
318.809146
  0
LINE
  8
2
 62
134
  6
CONTINUOUS
 10
527.221046
 20
318.291508
 11
529.152898
 21
317.773870
  0
LINE
  8
2
 62
134
  6
CONTINUOUS
 10
529.152898
 20
318.809146
 11
529.152898
 21
317.773870
  0
LINE
  8
2
 62
134
  6
CONTINUOUS
 10
527.704009
 20
318.291508
 11
528.669935
 21
318.550327
  0
LINE
  8
2
 62
134
  6
CONTINUOUS
 10
527.704009
 20
318.291508
 11
528.669935
 21
318.032689
  0
LINE
  8
2
 62
134
  6
CONTINUOUS
 10
528.669935
 20
318.550327
 11
528.669935
 21
318.032689
  0
TEXT
  8
2
 62
134
  6
CONTINUOUS
 10
551.879523
 20
318.291508
 40
4.000000
 41
0.500000
  1
49
  7
KANJI
 50
0.000000
 51
0.000000
  0
ENDBLK
  0
BLOCK
  8
2
 62
134
  6
CONTINUOUS
  2
*D14
 70
    65
 10
0.0
 20
0.0
  0
LINE
  8
2
 62
134
  6
CONTINUOUS
 10
560.721046
 20
246.256604
 11
527.221046
 21
246.256604
  0
LINE
  8
2
 62
134
  6
CONTINUOUS
 10
527.221046
 20
245.256604
 11
527.221046
 21
267.303061
  0
LINE
  8
2
 62
134
  6
CONTINUOUS
 10
560.721046
 20
246.256604
 11
558.789195
 21
245.738966
  0
LINE
  8
2
 62
134
  6
CONTINUOUS
 10
560.721046
 20
246.256604
 11
558.789195
 21
246.774242
  0
LINE
  8
2
 62
134
  6
CONTINUOUS
 10
558.789195
 20
245.738966
 11
558.789195
 21
246.774242
  0
LINE
  8
2
 62
134
  6
CONTINUOUS
 10
560.238083
 20
246.256604
 11
559.272158
 21
245.997785
  0
LINE
  8
2
 62
134
  6
CONTINUOUS
 10
560.238083
 20
246.256604
 11
559.272158
 21
246.515423
  0
LINE
  8
2
 62
134
  6
CONTINUOUS
 10
559.272158
 20
245.997785
 11
559.272158
 21
246.515423
  0
LINE
  8
2
 62
134
  6
CONTINUOUS
 10
527.221046
 20
246.256604
 11
529.152898
 21
246.774242
  0
LINE
  8
2
 62
134
  6
CONTINUOUS
 10
527.221046
 20
246.256604
 11
529.152898
 21
245.738966
  0
LINE
  8
2
 62
134
  6
CONTINUOUS
 10
529.152898
 20
246.774242
 11
529.152898
 21
245.738966
  0
LINE
  8
2
 62
134
  6
CONTINUOUS
 10
527.704009
 20
246.256604
 11
528.669935
 21
246.515423
  0
LINE
  8
2
 62
134
  6
CONTINUOUS
 10
527.704009
 20
246.256604
 11
528.669935
 21
245.997785
  0
LINE
  8
2
 62
134
  6
CONTINUOUS
 10
528.669935
 20
246.515423
 11
528.669935
 21
245.997785
  0
TEXT
  8
2
 62
134
  6
CONTINUOUS
 10
540.296271
 20
246.256604
 40
4.000000
 41
0.500000
  1
33.5
  7
KANJI
 50
0.000000
 51
0.000000
  0
ENDBLK
  0
BLOCK
  8
2
 62
134
  6
CONTINUOUS
  2
*D15
 70
    65
 10
0.0
 20
0.0
  0
LINE
  8
2
 62
134
  6
CONTINUOUS
 10
427.381452
 20
292.161511
 11
427.381452
 21
316.634603
  0
LINE
  8
2
 62
134
  6
CONTINUOUS
 10
426.381452
 20
292.161511
 11
449.221003
 21
292.161511
  0
LINE
  8
2
 62
134
  6
CONTINUOUS
 10
426.381452
 20
316.634603
 11
431.586867
 21
316.634603
  0
LINE
  8
2
 62
134
  6
CONTINUOUS
 10
427.381452
 20
292.161511
 11
426.863814
 21
294.093363
  0
LINE
  8
2
 62
134
  6
CONTINUOUS
 10
427.381452
 20
292.161511
 11
427.899090
 21
294.093363
  0
LINE
  8
2
 62
134
  6
CONTINUOUS
 10
426.863814
 20
294.093363
 11
427.899090
 21
294.093363
  0
LINE
  8
2
 62
134
  6
CONTINUOUS
 10
427.381452
 20
292.644474
 11
427.122633
 21
293.610400
  0
LINE
  8
2
 62
134
  6
CONTINUOUS
 10
427.381452
 20
292.644474
 11
427.640271
 21
293.610400
  0
LINE
  8
2
 62
134
  6
CONTINUOUS
 10
427.122633
 20
293.610400
 11
427.640271
 21
293.610400
  0
LINE
  8
2
 62
134
  6
CONTINUOUS
 10
427.381452
 20
316.634603
 11
427.899090
 21
314.702752
  0
LINE
  8
2
 62
134
  6
CONTINUOUS
 10
427.381452
 20
316.634603
 11
426.863814
 21
314.702752
  0
LINE
  8
2
 62
134
  6
CONTINUOUS
 10
427.899090
 20
314.702752
 11
426.863814
 21
314.702752
  0
LINE
  8
2
 62
134
  6
CONTINUOUS
 10
427.381452
 20
316.151641
 11
427.640271
 21
315.185715
  0
LINE
  8
2
 62
134
  6
CONTINUOUS
 10
427.381452
 20
316.151641
 11
427.122633
 21
315.185715
  0
LINE
  8
2
 62
134
  6
CONTINUOUS
 10
427.640271
 20
315.185715
 11
427.122633
 21
315.185715
  0
TEXT
  8
2
 62
134
  6
CONTINUOUS
 10
427.381452
 20
299.130241
 40
4.000000
 41
0.500000
  1
24.5
  7
KANJI
 50
90.000000
 51
0.000000
  0
ENDBLK
  0
BLOCK
  8
2
 62
134
  6
CONTINUOUS
  2
*D16
 70
    65
 10
0.0
 20
0.0
  0
LINE
  8
2
 62
134
  6
CONTINUOUS
 10
576.221046
 20
323.571276
 11
454.137834
 21
323.571276
  0
LINE
  8
2
 62
134
  6
CONTINUOUS
 10
576.221046
 20
324.571276
 11
576.221046
 21
308.861511
  0
LINE
  8
2
 62
134
  6
CONTINUOUS
 10
454.137834
 20
324.571276
 11
454.137834
 21
314.548473
  0
LINE
  8
2
 62
134
  6
CONTINUOUS
 10
576.221046
 20
323.571276
 11
574.289195
 21
323.053638
  0
LINE
  8
2
 62
134
  6
CONTINUOUS
 10
576.221046
 20
323.571276
 11
574.289195
 21
324.088914
  0
LINE
  8
2
 62
134
  6
CONTINUOUS
 10
574.289195
 20
323.053638
 11
574.289195
 21
324.088914
  0
LINE
  8
2
 62
134
  6
CONTINUOUS
 10
575.738083
 20
323.571276
 11
574.772158
 21
323.312457
  0
LINE
  8
2
 62
134
  6
CONTINUOUS
 10
575.738083
 20
323.571276
 11
574.772158
 21
323.830095
  0
LINE
  8
2
 62
134
  6
CONTINUOUS
 10
574.772158
 20
323.312457
 11
574.772158
 21
323.830095
  0
LINE
  8
2
 62
134
  6
CONTINUOUS
 10
454.137834
 20
323.571276
 11
456.069686
 21
324.088914
  0
LINE
  8
2
 62
134
  6
CONTINUOUS
 10
454.137834
 20
323.571276
 11
456.069686
 21
323.053638
  0
LINE
  8
2
 62
134
  6
CONTINUOUS
 10
456.069686
 20
324.088914
 11
456.069686
 21
323.053638
  0
LINE
  8
2
 62
134
  6
CONTINUOUS
 10
454.620797
 20
323.571276
 11
455.586723
 21
323.830095
  0
LINE
  8
2
 62
134
  6
CONTINUOUS
 10
454.620797
 20
323.571276
 11
455.586723
 21
323.312457
  0
LINE
  8
2
 62
134
  6
CONTINUOUS
 10
455.586723
 20
323.830095
 11
455.586723
 21
323.312457
  0
TEXT
  8
2
 62
134
  6
CONTINUOUS
 10
499.381178
 20
323.571276
 40
4.000000
 41
1.000000
  1
ｹｰﾌﾞﾙ長(標準2m)
  7
KANJI
 50
0.000000
 51
0.000000
  0
ENDBLK
  0
BLOCK
  8
2
 62
134
  6
CONTINUOUS
  2
*D17
 70
    65
 10
0.0
 20
0.0
  0
LINE
  8
2
 62
134
  6
CONTINUOUS
 10
454.137834
 20
323.571276
 11
436.137834
 21
323.571276
  0
LINE
  8
2
 62
134
  6
CONTINUOUS
 10
454.137834
 20
324.571276
 11
454.137834
 21
314.761511
  0
LINE
  8
2
 62
134
  6
CONTINUOUS
 10
436.137834
 20
324.571276
 11
436.137834
 21
314.548473
  0
LINE
  8
2
 62
134
  6
CONTINUOUS
 10
454.137834
 20
323.571276
 11
452.205983
 21
323.053638
  0
LINE
  8
2
 62
134
  6
CONTINUOUS
 10
454.137834
 20
323.571276
 11
452.205983
 21
324.088914
  0
LINE
  8
2
 62
134
  6
CONTINUOUS
 10
452.205983
 20
323.053638
 11
452.205983
 21
324.088914
  0
LINE
  8
2
 62
134
  6
CONTINUOUS
 10
453.654871
 20
323.571276
 11
452.688946
 21
323.312457
  0
LINE
  8
2
 62
134
  6
CONTINUOUS
 10
453.654871
 20
323.571276
 11
452.688946
 21
323.830095
  0
LINE
  8
2
 62
134
  6
CONTINUOUS
 10
452.688946
 20
323.312457
 11
452.688946
 21
323.830095
  0
LINE
  8
2
 62
134
  6
CONTINUOUS
 10
436.137834
 20
323.571276
 11
438.069686
 21
324.088914
  0
LINE
  8
2
 62
134
  6
CONTINUOUS
 10
436.137834
 20
323.571276
 11
438.069686
 21
323.053638
  0
LINE
  8
2
 62
134
  6
CONTINUOUS
 10
438.069686
 20
324.088914
 11
438.069686
 21
323.053638
  0
LINE
  8
2
 62
134
  6
CONTINUOUS
 10
436.620797
 20
323.571276
 11
437.586723
 21
323.830095
  0
LINE
  8
2
 62
134
  6
CONTINUOUS
 10
436.620797
 20
323.571276
 11
437.586723
 21
323.312457
  0
LINE
  8
2
 62
134
  6
CONTINUOUS
 10
437.586723
 20
323.830095
 11
437.586723
 21
323.312457
  0
TEXT
  8
2
 62
134
  6
CONTINUOUS
 10
443.887582
 20
323.571276
 40
4.000000
 41
0.500000
  1
18
  7
KANJI
 50
0.000000
 51
0.000000
  0
ENDBLK
  0
BLOCK
  8
2
 62
134
  6
CONTINUOUS
  2
*D18
 70
    65
 10
0.0
 20
0.0
  0
LINE
  8
2
 62
134
  6
CONTINUOUS
 10
34.062851
 20
120.894765
 11
56.462851
 21
120.894765
  0
LINE
  8
2
 62
134
  6
CONTINUOUS
 10
42.062851
 20
121.894765
 11
42.062851
 21
113.506213
  0
LINE
  8
2
 62
134
  6
CONTINUOUS
 10
48.462851
 20
121.894765
 11
48.462851
 21
113.506213
  0
LINE
  8
2
 62
134
  6
CONTINUOUS
 10
42.062851
 20
120.894765
 11
40.131000
 21
120.377126
  0
LINE
  8
2
 62
134
  6
CONTINUOUS
 10
42.062851
 20
120.894765
 11
40.131000
 21
121.412403
  0
LINE
  8
2
 62
134
  6
CONTINUOUS
 10
40.131000
 20
120.377126
 11
40.131000
 21
121.412403
  0
LINE
  8
2
 62
134
  6
CONTINUOUS
 10
41.579888
 20
120.894765
 11
40.613963
 21
120.635945
  0
LINE
  8
2
 62
134
  6
CONTINUOUS
 10
41.579888
 20
120.894765
 11
40.613963
 21
121.153584
  0
LINE
  8
2
 62
134
  6
CONTINUOUS
 10
40.613963
 20
120.635945
 11
40.613963
 21
121.153584
  0
LINE
  8
2
 62
134
  6
CONTINUOUS
 10
48.462851
 20
120.894765
 11
50.394703
 21
121.412403
  0
LINE
  8
2
 62
134
  6
CONTINUOUS
 10
48.462851
 20
120.894765
 11
50.394703
 21
120.377126
  0
LINE
  8
2
 62
134
  6
CONTINUOUS
 10
50.394703
 20
121.412403
 11
50.394703
 21
120.377126
  0
LINE
  8
2
 62
134
  6
CONTINUOUS
 10
48.945814
 20
120.894765
 11
49.911740
 21
121.153584
  0
LINE
  8
2
 62
134
  6
CONTINUOUS
 10
48.945814
 20
120.894765
 11
49.911740
 21
120.635945
  0
LINE
  8
2
 62
134
  6
CONTINUOUS
 10
49.911740
 20
121.153584
 11
49.911740
 21
120.635945
  0
TEXT
  8
2
 62
134
  6
CONTINUOUS
 10
42.262851
 20
120.894765
 40
4.000000
 41
0.500000
  1
6.5
  7
KANJI
 50
0.000000
 51
0.000000
  0
ENDBLK
  0
BLOCK
  8
2
 62
134
  6
CONTINUOUS
  2
*D19
 70
    65
 10
0.0
 20
0.0
  0
LINE
  8
2
 62
134
  6
CONTINUOUS
 10
64.800000
 20
120.894765
 11
88.000000
 21
120.894765
  0
LINE
  8
2
 62
134
  6
CONTINUOUS
 10
64.800000
 20
121.894765
 11
64.800000
 21
113.506213
  0
LINE
  8
2
 62
134
  6
CONTINUOUS
 10
88.000000
 20
121.894765
 11
88.000000
 21
109.506213
  0
LINE
  8
2
 62
134
  6
CONTINUOUS
 10
64.800000
 20
120.894765
 11
66.731852
 21
121.412403
  0
LINE
  8
2
 62
134
  6
CONTINUOUS
 10
64.800000
 20
120.894765
 11
66.731852
 21
120.377126
  0
LINE
  8
2
 62
134
  6
CONTINUOUS
 10
66.731852
 20
121.412403
 11
66.731852
 21
120.377126
  0
LINE
  8
2
 62
134
  6
CONTINUOUS
 10
65.282963
 20
120.894765
 11
66.248889
 21
121.153584
  0
LINE
  8
2
 62
134
  6
CONTINUOUS
 10
65.282963
 20
120.894765
 11
66.248889
 21
120.635945
  0
LINE
  8
2
 62
134
  6
CONTINUOUS
 10
66.248889
 20
121.153584
 11
66.248889
 21
120.635945
  0
LINE
  8
2
 62
134
  6
CONTINUOUS
 10
88.000000
 20
120.894765
 11
86.068148
 21
120.377126
  0
LINE
  8
2
 62
134
  6
CONTINUOUS
 10
88.000000
 20
120.894765
 11
86.068148
 21
121.412403
  0
LINE
  8
2
 62
134
  6
CONTINUOUS
 10
86.068148
 20
120.377126
 11
86.068148
 21
121.412403
  0
LINE
  8
2
 62
134
  6
CONTINUOUS
 10
87.517037
 20
120.894765
 11
86.551111
 21
120.635945
  0
LINE
  8
2
 62
134
  6
CONTINUOUS
 10
87.517037
 20
120.894765
 11
86.551111
 21
121.153584
  0
LINE
  8
2
 62
134
  6
CONTINUOUS
 10
86.551111
 20
120.635945
 11
86.551111
 21
121.153584
  0
TEXT
  8
2
 62
134
  6
CONTINUOUS
 10
71.287562
 20
120.894765
 40
4.000000
 41
0.500000
  1
23.5
  7
KANJI
 50
0.000000
 51
0.000000
  0
ENDBLK
  0
BLOCK
  8
2
 62
134
  6
CONTINUOUS
  2
*D20
 70
    65
 10
0.0
 20
0.0
  0
LINE
  8
2
 62
134
  6
CONTINUOUS
 10
59.294328
 20
88.806213
 11
59.294328
 21
112.506213
  0
LINE
  8
2
 62
134
  6
CONTINUOUS
 10
58.294328
 20
88.806213
 11
63.800000
 21
88.806213
  0
LINE
  8
2
 62
134
  6
CONTINUOUS
 10
58.294328
 20
112.506213
 11
63.800000
 21
112.506213
  0
LINE
  8
2
 62
134
  6
CONTINUOUS
 10
59.294328
 20
88.806213
 11
58.776690
 21
90.738064
  0
LINE
  8
2
 62
134
  6
CONTINUOUS
 10
59.294328
 20
88.806213
 11
59.811966
 21
90.738064
  0
LINE
  8
2
 62
134
  6
CONTINUOUS
 10
58.776690
 20
90.738064
 11
59.811966
 21
90.738064
  0
LINE
  8
2
 62
134
  6
CONTINUOUS
 10
59.294328
 20
89.289176
 11
59.035509
 21
90.255101
  0
LINE
  8
2
 62
134
  6
CONTINUOUS
 10
59.294328
 20
89.289176
 11
59.553147
 21
90.255101
  0
LINE
  8
2
 62
134
  6
CONTINUOUS
 10
59.035509
 20
90.255101
 11
59.553147
 21
90.255101
  0
LINE
  8
2
 62
134
  6
CONTINUOUS
 10
59.294328
 20
112.506213
 11
59.811966
 21
110.574361
  0
LINE
  8
2
 62
134
  6
CONTINUOUS
 10
59.294328
 20
112.506213
 11
58.776690
 21
110.574361
  0
LINE
  8
2
 62
134
  6
CONTINUOUS
 10
59.811966
 20
110.574361
 11
58.776690
 21
110.574361
  0
LINE
  8
2
 62
134
  6
CONTINUOUS
 10
59.294328
 20
112.023250
 11
59.553147
 21
111.057324
  0
LINE
  8
2
 62
134
  6
CONTINUOUS
 10
59.294328
 20
112.023250
 11
59.035509
 21
111.057324
  0
LINE
  8
2
 62
134
  6
CONTINUOUS
 10
59.553147
 20
111.057324
 11
59.035509
 21
111.057324
  0
TEXT
  8
2
 62
134
  6
CONTINUOUS
 10
59.294328
 20
98.466010
 40
4.000000
 41
0.500000
  1
24
  7
KANJI
 50
90.000000
 51
0.000000
  0
ENDBLK
  0
BLOCK
  8
2
 62
134
  6
CONTINUOUS
  2
*D21
 70
    65
 10
0.0
 20
0.0
  0
LINE
  8
2
 62
134
  6
CONTINUOUS
 10
88.000000
 20
179.895130
 11
202.470276
 21
179.895130
  0
LINE
  8
2
 62
134
  6
CONTINUOUS
 10
88.000000
 20
181.895130
 11
88.000000
 21
111.071213
  0
LINE
  8
2
 62
134
  6
CONTINUOUS
 10
202.470276
 20
181.895130
 11
202.470276
 21
171.150000
  0
LINE
  8
2
 62
134
  6
CONTINUOUS
 10
88.000000
 20
179.895130
 11
89.931852
 21
180.412768
  0
LINE
  8
2
 62
134
  6
CONTINUOUS
 10
88.000000
 20
179.895130
 11
89.931852
 21
179.377492
  0
LINE
  8
2
 62
134
  6
CONTINUOUS
 10
89.931852
 20
180.412768
 11
89.931852
 21
179.377492
  0
LINE
  8
2
 62
134
  6
CONTINUOUS
 10
88.482963
 20
179.895130
 11
89.448889
 21
180.153949
  0
LINE
  8
2
 62
134
  6
CONTINUOUS
 10
88.482963
 20
179.895130
 11
89.448889
 21
179.636311
  0
LINE
  8
2
 62
134
  6
CONTINUOUS
 10
89.448889
 20
180.153949
 11
89.448889
 21
179.636311
  0
LINE
  8
2
 62
134
  6
CONTINUOUS
 10
202.470276
 20
179.895130
 11
200.538425
 21
179.377492
  0
LINE
  8
2
 62
134
  6
CONTINUOUS
 10
202.470276
 20
179.895130
 11
200.538425
 21
180.412768
  0
LINE
  8
2
 62
134
  6
CONTINUOUS
 10
200.538425
 20
179.377492
 11
200.538425
 21
180.412768
  0
LINE
  8
2
 62
134
  6
CONTINUOUS
 10
201.987313
 20
179.895130
 11
201.021387
 21
179.636311
  0
LINE
  8
2
 62
134
  6
CONTINUOUS
 10
201.987313
 20
179.895130
 11
201.021387
 21
180.153949
  0
LINE
  8
2
 62
134
  6
CONTINUOUS
 10
201.021387
 20
179.636311
 11
201.021387
 21
180.153949
  0
TEXT
  8
2
 62
134
  6
CONTINUOUS
 10
139.235138
 20
179.895130
 40
4.000000
 41
1.000000
  1
1m(標準)
  7
KANJI
 50
0.000000
 51
30.000000
  0
ENDBLK
  0
BLOCK
  8
2
 62
134
  6
CONTINUOUS
  2
*D22
 70
    65
 10
0.0
 20
0.0
  0
LINE
  8
2
 62
134
  6
CONTINUOUS
 10
88.000000
 20
74.793560
 11
180.190211
 21
74.793560
  0
LINE
  8
2
 62
134
  6
CONTINUOUS
 10
88.000000
 20
73.793560
 11
88.000000
 21
90.285000
  0
LINE
  8
2
 62
134
  6
CONTINUOUS
 10
180.190211
 20
73.793560
 11
180.190211
 21
94.875000
  0
LINE
  8
2
 62
134
  6
CONTINUOUS
 10
88.000000
 20
74.793560
 11
89.931852
 21
75.311198
  0
LINE
  8
2
 62
134
  6
CONTINUOUS
 10
88.000000
 20
74.793560
 11
89.931852
 21
74.275922
  0
LINE
  8
2
 62
134
  6
CONTINUOUS
 10
89.931852
 20
75.311198
 11
89.931852
 21
74.275922
  0
LINE
  8
2
 62
134
  6
CONTINUOUS
 10
88.482963
 20
74.793560
 11
89.448889
 21
75.052379
  0
LINE
  8
2
 62
134
  6
CONTINUOUS
 10
88.482963
 20
74.793560
 11
89.448889
 21
74.534741
  0
LINE
  8
2
 62
134
  6
CONTINUOUS
 10
89.448889
 20
75.052379
 11
89.448889
 21
74.534741
  0
LINE
  8
2
 62
134
  6
CONTINUOUS
 10
180.190211
 20
74.793560
 11
178.258360
 21
74.275922
  0
LINE
  8
2
 62
134
  6
CONTINUOUS
 10
180.190211
 20
74.793560
 11
178.258360
 21
75.311198
  0
LINE
  8
2
 62
134
  6
CONTINUOUS
 10
178.258360
 20
74.275922
 11
178.258360
 21
75.311198
  0
LINE
  8
2
 62
134
  6
CONTINUOUS
 10
179.707248
 20
74.793560
 11
178.741323
 21
74.534741
  0
LINE
  8
2
 62
134
  6
CONTINUOUS
 10
179.707248
 20
74.793560
 11
178.741323
 21
75.052379
  0
LINE
  8
2
 62
134
  6
CONTINUOUS
 10
178.741323
 20
74.534741
 11
178.741323
 21
75.052379
  0
TEXT
  8
2
 62
134
  6
CONTINUOUS
 10
132.709571
 20
74.793560
 40
4.000000
 41
1.000000
  1
1m(標準)
  7
KANJI
 50
0.000000
 51
0.000000
  0
ENDBLK
  0
ENDSEC
  0
SECTION
  2
ENTITIES
  0
LINE
  8
5
 62
94
  6
CONTINUOUS
 10
285.000000
 20
195.000000
 11
10.000000
 21
195.000000
  0
LINE
  8
5
 62
94
  6
CONTINUOUS
 10
10.000000
 20
195.000000
 11
10.000000
 21
10.000000
  0
LINE
  8
5
 62
94
  6
CONTINUOUS
 10
10.000000
 20
10.000000
 11
285.000000
 21
10.000000
  0
LINE
  8
5
 62
94
  6
CONTINUOUS
 10
285.000000
 20
10.000000
 11
285.000000
 21
195.000000
  0
TEXT
  8
5
 62
94
  6
CONTINUOUS
 10
210.962748
 20
25.651490
 40
1.750000
 41
4.000000
  1
製図
  7
KANJI
 50
-90.000000
 51
0.000000
  0
TEXT
  8
5
 62
94
  6
CONTINUOUS
 10
230.795530
 20
25.487583
 40
1.750000
 41
4.000000
  1
図番
  7
KANJI
 50
-90.000000
 51
0.000000
  0
TEXT
  8
5
 62
94
  6
CONTINUOUS
 10
230.795530
 20
38.764073
 40
1.750000
 41
4.000000
  1
図　名
  7
KANJI
 50
-90.000000
 51
0.000000
  0
TEXT
  8
5
 62
94
  6
CONTINUOUS
 10
165.888245
 20
33.355132
 40
1.750000
 41
4.000000
  1
日付
  7
KANJI
 50
-90.000000
 51
0.000000
  0
TEXT
  8
5
 62
94
  6
CONTINUOUS
 10
200.964404
 20
33.519040
 40
1.750000
 41
4.000000
  1
図法
  7
KANJI
 50
-90.000000
 51
0.000000
  0
TEXT
  8
5
 62
94
  6
CONTINUOUS
 10
200.800497
 20
41.550497
 40
1.750000
 41
4.000000
  1
尺度
  7
KANJI
 50
-90.000000
 51
0.000000
  0
TEXT
  8
5
 62
94
  6
CONTINUOUS
 10
165.888245
 20
41.386589
 40
1.750000
 41
4.000000
  1
公差
  7
KANJI
 50
-90.000000
 51
0.000000
  0
TEXT
  8
5
 62
94
  6
CONTINUOUS
 10
165.888245
 20
25.487583
 40
1.750000
 41
4.000000
  1
承認
  7
KANJI
 50
-90.000000
 51
0.000000
  0
TEXT
  8
5
 62
94
  6
CONTINUOUS
 10
190.966060
 20
25.487583
 40
1.750000
 41
4.000000
  1
設計
  7
KANJI
 50
-90.000000
 51
0.000000
  0
TEXT
  8
5
 62
94
  6
CONTINUOUS
 10
184.409768
 20
11.555464
 40
4.500000
 41
1.888889
  1
ジャパンセンサー株式会社
  7
KANJI
 50
0.000000
 51
0.000000
  0
LINE
  8
5
 62
94
  6
CONTINUOUS
 10
165.000000
 20
42.000000
 11
285.000000
 21
42.000000
  0
LINE
  8
5
 62
94
  6
CONTINUOUS
 10
165.000000
 20
10.000000
 11
165.000000
 21
42.000000
  0
LINE
  8
5
 62
94
  6
CONTINUOUS
 10
285.000000
 20
18.000000
 11
165.000000
 21
18.000000
  0
LINE
  8
5
 62
94
  6
CONTINUOUS
 10
230.000000
 20
42.000000
 11
230.000000
 21
18.000000
  0
LINE
  8
5
 62
94
  6
CONTINUOUS
 10
285.000000
 20
26.000000
 11
165.000000
 21
26.000000
  0
LINE
  8
5
 62
94
  6
CONTINUOUS
 10
235.000000
 20
18.000000
 11
235.000000
 21
42.000000
  0
LINE
  8
5
 62
94
  6
CONTINUOUS
 10
205.000000
 20
42.000000
 11
205.000000
 21
26.000000
  0
LINE
  8
5
 62
94
  6
CONTINUOUS
 10
170.000000
 20
18.000000
 11
170.000000
 21
42.000000
  0
LINE
  8
5
 62
94
  6
CONTINUOUS
 10
165.000000
 20
34.000000
 11
230.000000
 21
34.000000
  0
LINE
  8
5
 62
94
  6
CONTINUOUS
 10
200.000000
 20
42.000000
 11
200.000000
 21
26.000000
  0
LINE
  8
5
 62
94
  6
CONTINUOUS
 10
190.000000
 20
18.000000
 11
190.000000
 21
26.000000
  0
LINE
  8
5
 62
94
  6
CONTINUOUS
 10
210.000000
 20
18.000000
 11
210.000000
 21
26.000000
  0
LINE
  8
5
 62
94
  6
CONTINUOUS
 10
195.000000
 20
26.000000
 11
195.000000
 21
18.000000
  0
LINE
  8
5
 62
94
  6
CONTINUOUS
 10
215.000000
 20
26.000000
 11
215.000000
 21
18.000000
  0
TEXT
  8
5
 62
94
  6
CONTINUOUS
 10
196.211093
 20
19.750828
 40
4.000000
 41
1.000000
  1
須藤
  7
KANJI
 50
0.810149
 51
0.000000
  0
TEXT
  8
5
 62
94
  6
CONTINUOUS
 10
216.207781
 20
19.914735
 40
4.000000
 41
1.000000
  1
保田
  7
KANJI
 50
-0.112820
 51
0.000000
  0
TEXT
  8
5
 62
94
  6
CONTINUOUS
 10
172.772351
 20
27.782285
 40
4.000000
 41
0.500000
  1
2013/11/28
  7
KANJI
 50
-0.091868
 51
0.000000
  0
LINE
  8
1
 62
7
  6
CONTINUOUS
 10
-200.000000
 20
81.850000
 11
-192.000000
 21
81.850000
  0
LINE
  8
1
 62
7
  6
CONTINUOUS
 10
-200.000000
 20
101.650000
 11
-200.000000
 21
100.550000
  0
LINE
  8
1
 62
7
  6
CONTINUOUS
 10
-192.000000
 20
98.071213
 11
-192.000000
 21
81.850000
  0
LINE
  8
1
 62
7
  6
CONTINUOUS
 10
-200.000000
 20
98.071213
 11
-200.000000
 21
81.850000
  0
LINE
  8
1
 62
7
  6
CONTINUOUS
 10
-192.000000
 20
98.071213
 11
-200.000000
 21
98.071213
  0
LINE
  8
1
 62
7
  6
DASHDOT
 10
-208.859303
 20
97.000000
 11
-191.151009
 21
97.000000
  0
LINE
  8
1
 62
7
  6
DASHDOT
 10
-208.803561
 20
83.000000
 11
-191.108500
 21
83.000000
  0
LINE
  8
1
 62
7
  6
DASHDOT
 10
-208.859303
 20
95.000000
 11
-191.151009
 21
95.000000
  0
LINE
  8
1
 62
7
  6
DASHDOT
 10
-208.859303
 20
93.000000
 11
-191.151009
 21
93.000000
  0
LINE
  8
1
 62
7
  6
DASHDOT
 10
-208.859303
 20
91.000000
 11
-191.151009
 21
91.000000
  0
LINE
  8
1
 62
7
  6
DASHDOT
 10
-208.859303
 20
89.000000
 11
-191.151009
 21
89.000000
  0
LINE
  8
1
 62
7
  6
DASHDOT
 10
-208.859303
 20
87.000000
 11
-191.151009
 21
87.000000
  0
LINE
  8
1
 62
7
  6
DASHDOT
 10
-208.859303
 20
85.000000
 11
-191.151009
 21
85.000000
  0
LINE
  8
1
 62
7
  6
CONTINUOUS
 10
-212.553565
 20
81.850000
 11
-212.553565
 21
80.250000
  0
LINE
  8
1
 62
7
  6
CONTINUOUS
 10
-192.000000
 20
99.071213
 11
-200.000000
 21
100.550000
  0
LINE
  8
1
 62
7
  6
CONTINUOUS
 10
-200.000000
 20
101.650000
 11
-214.553565
 21
101.650000
  0
LINE
  8
1
 62
7
  6
CONTINUOUS
 10
-214.553565
 20
101.650000
 11
-214.553565
 21
100.071213
  0
LINE
  8
1
 62
7
  6
CONTINUOUS
 10
-212.553565
 20
80.250000
 11
-214.553565
 21
80.250000
  0
LINE
  8
1
 62
7
  6
CONTINUOUS
 10
-214.553565
 20
80.250000
 11
-214.553565
 21
79.371213
  0
LINE
  8
1
 62
7
  6
CONTINUOUS
 10
-214.553565
 20
79.371213
 11
-200.000000
 21
79.371213
  0
LINE
  8
1
 62
7
  6
CONTINUOUS
 10
-214.553565
 20
100.071213
 11
-212.553565
 21
100.071213
  0
LINE
  8
1
 62
7
  6
CONTINUOUS
 10
-212.553565
 20
100.071213
 11
-212.553565
 21
98.071213
  0
LINE
  8
1
 62
7
  6
CONTINUOUS
 10
-212.553565
 20
98.071213
 11
-207.553565
 21
98.071213
  0
LINE
  8
1
 62
7
  6
CONTINUOUS
 10
-207.553565
 20
98.071213
 11
-207.553565
 21
81.850000
  0
LINE
  8
1
 62
7
  6
CONTINUOUS
 10
-207.553565
 20
81.850000
 11
-212.553565
 21
81.850000
  0
LINE
  8
1
 62
7
  6
CONTINUOUS
 10
-192.000000
 20
99.071213
 11
-192.000000
 21
80.850000
  0
LINE
  8
1
 62
7
  6
CONTINUOUS
 10
-192.000000
 20
80.850000
 11
-200.000000
 21
79.371213
  0
TEXT
  8
1
 62
7
  6
DASHDOT
 10
-106.523623
 20
68.000000
 40
4.000000
 41
0.500000
  1
5
  7
KANJI
 50
0.000000
 51
0.000000
  0
LINE
  8
1
 62
7
  6
CONTINUOUS
 10
-99.437762
 20
68.300000
 11
-100.000000
 21
68.300000
  0
LINE
  8
1
 62
7
  6
CONTINUOUS
 10
-100.000000
 20
71.700000
 11
-99.437762
 21
71.700000
  0
LINE
  8
1
 62
7
  6
DASHDOT
 10
-89.023530
 20
70.000000
 11
-100.000000
 21
70.000000
  0
LINE
  8
1
 62
7
  6
CONTINUOUS
 10
-100.000000
 20
68.300000
 11
-99.437762
 21
68.300000
  0
LINE
  8
1
 62
7
  6
CONTINUOUS
 10
-99.437762
 20
71.700000
 11
-100.000000
 21
71.700000
  0
LINE
  8
1
 62
7
  6
DASHDOT
 10
-89.023530
 20
70.000000
 11
-100.000000
 21
70.000000
  0
LINE
  8
1
 62
7
  6
CONTINUOUS
 10
-111.071162
 20
72.000000
 11
-111.071162
 21
68.000000
  0
LINE
  8
1
 62
7
  6
CONTINUOUS
 10
-111.071162
 20
68.000000
 11
-100.000000
 21
68.000000
  0
LINE
  8
1
 62
7
  6
CONTINUOUS
 10
-100.000000
 20
68.000000
 11
-100.000000
 21
72.000000
  0
LINE
  8
1
 62
7
  6
CONTINUOUS
 10
-100.000000
 20
72.000000
 11
-111.071162
 21
72.000000
  0
ARC
  8
1
 62
7
  6
CONTINUOUS
 10
-96.806911
 20
77.444954
 40
5.000000
 50
-76.912432
 51
-63.764215
  0
LINE
  8
1
 62
7
  6
CONTINUOUS
 10
-99.437762
 20
71.700000
 11
-95.674711
 21
72.574829
  0
ARC
  8
1
 62
7
  6
CONTINUOUS
 10
-93.137762
 20
70.000000
 40
3.300000
 50
-116.282036
 51
116.235785
  0
ARC
  8
1
 62
7
  6
CONTINUOUS
 10
-96.812920
 20
62.558010
 40
5.000000
 50
63.717964
 51
76.935117
  0
LINE
  8
1
 62
7
  6
CONTINUOUS
 10
-99.437762
 20
68.300000
 11
-95.682648
 21
67.428584
  0
LINE
  8
1
 62
7
  6
DASHDOT
 10
-93.137762
 20
66.192803
 11
-93.137762
 21
74.056067
  0
CIRCLE
  8
1
 62
7
  6
CONTINUOUS
 10
-93.137762
 20
70.000000
 40
1.850000
  0
ARC
  8
1
 62
7
  6
CONTINUOUS
 10
-96.806911
 20
62.555046
 40
5.000000
 50
63.764215
 51
76.912432
  0
LINE
  8
1
 62
7
  6
CONTINUOUS
 10
-99.437762
 20
68.300000
 11
-95.674711
 21
67.425171
  0
ARC
  8
1
 62
7
  6
CONTINUOUS
 10
-93.137762
 20
70.000000
 40
3.300000
 50
-116.235785
 51
116.282036
  0
ARC
  8
1
 62
7
  6
CONTINUOUS
 10
-96.812920
 20
77.441990
 40
5.000000
 50
-76.935117
 51
-63.717964
  0
LINE
  8
1
 62
7
  6
CONTINUOUS
 10
-99.437762
 20
71.700000
 11
-95.682648
 21
72.571416
  0
LINE
  8
1
 62
7
  6
DASHDOT
 10
-93.137762
 20
73.807197
 11
-93.137762
 21
65.943933
  0
CIRCLE
  8
1
 62
7
  6
CONTINUOUS
 10
-93.137762
 20
70.000000
 40
1.850000
  0
LINE
  8
1
 62
7
  6
CONTINUOUS
 10
-99.437762
 20
88.300000
 11
-100.000000
 21
88.300000
  0
LINE
  8
1
 62
7
  6
CONTINUOUS
 10
-100.000000
 20
91.700000
 11
-99.437762
 21
91.700000
  0
LINE
  8
1
 62
7
  6
DASHDOT
 10
-89.023530
 20
90.000000
 11
-100.000000
 21
90.000000
  0
LINE
  8
1
 62
7
  6
CONTINUOUS
 10
-100.000000
 20
88.300000
 11
-99.437762
 21
88.300000
  0
LINE
  8
1
 62
7
  6
CONTINUOUS
 10
-99.437762
 20
91.700000
 11
-100.000000
 21
91.700000
  0
LINE
  8
1
 62
7
  6
DASHDOT
 10
-89.023530
 20
90.000000
 11
-100.000000
 21
90.000000
  0
LINE
  8
1
 62
7
  6
CONTINUOUS
 10
-111.071162
 20
92.000000
 11
-111.071162
 21
88.000000
  0
LINE
  8
1
 62
7
  6
CONTINUOUS
 10
-111.071162
 20
88.000000
 11
-100.000000
 21
88.000000
  0
LINE
  8
1
 62
7
  6
CONTINUOUS
 10
-100.000000
 20
88.000000
 11
-100.000000
 21
92.000000
  0
LINE
  8
1
 62
7
  6
CONTINUOUS
 10
-100.000000
 20
92.000000
 11
-111.071162
 21
92.000000
  0
ARC
  8
1
 62
7
  6
CONTINUOUS
 10
-96.806911
 20
97.444954
 40
5.000000
 50
-76.912432
 51
-63.764215
  0
LINE
  8
1
 62
7
  6
CONTINUOUS
 10
-99.437762
 20
91.700000
 11
-95.674711
 21
92.574829
  0
ARC
  8
1
 62
7
  6
CONTINUOUS
 10
-93.137762
 20
90.000000
 40
3.300000
 50
-116.282036
 51
116.235785
  0
ARC
  8
1
 62
7
  6
CONTINUOUS
 10
-96.812920
 20
82.558010
 40
5.000000
 50
63.717964
 51
76.935117
  0
LINE
  8
1
 62
7
  6
CONTINUOUS
 10
-99.437762
 20
88.300000
 11
-95.682648
 21
87.428584
  0
LINE
  8
1
 62
7
  6
DASHDOT
 10
-93.137762
 20
86.192803
 11
-93.137762
 21
94.056067
  0
CIRCLE
  8
1
 62
7
  6
CONTINUOUS
 10
-93.137762
 20
90.000000
 40
1.850000
  0
ARC
  8
1
 62
7
  6
CONTINUOUS
 10
-96.806911
 20
82.555046
 40
5.000000
 50
63.764215
 51
76.912432
  0
LINE
  8
1
 62
7
  6
CONTINUOUS
 10
-99.437762
 20
88.300000
 11
-95.674711
 21
87.425171
  0
ARC
  8
1
 62
7
  6
CONTINUOUS
 10
-93.137762
 20
90.000000
 40
3.300000
 50
-116.235785
 51
116.282036
  0
ARC
  8
1
 62
7
  6
CONTINUOUS
 10
-96.812920
 20
97.441990
 40
5.000000
 50
-76.935117
 51
-63.717964
  0
LINE
  8
1
 62
7
  6
CONTINUOUS
 10
-99.437762
 20
91.700000
 11
-95.682648
 21
92.571416
  0
LINE
  8
1
 62
7
  6
DASHDOT
 10
-93.137762
 20
93.807197
 11
-93.137762
 21
85.943933
  0
CIRCLE
  8
1
 62
7
  6
CONTINUOUS
 10
-93.137762
 20
90.000000
 40
1.850000
  0
LINE
  8
1
 62
7
  6
CONTINUOUS
 10
-178.763792
 20
97.600000
 11
-192.000000
 21
97.600000
  0
LINE
  8
1
 62
7
  6
CONTINUOUS
 10
-178.763792
 20
96.400000
 11
-191.975508
 21
96.400000
  0
LINE
  8
1
 62
7
  6
CONTINUOUS
 10
-178.763792
 20
82.400000
 11
-192.000000
 21
82.400000
  0
LINE
  8
1
 62
7
  6
CONTINUOUS
 10
-178.763792
 20
83.600000
 11
-191.975508
 21
83.600000
  0
LINE
  8
1
 62
7
  6
CONTINUOUS
 10
-178.763792
 20
91.600000
 11
-192.000000
 21
91.600000
  0
LINE
  8
1
 62
7
  6
CONTINUOUS
 10
-178.763792
 20
90.400000
 11
-191.975508
 21
90.400000
  0
LINE
  8
1
 62
7
  6
CONTINUOUS
 10
-178.763792
 20
93.600000
 11
-192.000000
 21
93.600000
  0
LINE
  8
1
 62
7
  6
CONTINUOUS
 10
-178.763792
 20
92.400000
 11
-191.975508
 21
92.400000
  0
LINE
  8
1
 62
7
  6
CONTINUOUS
 10
-178.763792
 20
95.600000
 11
-192.000000
 21
95.600000
  0
LINE
  8
1
 62
7
  6
CONTINUOUS
 10
-178.763792
 20
94.400000
 11
-191.975508
 21
94.400000
  0
LINE
  8
1
 62
7
  6
CONTINUOUS
 10
-178.763792
 20
88.400000
 11
-192.000000
 21
88.400000
  0
LINE
  8
1
 62
7
  6
CONTINUOUS
 10
-178.763792
 20
89.600000
 11
-191.975508
 21
89.600000
  0
LINE
  8
1
 62
7
  6
CONTINUOUS
 10
-178.763792
 20
86.400000
 11
-192.000000
 21
86.400000
  0
LINE
  8
1
 62
7
  6
CONTINUOUS
 10
-178.763792
 20
87.600000
 11
-191.975508
 21
87.600000
  0
LINE
  8
1
 62
7
  6
CONTINUOUS
 10
-178.763792
 20
84.400000
 11
-192.000000
 21
84.400000
  0
LINE
  8
1
 62
7
  6
CONTINUOUS
 10
-178.763792
 20
85.600000
 11
-191.975508
 21
85.600000
  0
LINE
  8
1
 62
7
  6
CONTINUOUS
 10
-111.071162
 20
90.893048
 11
-124.307371
 21
90.893048
  0
LINE
  8
1
 62
7
  6
CONTINUOUS
 10
-111.071162
 20
89.693048
 11
-124.282879
 21
89.693048
  0
LINE
  8
1
 62
7
  6
CONTINUOUS
 10
-178.763792
 20
88.400000
 11
-124.282879
 21
89.693048
  0
LINE
  8
1
 62
7
  6
CONTINUOUS
 10
-124.307371
 20
90.893048
 11
-178.763792
 21
89.600000
  0
TEXT
  8
1
 62
7
  6
DASHDOT
 10
-106.523623
 20
88.000000
 40
4.000000
 41
0.500000
  1
3
  7
KANJI
 50
0.000000
 51
0.000000
  0
TEXT
  8
1
 62
7
  6
DASHDOT
 10
-106.523623
 20
108.000000
 40
4.000000
 41
0.500000
  1
1
  7
KANJI
 50
0.000000
 51
0.000000
  0
LINE
  8
1
 62
7
  6
CONTINUOUS
 10
-99.437762
 20
108.300000
 11
-100.000000
 21
108.300000
  0
LINE
  8
1
 62
7
  6
CONTINUOUS
 10
-100.000000
 20
111.700000
 11
-99.437762
 21
111.700000
  0
LINE
  8
1
 62
7
  6
DASHDOT
 10
-89.023530
 20
110.000000
 11
-100.000000
 21
110.000000
  0
LINE
  8
1
 62
7
  6
CONTINUOUS
 10
-100.000000
 20
108.300000
 11
-99.437762
 21
108.300000
  0
LINE
  8
1
 62
7
  6
CONTINUOUS
 10
-99.437762
 20
111.700000
 11
-100.000000
 21
111.700000
  0
LINE
  8
1
 62
7
  6
DASHDOT
 10
-89.023530
 20
110.000000
 11
-100.000000
 21
110.000000
  0
LINE
  8
1
 62
7
  6
CONTINUOUS
 10
-111.071162
 20
112.000000
 11
-111.071162
 21
108.000000
  0
LINE
  8
1
 62
7
  6
CONTINUOUS
 10
-111.071162
 20
108.000000
 11
-100.000000
 21
108.000000
  0
LINE
  8
1
 62
7
  6
CONTINUOUS
 10
-100.000000
 20
108.000000
 11
-100.000000
 21
112.000000
  0
LINE
  8
1
 62
7
  6
CONTINUOUS
 10
-100.000000
 20
112.000000
 11
-111.071162
 21
112.000000
  0
ARC
  8
1
 62
7
  6
CONTINUOUS
 10
-96.806911
 20
117.444954
 40
5.000000
 50
-76.912432
 51
-63.764215
  0
LINE
  8
1
 62
7
  6
CONTINUOUS
 10
-99.437762
 20
111.700000
 11
-95.674711
 21
112.574829
  0
ARC
  8
1
 62
7
  6
CONTINUOUS
 10
-93.137762
 20
110.000000
 40
3.300000
 50
-116.282036
 51
116.235785
  0
ARC
  8
1
 62
7
  6
CONTINUOUS
 10
-96.812920
 20
102.558010
 40
5.000000
 50
63.717964
 51
76.935117
  0
LINE
  8
1
 62
7
  6
CONTINUOUS
 10
-99.437762
 20
108.300000
 11
-95.682648
 21
107.428584
  0
LINE
  8
1
 62
7
  6
DASHDOT
 10
-93.137762
 20
106.192803
 11
-93.137762
 21
114.056067
  0
CIRCLE
  8
1
 62
7
  6
CONTINUOUS
 10
-93.137762
 20
110.000000
 40
1.850000
  0
ARC
  8
1
 62
7
  6
CONTINUOUS
 10
-96.806911
 20
102.555046
 40
5.000000
 50
63.764215
 51
76.912432
  0
LINE
  8
1
 62
7
  6
CONTINUOUS
 10
-99.437762
 20
108.300000
 11
-95.674711
 21
107.425171
  0
ARC
  8
1
 62
7
  6
CONTINUOUS
 10
-93.137762
 20
110.000000
 40
3.300000
 50
-116.235785
 51
116.282036
  0
ARC
  8
1
 62
7
  6
CONTINUOUS
 10
-96.812920
 20
117.441990
 40
5.000000
 50
-76.935117
 51
-63.717964
  0
LINE
  8
1
 62
7
  6
CONTINUOUS
 10
-99.437762
 20
111.700000
 11
-95.682648
 21
112.571416
  0
LINE
  8
1
 62
7
  6
DASHDOT
 10
-93.137762
 20
113.807197
 11
-93.137762
 21
105.943933
  0
CIRCLE
  8
1
 62
7
  6
CONTINUOUS
 10
-93.137762
 20
110.000000
 40
1.850000
  0
LINE
  8
1
 62
7
  6
CONTINUOUS
 10
-99.437762
 20
98.300000
 11
-100.000000
 21
98.300000
  0
LINE
  8
1
 62
7
  6
CONTINUOUS
 10
-100.000000
 20
101.700000
 11
-99.437762
 21
101.700000
  0
LINE
  8
1
 62
7
  6
DASHDOT
 10
-89.023530
 20
100.000000
 11
-100.000000
 21
100.000000
  0
LINE
  8
1
 62
7
  6
CONTINUOUS
 10
-100.000000
 20
98.300000
 11
-99.437762
 21
98.300000
  0
LINE
  8
1
 62
7
  6
CONTINUOUS
 10
-99.437762
 20
101.700000
 11
-100.000000
 21
101.700000
  0
LINE
  8
1
 62
7
  6
DASHDOT
 10
-89.023530
 20
100.000000
 11
-100.000000
 21
100.000000
  0
LINE
  8
1
 62
7
  6
CONTINUOUS
 10
-111.071162
 20
102.000000
 11
-111.071162
 21
98.000000
  0
LINE
  8
1
 62
7
  6
CONTINUOUS
 10
-111.071162
 20
98.000000
 11
-100.000000
 21
98.000000
  0
LINE
  8
1
 62
7
  6
CONTINUOUS
 10
-100.000000
 20
98.000000
 11
-100.000000
 21
102.000000
  0
LINE
  8
1
 62
7
  6
CONTINUOUS
 10
-100.000000
 20
102.000000
 11
-111.071162
 21
102.000000
  0
ARC
  8
1
 62
7
  6
CONTINUOUS
 10
-96.806911
 20
107.444954
 40
5.000000
 50
-76.912432
 51
-63.764215
  0
LINE
  8
1
 62
7
  6
CONTINUOUS
 10
-99.437762
 20
101.700000
 11
-95.674711
 21
102.574829
  0
ARC
  8
1
 62
7
  6
CONTINUOUS
 10
-93.137762
 20
100.000000
 40
3.300000
 50
-116.282036
 51
116.235785
  0
ARC
  8
1
 62
7
  6
CONTINUOUS
 10
-96.812920
 20
92.558010
 40
5.000000
 50
63.717964
 51
76.935117
  0
LINE
  8
1
 62
7
  6
CONTINUOUS
 10
-99.437762
 20
98.300000
 11
-95.682648
 21
97.428584
  0
LINE
  8
1
 62
7
  6
DASHDOT
 10
-93.137762
 20
96.192803
 11
-93.137762
 21
104.056067
  0
CIRCLE
  8
1
 62
7
  6
CONTINUOUS
 10
-93.137762
 20
100.000000
 40
1.850000
  0
ARC
  8
1
 62
7
  6
CONTINUOUS
 10
-96.806911
 20
92.555046
 40
5.000000
 50
63.764215
 51
76.912432
  0
LINE
  8
1
 62
7
  6
CONTINUOUS
 10
-99.437762
 20
98.300000
 11
-95.674711
 21
97.425171
  0
ARC
  8
1
 62
7
  6
CONTINUOUS
 10
-93.137762
 20
100.000000
 40
3.300000
 50
-116.235785
 51
116.282036
  0
ARC
  8
1
 62
7
  6
CONTINUOUS
 10
-96.812920
 20
107.441990
 40
5.000000
 50
-76.935117
 51
-63.717964
  0
LINE
  8
1
 62
7
  6
CONTINUOUS
 10
-99.437762
 20
101.700000
 11
-95.682648
 21
102.571416
  0
LINE
  8
1
 62
7
  6
DASHDOT
 10
-93.137762
 20
103.807197
 11
-93.137762
 21
95.943933
  0
CIRCLE
  8
1
 62
7
  6
CONTINUOUS
 10
-93.137762
 20
100.000000
 40
1.850000
  0
LINE
  8
1
 62
7
  6
CONTINUOUS
 10
-111.071162
 20
100.893048
 11
-124.307371
 21
100.893048
  0
LINE
  8
1
 62
7
  6
CONTINUOUS
 10
-111.071162
 20
99.693048
 11
-124.282879
 21
99.693048
  0
LINE
  8
1
 62
7
  6
CONTINUOUS
 10
-178.763792
 20
86.400000
 11
-124.282879
 21
99.693048
  0
LINE
  8
1
 62
7
  6
CONTINUOUS
 10
-124.307371
 20
100.893048
 11
-178.763792
 21
87.600000
  0
TEXT
  8
1
 62
7
  6
DASHDOT
 10
-106.523623
 20
98.000000
 40
4.000000
 41
0.500000
  1
2
  7
KANJI
 50
0.000000
 51
0.000000
  0
TEXT
  8
1
 62
7
  6
DASHDOT
 10
-106.523623
 20
78.000000
 40
4.000000
 41
0.500000
  1
4
  7
KANJI
 50
0.000000
 51
0.000000
  0
LINE
  8
1
 62
7
  6
CONTINUOUS
 10
-99.437762
 20
78.300000
 11
-100.000000
 21
78.300000
  0
LINE
  8
1
 62
7
  6
CONTINUOUS
 10
-100.000000
 20
81.700000
 11
-99.437762
 21
81.700000
  0
LINE
  8
1
 62
7
  6
DASHDOT
 10
-89.023530
 20
80.000000
 11
-100.000000
 21
80.000000
  0
LINE
  8
1
 62
7
  6
CONTINUOUS
 10
-100.000000
 20
78.300000
 11
-99.437762
 21
78.300000
  0
LINE
  8
1
 62
7
  6
CONTINUOUS
 10
-99.437762
 20
81.700000
 11
-100.000000
 21
81.700000
  0
LINE
  8
1
 62
7
  6
DASHDOT
 10
-89.023530
 20
80.000000
 11
-100.000000
 21
80.000000
  0
LINE
  8
1
 62
7
  6
CONTINUOUS
 10
-111.071162
 20
82.000000
 11
-111.071162
 21
78.000000
  0
LINE
  8
1
 62
7
  6
CONTINUOUS
 10
-111.071162
 20
78.000000
 11
-100.000000
 21
78.000000
  0
LINE
  8
1
 62
7
  6
CONTINUOUS
 10
-100.000000
 20
78.000000
 11
-100.000000
 21
82.000000
  0
LINE
  8
1
 62
7
  6
CONTINUOUS
 10
-100.000000
 20
82.000000
 11
-111.071162
 21
82.000000
  0
ARC
  8
1
 62
7
  6
CONTINUOUS
 10
-96.806911
 20
87.444954
 40
5.000000
 50
-76.912432
 51
-63.764215
  0
LINE
  8
1
 62
7
  6
CONTINUOUS
 10
-99.437762
 20
81.700000
 11
-95.674711
 21
82.574829
  0
ARC
  8
1
 62
7
  6
CONTINUOUS
 10
-93.137762
 20
80.000000
 40
3.300000
 50
-116.282036
 51
116.235785
  0
ARC
  8
1
 62
7
  6
CONTINUOUS
 10
-96.812920
 20
72.558010
 40
5.000000
 50
63.717964
 51
76.935117
  0
LINE
  8
1
 62
7
  6
CONTINUOUS
 10
-99.437762
 20
78.300000
 11
-95.682648
 21
77.428584
  0
LINE
  8
1
 62
7
  6
DASHDOT
 10
-93.137762
 20
76.192803
 11
-93.137762
 21
84.056067
  0
CIRCLE
  8
1
 62
7
  6
CONTINUOUS
 10
-93.137762
 20
80.000000
 40
1.850000
  0
ARC
  8
1
 62
7
  6
CONTINUOUS
 10
-96.806911
 20
72.555046
 40
5.000000
 50
63.764215
 51
76.912432
  0
LINE
  8
1
 62
7
  6
CONTINUOUS
 10
-99.437762
 20
78.300000
 11
-95.674711
 21
77.425171
  0
ARC
  8
1
 62
7
  6
CONTINUOUS
 10
-93.137762
 20
80.000000
 40
3.300000
 50
-116.235785
 51
116.282036
  0
ARC
  8
1
 62
7
  6
CONTINUOUS
 10
-96.812920
 20
87.441990
 40
5.000000
 50
-76.935117
 51
-63.717964
  0
LINE
  8
1
 62
7
  6
CONTINUOUS
 10
-99.437762
 20
81.700000
 11
-95.682648
 21
82.571416
  0
LINE
  8
1
 62
7
  6
DASHDOT
 10
-93.137762
 20
83.807197
 11
-93.137762
 21
75.943933
  0
CIRCLE
  8
1
 62
7
  6
CONTINUOUS
 10
-93.137762
 20
80.000000
 40
1.850000
  0
LINE
  8
1
 62
7
  6
CONTINUOUS
 10
-111.071162
 20
80.893048
 11
-124.307371
 21
80.893048
  0
LINE
  8
1
 62
7
  6
CONTINUOUS
 10
-111.071162
 20
79.693048
 11
-124.282879
 21
79.693048
  0
LINE
  8
1
 62
7
  6
CONTINUOUS
 10
-178.763792
 20
97.600000
 11
-124.307371
 21
80.893048
  0
LINE
  8
1
 62
7
  6
CONTINUOUS
 10
-124.282879
 20
79.693048
 11
-178.763792
 21
96.400000
  0
TEXT
  8
2
 62
134
  6
CONTINUOUS
 10
-208.452696
 20
105.435575
 40
4.000000
 41
0.500000
  1
e-CON
  7
KANJI
 50
0.000000
 51
0.000000
  0
LINE
  8
1
 62
7
  6
CONTINUOUS
 10
-111.071162
 20
71.200000
 11
-124.307371
 21
71.200000
  0
LINE
  8
1
 62
7
  6
CONTINUOUS
 10
-111.071162
 20
70.000000
 11
-124.282879
 21
70.000000
  0
LINE
  8
1
 62
7
  6
CONTINUOUS
 10
-111.071162
 20
68.800000
 11
-124.307371
 21
68.800000
  0
LINE
  8
1
 62
7
  6
CONTINUOUS
 10
-178.763792
 20
84.400000
 11
-124.282879
 21
70.000000
  0
LINE
  8
1
 62
7
  6
CONTINUOUS
 10
-124.307371
 20
71.200000
 11
-178.763792
 21
85.600000
  0
LINE
  8
1
 62
7
  6
CONTINUOUS
 10
-178.763792
 20
82.400000
 11
-124.258387
 21
68.800000
  0
LINE
  8
1
 62
7
  6
CONTINUOUS
 10
-178.763792
 20
83.600000
 11
-124.282879
 21
70.000000
  0
ARC
  8
1
 62
7
  6
CONTINUOUS
 10
-142.830653
 20
117.650249
 40
6.757201
 50
90.000000
 51
-90.000000
  0
ARC
  8
1
 62
7
  6
CONTINUOUS
 10
-142.830653
 20
117.451654
 40
7.758606
 50
90.000000
 51
-90.000000
  0
LINE
  8
1
 62
7
  6
CONTINUOUS
 10
-118.008212
 20
124.874200
 11
-124.519060
 21
124.874200
  0
LINE
  8
1
 62
7
  6
CONTINUOUS
 10
-113.716229
 20
121.274200
 11
-113.716229
 21
128.474200
  0
LINE
  8
1
 62
7
  6
CONTINUOUS
 10
-125.716229
 20
122.274200
 11
-125.716229
 21
127.474200
  0
LINE
  8
1
 62
7
  6
CONTINUOUS
 10
-116.216229
 20
121.799200
 11
-116.216229
 21
127.949200
  0
LINE
  8
1
 62
7
  6
CONTINUOUS
 10
-118.216229
 20
121.899200
 11
-118.216229
 21
127.849200
  0
LINE
  8
1
 62
7
  6
CONTINUOUS
 10
-119.916229
 20
121.984200
 11
-119.916229
 21
127.764200
  0
LINE
  8
1
 62
7
  6
CONTINUOUS
 10
-121.916229
 20
122.084200
 11
-121.916229
 21
127.664200
  0
LINE
  8
1
 62
7
  6
CONTINUOUS
 10
-123.616229
 20
122.169200
 11
-123.616229
 21
127.579200
  0
LINE
  8
1
 62
7
  6
CONTINUOUS
 10
-121.916229
 20
123.624200
 11
-123.616229
 21
123.624200
  0
LINE
  8
1
 62
7
  6
CONTINUOUS
 10
-118.216229
 20
123.624200
 11
-119.916229
 21
123.624200
  0
LINE
  8
1
 62
7
  6
CONTINUOUS
 10
-118.216229
 20
126.124200
 11
-119.916229
 21
126.124200
  0
LINE
  8
1
 62
7
  6
CONTINUOUS
 10
-121.916229
 20
126.124200
 11
-123.616229
 21
126.124200
  0
LINE
  8
1
 62
7
  6
CONTINUOUS
 10
-123.616229
 20
122.169200
 11
-125.716229
 21
122.274200
  0
LINE
  8
1
 62
7
  6
CONTINUOUS
 10
-123.616229
 20
127.579200
 11
-125.716229
 21
127.474200
  0
LINE
  8
1
 62
7
  6
CONTINUOUS
 10
-119.916229
 20
127.764200
 11
-121.916229
 21
127.664200
  0
LINE
  8
1
 62
7
  6
CONTINUOUS
 10
-119.916229
 20
121.984200
 11
-121.916229
 21
122.084200
  0
LINE
  8
1
 62
7
  6
CONTINUOUS
 10
-116.216229
 20
127.949200
 11
-118.216229
 21
127.849200
  0
LINE
  8
1
 62
7
  6
CONTINUOUS
 10
-116.216229
 20
121.799200
 11
-118.216229
 21
121.899200
  0
LINE
  8
1
 62
7
  6
CONTINUOUS
 10
-114.516229
 20
121.779210
 11
-114.516229
 21
128.060662
  0
LINE
  8
1
 62
7
  6
CONTINUOUS
 10
-114.516229
 20
121.779210
 11
-113.716229
 21
121.274200
  0
LINE
  8
1
 62
7
  6
CONTINUOUS
 10
-113.716229
 20
128.474200
 11
-114.516229
 21
128.060662
  0
LINE
  8
1
 62
7
  6
CONTINUOUS
 10
-114.516229
 20
126.124200
 11
-116.216229
 21
126.124200
  0
LINE
  8
1
 62
7
  6
CONTINUOUS
 10
-114.516229
 20
123.624200
 11
-116.216229
 21
123.624200
  0
LINE
  8
1
 62
7
  6
CONTINUOUS
 10
-125.716229
 20
123.624200
 11
-142.830653
 21
123.624200
  0
LINE
  8
1
 62
7
  6
CONTINUOUS
 10
-125.716229
 20
126.124200
 11
-142.830653
 21
126.124200
  0
LINE
  8
1
 62
7
  6
CONTINUOUS
 10
-112.204405
 20
121.274200
 11
-113.716229
 21
121.274200
  0
LINE
  8
1
 62
7
  6
CONTINUOUS
 10
-113.716229
 20
128.474200
 11
-112.204405
 21
128.474200
  0
LINE
  8
1
 62
7
  6
CONTINUOUS
 10
-91.616229
 20
129.274200
 11
-91.616229
 21
120.474200
  0
LINE
  8
1
 62
7
  6
CONTINUOUS
 10
-91.616229
 20
120.474200
 11
-112.204405
 21
120.474200
  0
LINE
  8
1
 62
7
  6
CONTINUOUS
 10
-112.204405
 20
120.474200
 11
-112.204405
 21
129.274200
  0
LINE
  8
1
 62
7
  6
CONTINUOUS
 10
-112.204405
 20
129.274200
 11
-91.616229
 21
129.274200
  0
LINE
  8
1
 62
7
  6
CONTINUOUS
 10
-89.837762
 20
128.241661
 11
-91.616229
 21
128.241661
  0
LINE
  8
1
 62
7
  6
CONTINUOUS
 10
-89.837762
 20
121.506739
 11
-89.837762
 21
128.241661
  0
LINE
  8
1
 62
7
  6
CONTINUOUS
 10
-89.837762
 20
121.506739
 11
-91.616229
 21
121.506739
  0
LINE
  8
1
 62
7
  6
CONTINUOUS
 10
-142.830653
 20
126.124200
 11
-142.830653
 21
123.624200
  0
LINE
  8
1
 62
7
  6
CONTINUOUS
 10
-178.763792
 20
95.600000
 11
-142.830653
 21
125.210260
  0
LINE
  8
1
 62
7
  6
CONTINUOUS
 10
-178.763792
 20
94.400000
 11
-142.830653
 21
124.407450
  0
LINE
  8
1
 62
7
  6
CONTINUOUS
 10
-178.763792
 20
93.600000
 11
-142.830653
 21
125.210260
  0
LINE
  8
1
 62
7
  6
CONTINUOUS
 10
-178.763792
 20
92.400000
 11
-142.830653
 21
124.407450
  0
LINE
  8
1
 62
7
  6
CONTINUOUS
 10
-178.763792
 20
91.600000
 11
-142.830653
 21
125.210260
  0
LINE
  8
1
 62
7
  6
CONTINUOUS
 10
-178.763792
 20
90.400000
 11
-142.830653
 21
124.407450
  0
TEXT
  8
2
 62
134
  6
CONTINUOUS
 10
-111.222921
 20
132.714622
 40
3.000000
 41
1.000000
  1
φ2.5ﾐﾆｼﾞｬｯｸ
  7
KANJI
 50
0.000000
 51
0.000000
  0
LINE
  8
1
 62
7
  6
CONTINUOUS
 10
-111.071162
 20
109.693048
 11
-142.830653
 21
109.693048
  0
LINE
  8
1
 62
7
  6
CONTINUOUS
 10
-111.071162
 20
110.893048
 11
-142.830653
 21
110.893048
  0
TEXT
  8
2
 62
134
  6
CONTINUOUS
 10
-104.894460
 20
115.371426
 40
3.000000
 41
1.000000
  1
M3圧着端子
  7
KANJI
 50
0.000000
 51
0.000000
  0
LINE
  8
1
 62
7
  6
DASHDOT
 10
-88.413277
 20
124.874200
 11
-143.189096
 21
124.874200
  0
TEXT
  8
2
 62
134
  6
CONTINUOUS
 10
-86.899596
 20
123.488174
 40
3.000000
 41
0.500000
  1
RS232C
  7
KANJI
 50
0.000000
 51
0.000000
  0
TEXT
  8
2
 62
134
  6
CONTINUOUS
 10
-117.717602
 20
80.893048
 40
4.000000
 41
0.500000
  1
ｱｶ
  7
KANJI
 50
0.000000
 51
0.000000
  0
TEXT
  8
2
 62
134
  6
CONTINUOUS
 10
-117.717602
 20
110.893048
 40
4.000000
 41
0.500000
  1
ｸﾛ
  7
KANJI
 50
0.000000
 51
0.000000
  0
TEXT
  8
2
 62
134
  6
CONTINUOUS
 10
-117.717602
 20
90.893048
 40
4.000000
 41
0.500000
  1
ｼﾛ
  7
KANJI
 50
0.000000
 51
0.000000
  0
TEXT
  8
2
 62
134
  6
CONTINUOUS
 10
-121.309080
 20
100.969851
 40
4.000000
 41
0.500000
  1
ﾐﾄﾞﾘ
  7
KANJI
 50
0.000000
 51
0.000000
  0
TEXT
  8
2
 62
134
  6
CONTINUOUS
 10
-121.879387
 20
72.364726
 40
4.000000
 41
0.500000
  1
ﾑﾗ/ﾊｲ
  7
KANJI
 50
0.000000
 51
0.000000
  0
DIMENSION
  8
2
 62
134
  6
CONTINUOUS
  2
*D1
 10
-192.000000
 20
57.961092
 11
-150.168345
 21
57.961092
 70
     0
  1
200mm
 13
-192.000000
 23
79.850000
 14
-111.071162
 24
67.000000
 50
0.000000
  0
TEXT
  8
2
 62
134
  6
CONTINUOUS
 10
-86.966595
 20
69.086918
 40
3.000000
 41
0.500000
  1
ｱﾅﾛｸﾞ-GND 1
  7
KANJI
 50
0.000000
 51
0.000000
  0
TEXT
  8
2
 62
134
  6
CONTINUOUS
 10
-86.966595
 20
89.086918
 40
3.000000
 41
1.000000
  1
ｱﾗｰﾑ出力/外部照準
  7
KANJI
 50
0.000000
 51
0.000000
  0
TEXT
  8
2
 62
134
  6
CONTINUOUS
 10
-86.966595
 20
109.086918
 40
3.000000
 41
0.500000
  1
DC-GND
  7
KANJI
 50
0.000000
 51
0.000000
  0
TEXT
  8
2
 62
134
  6
CONTINUOUS
 10
-86.966595
 20
99.086918
 40
3.000000
 41
1.000000
  1
ｱﾅﾛｸﾞ出力
  7
KANJI
 50
0.000000
 51
0.000000
  0
TEXT
  8
2
 62
134
  6
CONTINUOUS
 10
-86.966595
 20
79.086918
 40
3.000000
 41
1.000000
  1
DCIN 4.7V～27V
  7
KANJI
 50
0.000000
 51
0.000000
  0
TEXT
  8
2
 62
134
  6
CONTINUOUS
 10
-87.062087
 20
66.057864
 40
3.000000
 41
0.500000
  1
ｱﾅﾛｸﾞ-GND 2
  7
KANJI
 50
0.000000
 51
0.000000
  0
LINE
  8
1
 62
7
  6
CONTINUOUS
 10
119.466170
 20
103.500000
 11
99.466170
 21
103.500000
  0
LINE
  8
1
 62
7
  6
CONTINUOUS
 10
119.466170
 20
103.000000
 11
129.466170
 21
103.000000
  0
LINE
  8
1
 62
7
  6
CONTINUOUS
 10
206.387107
 20
147.550000
 11
202.970276
 21
147.550000
  0
ARC
  8
1
 62
7
  6
CONTINUOUS
 10
202.970276
 20
148.050000
 40
0.500000
 50
180.000000
 51
-90.000000
  0
LINE
  8
1
 62
7
  6
DASHDOT
 10
201.164538
 20
164.500000
 11
221.319267
 21
164.500000
  0
LINE
  8
1
 62
7
  6
DASHDOT
 10
201.220281
 20
150.500000
 11
221.361776
 21
150.500000
  0
LINE
  8
1
 62
7
  6
DASHDOT
 10
201.164538
 20
162.500000
 11
221.319267
 21
162.500000
  0
LINE
  8
1
 62
7
  6
DASHDOT
 10
201.164538
 20
160.500000
 11
221.319267
 21
160.500000
  0
LINE
  8
1
 62
7
  6
DASHDOT
 10
201.164538
 20
158.500000
 11
221.319267
 21
158.500000
  0
LINE
  8
1
 62
7
  6
DASHDOT
 10
201.164538
 20
156.500000
 11
221.319267
 21
156.500000
  0
LINE
  8
1
 62
7
  6
DASHDOT
 10
201.164538
 20
154.500000
 11
221.319267
 21
154.500000
  0
LINE
  8
1
 62
7
  6
DASHDOT
 10
201.164538
 20
152.500000
 11
221.319267
 21
152.500000
  0
LINE
  8
1
 62
7
  6
CONTINUOUS
 10
204.970276
 20
149.350000
 11
206.470276
 21
149.350000
  0
LINE
  8
1
 62
7
  6
CONTINUOUS
 10
204.970276
 20
165.350000
 11
204.970276
 21
149.350000
  0
LINE
  8
1
 62
7
  6
CONTINUOUS
 10
206.470276
 20
165.350000
 11
204.970276
 21
165.350000
  0
LINE
  8
1
 62
7
  6
CONTINUOUS
 10
206.470276
 20
165.350000
 11
206.470276
 21
149.350000
  0
LINE
  8
1
 62
7
  6
CONTINUOUS
 10
206.387107
 20
147.550000
 11
206.387107
 21
147.750000
  0
LINE
  8
1
 62
7
  6
CONTINUOUS
 10
206.387107
 20
147.750000
 11
219.970276
 21
147.750000
  0
ARC
  8
1
 62
7
  6
CONTINUOUS
 10
219.970276
 20
148.250000
 40
0.500000
 50
-90.000000
 51
0.000000
  0
LINE
  8
1
 62
7
  6
CONTINUOUS
 10
209.670276
 20
168.050000
 11
220.470276
 21
168.050000
  0
ARC
  8
1
 62
7
  6
CONTINUOUS
 10
209.170276
 20
169.750000
 40
0.500000
 50
0.000000
 51
90.000000
  0
LINE
  8
1
 62
7
  6
CONTINUOUS
 10
209.670276
 20
169.750000
 11
209.670276
 21
168.050000
  0
ARC
  8
1
 62
7
  6
CONTINUOUS
 10
219.970276
 20
168.936962
 40
0.500000
 50
0.000000
 51
90.000000
  0
LINE
  8
1
 62
7
  6
CONTINUOUS
 10
220.470276
 20
168.936962
 11
220.470276
 21
148.250000
  0
LINE
  8
1
 62
7
  6
CONTINUOUS
 10
219.970276
 20
169.436962
 11
209.670276
 21
169.550000
  0
LINE
  8
1
 62
7
  6
CONTINUOUS
 10
206.083705
 20
169.150000
 11
207.183705
 21
170.250000
  0
LINE
  8
1
 62
7
  6
CONTINUOUS
 10
202.470276
 20
169.150000
 11
202.470276
 21
148.050000
  0
LINE
  8
1
 62
7
  6
CONTINUOUS
 10
202.470276
 20
169.150000
 11
202.471460
 21
169.156216
  0
LINE
  8
1
 62
7
  6
CONTINUOUS
 10
202.471460
 20
169.156216
 11
202.474981
 21
169.174695
  0
LINE
  8
1
 62
7
  6
CONTINUOUS
 10
202.474981
 20
169.174695
 11
202.480747
 21
169.204932
  0
LINE
  8
1
 62
7
  6
CONTINUOUS
 10
202.480747
 20
169.204932
 11
202.488619
 21
169.246093
  0
LINE
  8
1
 62
7
  6
CONTINUOUS
 10
202.488619
 20
169.246093
 11
202.498424
 21
169.297042
  0
LINE
  8
1
 62
7
  6
CONTINUOUS
 10
202.498424
 20
169.297042
 11
202.509967
 21
169.356360
  0
LINE
  8
1
 62
7
  6
CONTINUOUS
 10
202.509967
 20
169.356360
 11
202.523044
 21
169.422388
  0
LINE
  8
1
 62
7
  6
CONTINUOUS
 10
202.523044
 20
169.422388
 11
202.537433
 21
169.493274
  0
LINE
  8
1
 62
7
  6
CONTINUOUS
 10
202.537433
 20
169.493274
 11
202.552894
 21
169.567027
  0
LINE
  8
1
 62
7
  6
CONTINUOUS
 10
202.552894
 20
169.567027
 11
202.569141
 21
169.641584
  0
LINE
  8
1
 62
7
  6
CONTINUOUS
 10
202.569141
 20
169.641584
 11
202.585833
 21
169.714872
  0
LINE
  8
1
 62
7
  6
CONTINUOUS
 10
202.585833
 20
169.714872
 11
202.602554
 21
169.784878
  0
LINE
  8
1
 62
7
  6
CONTINUOUS
 10
202.602554
 20
169.784878
 11
202.618808
 21
169.849708
  0
LINE
  8
1
 62
7
  6
CONTINUOUS
 10
202.618808
 20
169.849708
 11
202.634031
 21
169.907637
  0
LINE
  8
1
 62
7
  6
CONTINUOUS
 10
202.634031
 20
169.907637
 11
202.647618
 21
169.957159
  0
LINE
  8
1
 62
7
  6
CONTINUOUS
 10
202.647618
 20
169.957159
 11
202.658966
 21
169.997008
  0
LINE
  8
1
 62
7
  6
CONTINUOUS
 10
202.658966
 20
169.997008
 11
202.667524
 21
170.026191
  0
LINE
  8
1
 62
7
  6
CONTINUOUS
 10
202.667524
 20
170.026191
 11
202.672851
 21
170.043988
  0
LINE
  8
1
 62
7
  6
CONTINUOUS
 10
202.672851
 20
170.043988
 11
202.674660
 21
170.049969
  0
LINE
  8
1
 62
7
  6
CONTINUOUS
 10
202.674660
 20
170.049969
 11
202.676477
 21
170.055946
  0
LINE
  8
1
 62
7
  6
CONTINUOUS
 10
202.676477
 20
170.055946
 11
202.681931
 21
170.073696
  0
LINE
  8
1
 62
7
  6
CONTINUOUS
 10
202.681931
 20
170.073696
 11
202.691022
 21
170.102682
  0
LINE
  8
1
 62
7
  6
CONTINUOUS
 10
202.691022
 20
170.102682
 11
202.703742
 21
170.142032
  0
LINE
  8
1
 62
7
  6
CONTINUOUS
 10
202.703742
 20
170.142032
 11
202.720057
 21
170.190583
  0
LINE
  8
1
 62
7
  6
CONTINUOUS
 10
202.720057
 20
170.190583
 11
202.739881
 21
170.246920
  0
LINE
  8
1
 62
7
  6
CONTINUOUS
 10
202.739881
 20
170.246920
 11
202.763051
 21
170.309433
  0
LINE
  8
1
 62
7
  6
CONTINUOUS
 10
202.763051
 20
170.309433
 11
202.789293
 21
170.376368
  0
LINE
  8
1
 62
7
  6
CONTINUOUS
 10
202.789293
 20
170.376368
 11
202.818189
 21
170.445880
  0
LINE
  8
1
 62
7
  6
CONTINUOUS
 10
202.818189
 20
170.445880
 11
202.849152
 21
170.516086
  0
LINE
  8
1
 62
7
  6
CONTINUOUS
 10
202.849152
 20
170.516086
 11
202.881411
 21
170.585107
  0
LINE
  8
1
 62
7
  6
CONTINUOUS
 10
202.881411
 20
170.585107
 11
202.914014
 21
170.651110
  0
LINE
  8
1
 62
7
  6
CONTINUOUS
 10
202.914014
 20
170.651110
 11
202.945855
 21
170.712352
  0
LINE
  8
1
 62
7
  6
CONTINUOUS
 10
202.945855
 20
170.712352
 11
202.975718
 21
170.767219
  0
LINE
  8
1
 62
7
  6
CONTINUOUS
 10
202.975718
 20
170.767219
 11
203.002353
 21
170.814258
  0
LINE
  8
1
 62
7
  6
CONTINUOUS
 10
203.002353
 20
170.814258
 11
203.024558
 21
170.852219
  0
LINE
  8
1
 62
7
  6
CONTINUOUS
 10
203.024558
 20
170.852219
 11
203.041269
 21
170.880088
  0
LINE
  8
1
 62
7
  6
CONTINUOUS
 10
203.041269
 20
170.880088
 11
203.051651
 21
170.897116
  0
LINE
  8
1
 62
7
  6
CONTINUOUS
 10
203.051651
 20
170.897116
 11
203.055173
 21
170.902844
  0
LINE
  8
1
 62
7
  6
CONTINUOUS
 10
203.055173
 20
170.902844
 11
203.058710
 21
170.908571
  0
LINE
  8
1
 62
7
  6
CONTINUOUS
 10
203.058710
 20
170.908571
 11
203.069310
 21
170.925595
  0
LINE
  8
1
 62
7
  6
CONTINUOUS
 10
203.069310
 20
170.925595
 11
203.086920
 21
170.953430
  0
LINE
  8
1
 62
7
  6
CONTINUOUS
 10
203.086920
 20
170.953430
 11
203.111395
 21
170.991258
  0
LINE
  8
1
 62
7
  6
CONTINUOUS
 10
203.111395
 20
170.991258
 11
203.142419
 21
171.037910
  0
LINE
  8
1
 62
7
  6
CONTINUOUS
 10
203.142419
 20
171.037910
 11
203.179437
 21
171.091875
  0
LINE
  8
1
 62
7
  6
CONTINUOUS
 10
203.179437
 20
171.091875
 11
203.221603
 21
171.151334
  0
LINE
  8
1
 62
7
  6
CONTINUOUS
 10
203.221603
 20
171.151334
 11
203.267767
 21
171.214227
  0
LINE
  8
1
 62
7
  6
CONTINUOUS
 10
203.267767
 20
171.214227
 11
203.316512
 21
171.278367
  0
LINE
  8
1
 62
7
  6
CONTINUOUS
 10
203.316512
 20
171.278367
 11
203.366231
 21
171.341565
  0
LINE
  8
1
 62
7
  6
CONTINUOUS
 10
203.366231
 20
171.341565
 11
203.415242
 21
171.401782
  0
LINE
  8
1
 62
7
  6
CONTINUOUS
 10
203.415242
 20
171.401782
 11
203.461908
 21
171.457255
  0
LINE
  8
1
 62
7
  6
CONTINUOUS
 10
203.461908
 20
171.457255
 11
203.504759
 21
171.506599
  0
LINE
  8
1
 62
7
  6
CONTINUOUS
 10
203.504759
 20
171.506599
 11
203.542570
 21
171.548853
  0
LINE
  8
1
 62
7
  6
CONTINUOUS
 10
203.542570
 20
171.548853
 11
203.574408
 21
171.583465
  0
LINE
  8
1
 62
7
  6
CONTINUOUS
 10
203.574408
 20
171.583465
 11
203.599632
 21
171.610230
  0
LINE
  8
1
 62
7
  6
CONTINUOUS
 10
203.599632
 20
171.610230
 11
203.617844
 21
171.629177
  0
LINE
  8
1
 62
7
  6
CONTINUOUS
 10
203.617844
 20
171.629177
 11
203.628833
 21
171.640450
  0
LINE
  8
1
 62
7
  6
CONTINUOUS
 10
203.628833
 20
171.640450
 11
203.632504
 21
171.644189
  0
LINE
  8
1
 62
7
  6
CONTINUOUS
 10
203.632504
 20
171.644189
 11
203.636162
 21
171.647901
  0
LINE
  8
1
 62
7
  6
CONTINUOUS
 10
203.636162
 20
171.647901
 11
203.646961
 21
171.658776
  0
LINE
  8
1
 62
7
  6
CONTINUOUS
 10
203.646961
 20
171.658776
 11
203.664386
 21
171.676065
  0
LINE
  8
1
 62
7
  6
CONTINUOUS
 10
203.664386
 20
171.676065
 11
203.687621
 21
171.698614
  0
LINE
  8
1
 62
7
  6
CONTINUOUS
 10
203.687621
 20
171.698614
 11
203.715614
 21
171.724998
  0
LINE
  8
1
 62
7
  6
CONTINUOUS
 10
203.715614
 20
171.724998
 11
203.747152
 21
171.753668
  0
LINE
  8
1
 62
7
  6
CONTINUOUS
 10
203.747152
 20
171.753668
 11
203.780945
 21
171.783110
  0
LINE
  8
1
 62
7
  6
CONTINUOUS
 10
203.780945
 20
171.783110
 11
203.815707
 21
171.811970
  0
LINE
  8
1
 62
7
  6
CONTINUOUS
 10
203.815707
 20
171.811970
 11
203.850233
 21
171.839150
  0
LINE
  8
1
 62
7
  6
CONTINUOUS
 10
203.850233
 20
171.839150
 11
203.883456
 21
171.863862
  0
LINE
  8
1
 62
7
  6
CONTINUOUS
 10
203.883456
 20
171.863862
 11
203.914491
 21
171.885623
  0
LINE
  8
1
 62
7
  6
CONTINUOUS
 10
203.914491
 20
171.885623
 11
203.942648
 21
171.904232
  0
LINE
  8
1
 62
7
  6
CONTINUOUS
 10
203.942648
 20
171.904232
 11
203.967439
 21
171.919703
  0
LINE
  8
1
 62
7
  6
CONTINUOUS
 10
203.967439
 20
171.919703
 11
203.988553
 21
171.932195
  0
LINE
  8
1
 62
7
  6
CONTINUOUS
 10
203.988553
 20
171.932195
 11
204.005830
 21
171.941947
  0
LINE
  8
1
 62
7
  6
CONTINUOUS
 10
204.005830
 20
171.941947
 11
204.019218
 21
171.949213
  0
LINE
  8
1
 62
7
  6
CONTINUOUS
 10
204.019218
 20
171.949213
 11
204.028731
 21
171.954223
  0
LINE
  8
1
 62
7
  6
CONTINUOUS
 10
204.028731
 20
171.954223
 11
204.034412
 21
171.957155
  0
LINE
  8
1
 62
7
  6
CONTINUOUS
 10
204.034412
 20
171.957155
 11
204.036300
 21
171.958120
  0
LINE
  8
1
 62
7
  6
CONTINUOUS
 10
204.036300
 20
171.958120
 11
204.038178
 21
171.959075
  0
LINE
  8
1
 62
7
  6
CONTINUOUS
 10
204.038178
 20
171.959075
 11
204.043692
 21
171.961850
  0
LINE
  8
1
 62
7
  6
CONTINUOUS
 10
204.043692
 20
171.961850
 11
204.052503
 21
171.966194
  0
LINE
  8
1
 62
7
  6
CONTINUOUS
 10
204.052503
 20
171.966194
 11
204.064086
 21
171.971727
  0
LINE
  8
1
 62
7
  6
CONTINUOUS
 10
204.064086
 20
171.971727
 11
204.077786
 21
171.977994
  0
LINE
  8
1
 62
7
  6
CONTINUOUS
 10
204.077786
 20
171.977994
 11
204.092885
 21
171.984521
  0
LINE
  8
1
 62
7
  6
CONTINUOUS
 10
204.092885
 20
171.984521
 11
204.108662
 21
171.990875
  0
LINE
  8
1
 62
7
  6
CONTINUOUS
 10
204.108662
 20
171.990875
 11
204.124457
 21
171.996708
  0
LINE
  8
1
 62
7
  6
CONTINUOUS
 10
204.124457
 20
171.996708
 11
204.139710
 21
172.001784
  0
LINE
  8
1
 62
7
  6
CONTINUOUS
 10
204.139710
 20
172.001784
 11
204.153984
 21
172.005987
  0
LINE
  8
1
 62
7
  6
CONTINUOUS
 10
204.153984
 20
172.005987
 11
204.166969
 21
172.009306
  0
LINE
  8
1
 62
7
  6
CONTINUOUS
 10
204.166969
 20
172.009306
 11
204.178475
 21
172.011816
  0
LINE
  8
1
 62
7
  6
CONTINUOUS
 10
204.178475
 20
172.011816
 11
204.188406
 21
172.013640
  0
LINE
  8
1
 62
7
  6
CONTINUOUS
 10
204.188406
 20
172.013640
 11
204.196734
 21
172.014922
  0
LINE
  8
1
 62
7
  6
CONTINUOUS
 10
204.196734
 20
172.014922
 11
204.203474
 21
172.015797
  0
LINE
  8
1
 62
7
  6
CONTINUOUS
 10
204.203474
 20
172.015797
 11
204.208662
 21
172.016375
  0
LINE
  8
1
 62
7
  6
CONTINUOUS
 10
204.208662
 20
172.016375
 11
204.212335
 21
172.016738
  0
LINE
  8
1
 62
7
  6
CONTINUOUS
 10
204.212335
 20
172.016738
 11
204.214525
 21
172.016938
  0
LINE
  8
1
 62
7
  6
CONTINUOUS
 10
204.214525
 20
172.016938
 11
204.215253
 21
172.017002
  0
LINE
  8
1
 62
7
  6
CONTINUOUS
 10
204.215253
 20
172.017002
 11
204.215976
 21
172.017064
  0
LINE
  8
1
 62
7
  6
CONTINUOUS
 10
204.215976
 20
172.017064
 11
204.218100
 21
172.017239
  0
LINE
  8
1
 62
7
  6
CONTINUOUS
 10
204.218100
 20
172.017239
 11
204.221495
 21
172.017497
  0
LINE
  8
1
 62
7
  6
CONTINUOUS
 10
204.221495
 20
172.017497
 11
204.225966
 21
172.017795
  0
LINE
  8
1
 62
7
  6
CONTINUOUS
 10
204.225966
 20
172.017795
 11
204.231278
 21
172.018088
  0
LINE
  8
1
 62
7
  6
CONTINUOUS
 10
204.231278
 20
172.018088
 11
204.237189
 21
172.018340
  0
LINE
  8
1
 62
7
  6
CONTINUOUS
 10
204.237189
 20
172.018340
 11
204.243473
 21
172.018529
  0
LINE
  8
1
 62
7
  6
CONTINUOUS
 10
204.243473
 20
172.018529
 11
204.249941
 21
172.018657
  0
LINE
  8
1
 62
7
  6
CONTINUOUS
 10
204.249941
 20
172.018657
 11
204.256441
 21
172.018745
  0
LINE
  8
1
 62
7
  6
CONTINUOUS
 10
204.256441
 20
172.018745
 11
204.262862
 21
172.018825
  0
LINE
  8
1
 62
7
  6
CONTINUOUS
 10
204.262862
 20
172.018825
 11
204.269112
 21
172.018936
  0
LINE
  8
1
 62
7
  6
CONTINUOUS
 10
204.269112
 20
172.018936
 11
204.275105
 21
172.019109
  0
LINE
  8
1
 62
7
  6
CONTINUOUS
 10
204.275105
 20
172.019109
 11
204.280743
 21
172.019359
  0
LINE
  8
1
 62
7
  6
CONTINUOUS
 10
204.280743
 20
172.019359
 11
204.285905
 21
172.019681
  0
LINE
  8
1
 62
7
  6
CONTINUOUS
 10
204.285905
 20
172.019681
 11
204.290448
 21
172.020047
  0
LINE
  8
1
 62
7
  6
CONTINUOUS
 10
204.290448
 20
172.020047
 11
204.294212
 21
172.020411
  0
LINE
  8
1
 62
7
  6
CONTINUOUS
 10
204.294212
 20
172.020411
 11
204.297039
 21
172.020723
  0
LINE
  8
1
 62
7
  6
CONTINUOUS
 10
204.297039
 20
172.020723
 11
204.298796
 21
172.020933
  0
LINE
  8
1
 62
7
  6
CONTINUOUS
 10
204.298796
 20
172.020933
 11
204.299392
 21
172.021007
  0
LINE
  8
1
 62
7
  6
CONTINUOUS
 10
204.299392
 20
172.021007
 11
204.299991
 21
172.021083
  0
LINE
  8
1
 62
7
  6
CONTINUOUS
 10
204.299991
 20
172.021083
 11
204.301788
 21
172.021318
  0
LINE
  8
1
 62
7
  6
CONTINUOUS
 10
204.301788
 20
172.021318
 11
204.304785
 21
172.021730
  0
LINE
  8
1
 62
7
  6
CONTINUOUS
 10
204.304785
 20
172.021730
 11
204.308991
 21
172.022327
  0
LINE
  8
1
 62
7
  6
CONTINUOUS
 10
204.308991
 20
172.022327
 11
204.314420
 21
172.023092
  0
LINE
  8
1
 62
7
  6
CONTINUOUS
 10
204.314420
 20
172.023092
 11
204.321096
 21
172.023958
  0
LINE
  8
1
 62
7
  6
CONTINUOUS
 10
204.321096
 20
172.023958
 11
204.329038
 21
172.024802
  0
LINE
  8
1
 62
7
  6
CONTINUOUS
 10
204.329038
 20
172.024802
 11
204.338249
 21
172.025454
  0
LINE
  8
1
 62
7
  6
CONTINUOUS
 10
204.338249
 20
172.025454
 11
204.348686
 21
172.025713
  0
LINE
  8
1
 62
7
  6
CONTINUOUS
 10
204.348686
 20
172.025713
 11
204.360234
 21
172.025388
  0
LINE
  8
1
 62
7
  6
CONTINUOUS
 10
204.360234
 20
172.025388
 11
204.372678
 21
172.024340
  0
LINE
  8
1
 62
7
  6
CONTINUOUS
 10
204.372678
 20
172.024340
 11
204.385685
 21
172.022518
  0
LINE
  8
1
 62
7
  6
CONTINUOUS
 10
204.385685
 20
172.022518
 11
204.398803
 21
172.019991
  0
LINE
  8
1
 62
7
  6
CONTINUOUS
 10
204.398803
 20
172.019991
 11
204.411470
 21
172.016953
  0
LINE
  8
1
 62
7
  6
CONTINUOUS
 10
204.411470
 20
172.016953
 11
204.423060
 21
172.013704
  0
LINE
  8
1
 62
7
  6
CONTINUOUS
 10
204.423060
 20
172.013704
 11
204.432926
 21
172.010614
  0
LINE
  8
1
 62
7
  6
CONTINUOUS
 10
204.432926
 20
172.010614
 11
204.440471
 21
172.008063
  0
LINE
  8
1
 62
7
  6
CONTINUOUS
 10
204.440471
 20
172.008063
 11
204.445210
 21
172.006381
  0
LINE
  8
1
 62
7
  6
CONTINUOUS
 10
204.445210
 20
172.006381
 11
204.446826
 21
172.005794
  0
LINE
  8
1
 62
7
  6
CONTINUOUS
 10
204.446826
 20
172.005794
 11
204.448454
 21
172.005197
  0
LINE
  8
1
 62
7
  6
CONTINUOUS
 10
204.448454
 20
172.005197
 11
204.453359
 21
172.003354
  0
LINE
  8
1
 62
7
  6
CONTINUOUS
 10
204.453359
 20
172.003354
 11
204.461604
 21
172.000117
  0
LINE
  8
1
 62
7
  6
CONTINUOUS
 10
204.461604
 20
172.000117
 11
204.473274
 21
171.995240
  0
LINE
  8
1
 62
7
  6
CONTINUOUS
 10
204.473274
 20
171.995240
 11
204.488454
 21
171.988390
  0
LINE
  8
1
 62
7
  6
CONTINUOUS
 10
204.488454
 20
171.988390
 11
204.507187
 21
171.979169
  0
LINE
  8
1
 62
7
  6
CONTINUOUS
 10
204.507187
 20
171.979169
 11
204.529438
 21
171.967164
  0
LINE
  8
1
 62
7
  6
CONTINUOUS
 10
204.529438
 20
171.967164
 11
204.555043
 21
171.952014
  0
LINE
  8
1
 62
7
  6
CONTINUOUS
 10
204.555043
 20
171.952014
 11
204.583667
 21
171.933500
  0
LINE
  8
1
 62
7
  6
CONTINUOUS
 10
204.583667
 20
171.933500
 11
204.614766
 21
171.911633
  0
LINE
  8
1
 62
7
  6
CONTINUOUS
 10
204.614766
 20
171.911633
 11
204.647570
 21
171.886745
  0
LINE
  8
1
 62
7
  6
CONTINUOUS
 10
204.647570
 20
171.886745
 11
204.681083
 21
171.859539
  0
LINE
  8
1
 62
7
  6
CONTINUOUS
 10
204.681083
 20
171.859539
 11
204.714112
 21
171.831102
  0
LINE
  8
1
 62
7
  6
CONTINUOUS
 10
204.714112
 20
171.831102
 11
204.745325
 21
171.802853
  0
LINE
  8
1
 62
7
  6
CONTINUOUS
 10
204.745325
 20
171.802853
 11
204.773335
 21
171.776440
  0
LINE
  8
1
 62
7
  6
CONTINUOUS
 10
204.773335
 20
171.776440
 11
204.796795
 21
171.753588
  0
LINE
  8
1
 62
7
  6
CONTINUOUS
 10
204.796795
 20
171.753588
 11
204.814512
 21
171.735910
  0
LINE
  8
1
 62
7
  6
CONTINUOUS
 10
204.814512
 20
171.735910
 11
204.825545
 21
171.724725
  0
LINE
  8
1
 62
7
  6
CONTINUOUS
 10
204.825545
 20
171.724725
 11
204.829292
 21
171.720896
  0
LINE
  8
1
 62
7
  6
CONTINUOUS
 10
204.829292
 20
171.720896
 11
204.833056
 21
171.717034
  0
LINE
  8
1
 62
7
  6
CONTINUOUS
 10
204.833056
 20
171.717034
 11
204.844350
 21
171.705357
  0
LINE
  8
1
 62
7
  6
CONTINUOUS
 10
204.844350
 20
171.705357
 11
204.863149
 21
171.685618
  0
LINE
  8
1
 62
7
  6
CONTINUOUS
 10
204.863149
 20
171.685618
 11
204.889340
 21
171.657499
  0
LINE
  8
1
 62
7
  6
CONTINUOUS
 10
204.889340
 20
171.657499
 11
204.922626
 21
171.620731
  0
LINE
  8
1
 62
7
  6
CONTINUOUS
 10
204.922626
 20
171.620731
 11
204.962439
 21
171.575228
  0
LINE
  8
1
 62
7
  6
CONTINUOUS
 10
204.962439
 20
171.575228
 11
205.007871
 21
171.521232
  0
LINE
  8
1
 62
7
  6
CONTINUOUS
 10
205.007871
 20
171.521232
 11
205.057664
 21
171.459415
  0
LINE
  8
1
 62
7
  6
CONTINUOUS
 10
205.057664
 20
171.459415
 11
205.110246
 21
171.390951
  0
LINE
  8
1
 62
7
  6
CONTINUOUS
 10
205.110246
 20
171.390951
 11
205.163827
 21
171.317525
  0
LINE
  8
1
 62
7
  6
CONTINUOUS
 10
205.163827
 20
171.317525
 11
205.216537
 21
171.241290
  0
LINE
  8
1
 62
7
  6
CONTINUOUS
 10
205.216537
 20
171.241290
 11
205.266574
 21
171.164775
  0
LINE
  8
1
 62
7
  6
CONTINUOUS
 10
205.266574
 20
171.164775
 11
205.312338
 21
171.090746
  0
LINE
  8
1
 62
7
  6
CONTINUOUS
 10
205.312338
 20
171.090746
 11
205.352535
 21
171.022046
  0
LINE
  8
1
 62
7
  6
CONTINUOUS
 10
205.352535
 20
171.022046
 11
205.386216
 21
170.961428
  0
LINE
  8
1
 62
7
  6
CONTINUOUS
 10
205.386216
 20
170.961428
 11
205.412770
 21
170.911395
  0
LINE
  8
1
 62
7
  6
CONTINUOUS
 10
205.412770
 20
170.911395
 11
205.431861
 21
170.874051
  0
LINE
  8
1
 62
7
  6
CONTINUOUS
 10
205.431861
 20
170.874051
 11
205.443343
 21
170.850983
  0
LINE
  8
1
 62
7
  6
CONTINUOUS
 10
205.443343
 20
170.850983
 11
205.447173
 21
170.843183
  0
LINE
  8
1
 62
7
  6
CONTINUOUS
 10
205.447173
 20
170.843183
 11
205.450985
 21
170.835361
  0
LINE
  8
1
 62
7
  6
CONTINUOUS
 10
205.450985
 20
170.835361
 11
205.462221
 21
170.811990
  0
LINE
  8
1
 62
7
  6
CONTINUOUS
 10
205.462221
 20
170.811990
 11
205.480292
 21
170.773366
  0
LINE
  8
1
 62
7
  6
CONTINUOUS
 10
205.480292
 20
170.773366
 11
205.504295
 21
170.720043
  0
LINE
  8
1
 62
7
  6
CONTINUOUS
 10
205.504295
 20
170.720043
 11
205.533100
 21
170.652896
  0
LINE
  8
1
 62
7
  6
CONTINUOUS
 10
205.533100
 20
170.652896
 11
205.565460
 21
170.573198
  0
LINE
  8
1
 62
7
  6
CONTINUOUS
 10
205.565460
 20
170.573198
 11
205.600118
 21
170.482667
  0
LINE
  8
1
 62
7
  6
CONTINUOUS
 10
205.600118
 20
170.482667
 11
205.635891
 21
170.383483
  0
LINE
  8
1
 62
7
  6
CONTINUOUS
 10
205.635891
 20
170.383483
 11
205.671726
 21
170.278257
  0
LINE
  8
1
 62
7
  6
CONTINUOUS
 10
205.671726
 20
170.278257
 11
205.706720
 21
170.169952
  0
LINE
  8
1
 62
7
  6
CONTINUOUS
 10
205.706720
 20
170.169952
 11
205.740120
 21
170.061765
  0
LINE
  8
1
 62
7
  6
CONTINUOUS
 10
205.740120
 20
170.061765
 11
205.771287
 21
169.956980
  0
LINE
  8
1
 62
7
  6
CONTINUOUS
 10
205.771287
 20
169.956980
 11
205.799667
 21
169.858815
  0
LINE
  8
1
 62
7
  6
CONTINUOUS
 10
205.799667
 20
169.858815
 11
205.824758
 21
169.770277
  0
LINE
  8
1
 62
7
  6
CONTINUOUS
 10
205.824758
 20
169.770277
 11
205.846089
 21
169.694042
  0
LINE
  8
1
 62
7
  6
CONTINUOUS
 10
205.846089
 20
169.694042
 11
205.863225
 21
169.632367
  0
LINE
  8
1
 62
7
  6
CONTINUOUS
 10
205.863225
 20
169.632367
 11
205.875779
 21
169.587034
  0
LINE
  8
1
 62
7
  6
CONTINUOUS
 10
205.875779
 20
169.587034
 11
205.883445
 21
169.559322
  0
LINE
  8
1
 62
7
  6
CONTINUOUS
 10
205.883445
 20
169.559322
 11
205.886024
 21
169.550000
  0
LINE
  8
1
 62
7
  6
CONTINUOUS
 10
206.083705
 20
169.150000
 11
202.470276
 21
169.150000
  0
LINE
  8
1
 62
7
  6
CONTINUOUS
 10
207.183705
 20
170.250000
 11
209.170276
 21
170.250000
  0
LINE
  8
1
 62
7
  6
CONTINUOUS
 10
206.483705
 20
169.550000
 11
205.886024
 21
169.550000
  0
LINE
  8
1
 62
7
  6
CONTINUOUS
 10
211.470276
 20
147.750000
 11
211.470276
 21
148.750000
  0
LINE
  8
1
 62
7
  6
CONTINUOUS
 10
211.470276
 20
148.750000
 11
214.970276
 21
148.750000
  0
LINE
  8
1
 62
7
  6
CONTINUOUS
 10
211.470276
 20
166.250000
 11
211.470276
 21
168.050000
  0
LINE
  8
1
 62
7
  6
CONTINUOUS
 10
211.470276
 20
166.250000
 11
214.970276
 21
166.250000
  0
LINE
  8
1
 62
7
  6
CONTINUOUS
 10
214.970276
 20
148.750000
 11
214.970276
 21
166.250000
  0
LINE
  8
2
 62
134
  6
CONTINUOUS
 10
230.391756
 20
176.860207
 11
265.391756
 21
176.860207
  0
LINE
  8
2
 62
134
  6
CONTINUOUS
 10
235.391756
 20
176.860207
 11
235.391756
 21
144.728456
  0
LINE
  8
2
 62
134
  6
CONTINUOUS
 10
230.391756
 20
148.228456
 11
265.391756
 21
148.228456
  0
LINE
  8
2
 62
134
  6
CONTINUOUS
 10
265.391756
 20
151.728456
 11
230.391756
 21
151.728456
  0
LINE
  8
2
 62
134
  6
CONTINUOUS
 10
230.391756
 20
155.228456
 11
265.391756
 21
155.228456
  0
LINE
  8
2
 62
134
  6
CONTINUOUS
 10
265.391756
 20
158.728456
 11
230.391756
 21
158.728456
  0
LINE
  8
2
 62
134
  6
CONTINUOUS
 10
230.391756
 20
162.228456
 11
265.391756
 21
162.228456
  0
LINE
  8
2
 62
134
  6
CONTINUOUS
 10
265.391756
 20
165.728456
 11
230.391756
 21
165.728456
  0
LINE
  8
2
 62
134
  6
CONTINUOUS
 10
230.391756
 20
172.728456
 11
265.391756
 21
172.728456
  0
LINE
  8
2
 62
134
  6
CONTINUOUS
 10
230.391756
 20
169.228456
 11
265.391756
 21
169.228456
  0
LINE
  8
2
 62
134
  6
CONTINUOUS
 10
265.391756
 20
144.728456
 11
230.391756
 21
144.728456
  0
LINE
  8
2
 62
134
  6
CONTINUOUS
 10
265.391756
 20
176.860207
 11
265.391756
 21
144.728456
  0
LINE
  8
2
 62
134
  6
CONTINUOUS
 10
230.391756
 20
176.860207
 11
230.391756
 21
144.728456
  0
TEXT
  8
2
 62
134
  6
CONTINUOUS
 10
232.093065
 20
144.719505
 40
3.000000
 41
0.500000
  1
8
  7
KANJI
 50
0.000000
 51
0.000000
  0
TEXT
  8
2
 62
134
  6
CONTINUOUS
 10
232.093065
 20
148.219505
 40
3.000000
 41
0.500000
  1
7
  7
KANJI
 50
0.000000
 51
0.000000
  0
TEXT
  8
2
 62
134
  6
CONTINUOUS
 10
232.093065
 20
155.219505
 40
3.000000
 41
0.500000
  1
5
  7
KANJI
 50
0.000000
 51
0.000000
  0
TEXT
  8
2
 62
134
  6
CONTINUOUS
 10
232.093065
 20
151.719505
 40
3.000000
 41
0.500000
  1
6
  7
KANJI
 50
0.000000
 51
0.000000
  0
TEXT
  8
2
 62
134
  6
CONTINUOUS
 10
243.542840
 20
173.187999
 40
3.000000
 41
1.000000
  1
信号名
  7
KANJI
 50
0.000000
 51
0.000000
  0
TEXT
  8
2
 62
134
  6
CONTINUOUS
 10
231.546216
 20
173.351256
 40
3.000000
 41
0.500000
  1
No
  7
KANJI
 50
0.000000
 51
0.000000
  0
TEXT
  8
2
 62
134
  6
CONTINUOUS
 10
232.093065
 20
158.719505
 40
3.000000
 41
0.500000
  1
4
  7
KANJI
 50
0.000000
 51
0.000000
  0
TEXT
  8
2
 62
134
  6
CONTINUOUS
 10
232.093065
 20
162.219505
 40
3.000000
 41
0.500000
  1
3
  7
KANJI
 50
0.000000
 51
0.000000
  0
TEXT
  8
2
 62
134
  6
CONTINUOUS
 10
232.093065
 20
165.719505
 40
3.000000
 41
0.500000
  1
2
  7
KANJI
 50
0.000000
 51
0.000000
  0
TEXT
  8
2
 62
134
  6
CONTINUOUS
 10
232.093065
 20
169.219505
 40
3.000000
 41
0.500000
  1
1
  7
KANJI
 50
0.000000
 51
0.000000
  0
TEXT
  8
2
 62
134
  6
CONTINUOUS
 10
237.093065
 20
162.219505
 40
3.000000
 41
0.500000
  1
DC-GND
  7
KANJI
 50
0.000000
 51
0.000000
  0
LINE
  8
1
 62
7
  6
CONTINUOUS
 10
202.470276
 20
159.100000
 11
199.234068
 21
159.100000
  0
LINE
  8
1
 62
7
  6
CONTINUOUS
 10
202.470276
 20
157.900000
 11
199.258560
 21
157.900000
  0
LINE
  8
1
 62
7
  6
CONTINUOUS
 10
202.470276
 20
159.900000
 11
199.258560
 21
159.900000
  0
LINE
  8
1
 62
7
  6
CONTINUOUS
 10
202.470276
 20
161.900000
 11
199.258560
 21
161.900000
  0
LINE
  8
1
 62
7
  6
CONTINUOUS
 10
199.258560
 20
157.900000
 11
191.004106
 21
156.300000
  0
LINE
  8
1
 62
7
  6
CONTINUOUS
 10
199.258560
 20
159.100000
 11
191.004106
 21
157.500000
  0
LINE
  8
1
 62
7
  6
CONTINUOUS
 10
199.258560
 20
161.900000
 11
191.004106
 21
157.500000
  0
LINE
  8
1
 62
7
  6
CONTINUOUS
 10
202.470276
 20
163.100000
 11
199.258560
 21
163.100000
  0
LINE
  8
1
 62
7
  6
CONTINUOUS
 10
199.258560
 20
163.100000
 11
191.004106
 21
158.700000
  0
LINE
  8
1
 62
7
  6
CONTINUOUS
 10
202.470276
 20
161.100000
 11
199.258560
 21
161.100000
  0
LINE
  8
1
 62
7
  6
CONTINUOUS
 10
199.258560
 20
159.900000
 11
194.541729
 21
158.185714
  0
LINE
  8
1
 62
7
  6
CONTINUOUS
 10
199.258560
 20
161.100000
 11
194.541729
 21
159.385714
  0
TEXT
  8
2
 62
134
  6
CONTINUOUS
 10
221.762377
 20
162.867249
 40
4.000000
 41
0.500000
  1
1
  7
KANJI
 50
0.000000
 51
0.000000
  0
TEXT
  8
2
 62
134
  6
CONTINUOUS
 10
221.813385
 20
148.465111
 40
4.000000
 41
0.500000
  1
8
  7
KANJI
 50
0.000000
 51
0.000000
  0
TEXT
  8
2
 62
134
  6
CONTINUOUS
 10
237.093065
 20
169.219505
 40
3.000000
 41
0.500000
  1
N.C
  7
KANJI
 50
0.000000
 51
0.000000
  0
TEXT
  8
2
 62
134
  6
CONTINUOUS
 10
237.093065
 20
155.219505
 40
3.000000
 41
0.500000
  1
N.C
  7
KANJI
 50
0.000000
 51
0.000000
  0
TEXT
  8
2
 62
134
  6
CONTINUOUS
 10
237.093065
 20
151.719505
 40
3.000000
 41
0.500000
  1
N.C
  7
KANJI
 50
0.000000
 51
0.000000
  0
TEXT
  8
2
 62
134
  6
CONTINUOUS
 10
237.093065
 20
148.219505
 40
3.000000
 41
0.500000
  1
N.C
  7
KANJI
 50
0.000000
 51
0.000000
  0
TEXT
  8
2
 62
134
  6
CONTINUOUS
 10
237.093065
 20
144.719505
 40
3.000000
 41
0.500000
  1
N.C
  7
KANJI
 50
0.000000
 51
0.000000
  0
TEXT
  8
2
 62
134
  6
CONTINUOUS
 10
237.093065
 20
165.719505
 40
3.000000
 41
0.500000
  1
RS232C(PWCX) RXD
  7
KANJI
 50
0.000000
 51
0.000000
  0
TEXT
  8
2
 62
134
  6
CONTINUOUS
 10
237.093065
 20
158.719505
 40
3.000000
 41
0.500000
  1
RS232C(PWCX) TXD
  7
KANJI
 50
0.000000
 51
0.000000
  0
TEXT
  8
2
 62
134
  6
CONTINUOUS
 10
211.547304
 20
177.964772
 40
4.000000
 41
0.500000
  1
e-CON
  7
KANJI
 50
0.000000
 51
0.000000
  0
TEXT
  8
2
 62
134
  6
CONTINUOUS
 10
211.547304
 20
173.556013
 40
4.000000
 41
0.500000
  1
(ﾌﾟﾗｸﾞ)
  7
KANJI
 50
0.000000
 51
0.000000
  0
LINE
  8
1
 62
7
  6
CONTINUOUS
 10
66.041281
 20
308.195281
 11
62.089464
 21
296.339830
  0
LINE
  8
1
 62
7
  6
CONTINUOUS
 10
68.158326
 20
308.195281
 11
64.206509
 21
296.339830
  0
LINE
  8
1
 62
7
  6
CONTINUOUS
 10
119.778997
 20
292.161511
 11
116.362166
 21
292.161511
  0
ARC
  8
1
 62
7
  6
CONTINUOUS
 10
116.362166
 20
292.661511
 40
0.500000
 50
180.000000
 51
-90.000000
  0
LINE
  8
1
 62
7
  6
DASHDOT
 10
114.556428
 20
309.111511
 11
134.711157
 21
309.111511
  0
LINE
  8
1
 62
7
  6
DASHDOT
 10
114.612170
 20
295.111511
 11
134.753665
 21
295.111511
  0
LINE
  8
1
 62
7
  6
DASHDOT
 10
114.556428
 20
307.111511
 11
134.711157
 21
307.111511
  0
LINE
  8
1
 62
7
  6
DASHDOT
 10
114.556428
 20
305.111511
 11
134.711157
 21
305.111511
  0
LINE
  8
1
 62
7
  6
DASHDOT
 10
114.556428
 20
303.111511
 11
134.711157
 21
303.111511
  0
LINE
  8
1
 62
7
  6
DASHDOT
 10
114.556428
 20
301.111511
 11
134.711157
 21
301.111511
  0
LINE
  8
1
 62
7
  6
DASHDOT
 10
114.556428
 20
299.111511
 11
134.711157
 21
299.111511
  0
LINE
  8
1
 62
7
  6
DASHDOT
 10
114.556428
 20
297.111511
 11
134.711157
 21
297.111511
  0
LINE
  8
1
 62
7
  6
CONTINUOUS
 10
105.863648
 20
302.111511
 11
104.395995
 21
302.111511
  0
LINE
  8
1
 62
7
  6
DASHDOT
 10
66.130403
 20
302.111511
 11
137.708581
 21
302.111511
  0
LINE
  8
1
 62
7
  6
DASHDOT
 10
150.420017
 20
321.342357
 11
150.420017
 21
288.315096
  0
LINE
  8
1
 62
7
  6
CONTINUOUS
 10
147.420017
 20
292.161511
 11
153.420017
 21
292.161511
  0
LINE
  8
1
 62
7
  6
DASHDOT
 10
144.772071
 20
302.111511
 11
155.766652
 21
302.111511
  0
LINE
  8
1
 62
7
  6
CONTINUOUS
 10
152.120017
 20
310.711511
 11
152.120017
 21
293.511511
  0
LINE
  8
1
 62
7
  6
CONTINUOUS
 10
152.120017
 20
293.511511
 11
148.720017
 21
293.511511
  0
LINE
  8
1
 62
7
  6
CONTINUOUS
 10
148.720017
 20
293.511511
 11
148.720017
 21
310.711511
  0
LINE
  8
1
 62
7
  6
CONTINUOUS
 10
148.720017
 20
310.711511
 11
152.120017
 21
310.711511
  0
DIMENSION
  8
2
 62
134
  6
CONTINUOUS
  2
*D2
 10
153.420017
 20
284.612651
 11
150.420017
 21
284.612651
 70
     0
  1
6
 13
153.420017
 23
291.161511
 14
147.420017
 24
291.161511
 50
180.000000
  0
LINE
  8
1
 62
7
  6
CONTINUOUS
 10
67.347069
 20
305.611511
 11
104.395995
 21
305.611511
  0
LINE
  8
1
 62
7
  6
CONTINUOUS
 10
104.395995
 20
298.611511
 11
64.913736
 21
298.611511
  0
LINE
  8
1
 62
7
  6
CONTINUOUS
 10
104.395995
 20
305.611511
 11
104.395995
 21
298.611511
  0
DIMENSION
  8
2
 62
134
  6
CONTINUOUS
  2
*D3
 10
86.109133
 20
298.611511
 11
86.109133
 21
311.823539
 70
     0
  1
φ7
 13
86.109133
 23
298.611511
 14
86.109133
 24
305.611511
 50
90.000000
  0
LINE
  8
1
 62
7
  6
CONTINUOUS
 10
115.862166
 20
309.711511
 11
112.625957
 21
309.711511
  0
LINE
  8
1
 62
7
  6
CONTINUOUS
 10
115.862166
 20
308.511511
 11
112.650449
 21
308.511511
  0
LINE
  8
1
 62
7
  6
CONTINUOUS
 10
105.863648
 20
304.911511
 11
104.395995
 21
304.911511
  0
LINE
  8
1
 62
7
  6
CONTINUOUS
 10
105.863648
 20
303.711511
 11
104.395995
 21
303.711511
  0
LINE
  8
1
 62
7
  6
CONTINUOUS
 10
105.863648
 20
304.911511
 11
112.625957
 21
309.711511
  0
LINE
  8
1
 62
7
  6
CONTINUOUS
 10
105.863648
 20
303.711511
 11
112.650449
 21
308.511511
  0
LINE
  8
1
 62
7
  6
CONTINUOUS
 10
115.862166
 20
294.511511
 11
112.625957
 21
294.511511
  0
LINE
  8
1
 62
7
  6
CONTINUOUS
 10
115.862166
 20
295.711511
 11
112.650449
 21
295.711511
  0
LINE
  8
1
 62
7
  6
CONTINUOUS
 10
105.863648
 20
299.311511
 11
104.395995
 21
299.311511
  0
LINE
  8
1
 62
7
  6
CONTINUOUS
 10
105.863648
 20
300.511511
 11
104.395995
 21
300.511511
  0
LINE
  8
1
 62
7
  6
CONTINUOUS
 10
105.863648
 20
299.311511
 11
112.625957
 21
294.511511
  0
LINE
  8
1
 62
7
  6
CONTINUOUS
 10
105.863648
 20
300.511511
 11
112.650449
 21
295.711511
  0
LINE
  8
1
 62
7
  6
CONTINUOUS
 10
115.862166
 20
303.711511
 11
112.625957
 21
303.711511
  0
LINE
  8
1
 62
7
  6
CONTINUOUS
 10
115.862166
 20
302.511511
 11
112.650449
 21
302.511511
  0
LINE
  8
1
 62
7
  6
CONTINUOUS
 10
105.863648
 20
303.311511
 11
104.395995
 21
303.311511
  0
LINE
  8
1
 62
7
  6
CONTINUOUS
 10
105.863648
 20
303.311511
 11
112.625957
 21
303.711511
  0
LINE
  8
1
 62
7
  6
CONTINUOUS
 10
105.863648
 20
302.111511
 11
112.650449
 21
302.511511
  0
LINE
  8
1
 62
7
  6
CONTINUOUS
 10
115.862166
 20
305.711511
 11
112.625957
 21
305.711511
  0
LINE
  8
1
 62
7
  6
CONTINUOUS
 10
115.862166
 20
304.511511
 11
112.650449
 21
304.511511
  0
LINE
  8
1
 62
7
  6
CONTINUOUS
 10
115.862166
 20
307.711511
 11
112.625957
 21
307.711511
  0
LINE
  8
1
 62
7
  6
CONTINUOUS
 10
115.862166
 20
306.511511
 11
112.650449
 21
306.511511
  0
LINE
  8
1
 62
7
  6
CONTINUOUS
 10
108.912028
 20
305.844197
 11
112.625957
 21
307.711511
  0
LINE
  8
1
 62
7
  6
CONTINUOUS
 10
106.316320
 20
303.338288
 11
112.650449
 21
306.511511
  0
LINE
  8
1
 62
7
  6
CONTINUOUS
 10
109.225525
 20
304.756095
 11
112.625957
 21
305.711511
  0
LINE
  8
1
 62
7
  6
CONTINUOUS
 10
109.176663
 20
303.539007
 11
112.650449
 21
304.511511
  0
LINE
  8
1
 62
7
  6
CONTINUOUS
 10
115.862166
 20
300.511511
 11
112.625957
 21
300.511511
  0
LINE
  8
1
 62
7
  6
CONTINUOUS
 10
115.862166
 20
301.711511
 11
112.650449
 21
301.711511
  0
LINE
  8
1
 62
7
  6
CONTINUOUS
 10
105.863648
 20
300.911511
 11
104.395995
 21
300.911511
  0
LINE
  8
1
 62
7
  6
CONTINUOUS
 10
105.863648
 20
300.911511
 11
112.625957
 21
300.511511
  0
LINE
  8
1
 62
7
  6
CONTINUOUS
 10
105.863648
 20
302.111511
 11
112.650449
 21
301.711511
  0
LINE
  8
1
 62
7
  6
CONTINUOUS
 10
115.862166
 20
298.511511
 11
112.625957
 21
298.511511
  0
LINE
  8
1
 62
7
  6
CONTINUOUS
 10
115.862166
 20
299.711511
 11
112.650449
 21
299.711511
  0
LINE
  8
1
 62
7
  6
CONTINUOUS
 10
115.862166
 20
296.511511
 11
112.625957
 21
296.511511
  0
LINE
  8
1
 62
7
  6
CONTINUOUS
 10
115.862166
 20
297.711511
 11
112.650449
 21
297.711511
  0
LINE
  8
1
 62
7
  6
CONTINUOUS
 10
108.912028
 20
298.378826
 11
112.625957
 21
296.511511
  0
LINE
  8
1
 62
7
  6
CONTINUOUS
 10
106.316320
 20
300.884735
 11
112.650449
 21
297.711511
  0
LINE
  8
1
 62
7
  6
CONTINUOUS
 10
109.225525
 20
299.466928
 11
112.625957
 21
298.511511
  0
LINE
  8
1
 62
7
  6
CONTINUOUS
 10
109.176663
 20
300.684016
 11
112.650449
 21
299.711511
  0
LINE
  8
1
 62
7
  6
CONTINUOUS
 10
118.362166
 20
293.961511
 11
119.862166
 21
293.961511
  0
LINE
  8
1
 62
7
  6
CONTINUOUS
 10
118.362166
 20
309.961511
 11
118.362166
 21
293.961511
  0
LINE
  8
1
 62
7
  6
CONTINUOUS
 10
119.862166
 20
309.961511
 11
118.362166
 21
309.961511
  0
LINE
  8
1
 62
7
  6
CONTINUOUS
 10
119.862166
 20
309.961511
 11
119.862166
 21
293.961511
  0
LINE
  8
1
 62
7
  6
CONTINUOUS
 10
119.778997
 20
292.161511
 11
119.778997
 21
292.361511
  0
LINE
  8
1
 62
7
  6
CONTINUOUS
 10
119.778997
 20
292.361511
 11
133.362166
 21
292.361511
  0
ARC
  8
1
 62
7
  6
CONTINUOUS
 10
133.362166
 20
292.861511
 40
0.500000
 50
-90.000000
 51
0.000000
  0
LINE
  8
1
 62
7
  6
CONTINUOUS
 10
123.062166
 20
312.661511
 11
133.862166
 21
312.661511
  0
ARC
  8
1
 62
7
  6
CONTINUOUS
 10
122.562166
 20
314.361511
 40
0.500000
 50
0.000000
 51
90.000000
  0
LINE
  8
1
 62
7
  6
CONTINUOUS
 10
123.062166
 20
314.361511
 11
123.062166
 21
312.661511
  0
ARC
  8
1
 62
7
  6
CONTINUOUS
 10
133.362166
 20
313.548473
 40
0.500000
 50
0.000000
 51
90.000000
  0
LINE
  8
1
 62
7
  6
CONTINUOUS
 10
133.862166
 20
313.548473
 11
133.862166
 21
292.861511
  0
LINE
  8
1
 62
7
  6
CONTINUOUS
 10
133.362166
 20
314.048473
 11
123.062166
 21
314.161511
  0
LINE
  8
1
 62
7
  6
CONTINUOUS
 10
119.475594
 20
313.761511
 11
120.575594
 21
314.861511
  0
LINE
  8
1
 62
7
  6
CONTINUOUS
 10
115.862166
 20
313.761511
 11
115.862166
 21
292.661511
  0
LINE
  8
1
 62
7
  6
CONTINUOUS
 10
115.862166
 20
313.761511
 11
115.863350
 21
313.767728
  0
LINE
  8
1
 62
7
  6
CONTINUOUS
 10
115.863350
 20
313.767728
 11
115.866870
 21
313.786207
  0
LINE
  8
1
 62
7
  6
CONTINUOUS
 10
115.866870
 20
313.786207
 11
115.872636
 21
313.816443
  0
LINE
  8
1
 62
7
  6
CONTINUOUS
 10
115.872636
 20
313.816443
 11
115.880508
 21
313.857605
  0
LINE
  8
1
 62
7
  6
CONTINUOUS
 10
115.880508
 20
313.857605
 11
115.890313
 21
313.908553
  0
LINE
  8
1
 62
7
  6
CONTINUOUS
 10
115.890313
 20
313.908553
 11
115.901857
 21
313.967871
  0
LINE
  8
1
 62
7
  6
CONTINUOUS
 10
115.901857
 20
313.967871
 11
115.914933
 21
314.033899
  0
LINE
  8
1
 62
7
  6
CONTINUOUS
 10
115.914933
 20
314.033899
 11
115.929323
 21
314.104785
  0
LINE
  8
1
 62
7
  6
CONTINUOUS
 10
115.929323
 20
314.104785
 11
115.944783
 21
314.178539
  0
LINE
  8
1
 62
7
  6
CONTINUOUS
 10
115.944783
 20
314.178539
 11
115.961030
 21
314.253095
  0
LINE
  8
1
 62
7
  6
CONTINUOUS
 10
115.961030
 20
314.253095
 11
115.977723
 21
314.326384
  0
LINE
  8
1
 62
7
  6
CONTINUOUS
 10
115.977723
 20
314.326384
 11
115.994444
 21
314.396390
  0
LINE
  8
1
 62
7
  6
CONTINUOUS
 10
115.994444
 20
314.396390
 11
116.010698
 21
314.461219
  0
LINE
  8
1
 62
7
  6
CONTINUOUS
 10
116.010698
 20
314.461219
 11
116.025920
 21
314.519149
  0
LINE
  8
1
 62
7
  6
CONTINUOUS
 10
116.025920
 20
314.519149
 11
116.039507
 21
314.568670
  0
LINE
  8
1
 62
7
  6
CONTINUOUS
 10
116.039507
 20
314.568670
 11
116.050855
 21
314.608520
  0
LINE
  8
1
 62
7
  6
CONTINUOUS
 10
116.050855
 20
314.608520
 11
116.059413
 21
314.637702
  0
LINE
  8
1
 62
7
  6
CONTINUOUS
 10
116.059413
 20
314.637702
 11
116.064740
 21
314.655500
  0
LINE
  8
1
 62
7
  6
CONTINUOUS
 10
116.064740
 20
314.655500
 11
116.066549
 21
314.661480
  0
LINE
  8
1
 62
7
  6
CONTINUOUS
 10
116.066549
 20
314.661480
 11
116.068367
 21
314.667458
  0
LINE
  8
1
 62
7
  6
CONTINUOUS
 10
116.068367
 20
314.667458
 11
116.073820
 21
314.685208
  0
LINE
  8
1
 62
7
  6
CONTINUOUS
 10
116.073820
 20
314.685208
 11
116.082912
 21
314.714193
  0
LINE
  8
1
 62
7
  6
CONTINUOUS
 10
116.082912
 20
314.714193
 11
116.095632
 21
314.753544
  0
LINE
  8
1
 62
7
  6
CONTINUOUS
 10
116.095632
 20
314.753544
 11
116.111946
 21
314.802094
  0
LINE
  8
1
 62
7
  6
CONTINUOUS
 10
116.111946
 20
314.802094
 11
116.131770
 21
314.858431
  0
LINE
  8
1
 62
7
  6
CONTINUOUS
 10
116.131770
 20
314.858431
 11
116.154940
 21
314.920944
  0
LINE
  8
1
 62
7
  6
CONTINUOUS
 10
116.154940
 20
314.920944
 11
116.181182
 21
314.987879
  0
LINE
  8
1
 62
7
  6
CONTINUOUS
 10
116.181182
 20
314.987879
 11
116.210079
 21
315.057392
  0
LINE
  8
1
 62
7
  6
CONTINUOUS
 10
116.210079
 20
315.057392
 11
116.241042
 21
315.127598
  0
LINE
  8
1
 62
7
  6
CONTINUOUS
 10
116.241042
 20
315.127598
 11
116.273301
 21
315.196618
  0
LINE
  8
1
 62
7
  6
CONTINUOUS
 10
116.273301
 20
315.196618
 11
116.305904
 21
315.262621
  0
LINE
  8
1
 62
7
  6
CONTINUOUS
 10
116.305904
 20
315.262621
 11
116.337744
 21
315.323864
  0
LINE
  8
1
 62
7
  6
CONTINUOUS
 10
116.337744
 20
315.323864
 11
116.367607
 21
315.378731
  0
LINE
  8
1
 62
7
  6
CONTINUOUS
 10
116.367607
 20
315.378731
 11
116.394243
 21
315.425769
  0
LINE
  8
1
 62
7
  6
CONTINUOUS
 10
116.394243
 20
315.425769
 11
116.416447
 21
315.463731
  0
LINE
  8
1
 62
7
  6
CONTINUOUS
 10
116.416447
 20
315.463731
 11
116.433158
 21
315.491600
  0
LINE
  8
1
 62
7
  6
CONTINUOUS
 10
116.433158
 20
315.491600
 11
116.443541
 21
315.508628
  0
LINE
  8
1
 62
7
  6
CONTINUOUS
 10
116.443541
 20
315.508628
 11
116.447063
 21
315.514355
  0
LINE
  8
1
 62
7
  6
CONTINUOUS
 10
116.447063
 20
315.514355
 11
116.450600
 21
315.520083
  0
LINE
  8
1
 62
7
  6
CONTINUOUS
 10
116.450600
 20
315.520083
 11
116.461199
 21
315.537106
  0
LINE
  8
1
 62
7
  6
CONTINUOUS
 10
116.461199
 20
315.537106
 11
116.478810
 21
315.564942
  0
LINE
  8
1
 62
7
  6
CONTINUOUS
 10
116.478810
 20
315.564942
 11
116.503284
 21
315.602770
  0
LINE
  8
1
 62
7
  6
CONTINUOUS
 10
116.503284
 20
315.602770
 11
116.534308
 21
315.649422
  0
LINE
  8
1
 62
7
  6
CONTINUOUS
 10
116.534308
 20
315.649422
 11
116.571326
 21
315.703387
  0
LINE
  8
1
 62
7
  6
CONTINUOUS
 10
116.571326
 20
315.703387
 11
116.613492
 21
315.762845
  0
LINE
  8
1
 62
7
  6
CONTINUOUS
 10
116.613492
 20
315.762845
 11
116.659656
 21
315.825739
  0
LINE
  8
1
 62
7
  6
CONTINUOUS
 10
116.659656
 20
315.825739
 11
116.708401
 21
315.889878
  0
LINE
  8
1
 62
7
  6
CONTINUOUS
 10
116.708401
 20
315.889878
 11
116.758121
 21
315.953076
  0
LINE
  8
1
 62
7
  6
CONTINUOUS
 10
116.758121
 20
315.953076
 11
116.807131
 21
316.013293
  0
LINE
  8
1
 62
7
  6
CONTINUOUS
 10
116.807131
 20
316.013293
 11
116.853798
 21
316.068766
  0
LINE
  8
1
 62
7
  6
CONTINUOUS
 10
116.853798
 20
316.068766
 11
116.896648
 21
316.118111
  0
LINE
  8
1
 62
7
  6
CONTINUOUS
 10
116.896648
 20
316.118111
 11
116.934459
 21
316.160365
  0
LINE
  8
1
 62
7
  6
CONTINUOUS
 10
116.934459
 20
316.160365
 11
116.966298
 21
316.194977
  0
LINE
  8
1
 62
7
  6
CONTINUOUS
 10
116.966298
 20
316.194977
 11
116.991521
 21
316.221741
  0
LINE
  8
1
 62
7
  6
CONTINUOUS
 10
116.991521
 20
316.221741
 11
117.009733
 21
316.240688
  0
LINE
  8
1
 62
7
  6
CONTINUOUS
 10
117.009733
 20
316.240688
 11
117.020722
 21
316.251962
  0
LINE
  8
1
 62
7
  6
CONTINUOUS
 10
117.020722
 20
316.251962
 11
117.024393
 21
316.255701
  0
LINE
  8
1
 62
7
  6
CONTINUOUS
 10
117.024393
 20
316.255701
 11
117.028052
 21
316.259412
  0
LINE
  8
1
 62
7
  6
CONTINUOUS
 10
117.028052
 20
316.259412
 11
117.038851
 21
316.270288
  0
LINE
  8
1
 62
7
  6
CONTINUOUS
 10
117.038851
 20
316.270288
 11
117.056275
 21
316.287577
  0
LINE
  8
1
 62
7
  6
CONTINUOUS
 10
117.056275
 20
316.287577
 11
117.079510
 21
316.310126
  0
LINE
  8
1
 62
7
  6
CONTINUOUS
 10
117.079510
 20
316.310126
 11
117.107503
 21
316.336509
  0
LINE
  8
1
 62
7
  6
CONTINUOUS
 10
117.107503
 20
316.336509
 11
117.139042
 21
316.365180
  0
LINE
  8
1
 62
7
  6
CONTINUOUS
 10
117.139042
 20
316.365180
 11
117.172835
 21
316.394622
  0
LINE
  8
1
 62
7
  6
CONTINUOUS
 10
117.172835
 20
316.394622
 11
117.207597
 21
316.423481
  0
LINE
  8
1
 62
7
  6
CONTINUOUS
 10
117.207597
 20
316.423481
 11
117.242122
 21
316.450662
  0
LINE
  8
1
 62
7
  6
CONTINUOUS
 10
117.242122
 20
316.450662
 11
117.275346
 21
316.475373
  0
LINE
  8
1
 62
7
  6
CONTINUOUS
 10
117.275346
 20
316.475373
 11
117.306380
 21
316.497135
  0
LINE
  8
1
 62
7
  6
CONTINUOUS
 10
117.306380
 20
316.497135
 11
117.334537
 21
316.515744
  0
LINE
  8
1
 62
7
  6
CONTINUOUS
 10
117.334537
 20
316.515744
 11
117.359328
 21
316.531214
  0
LINE
  8
1
 62
7
  6
CONTINUOUS
 10
117.359328
 20
316.531214
 11
117.380443
 21
316.543707
  0
LINE
  8
1
 62
7
  6
CONTINUOUS
 10
117.380443
 20
316.543707
 11
117.397720
 21
316.553458
  0
LINE
  8
1
 62
7
  6
CONTINUOUS
 10
117.397720
 20
316.553458
 11
117.411107
 21
316.560724
  0
LINE
  8
1
 62
7
  6
CONTINUOUS
 10
117.411107
 20
316.560724
 11
117.420620
 21
316.565735
  0
LINE
  8
1
 62
7
  6
CONTINUOUS
 10
117.420620
 20
316.565735
 11
117.426301
 21
316.568667
  0
LINE
  8
1
 62
7
  6
CONTINUOUS
 10
117.426301
 20
316.568667
 11
117.428190
 21
316.569632
  0
LINE
  8
1
 62
7
  6
CONTINUOUS
 10
117.428190
 20
316.569632
 11
117.430067
 21
316.570586
  0
LINE
  8
1
 62
7
  6
CONTINUOUS
 10
117.430067
 20
316.570586
 11
117.435581
 21
316.573361
  0
LINE
  8
1
 62
7
  6
CONTINUOUS
 10
117.435581
 20
316.573361
 11
117.444392
 21
316.577705
  0
LINE
  8
1
 62
7
  6
CONTINUOUS
 10
117.444392
 20
316.577705
 11
117.455975
 21
316.583239
  0
LINE
  8
1
 62
7
  6
CONTINUOUS
 10
117.455975
 20
316.583239
 11
117.469676
 21
316.589505
  0
LINE
  8
1
 62
7
  6
CONTINUOUS
 10
117.469676
 20
316.589505
 11
117.484774
 21
316.596032
  0
LINE
  8
1
 62
7
  6
CONTINUOUS
 10
117.484774
 20
316.596032
 11
117.500551
 21
316.602387
  0
LINE
  8
1
 62
7
  6
CONTINUOUS
 10
117.500551
 20
316.602387
 11
117.516347
 21
316.608220
  0
LINE
  8
1
 62
7
  6
CONTINUOUS
 10
117.516347
 20
316.608220
 11
117.531600
 21
316.613296
  0
LINE
  8
1
 62
7
  6
CONTINUOUS
 10
117.531600
 20
316.613296
 11
117.545873
 21
316.617498
  0
LINE
  8
1
 62
7
  6
CONTINUOUS
 10
117.545873
 20
316.617498
 11
117.558859
 21
316.620817
  0
LINE
  8
1
 62
7
  6
CONTINUOUS
 10
117.558859
 20
316.620817
 11
117.570365
 21
316.623327
  0
LINE
  8
1
 62
7
  6
CONTINUOUS
 10
117.570365
 20
316.623327
 11
117.580295
 21
316.625152
  0
LINE
  8
1
 62
7
  6
CONTINUOUS
 10
117.580295
 20
316.625152
 11
117.588623
 21
316.626434
  0
LINE
  8
1
 62
7
  6
CONTINUOUS
 10
117.588623
 20
316.626434
 11
117.595364
 21
316.627308
  0
LINE
  8
1
 62
7
  6
CONTINUOUS
 10
117.595364
 20
316.627308
 11
117.600551
 21
316.627886
  0
LINE
  8
1
 62
7
  6
CONTINUOUS
 10
117.600551
 20
316.627886
 11
117.604224
 21
316.628250
  0
LINE
  8
1
 62
7
  6
CONTINUOUS
 10
117.604224
 20
316.628250
 11
117.606414
 21
316.628449
  0
LINE
  8
1
 62
7
  6
CONTINUOUS
 10
117.606414
 20
316.628449
 11
117.607142
 21
316.628513
  0
LINE
  8
1
 62
7
  6
CONTINUOUS
 10
117.607142
 20
316.628513
 11
117.607865
 21
316.628575
  0
LINE
  8
1
 62
7
  6
CONTINUOUS
 10
117.607865
 20
316.628575
 11
117.609990
 21
316.628751
  0
LINE
  8
1
 62
7
  6
CONTINUOUS
 10
117.609990
 20
316.628751
 11
117.613385
 21
316.629009
  0
LINE
  8
1
 62
7
  6
CONTINUOUS
 10
117.613385
 20
316.629009
 11
117.617855
 21
316.629307
  0
LINE
  8
1
 62
7
  6
CONTINUOUS
 10
117.617855
 20
316.629307
 11
117.623167
 21
316.629600
  0
LINE
  8
1
 62
7
  6
CONTINUOUS
 10
117.623167
 20
316.629600
 11
117.629078
 21
316.629851
  0
LINE
  8
1
 62
7
  6
CONTINUOUS
 10
117.629078
 20
316.629851
 11
117.635363
 21
316.630041
  0
LINE
  8
1
 62
7
  6
CONTINUOUS
 10
117.635363
 20
316.630041
 11
117.641830
 21
316.630169
  0
LINE
  8
1
 62
7
  6
CONTINUOUS
 10
117.641830
 20
316.630169
 11
117.648331
 21
316.630256
  0
LINE
  8
1
 62
7
  6
CONTINUOUS
 10
117.648331
 20
316.630256
 11
117.654751
 21
316.630336
  0
LINE
  8
1
 62
7
  6
CONTINUOUS
 10
117.654751
 20
316.630336
 11
117.661001
 21
316.630447
  0
LINE
  8
1
 62
7
  6
CONTINUOUS
 10
117.661001
 20
316.630447
 11
117.666994
 21
316.630620
  0
LINE
  8
1
 62
7
  6
CONTINUOUS
 10
117.666994
 20
316.630620
 11
117.672632
 21
316.630871
  0
LINE
  8
1
 62
7
  6
CONTINUOUS
 10
117.672632
 20
316.630871
 11
117.677795
 21
316.631192
  0
LINE
  8
1
 62
7
  6
CONTINUOUS
 10
117.677795
 20
316.631192
 11
117.682338
 21
316.631558
  0
LINE
  8
1
 62
7
  6
CONTINUOUS
 10
117.682338
 20
316.631558
 11
117.686101
 21
316.631923
  0
LINE
  8
1
 62
7
  6
CONTINUOUS
 10
117.686101
 20
316.631923
 11
117.688928
 21
316.632234
  0
LINE
  8
1
 62
7
  6
CONTINUOUS
 10
117.688928
 20
316.632234
 11
117.690685
 21
316.632444
  0
LINE
  8
1
 62
7
  6
CONTINUOUS
 10
117.690685
 20
316.632444
 11
117.691281
 21
316.632519
  0
LINE
  8
1
 62
7
  6
CONTINUOUS
 10
117.691281
 20
316.632519
 11
117.691880
 21
316.632595
  0
LINE
  8
1
 62
7
  6
CONTINUOUS
 10
117.691880
 20
316.632595
 11
117.693677
 21
316.632830
  0
LINE
  8
1
 62
7
  6
CONTINUOUS
 10
117.693677
 20
316.632830
 11
117.696675
 21
316.633241
  0
LINE
  8
1
 62
7
  6
CONTINUOUS
 10
117.696675
 20
316.633241
 11
117.700880
 21
316.633839
  0
LINE
  8
1
 62
7
  6
CONTINUOUS
 10
117.700880
 20
316.633839
 11
117.706309
 21
316.634603
  0
LINE
  8
1
 62
7
  6
CONTINUOUS
 10
117.706309
 20
316.634603
 11
117.712985
 21
316.635469
  0
LINE
  8
1
 62
7
  6
CONTINUOUS
 10
117.712985
 20
316.635469
 11
117.720928
 21
316.636314
  0
LINE
  8
1
 62
7
  6
CONTINUOUS
 10
117.720928
 20
316.636314
 11
117.730139
 21
316.636965
  0
LINE
  8
1
 62
7
  6
CONTINUOUS
 10
117.730139
 20
316.636965
 11
117.740576
 21
316.637224
  0
LINE
  8
1
 62
7
  6
CONTINUOUS
 10
117.740576
 20
316.637224
 11
117.752123
 21
316.636900
  0
LINE
  8
1
 62
7
  6
CONTINUOUS
 10
117.752123
 20
316.636900
 11
117.764567
 21
316.635851
  0
LINE
  8
1
 62
7
  6
CONTINUOUS
 10
117.764567
 20
316.635851
 11
117.777575
 21
316.634029
  0
LINE
  8
1
 62
7
  6
CONTINUOUS
 10
117.777575
 20
316.634029
 11
117.790692
 21
316.631503
  0
LINE
  8
1
 62
7
  6
CONTINUOUS
 10
117.790692
 20
316.631503
 11
117.803360
 21
316.628464
  0
LINE
  8
1
 62
7
  6
CONTINUOUS
 10
117.803360
 20
316.628464
 11
117.814949
 21
316.625216
  0
LINE
  8
1
 62
7
  6
CONTINUOUS
 10
117.814949
 20
316.625216
 11
117.824815
 21
316.622125
  0
LINE
  8
1
 62
7
  6
CONTINUOUS
 10
117.824815
 20
316.622125
 11
117.832361
 21
316.619574
  0
LINE
  8
1
 62
7
  6
CONTINUOUS
 10
117.832361
 20
316.619574
 11
117.837099
 21
316.617893
  0
LINE
  8
1
 62
7
  6
CONTINUOUS
 10
117.837099
 20
316.617893
 11
117.838716
 21
316.617306
  0
LINE
  8
1
 62
7
  6
CONTINUOUS
 10
117.838716
 20
316.617306
 11
117.840343
 21
316.616708
  0
LINE
  8
1
 62
7
  6
CONTINUOUS
 10
117.840343
 20
316.616708
 11
117.845248
 21
316.614865
  0
LINE
  8
1
 62
7
  6
CONTINUOUS
 10
117.845248
 20
316.614865
 11
117.853493
 21
316.611628
  0
LINE
  8
1
 62
7
  6
CONTINUOUS
 10
117.853493
 20
316.611628
 11
117.865164
 21
316.606752
  0
LINE
  8
1
 62
7
  6
CONTINUOUS
 10
117.865164
 20
316.606752
 11
117.880343
 21
316.599901
  0
LINE
  8
1
 62
7
  6
CONTINUOUS
 10
117.880343
 20
316.599901
 11
117.899076
 21
316.590680
  0
LINE
  8
1
 62
7
  6
CONTINUOUS
 10
117.899076
 20
316.590680
 11
117.921327
 21
316.578675
  0
LINE
  8
1
 62
7
  6
CONTINUOUS
 10
117.921327
 20
316.578675
 11
117.946932
 21
316.563526
  0
LINE
  8
1
 62
7
  6
CONTINUOUS
 10
117.946932
 20
316.563526
 11
117.975556
 21
316.545011
  0
LINE
  8
1
 62
7
  6
CONTINUOUS
 10
117.975556
 20
316.545011
 11
118.006656
 21
316.523144
  0
LINE
  8
1
 62
7
  6
CONTINUOUS
 10
118.006656
 20
316.523144
 11
118.039460
 21
316.498256
  0
LINE
  8
1
 62
7
  6
CONTINUOUS
 10
118.039460
 20
316.498256
 11
118.072972
 21
316.471051
  0
LINE
  8
1
 62
7
  6
CONTINUOUS
 10
118.072972
 20
316.471051
 11
118.106001
 21
316.442613
  0
LINE
  8
1
 62
7
  6
CONTINUOUS
 10
118.106001
 20
316.442613
 11
118.137215
 21
316.414364
  0
LINE
  8
1
 62
7
  6
CONTINUOUS
 10
118.137215
 20
316.414364
 11
118.165224
 21
316.387952
  0
LINE
  8
1
 62
7
  6
CONTINUOUS
 10
118.165224
 20
316.387952
 11
118.188685
 21
316.365100
  0
LINE
  8
1
 62
7
  6
CONTINUOUS
 10
118.188685
 20
316.365100
 11
118.206402
 21
316.347422
  0
LINE
  8
1
 62
7
  6
CONTINUOUS
 10
118.206402
 20
316.347422
 11
118.217434
 21
316.336236
  0
LINE
  8
1
 62
7
  6
CONTINUOUS
 10
118.217434
 20
316.336236
 11
118.221181
 21
316.332408
  0
LINE
  8
1
 62
7
  6
CONTINUOUS
 10
118.221181
 20
316.332408
 11
118.224945
 21
316.328546
  0
LINE
  8
1
 62
7
  6
CONTINUOUS
 10
118.224945
 20
316.328546
 11
118.236239
 21
316.316868
  0
LINE
  8
1
 62
7
  6
CONTINUOUS
 10
118.236239
 20
316.316868
 11
118.255038
 21
316.297129
  0
LINE
  8
1
 62
7
  6
CONTINUOUS
 10
118.255038
 20
316.297129
 11
118.281229
 21
316.269011
  0
LINE
  8
1
 62
7
  6
CONTINUOUS
 10
118.281229
 20
316.269011
 11
118.314516
 21
316.232242
  0
LINE
  8
1
 62
7
  6
CONTINUOUS
 10
118.314516
 20
316.232242
 11
118.354328
 21
316.186740
  0
LINE
  8
1
 62
7
  6
CONTINUOUS
 10
118.354328
 20
316.186740
 11
118.399761
 21
316.132744
  0
LINE
  8
1
 62
7
  6
CONTINUOUS
 10
118.399761
 20
316.132744
 11
118.449554
 21
316.070927
  0
LINE
  8
1
 62
7
  6
CONTINUOUS
 10
118.449554
 20
316.070927
 11
118.502135
 21
316.002463
  0
LINE
  8
1
 62
7
  6
CONTINUOUS
 10
118.502135
 20
316.002463
 11
118.555717
 21
315.929036
  0
LINE
  8
1
 62
7
  6
CONTINUOUS
 10
118.555717
 20
315.929036
 11
118.608427
 21
315.852802
  0
LINE
  8
1
 62
7
  6
CONTINUOUS
 10
118.608427
 20
315.852802
 11
118.658463
 21
315.776287
  0
LINE
  8
1
 62
7
  6
CONTINUOUS
 10
118.658463
 20
315.776287
 11
118.704228
 21
315.702257
  0
LINE
  8
1
 62
7
  6
CONTINUOUS
 10
118.704228
 20
315.702257
 11
118.744424
 21
315.633557
  0
LINE
  8
1
 62
7
  6
CONTINUOUS
 10
118.744424
 20
315.633557
 11
118.778106
 21
315.572940
  0
LINE
  8
1
 62
7
  6
CONTINUOUS
 10
118.778106
 20
315.572940
 11
118.804660
 21
315.522907
  0
LINE
  8
1
 62
7
  6
CONTINUOUS
 10
118.804660
 20
315.522907
 11
118.823750
 21
315.485562
  0
LINE
  8
1
 62
7
  6
CONTINUOUS
 10
118.823750
 20
315.485562
 11
118.835233
 21
315.462495
  0
LINE
  8
1
 62
7
  6
CONTINUOUS
 10
118.835233
 20
315.462495
 11
118.839062
 21
315.454694
  0
LINE
  8
1
 62
7
  6
CONTINUOUS
 10
118.839062
 20
315.454694
 11
118.842875
 21
315.446873
  0
LINE
  8
1
 62
7
  6
CONTINUOUS
 10
118.842875
 20
315.446873
 11
118.854110
 21
315.423501
  0
LINE
  8
1
 62
7
  6
CONTINUOUS
 10
118.854110
 20
315.423501
 11
118.872182
 21
315.384878
  0
LINE
  8
1
 62
7
  6
CONTINUOUS
 10
118.872182
 20
315.384878
 11
118.896185
 21
315.331554
  0
LINE
  8
1
 62
7
  6
CONTINUOUS
 10
118.896185
 20
315.331554
 11
118.924989
 21
315.264407
  0
LINE
  8
1
 62
7
  6
CONTINUOUS
 10
118.924989
 20
315.264407
 11
118.957349
 21
315.184709
  0
LINE
  8
1
 62
7
  6
CONTINUOUS
 10
118.957349
 20
315.184709
 11
118.992008
 21
315.094179
  0
LINE
  8
1
 62
7
  6
CONTINUOUS
 10
118.992008
 20
315.094179
 11
119.027781
 21
314.994995
  0
LINE
  8
1
 62
7
  6
CONTINUOUS
 10
119.027781
 20
314.994995
 11
119.063615
 21
314.889769
  0
LINE
  8
1
 62
7
  6
CONTINUOUS
 10
119.063615
 20
314.889769
 11
119.098610
 21
314.781464
  0
LINE
  8
1
 62
7
  6
CONTINUOUS
 10
119.098610
 20
314.781464
 11
119.132009
 21
314.673277
  0
LINE
  8
1
 62
7
  6
CONTINUOUS
 10
119.132009
 20
314.673277
 11
119.163176
 21
314.568491
  0
LINE
  8
1
 62
7
  6
CONTINUOUS
 10
119.163176
 20
314.568491
 11
119.191557
 21
314.470326
  0
LINE
  8
1
 62
7
  6
CONTINUOUS
 10
119.191557
 20
314.470326
 11
119.216647
 21
314.381788
  0
LINE
  8
1
 62
7
  6
CONTINUOUS
 10
119.216647
 20
314.381788
 11
119.237978
 21
314.305553
  0
LINE
  8
1
 62
7
  6
CONTINUOUS
 10
119.237978
 20
314.305553
 11
119.255114
 21
314.243878
  0
LINE
  8
1
 62
7
  6
CONTINUOUS
 10
119.255114
 20
314.243878
 11
119.267669
 21
314.198545
  0
LINE
  8
1
 62
7
  6
CONTINUOUS
 10
119.267669
 20
314.198545
 11
119.275335
 21
314.170834
  0
LINE
  8
1
 62
7
  6
CONTINUOUS
 10
119.275335
 20
314.170834
 11
119.277913
 21
314.161511
  0
LINE
  8
1
 62
7
  6
CONTINUOUS
 10
119.475594
 20
313.761511
 11
115.862166
 21
313.761511
  0
LINE
  8
1
 62
7
  6
CONTINUOUS
 10
120.575594
 20
314.861511
 11
122.562166
 21
314.861511
  0
LINE
  8
1
 62
7
  6
CONTINUOUS
 10
119.875594
 20
314.161511
 11
119.277913
 21
314.161511
  0
LINE
  8
1
 62
7
  6
CONTINUOUS
 10
124.862166
 20
292.361511
 11
124.862166
 21
293.361511
  0
LINE
  8
1
 62
7
  6
CONTINUOUS
 10
124.862166
 20
293.361511
 11
128.362166
 21
293.361511
  0
LINE
  8
1
 62
7
  6
CONTINUOUS
 10
124.862166
 20
310.861511
 11
124.862166
 21
312.661511
  0
LINE
  8
1
 62
7
  6
CONTINUOUS
 10
124.862166
 20
310.861511
 11
128.362166
 21
310.861511
  0
LINE
  8
1
 62
7
  6
CONTINUOUS
 10
128.362166
 20
293.361511
 11
128.362166
 21
310.861511
  0
LINE
  8
1
 62
7
  6
CONTINUOUS
 10
147.420017
 20
312.661511
 11
148.720017
 21
312.661511
  0
LINE
  8
1
 62
7
  6
CONTINUOUS
 10
153.420017
 20
312.661511
 11
152.120017
 21
312.661511
  0
LINE
  8
1
 62
7
  6
CONTINUOUS
 10
148.720017
 20
314.861511
 11
147.420017
 21
314.861511
  0
LINE
  8
1
 62
7
  6
CONTINUOUS
 10
152.120017
 20
314.861511
 11
153.420017
 21
314.861511
  0
LINE
  8
1
 62
7
  6
CONTINUOUS
 10
147.420017
 20
314.861511
 11
147.420017
 21
292.161511
  0
LINE
  8
1
 62
7
  6
CONTINUOUS
 10
153.420017
 20
292.161511
 11
153.420017
 21
314.861511
  0
LINE
  8
1
 62
7
  6
CONTINUOUS
 10
150.220017
 20
309.481511
 11
150.220017
 21
308.741511
  0
LINE
  8
1
 62
7
  6
CONTINUOUS
 10
150.220017
 20
308.741511
 11
150.620017
 21
308.741511
  0
LINE
  8
1
 62
7
  6
CONTINUOUS
 10
150.620017
 20
308.741511
 11
150.620017
 21
309.481511
  0
LINE
  8
1
 62
7
  6
CONTINUOUS
 10
150.620017
 20
309.481511
 11
150.220017
 21
309.481511
  0
LINE
  8
1
 62
7
  6
DASHDOT
 10
149.322757
 20
309.111511
 11
151.512387
 21
309.111511
  0
LINE
  8
1
 62
7
  6
CONTINUOUS
 10
150.220017
 20
307.481511
 11
150.220017
 21
306.741511
  0
LINE
  8
1
 62
7
  6
CONTINUOUS
 10
150.220017
 20
306.741511
 11
150.620017
 21
306.741511
  0
LINE
  8
1
 62
7
  6
CONTINUOUS
 10
150.620017
 20
306.741511
 11
150.620017
 21
307.481511
  0
LINE
  8
1
 62
7
  6
CONTINUOUS
 10
150.620017
 20
307.481511
 11
150.220017
 21
307.481511
  0
LINE
  8
1
 62
7
  6
DASHDOT
 10
149.322757
 20
307.111511
 11
151.512387
 21
307.111511
  0
LINE
  8
1
 62
7
  6
CONTINUOUS
 10
150.220017
 20
305.481511
 11
150.220017
 21
304.741511
  0
LINE
  8
1
 62
7
  6
CONTINUOUS
 10
150.220017
 20
304.741511
 11
150.620017
 21
304.741511
  0
LINE
  8
1
 62
7
  6
CONTINUOUS
 10
150.620017
 20
304.741511
 11
150.620017
 21
305.481511
  0
LINE
  8
1
 62
7
  6
CONTINUOUS
 10
150.620017
 20
305.481511
 11
150.220017
 21
305.481511
  0
LINE
  8
1
 62
7
  6
DASHDOT
 10
149.322757
 20
305.111511
 11
151.512387
 21
305.111511
  0
LINE
  8
1
 62
7
  6
CONTINUOUS
 10
150.220017
 20
303.481511
 11
150.220017
 21
302.741511
  0
LINE
  8
1
 62
7
  6
CONTINUOUS
 10
150.220017
 20
302.741511
 11
150.620017
 21
302.741511
  0
LINE
  8
1
 62
7
  6
CONTINUOUS
 10
150.620017
 20
302.741511
 11
150.620017
 21
303.481511
  0
LINE
  8
1
 62
7
  6
CONTINUOUS
 10
150.620017
 20
303.481511
 11
150.220017
 21
303.481511
  0
LINE
  8
1
 62
7
  6
DASHDOT
 10
149.322757
 20
303.111511
 11
151.512387
 21
303.111511
  0
LINE
  8
1
 62
7
  6
CONTINUOUS
 10
150.220017
 20
301.481511
 11
150.220017
 21
300.741511
  0
LINE
  8
1
 62
7
  6
CONTINUOUS
 10
150.220017
 20
300.741511
 11
150.620017
 21
300.741511
  0
LINE
  8
1
 62
7
  6
CONTINUOUS
 10
150.620017
 20
300.741511
 11
150.620017
 21
301.481511
  0
LINE
  8
1
 62
7
  6
CONTINUOUS
 10
150.620017
 20
301.481511
 11
150.220017
 21
301.481511
  0
LINE
  8
1
 62
7
  6
DASHDOT
 10
149.322757
 20
301.111511
 11
151.512387
 21
301.111511
  0
LINE
  8
1
 62
7
  6
CONTINUOUS
 10
150.220017
 20
299.481511
 11
150.220017
 21
298.741511
  0
LINE
  8
1
 62
7
  6
CONTINUOUS
 10
150.220017
 20
298.741511
 11
150.620017
 21
298.741511
  0
LINE
  8
1
 62
7
  6
CONTINUOUS
 10
150.620017
 20
298.741511
 11
150.620017
 21
299.481511
  0
LINE
  8
1
 62
7
  6
CONTINUOUS
 10
150.620017
 20
299.481511
 11
150.220017
 21
299.481511
  0
LINE
  8
1
 62
7
  6
DASHDOT
 10
149.322757
 20
299.111511
 11
151.512387
 21
299.111511
  0
LINE
  8
1
 62
7
  6
CONTINUOUS
 10
150.220017
 20
297.481511
 11
150.220017
 21
296.741511
  0
LINE
  8
1
 62
7
  6
CONTINUOUS
 10
150.220017
 20
296.741511
 11
150.620017
 21
296.741511
  0
LINE
  8
1
 62
7
  6
CONTINUOUS
 10
150.620017
 20
296.741511
 11
150.620017
 21
297.481511
  0
LINE
  8
1
 62
7
  6
CONTINUOUS
 10
150.620017
 20
297.481511
 11
150.220017
 21
297.481511
  0
LINE
  8
1
 62
7
  6
DASHDOT
 10
149.322757
 20
297.111511
 11
151.512387
 21
297.111511
  0
LINE
  8
1
 62
7
  6
CONTINUOUS
 10
150.220017
 20
295.481511
 11
150.220017
 21
294.741511
  0
LINE
  8
1
 62
7
  6
CONTINUOUS
 10
150.220017
 20
294.741511
 11
150.620017
 21
294.741511
  0
LINE
  8
1
 62
7
  6
CONTINUOUS
 10
150.620017
 20
294.741511
 11
150.620017
 21
295.481511
  0
LINE
  8
1
 62
7
  6
CONTINUOUS
 10
150.620017
 20
295.481511
 11
150.220017
 21
295.481511
  0
LINE
  8
1
 62
7
  6
DASHDOT
 10
149.322757
 20
295.111511
 11
151.512387
 21
295.111511
  0
LINE
  8
1
 62
7
  6
CONTINUOUS
 10
148.720017
 20
312.661511
 11
148.720017
 21
316.634603
  0
LINE
  8
1
 62
7
  6
CONTINUOUS
 10
152.120017
 20
312.661511
 11
152.120017
 21
316.634603
  0
LINE
  8
1
 62
7
  6
CONTINUOUS
 10
152.120017
 20
316.634603
 11
148.720017
 21
316.634603
  0
LINE
  8
2
 62
134
  6
CONTINUOUS
 10
117.773475
 20
316.634603
 11
137.413133
 21
316.634603
  0
LINE
  8
1
 62
7
  6
DASHDOT
 10
49.109106
 20
302.111511
 11
39.032346
 21
302.111511
  0
DIMENSION
  8
2
 62
134
  6
CONTINUOUS
  2
*D4
 10
-15.558130
 20
292.611511
 11
-15.558130
 21
302.222649
 70
     0
  1
φ19
 13
-5.421046
 23
292.611511
 14
-5.421046
 24
311.611511
 50
90.000000
  0
DIMENSION
  8
2
 62
134
  6
CONTINUOUS
  2
*D5
 10
-6.221046
 20
318.291508
 11
16.120477
 21
318.291508
 70
     0
  1
49
 13
-6.221046
 23
308.861511
 14
42.778954
 24
308.861511
 50
0.000000
  0
TEXT
  8
4
 62
54
  6
CONTINUOUS
 10
21.679648
 20
287.480415
 40
4.000000
 41
1.000000
  1
⑯
  7
KANJI
 50
0.000000
 51
0.000000
  0
LINE
  8
2
 62
134
  6
CONTINUOUS
 10
49.642138
 20
298.461511
 11
56.948913
 21
287.683381
  0
LINE
  8
2
 62
134
  6
CONTINUOUS
 10
56.948913
 20
287.683381
 11
80.431321
 21
287.683381
  0
TEXT
  8
2
 62
134
  6
CONTINUOUS
 10
58.431321
 20
287.683381
 40
4.000000
 41
1.000000
  1
　接続ｹｰﾌﾞﾙ
  7
KANJI
 50
0.000000
 51
0.000000
  0
LINE
  8
2
 62
134
  6
CONTINUOUS
 10
49.642138
 20
298.461511
 11
51.154630
 21
297.152937
  0
LINE
  8
2
 62
134
  6
CONTINUOUS
 10
49.642138
 20
298.461511
 11
50.297707
 21
296.572007
  0
LINE
  8
2
 62
134
  6
CONTINUOUS
 10
51.154630
 20
297.152937
 11
50.297707
 21
296.572007
  0
LINE
  8
2
 62
134
  6
CONTINUOUS
 10
49.913145
 20
298.061752
 11
50.669391
 21
297.407464
  0
LINE
  8
2
 62
134
  6
CONTINUOUS
 10
49.913145
 20
298.061752
 11
50.240930
 21
297.116999
  0
LINE
  8
2
 62
134
  6
CONTINUOUS
 10
50.669391
 20
297.407464
 11
50.240930
 21
297.116999
  0
TEXT
  8
4
 62
54
  6
CONTINUOUS
 10
57.211199
 20
287.336769
 40
4.000000
 41
1.000000
  1
⑮
  7
KANJI
 50
0.000000
 51
0.000000
  0
LINE
  8
1
 62
7
  6
DASHDOT
 10
49.109106
 20
274.053061
 11
39.032346
 21
274.053061
  0
LINE
  8
1
 62
7
  6
CONTINUOUS
 10
0.578954
 20
273.703061
 11
0.578954
 21
274.053061
  0
LINE
  8
1
 62
7
  6
CONTINUOUS
 10
66.041281
 20
280.136830
 11
62.089464
 21
268.281379
  0
TEXT
  8
2
 62
134
  6
CONTINUOUS
 10
20.922450
 20
283.683381
 40
4.000000
 41
1.000000
  1
ｽﾄﾚｰﾄ(標準)
  7
KANJI
 50
0.000000
 51
30.000000
  0
LINE
  8
1
 62
7
  6
DASHDOT
 10
-11.684998
 20
302.111511
 11
64.013358
 21
302.111511
  0
LINE
  8
1
 62
7
  6
CONTINUOUS
 10
-0.421046
 20
311.611511
 11
-0.421046
 21
292.611511
  0
LINE
  8
1
 62
7
  6
CONTINUOUS
 10
-0.421046
 20
311.211511
 11
-4.421046
 21
311.211511
  0
LINE
  8
1
 62
7
  6
CONTINUOUS
 10
-0.421046
 20
293.011511
 11
-4.421046
 21
293.011511
  0
LINE
  8
1
 62
7
  6
CONTINUOUS
 10
-0.421046
 20
292.611511
 11
4.055694
 21
292.611511
  0
LINE
  8
1
 62
7
  6
CONTINUOUS
 10
4.055694
 20
311.611511
 11
-0.421046
 21
311.611511
  0
LINE
  8
1
 62
7
  6
CONTINUOUS
 10
-4.421046
 20
311.211511
 11
-4.421046
 21
293.011511
  0
LINE
  8
1
 62
7
  6
CONTINUOUS
 10
4.055694
 20
311.611511
 11
7.078954
 21
311.611511
  0
LINE
  8
1
 62
7
  6
CONTINUOUS
 10
7.078954
 20
292.611511
 11
4.055694
 21
292.611511
  0
LINE
  8
1
 62
7
  6
CONTINUOUS
 10
7.078954
 20
311.611511
 11
7.078954
 21
292.611511
  0
LINE
  8
1
 62
7
  6
CONTINUOUS
 10
7.078954
 20
311.611511
 11
11.178954
 21
311.611511
  0
LINE
  8
1
 62
7
  6
CONTINUOUS
 10
7.078954
 20
292.611511
 11
11.178954
 21
292.611511
  0
LINE
  8
1
 62
7
  6
CONTINUOUS
 10
11.178954
 20
311.611511
 11
11.178954
 21
292.611511
  0
LINE
  8
1
 62
7
  6
CONTINUOUS
 10
11.178954
 20
310.811511
 11
16.978954
 21
310.811511
  0
LINE
  8
1
 62
7
  6
CONTINUOUS
 10
16.978954
 20
310.811511
 11
16.978954
 21
293.411511
  0
LINE
  8
1
 62
7
  6
CONTINUOUS
 10
16.978954
 20
293.411511
 11
11.178954
 21
293.411511
  0
LINE
  8
1
 62
7
  6
CONTINUOUS
 10
16.978954
 20
309.211511
 11
26.378954
 21
309.211511
  0
LINE
  8
1
 62
7
  6
CONTINUOUS
 10
16.978954
 20
295.011511
 11
26.378954
 21
295.011511
  0
LINE
  8
1
 62
7
  6
CONTINUOUS
 10
26.378954
 20
309.411511
 11
26.378954
 21
294.811511
  0
LINE
  8
1
 62
7
  6
CONTINUOUS
 10
36.378954
 20
309.411511
 11
36.378954
 21
294.811511
  0
LINE
  8
1
 62
7
  6
CONTINUOUS
 10
26.378954
 20
309.411511
 11
39.078954
 21
309.411511
  0
LINE
  8
1
 62
7
  6
CONTINUOUS
 10
39.078954
 20
294.811511
 11
26.378954
 21
294.811511
  0
LINE
  8
1
 62
7
  6
CONTINUOUS
 10
39.078954
 20
309.411511
 11
39.078954
 21
294.811511
  0
LINE
  8
1
 62
7
  6
CONTINUOUS
 10
-4.421046
 20
307.861511
 11
-6.221046
 21
307.861511
  0
LINE
  8
1
 62
7
  6
CONTINUOUS
 10
-6.221046
 20
296.361511
 11
-4.421046
 21
296.361511
  0
LINE
  8
1
 62
7
  6
CONTINUOUS
 10
-6.221046
 20
307.861511
 11
-6.221046
 21
296.361511
  0
LINE
  8
1
 62
7
  6
CONTINUOUS
 10
42.778954
 20
298.611511
 11
62.796691
 21
298.611511
  0
LINE
  8
1
 62
7
  6
CONTINUOUS
 10
65.230025
 20
305.611511
 11
42.778954
 21
305.611511
  0
LINE
  8
1
 62
7
  6
CONTINUOUS
 10
42.778954
 20
307.861511
 11
39.078954
 21
309.411511
  0
LINE
  8
1
 62
7
  6
CONTINUOUS
 10
42.778954
 20
296.361511
 11
39.078954
 21
294.811511
  0
LINE
  8
1
 62
7
  6
CONTINUOUS
 10
42.778954
 20
307.861511
 11
42.778954
 21
296.361511
  0
LINE
  8
1
 62
7
  6
DASHDOT
 10
9.278954
 20
274.053061
 11
64.013358
 21
274.053061
  0
LINE
  8
1
 62
7
  6
DASHDOT
 10
9.278954
 20
245.039109
 11
9.278954
 21
274.053061
  0
LINE
  8
1
 62
7
  6
CONTINUOUS
 10
-0.221046
 20
256.303061
 11
18.778954
 21
256.303061
  0
LINE
  8
1
 62
7
  6
CONTINUOUS
 10
0.178954
 20
256.303061
 11
0.178954
 21
252.303061
  0
LINE
  8
1
 62
7
  6
CONTINUOUS
 10
18.378954
 20
256.303061
 11
18.378954
 21
252.303061
  0
LINE
  8
1
 62
7
  6
CONTINUOUS
 10
18.778954
 20
256.303061
 11
18.778954
 21
260.779802
  0
LINE
  8
1
 62
7
  6
CONTINUOUS
 10
-0.221046
 20
260.779802
 11
-0.221046
 21
256.303061
  0
LINE
  8
1
 62
7
  6
CONTINUOUS
 10
0.178954
 20
252.303061
 11
18.378954
 21
252.303061
  0
LINE
  8
1
 62
7
  6
CONTINUOUS
 10
-0.221046
 20
260.779802
 11
-0.221046
 21
263.803061
  0
LINE
  8
1
 62
7
  6
CONTINUOUS
 10
18.778954
 20
263.803061
 11
18.778954
 21
260.779802
  0
LINE
  8
1
 62
7
  6
CONTINUOUS
 10
-0.221046
 20
263.803061
 11
18.778954
 21
263.803061
  0
LINE
  8
1
 62
7
  6
CONTINUOUS
 10
-0.221046
 20
263.803061
 11
-0.221046
 21
267.903061
  0
LINE
  8
1
 62
7
  6
CONTINUOUS
 10
18.778954
 20
263.803061
 11
18.778954
 21
267.903061
  0
LINE
  8
1
 62
7
  6
CONTINUOUS
 10
0.578954
 20
267.903061
 11
0.578954
 21
273.703061
  0
LINE
  8
1
 62
7
  6
CONTINUOUS
 10
3.528954
 20
252.303061
 11
3.528954
 21
250.503061
  0
LINE
  8
1
 62
7
  6
CONTINUOUS
 10
15.028954
 20
250.503061
 11
15.028954
 21
252.303061
  0
LINE
  8
1
 62
7
  6
CONTINUOUS
 10
3.528954
 20
250.503061
 11
15.028954
 21
250.503061
  0
LINE
  8
1
 62
7
  6
CONTINUOUS
 10
26.378954
 20
281.353061
 11
26.378954
 21
266.753061
  0
LINE
  8
1
 62
7
  6
CONTINUOUS
 10
36.378954
 20
281.353061
 11
36.378954
 21
266.753061
  0
LINE
  8
1
 62
7
  6
CONTINUOUS
 10
26.378954
 20
281.353061
 11
39.078954
 21
281.353061
  0
LINE
  8
1
 62
7
  6
CONTINUOUS
 10
39.078954
 20
266.753061
 11
26.378954
 21
266.753061
  0
LINE
  8
1
 62
7
  6
CONTINUOUS
 10
39.078954
 20
281.353061
 11
39.078954
 21
266.753061
  0
LINE
  8
1
 62
7
  6
CONTINUOUS
 10
42.778954
 20
270.553061
 11
62.796691
 21
270.553061
  0
LINE
  8
1
 62
7
  6
CONTINUOUS
 10
65.230025
 20
277.553061
 11
42.778954
 21
277.553061
  0
LINE
  8
1
 62
7
  6
CONTINUOUS
 10
42.778954
 20
279.803061
 11
39.078954
 21
281.353061
  0
LINE
  8
1
 62
7
  6
CONTINUOUS
 10
42.778954
 20
268.303061
 11
39.078954
 21
266.753061
  0
LINE
  8
1
 62
7
  6
CONTINUOUS
 10
42.778954
 20
279.803061
 11
42.778954
 21
268.303061
  0
LINE
  8
1
 62
7
  6
CONTINUOUS
 10
-0.221046
 20
267.903061
 11
19.747200
 21
267.903061
  0
LINE
  8
1
 62
7
  6
CONTINUOUS
 10
19.747200
 20
266.953061
 11
19.747200
 21
267.903061
  0
LINE
  8
1
 62
7
  6
CONTINUOUS
 10
19.747200
 20
266.953061
 11
26.378954
 21
266.953061
  0
ARC
  8
1
 62
7
  6
CONTINUOUS
 10
7.678954
 20
274.053061
 40
7.100000
 50
90.000000
 51
180.000000
  0
LINE
  8
1
 62
7
  6
CONTINUOUS
 10
7.678954
 20
281.153061
 11
26.378954
 21
281.153061
  0
TEXT
  8
4
 62
54
  6
CONTINUOUS
 10
49.555345
 20
251.861006
 40
4.000000
 41
1.000000
  1
⑯
  7
KANJI
 50
0.000000
 51
0.000000
  0
TEXT
  8
2
 62
134
  6
CONTINUOUS
 10
48.798147
 20
248.063972
 40
4.000000
 41
0.500000
  1
ｱﾝｸﾞﾙ(ｵﾌﾟｼｮﾝ)
  7
KANJI
 50
0.000000
 51
30.000000
  0
DIMENSION
  8
2
 62
134
  6
CONTINUOUS
  2
*D6
 10
9.278954
 20
246.256604
 11
25.703729
 21
246.256604
 70
     0
  1
33.5
 13
9.278954
 23
246.256604
 14
42.778954
 24
267.303061
 50
0.000000
  0
TEXT
  8
2
 62
134
  6
CONTINUOUS
 10
161.882944
 20
314.065055
 40
3.000000
 41
1.000000
  1
XN2A-1870（オムロン）
  7
KANJI
 50
0.000000
 51
0.000000
  0
TEXT
  8
2
 62
134
  6
CONTINUOUS
 10
161.816885
 20
317.698284
 40
3.000000
 41
1.000000
  1
e-CON コネクタ　8ピン
  7
KANJI
 50
0.000000
 51
0.000000
  0
LINE
  8
2
 62
134
  6
CONTINUOUS
 10
161.245585
 20
313.592584
 11
196.245585
 21
313.592584
  0
LINE
  8
2
 62
134
  6
CONTINUOUS
 10
166.245585
 20
313.592584
 11
166.245585
 21
281.460833
  0
LINE
  8
2
 62
134
  6
CONTINUOUS
 10
161.245585
 20
284.960833
 11
196.245585
 21
284.960833
  0
LINE
  8
2
 62
134
  6
CONTINUOUS
 10
196.245585
 20
288.460833
 11
161.245585
 21
288.460833
  0
LINE
  8
2
 62
134
  6
CONTINUOUS
 10
161.245585
 20
291.960833
 11
196.245585
 21
291.960833
  0
LINE
  8
2
 62
134
  6
CONTINUOUS
 10
196.245585
 20
295.460833
 11
161.245585
 21
295.460833
  0
LINE
  8
2
 62
134
  6
CONTINUOUS
 10
161.245585
 20
298.960833
 11
196.245585
 21
298.960833
  0
LINE
  8
2
 62
134
  6
CONTINUOUS
 10
196.245585
 20
302.460833
 11
161.245585
 21
302.460833
  0
LINE
  8
2
 62
134
  6
CONTINUOUS
 10
161.245585
 20
309.460833
 11
196.245585
 21
309.460833
  0
LINE
  8
2
 62
134
  6
CONTINUOUS
 10
161.245585
 20
305.960833
 11
196.245585
 21
305.960833
  0
LINE
  8
2
 62
134
  6
CONTINUOUS
 10
196.245585
 20
281.460833
 11
161.245585
 21
281.460833
  0
LINE
  8
2
 62
134
  6
CONTINUOUS
 10
196.245585
 20
313.592584
 11
196.245585
 21
281.460833
  0
LINE
  8
2
 62
134
  6
CONTINUOUS
 10
161.245585
 20
313.592584
 11
161.245585
 21
281.460833
  0
TEXT
  8
2
 62
134
  6
CONTINUOUS
 10
162.946894
 20
281.451882
 40
3.000000
 41
0.500000
  1
8
  7
KANJI
 50
0.000000
 51
0.000000
  0
TEXT
  8
2
 62
134
  6
CONTINUOUS
 10
162.946894
 20
284.951882
 40
3.000000
 41
0.500000
  1
7
  7
KANJI
 50
0.000000
 51
0.000000
  0
TEXT
  8
2
 62
134
  6
CONTINUOUS
 10
167.946894
 20
291.951882
 40
3.000000
 41
1.000000
  1
ｱﾗｰﾑ出力/外部照準
  7
KANJI
 50
0.000000
 51
0.000000
  0
TEXT
  8
2
 62
134
  6
CONTINUOUS
 10
162.946894
 20
291.951882
 40
3.000000
 41
0.500000
  1
5
  7
KANJI
 50
0.000000
 51
0.000000
  0
TEXT
  8
2
 62
134
  6
CONTINUOUS
 10
162.946894
 20
288.451882
 40
3.000000
 41
0.500000
  1
6
  7
KANJI
 50
0.000000
 51
0.000000
  0
TEXT
  8
2
 62
134
  6
CONTINUOUS
 10
167.946894
 20
295.451882
 40
3.000000
 41
0.500000
  1
RS232C TxD
  7
KANJI
 50
0.000000
 51
0.000000
  0
TEXT
  8
2
 62
134
  6
CONTINUOUS
 10
167.946894
 20
302.451882
 40
3.000000
 41
0.500000
  1
RS232C RxD
  7
KANJI
 50
0.000000
 51
0.000000
  0
TEXT
  8
2
 62
134
  6
CONTINUOUS
 10
174.396669
 20
309.920377
 40
3.000000
 41
1.000000
  1
信号名
  7
KANJI
 50
0.000000
 51
0.000000
  0
TEXT
  8
2
 62
134
  6
CONTINUOUS
 10
162.400045
 20
310.083634
 40
3.000000
 41
0.500000
  1
No
  7
KANJI
 50
0.000000
 51
0.000000
  0
TEXT
  8
2
 62
134
  6
CONTINUOUS
 10
162.946894
 20
295.451882
 40
3.000000
 41
0.500000
  1
4
  7
KANJI
 50
0.000000
 51
0.000000
  0
TEXT
  8
2
 62
134
  6
CONTINUOUS
 10
162.946894
 20
298.951882
 40
3.000000
 41
0.500000
  1
3
  7
KANJI
 50
0.000000
 51
0.000000
  0
TEXT
  8
2
 62
134
  6
CONTINUOUS
 10
162.946894
 20
302.451882
 40
3.000000
 41
0.500000
  1
2
  7
KANJI
 50
0.000000
 51
0.000000
  0
TEXT
  8
2
 62
134
  6
CONTINUOUS
 10
162.946894
 20
305.951882
 40
3.000000
 41
0.500000
  1
1
  7
KANJI
 50
0.000000
 51
0.000000
  0
TEXT
  8
2
 62
134
  6
CONTINUOUS
 10
167.946894
 20
305.951882
 40
3.000000
 41
1.000000
  1
DCIN 4.7V～27V
  7
KANJI
 50
0.000000
 51
0.000000
  0
TEXT
  8
2
 62
134
  6
CONTINUOUS
 10
167.946894
 20
298.951882
 40
3.000000
 41
0.500000
  1
DC-GND
  7
KANJI
 50
0.000000
 51
0.000000
  0
TEXT
  8
2
 62
134
  6
CONTINUOUS
 10
167.946894
 20
284.951882
 40
3.000000
 41
0.500000
  1
ｱﾅﾛｸﾞ-GND 1
  7
KANJI
 50
0.000000
 51
0.000000
  0
TEXT
  8
2
 62
134
  6
CONTINUOUS
 10
167.946894
 20
288.451882
 40
3.000000
 41
1.000000
  1
ｱﾅﾛｸﾞ出力
  7
KANJI
 50
0.000000
 51
0.000000
  0
TEXT
  8
2
 62
134
  6
CONTINUOUS
 10
167.946894
 20
281.451882
 40
3.000000
 41
0.500000
  1
ｱﾅﾛｸﾞ-GND 2
  7
KANJI
 50
0.000000
 51
0.000000
  0
LINE
  8
2
 62
134
  6
CONTINUOUS
 10
127.876825
 20
313.676634
 11
160.444256
 21
321.097600
  0
LINE
  8
2
 62
134
  6
CONTINUOUS
 10
160.444256
 20
321.097600
 11
183.558568
 21
321.097600
  0
TEXT
  8
2
 62
134
  6
CONTINUOUS
 10
163.558568
 20
321.097600
 40
4.000000
 41
1.000000
  1
　出力ｺﾈｸﾀ
  7
KANJI
 50
0.000000
 51
0.000000
  0
LINE
  8
2
 62
134
  6
CONTINUOUS
 10
127.876825
 20
313.676634
 11
129.645392
 21
314.610534
  0
LINE
  8
2
 62
134
  6
CONTINUOUS
 10
127.876825
 20
313.676634
 11
129.875399
 21
313.601132
  0
LINE
  8
2
 62
134
  6
CONTINUOUS
 10
129.645392
 20
314.610534
 11
129.875399
 21
313.601132
  0
LINE
  8
2
 62
134
  6
CONTINUOUS
 10
128.347717
 20
313.783934
 11
129.232001
 21
314.250884
  0
LINE
  8
2
 62
134
  6
CONTINUOUS
 10
128.347717
 20
313.783934
 11
129.347005
 21
313.746183
  0
LINE
  8
2
 62
134
  6
CONTINUOUS
 10
129.232001
 20
314.250884
 11
129.347005
 21
313.746183
  0
TEXT
  8
4
 62
54
  6
CONTINUOUS
 10
162.297237
 20
321.890760
 40
4.000000
 41
1.000000
  1
⑰
  7
KANJI
 50
0.000000
 51
0.000000
  0
TEXT
  8
2
 62
134
  6
CONTINUOUS
 10
135.154266
 20
307.478761
 40
4.000000
 41
0.500000
  1
1
  7
KANJI
 50
0.000000
 51
0.000000
  0
TEXT
  8
2
 62
134
  6
CONTINUOUS
 10
135.205274
 20
293.076623
 40
4.000000
 41
0.500000
  1
8
  7
KANJI
 50
0.000000
 51
0.000000
  0
DIMENSION
  8
2
 62
134
  6
CONTINUOUS
  2
*D7
 10
142.618548
 20
292.161511
 11
142.618548
 21
303.130241
 70
     0
  1
24.5
 13
120.778997
 23
292.161511
 14
138.413133
 24
316.634603
 50
90.000000
  0
DIMENSION
  8
2
 62
134
  6
CONTINUOUS
  2
*D8
 10
-6.221046
 20
323.571276
 11
55.618822
 21
323.571276
 70
     0
  1
ｹｰﾌﾞﾙ長(標準2m)
 13
-6.221046
 23
308.861511
 14
115.862166
 24
314.548473
 50
0.000000
  0
DIMENSION
  8
2
 62
134
  6
CONTINUOUS
  2
*D9
 10
115.862166
 20
323.571276
 11
124.112418
 21
323.571276
 70
     0
  1
18
 13
115.862166
 23
314.761511
 14
133.862166
 24
314.548473
 50
0.000000
  0
LINE
  8
2
 62
134
  6
CONTINUOUS
 10
15.036437
 20
293.911511
 11
20.922450
 21
287.683381
  0
LINE
  8
2
 62
134
  6
CONTINUOUS
 10
20.922450
 20
287.683381
 11
55.499246
 21
287.683381
  0
TEXT
  8
2
 62
134
  6
CONTINUOUS
 10
21.499246
 20
287.480415
 40
4.000000
 41
1.000000
  1
　ﾍｯﾄﾞｺﾈｸﾀ(ﾌﾟﾗｸﾞ)
  7
KANJI
 50
0.000000
 51
0.000000
  0
LINE
  8
2
 62
134
  6
CONTINUOUS
 10
15.036437
 20
293.911511
 11
16.739567
 21
292.863014
  0
LINE
  8
2
 62
134
  6
CONTINUOUS
 10
15.036437
 20
293.911511
 11
15.987143
 21
292.151921
  0
LINE
  8
2
 62
134
  6
CONTINUOUS
 10
16.739567
 20
292.863014
 11
15.987143
 21
292.151921
  0
LINE
  8
2
 62
134
  6
CONTINUOUS
 10
15.368166
 20
293.560501
 11
16.219732
 21
293.036252
  0
LINE
  8
2
 62
134
  6
CONTINUOUS
 10
15.368166
 20
293.560501
 11
15.843519
 21
292.680705
  0
LINE
  8
2
 62
134
  6
CONTINUOUS
 10
16.219732
 20
293.036252
 11
15.843519
 21
292.680705
  0
LINE
  8
2
 62
134
  6
CONTINUOUS
 10
22.981681
 20
266.953061
 11
48.798147
 21
252.063972
  0
LINE
  8
2
 62
134
  6
CONTINUOUS
 10
48.798147
 20
252.063972
 11
83.262245
 21
252.063972
  0
TEXT
  8
2
 62
134
  6
CONTINUOUS
 10
49.262245
 20
251.861006
 40
4.000000
 41
1.000000
  1
　ﾍｯﾄﾞｺﾈｸﾀ(ﾌﾟﾗｸﾞ)
  7
KANJI
 50
0.000000
 51
0.000000
  0
LINE
  8
2
 62
134
  6
CONTINUOUS
 10
22.981681
 20
266.953061
 11
24.913774
 21
266.436324
  0
LINE
  8
2
 62
134
  6
CONTINUOUS
 10
22.981681
 20
266.953061
 11
24.396554
 21
265.539507
  0
LINE
  8
2
 62
134
  6
CONTINUOUS
 10
24.913774
 20
266.436324
 11
24.396554
 21
265.539507
  0
LINE
  8
2
 62
134
  6
CONTINUOUS
 10
23.400052
 20
266.711775
 11
24.366098
 21
266.453406
  0
LINE
  8
2
 62
134
  6
CONTINUOUS
 10
23.400052
 20
266.711775
 11
24.107488
 21
266.004998
  0
LINE
  8
2
 62
134
  6
CONTINUOUS
 10
24.366098
 20
266.453406
 11
24.107488
 21
266.004998
  0
LINE
  8
1
 62
7
  6
CONTINUOUS
 10
503.958719
 20
308.195281
 11
507.910536
 21
296.339830
  0
LINE
  8
1
 62
7
  6
CONTINUOUS
 10
501.841674
 20
308.195281
 11
505.793491
 21
296.339830
  0
LINE
  8
1
 62
7
  6
CONTINUOUS
 10
450.221003
 20
292.161511
 11
453.637834
 21
292.161511
  0
ARC
  8
1
 62
7
  6
CONTINUOUS
 10
453.637834
 20
292.661511
 40
0.500000
 50
-90.000000
 51
0.000000
  0
LINE
  8
1
 62
7
  6
DASHDOT
 10
455.443572
 20
309.111511
 11
435.288843
 21
309.111511
  0
LINE
  8
1
 62
7
  6
DASHDOT
 10
455.387830
 20
295.111511
 11
435.246335
 21
295.111511
  0
LINE
  8
1
 62
7
  6
DASHDOT
 10
455.443572
 20
307.111511
 11
435.288843
 21
307.111511
  0
LINE
  8
1
 62
7
  6
DASHDOT
 10
455.443572
 20
305.111511
 11
435.288843
 21
305.111511
  0
LINE
  8
1
 62
7
  6
DASHDOT
 10
455.443572
 20
303.111511
 11
435.288843
 21
303.111511
  0
LINE
  8
1
 62
7
  6
DASHDOT
 10
455.443572
 20
301.111511
 11
435.288843
 21
301.111511
  0
LINE
  8
1
 62
7
  6
DASHDOT
 10
455.443572
 20
299.111511
 11
435.288843
 21
299.111511
  0
LINE
  8
1
 62
7
  6
DASHDOT
 10
455.443572
 20
297.111511
 11
435.288843
 21
297.111511
  0
LINE
  8
1
 62
7
  6
CONTINUOUS
 10
464.136352
 20
302.111511
 11
465.604005
 21
302.111511
  0
LINE
  8
1
 62
7
  6
DASHDOT
 10
503.869597
 20
302.111511
 11
432.291419
 21
302.111511
  0
LINE
  8
1
 62
7
  6
DASHDOT
 10
419.579983
 20
321.342357
 11
419.579983
 21
288.315096
  0
LINE
  8
1
 62
7
  6
CONTINUOUS
 10
422.579983
 20
292.161511
 11
416.579983
 21
292.161511
  0
LINE
  8
1
 62
7
  6
DASHDOT
 10
425.227929
 20
302.111511
 11
414.233348
 21
302.111511
  0
LINE
  8
1
 62
7
  6
CONTINUOUS
 10
417.879983
 20
310.711511
 11
417.879983
 21
293.511511
  0
LINE
  8
1
 62
7
  6
CONTINUOUS
 10
417.879983
 20
293.511511
 11
421.279983
 21
293.511511
  0
LINE
  8
1
 62
7
  6
CONTINUOUS
 10
421.279983
 20
293.511511
 11
421.279983
 21
310.711511
  0
LINE
  8
1
 62
7
  6
CONTINUOUS
 10
421.279983
 20
310.711511
 11
417.879983
 21
310.711511
  0
DIMENSION
  8
2
 62
134
  6
CONTINUOUS
  2
*D10
 10
416.579983
 20
284.612651
 11
419.579983
 21
284.612651
 70
     0
  1
6
 13
416.579983
 23
291.161511
 14
422.579983
 24
291.161511
 50
0.000000
  0
LINE
  8
1
 62
7
  6
CONTINUOUS
 10
502.652931
 20
305.611511
 11
465.604005
 21
305.611511
  0
LINE
  8
1
 62
7
  6
CONTINUOUS
 10
465.604005
 20
298.611511
 11
505.086264
 21
298.611511
  0
LINE
  8
1
 62
7
  6
CONTINUOUS
 10
465.604005
 20
305.611511
 11
465.604005
 21
298.611511
  0
DIMENSION
  8
2
 62
134
  6
CONTINUOUS
  2
*D11
 10
483.890867
 20
298.611511
 11
483.890867
 21
311.823539
 70
     0
  1
φ7
 13
483.890867
 23
298.611511
 14
483.890867
 24
305.611511
 50
90.000000
  0
LINE
  8
1
 62
7
  6
CONTINUOUS
 10
454.137834
 20
309.711511
 11
457.374043
 21
309.711511
  0
LINE
  8
1
 62
7
  6
CONTINUOUS
 10
454.137834
 20
308.511511
 11
457.349551
 21
308.511511
  0
LINE
  8
1
 62
7
  6
CONTINUOUS
 10
464.136352
 20
304.911511
 11
465.604005
 21
304.911511
  0
LINE
  8
1
 62
7
  6
CONTINUOUS
 10
464.136352
 20
303.711511
 11
465.604005
 21
303.711511
  0
LINE
  8
1
 62
7
  6
CONTINUOUS
 10
464.136352
 20
304.911511
 11
457.374043
 21
309.711511
  0
LINE
  8
1
 62
7
  6
CONTINUOUS
 10
464.136352
 20
303.711511
 11
457.349551
 21
308.511511
  0
LINE
  8
1
 62
7
  6
CONTINUOUS
 10
454.137834
 20
294.511511
 11
457.374043
 21
294.511511
  0
LINE
  8
1
 62
7
  6
CONTINUOUS
 10
454.137834
 20
295.711511
 11
457.349551
 21
295.711511
  0
LINE
  8
1
 62
7
  6
CONTINUOUS
 10
464.136352
 20
299.311511
 11
465.604005
 21
299.311511
  0
LINE
  8
1
 62
7
  6
CONTINUOUS
 10
464.136352
 20
300.511511
 11
465.604005
 21
300.511511
  0
LINE
  8
1
 62
7
  6
CONTINUOUS
 10
464.136352
 20
299.311511
 11
457.374043
 21
294.511511
  0
LINE
  8
1
 62
7
  6
CONTINUOUS
 10
464.136352
 20
300.511511
 11
457.349551
 21
295.711511
  0
LINE
  8
1
 62
7
  6
CONTINUOUS
 10
454.137834
 20
303.711511
 11
457.374043
 21
303.711511
  0
LINE
  8
1
 62
7
  6
CONTINUOUS
 10
454.137834
 20
302.511511
 11
457.349551
 21
302.511511
  0
LINE
  8
1
 62
7
  6
CONTINUOUS
 10
464.136352
 20
303.311511
 11
465.604005
 21
303.311511
  0
LINE
  8
1
 62
7
  6
CONTINUOUS
 10
464.136352
 20
303.311511
 11
457.374043
 21
303.711511
  0
LINE
  8
1
 62
7
  6
CONTINUOUS
 10
464.136352
 20
302.111511
 11
457.349551
 21
302.511511
  0
LINE
  8
1
 62
7
  6
CONTINUOUS
 10
454.137834
 20
305.711511
 11
457.374043
 21
305.711511
  0
LINE
  8
1
 62
7
  6
CONTINUOUS
 10
454.137834
 20
304.511511
 11
457.349551
 21
304.511511
  0
LINE
  8
1
 62
7
  6
CONTINUOUS
 10
454.137834
 20
307.711511
 11
457.374043
 21
307.711511
  0
LINE
  8
1
 62
7
  6
CONTINUOUS
 10
454.137834
 20
306.511511
 11
457.349551
 21
306.511511
  0
LINE
  8
1
 62
7
  6
CONTINUOUS
 10
461.087972
 20
305.844197
 11
457.374043
 21
307.711511
  0
LINE
  8
1
 62
7
  6
CONTINUOUS
 10
463.683680
 20
303.338288
 11
457.349551
 21
306.511511
  0
LINE
  8
1
 62
7
  6
CONTINUOUS
 10
460.774475
 20
304.756095
 11
457.374043
 21
305.711511
  0
LINE
  8
1
 62
7
  6
CONTINUOUS
 10
460.823337
 20
303.539007
 11
457.349551
 21
304.511511
  0
LINE
  8
1
 62
7
  6
CONTINUOUS
 10
454.137834
 20
300.511511
 11
457.374043
 21
300.511511
  0
LINE
  8
1
 62
7
  6
CONTINUOUS
 10
454.137834
 20
301.711511
 11
457.349551
 21
301.711511
  0
LINE
  8
1
 62
7
  6
CONTINUOUS
 10
464.136352
 20
300.911511
 11
465.604005
 21
300.911511
  0
LINE
  8
1
 62
7
  6
CONTINUOUS
 10
464.136352
 20
300.911511
 11
457.374043
 21
300.511511
  0
LINE
  8
1
 62
7
  6
CONTINUOUS
 10
464.136352
 20
302.111511
 11
457.349551
 21
301.711511
  0
LINE
  8
1
 62
7
  6
CONTINUOUS
 10
454.137834
 20
298.511511
 11
457.374043
 21
298.511511
  0
LINE
  8
1
 62
7
  6
CONTINUOUS
 10
454.137834
 20
299.711511
 11
457.349551
 21
299.711511
  0
LINE
  8
1
 62
7
  6
CONTINUOUS
 10
454.137834
 20
296.511511
 11
457.374043
 21
296.511511
  0
LINE
  8
1
 62
7
  6
CONTINUOUS
 10
454.137834
 20
297.711511
 11
457.349551
 21
297.711511
  0
LINE
  8
1
 62
7
  6
CONTINUOUS
 10
461.087972
 20
298.378826
 11
457.374043
 21
296.511511
  0
LINE
  8
1
 62
7
  6
CONTINUOUS
 10
463.683680
 20
300.884735
 11
457.349551
 21
297.711511
  0
LINE
  8
1
 62
7
  6
CONTINUOUS
 10
460.774475
 20
299.466928
 11
457.374043
 21
298.511511
  0
LINE
  8
1
 62
7
  6
CONTINUOUS
 10
460.823337
 20
300.684016
 11
457.349551
 21
299.711511
  0
LINE
  8
1
 62
7
  6
CONTINUOUS
 10
451.637834
 20
293.961511
 11
450.137834
 21
293.961511
  0
LINE
  8
1
 62
7
  6
CONTINUOUS
 10
451.637834
 20
309.961511
 11
451.637834
 21
293.961511
  0
LINE
  8
1
 62
7
  6
CONTINUOUS
 10
450.137834
 20
309.961511
 11
451.637834
 21
309.961511
  0
LINE
  8
1
 62
7
  6
CONTINUOUS
 10
450.137834
 20
309.961511
 11
450.137834
 21
293.961511
  0
LINE
  8
1
 62
7
  6
CONTINUOUS
 10
450.221003
 20
292.161511
 11
450.221003
 21
292.361511
  0
LINE
  8
1
 62
7
  6
CONTINUOUS
 10
450.221003
 20
292.361511
 11
436.637834
 21
292.361511
  0
ARC
  8
1
 62
7
  6
CONTINUOUS
 10
436.637834
 20
292.861511
 40
0.500000
 50
180.000000
 51
-90.000000
  0
LINE
  8
1
 62
7
  6
CONTINUOUS
 10
446.937834
 20
312.661511
 11
436.137834
 21
312.661511
  0
ARC
  8
1
 62
7
  6
CONTINUOUS
 10
447.437834
 20
314.361511
 40
0.500000
 50
90.000000
 51
180.000000
  0
LINE
  8
1
 62
7
  6
CONTINUOUS
 10
446.937834
 20
314.361511
 11
446.937834
 21
312.661511
  0
ARC
  8
1
 62
7
  6
CONTINUOUS
 10
436.637834
 20
313.548473
 40
0.500000
 50
90.000000
 51
180.000000
  0
LINE
  8
1
 62
7
  6
CONTINUOUS
 10
436.137834
 20
313.548473
 11
436.137834
 21
292.861511
  0
LINE
  8
1
 62
7
  6
CONTINUOUS
 10
436.637834
 20
314.048473
 11
446.937834
 21
314.161511
  0
LINE
  8
1
 62
7
  6
CONTINUOUS
 10
450.524406
 20
313.761511
 11
449.424406
 21
314.861511
  0
LINE
  8
1
 62
7
  6
CONTINUOUS
 10
454.137834
 20
313.761511
 11
454.137834
 21
292.661511
  0
LINE
  8
1
 62
7
  6
CONTINUOUS
 10
454.137834
 20
313.761511
 11
454.136650
 21
313.767728
  0
LINE
  8
1
 62
7
  6
CONTINUOUS
 10
454.136650
 20
313.767728
 11
454.133130
 21
313.786207
  0
LINE
  8
1
 62
7
  6
CONTINUOUS
 10
454.133130
 20
313.786207
 11
454.127364
 21
313.816443
  0
LINE
  8
1
 62
7
  6
CONTINUOUS
 10
454.127364
 20
313.816443
 11
454.119492
 21
313.857605
  0
LINE
  8
1
 62
7
  6
CONTINUOUS
 10
454.119492
 20
313.857605
 11
454.109687
 21
313.908553
  0
LINE
  8
1
 62
7
  6
CONTINUOUS
 10
454.109687
 20
313.908553
 11
454.098143
 21
313.967871
  0
LINE
  8
1
 62
7
  6
CONTINUOUS
 10
454.098143
 20
313.967871
 11
454.085067
 21
314.033899
  0
LINE
  8
1
 62
7
  6
CONTINUOUS
 10
454.085067
 20
314.033899
 11
454.070677
 21
314.104785
  0
LINE
  8
1
 62
7
  6
CONTINUOUS
 10
454.070677
 20
314.104785
 11
454.055217
 21
314.178539
  0
LINE
  8
1
 62
7
  6
CONTINUOUS
 10
454.055217
 20
314.178539
 11
454.038970
 21
314.253095
  0
LINE
  8
1
 62
7
  6
CONTINUOUS
 10
454.038970
 20
314.253095
 11
454.022277
 21
314.326384
  0
LINE
  8
1
 62
7
  6
CONTINUOUS
 10
454.022277
 20
314.326384
 11
454.005556
 21
314.396390
  0
LINE
  8
1
 62
7
  6
CONTINUOUS
 10
454.005556
 20
314.396390
 11
453.989302
 21
314.461219
  0
LINE
  8
1
 62
7
  6
CONTINUOUS
 10
453.989302
 20
314.461219
 11
453.974080
 21
314.519149
  0
LINE
  8
1
 62
7
  6
CONTINUOUS
 10
453.974080
 20
314.519149
 11
453.960493
 21
314.568670
  0
LINE
  8
1
 62
7
  6
CONTINUOUS
 10
453.960493
 20
314.568670
 11
453.949145
 21
314.608520
  0
LINE
  8
1
 62
7
  6
CONTINUOUS
 10
453.949145
 20
314.608520
 11
453.940587
 21
314.637702
  0
LINE
  8
1
 62
7
  6
CONTINUOUS
 10
453.940587
 20
314.637702
 11
453.935260
 21
314.655500
  0
LINE
  8
1
 62
7
  6
CONTINUOUS
 10
453.935260
 20
314.655500
 11
453.933451
 21
314.661480
  0
LINE
  8
1
 62
7
  6
CONTINUOUS
 10
453.933451
 20
314.661480
 11
453.931633
 21
314.667458
  0
LINE
  8
1
 62
7
  6
CONTINUOUS
 10
453.931633
 20
314.667458
 11
453.926180
 21
314.685208
  0
LINE
  8
1
 62
7
  6
CONTINUOUS
 10
453.926180
 20
314.685208
 11
453.917088
 21
314.714193
  0
LINE
  8
1
 62
7
  6
CONTINUOUS
 10
453.917088
 20
314.714193
 11
453.904368
 21
314.753544
  0
LINE
  8
1
 62
7
  6
CONTINUOUS
 10
453.904368
 20
314.753544
 11
453.888054
 21
314.802094
  0
LINE
  8
1
 62
7
  6
CONTINUOUS
 10
453.888054
 20
314.802094
 11
453.868230
 21
314.858431
  0
LINE
  8
1
 62
7
  6
CONTINUOUS
 10
453.868230
 20
314.858431
 11
453.845060
 21
314.920944
  0
LINE
  8
1
 62
7
  6
CONTINUOUS
 10
453.845060
 20
314.920944
 11
453.818818
 21
314.987879
  0
LINE
  8
1
 62
7
  6
CONTINUOUS
 10
453.818818
 20
314.987879
 11
453.789921
 21
315.057392
  0
LINE
  8
1
 62
7
  6
CONTINUOUS
 10
453.789921
 20
315.057392
 11
453.758958
 21
315.127598
  0
LINE
  8
1
 62
7
  6
CONTINUOUS
 10
453.758958
 20
315.127598
 11
453.726699
 21
315.196618
  0
LINE
  8
1
 62
7
  6
CONTINUOUS
 10
453.726699
 20
315.196618
 11
453.694096
 21
315.262621
  0
LINE
  8
1
 62
7
  6
CONTINUOUS
 10
453.694096
 20
315.262621
 11
453.662256
 21
315.323864
  0
LINE
  8
1
 62
7
  6
CONTINUOUS
 10
453.662256
 20
315.323864
 11
453.632393
 21
315.378731
  0
LINE
  8
1
 62
7
  6
CONTINUOUS
 10
453.632393
 20
315.378731
 11
453.605757
 21
315.425769
  0
LINE
  8
1
 62
7
  6
CONTINUOUS
 10
453.605757
 20
315.425769
 11
453.583553
 21
315.463731
  0
LINE
  8
1
 62
7
  6
CONTINUOUS
 10
453.583553
 20
315.463731
 11
453.566842
 21
315.491600
  0
LINE
  8
1
 62
7
  6
CONTINUOUS
 10
453.566842
 20
315.491600
 11
453.556459
 21
315.508628
  0
LINE
  8
1
 62
7
  6
CONTINUOUS
 10
453.556459
 20
315.508628
 11
453.552937
 21
315.514355
  0
LINE
  8
1
 62
7
  6
CONTINUOUS
 10
453.552937
 20
315.514355
 11
453.549400
 21
315.520083
  0
LINE
  8
1
 62
7
  6
CONTINUOUS
 10
453.549400
 20
315.520083
 11
453.538801
 21
315.537106
  0
LINE
  8
1
 62
7
  6
CONTINUOUS
 10
453.538801
 20
315.537106
 11
453.521190
 21
315.564942
  0
LINE
  8
1
 62
7
  6
CONTINUOUS
 10
453.521190
 20
315.564942
 11
453.496716
 21
315.602770
  0
LINE
  8
1
 62
7
  6
CONTINUOUS
 10
453.496716
 20
315.602770
 11
453.465692
 21
315.649422
  0
LINE
  8
1
 62
7
  6
CONTINUOUS
 10
453.465692
 20
315.649422
 11
453.428674
 21
315.703387
  0
LINE
  8
1
 62
7
  6
CONTINUOUS
 10
453.428674
 20
315.703387
 11
453.386508
 21
315.762845
  0
LINE
  8
1
 62
7
  6
CONTINUOUS
 10
453.386508
 20
315.762845
 11
453.340344
 21
315.825739
  0
LINE
  8
1
 62
7
  6
CONTINUOUS
 10
453.340344
 20
315.825739
 11
453.291599
 21
315.889878
  0
LINE
  8
1
 62
7
  6
CONTINUOUS
 10
453.291599
 20
315.889878
 11
453.241879
 21
315.953076
  0
LINE
  8
1
 62
7
  6
CONTINUOUS
 10
453.241879
 20
315.953076
 11
453.192869
 21
316.013293
  0
LINE
  8
1
 62
7
  6
CONTINUOUS
 10
453.192869
 20
316.013293
 11
453.146202
 21
316.068766
  0
LINE
  8
1
 62
7
  6
CONTINUOUS
 10
453.146202
 20
316.068766
 11
453.103352
 21
316.118111
  0
LINE
  8
1
 62
7
  6
CONTINUOUS
 10
453.103352
 20
316.118111
 11
453.065541
 21
316.160365
  0
LINE
  8
1
 62
7
  6
CONTINUOUS
 10
453.065541
 20
316.160365
 11
453.033702
 21
316.194977
  0
LINE
  8
1
 62
7
  6
CONTINUOUS
 10
453.033702
 20
316.194977
 11
453.008479
 21
316.221741
  0
LINE
  8
1
 62
7
  6
CONTINUOUS
 10
453.008479
 20
316.221741
 11
452.990267
 21
316.240688
  0
LINE
  8
1
 62
7
  6
CONTINUOUS
 10
452.990267
 20
316.240688
 11
452.979278
 21
316.251962
  0
LINE
  8
1
 62
7
  6
CONTINUOUS
 10
452.979278
 20
316.251962
 11
452.975607
 21
316.255701
  0
LINE
  8
1
 62
7
  6
CONTINUOUS
 10
452.975607
 20
316.255701
 11
452.971948
 21
316.259412
  0
LINE
  8
1
 62
7
  6
CONTINUOUS
 10
452.971948
 20
316.259412
 11
452.961149
 21
316.270288
  0
LINE
  8
1
 62
7
  6
CONTINUOUS
 10
452.961149
 20
316.270288
 11
452.943725
 21
316.287577
  0
LINE
  8
1
 62
7
  6
CONTINUOUS
 10
452.943725
 20
316.287577
 11
452.920490
 21
316.310126
  0
LINE
  8
1
 62
7
  6
CONTINUOUS
 10
452.920490
 20
316.310126
 11
452.892497
 21
316.336509
  0
LINE
  8
1
 62
7
  6
CONTINUOUS
 10
452.892497
 20
316.336509
 11
452.860958
 21
316.365180
  0
LINE
  8
1
 62
7
  6
CONTINUOUS
 10
452.860958
 20
316.365180
 11
452.827165
 21
316.394622
  0
LINE
  8
1
 62
7
  6
CONTINUOUS
 10
452.827165
 20
316.394622
 11
452.792403
 21
316.423481
  0
LINE
  8
1
 62
7
  6
CONTINUOUS
 10
452.792403
 20
316.423481
 11
452.757878
 21
316.450662
  0
LINE
  8
1
 62
7
  6
CONTINUOUS
 10
452.757878
 20
316.450662
 11
452.724654
 21
316.475373
  0
LINE
  8
1
 62
7
  6
CONTINUOUS
 10
452.724654
 20
316.475373
 11
452.693620
 21
316.497135
  0
LINE
  8
1
 62
7
  6
CONTINUOUS
 10
452.693620
 20
316.497135
 11
452.665463
 21
316.515744
  0
LINE
  8
1
 62
7
  6
CONTINUOUS
 10
452.665463
 20
316.515744
 11
452.640672
 21
316.531214
  0
LINE
  8
1
 62
7
  6
CONTINUOUS
 10
452.640672
 20
316.531214
 11
452.619557
 21
316.543707
  0
LINE
  8
1
 62
7
  6
CONTINUOUS
 10
452.619557
 20
316.543707
 11
452.602280
 21
316.553458
  0
LINE
  8
1
 62
7
  6
CONTINUOUS
 10
452.602280
 20
316.553458
 11
452.588893
 21
316.560724
  0
LINE
  8
1
 62
7
  6
CONTINUOUS
 10
452.588893
 20
316.560724
 11
452.579380
 21
316.565735
  0
LINE
  8
1
 62
7
  6
CONTINUOUS
 10
452.579380
 20
316.565735
 11
452.573699
 21
316.568667
  0
LINE
  8
1
 62
7
  6
CONTINUOUS
 10
452.573699
 20
316.568667
 11
452.571810
 21
316.569632
  0
LINE
  8
1
 62
7
  6
CONTINUOUS
 10
452.571810
 20
316.569632
 11
452.569933
 21
316.570586
  0
LINE
  8
1
 62
7
  6
CONTINUOUS
 10
452.569933
 20
316.570586
 11
452.564419
 21
316.573361
  0
LINE
  8
1
 62
7
  6
CONTINUOUS
 10
452.564419
 20
316.573361
 11
452.555608
 21
316.577705
  0
LINE
  8
1
 62
7
  6
CONTINUOUS
 10
452.555608
 20
316.577705
 11
452.544025
 21
316.583239
  0
LINE
  8
1
 62
7
  6
CONTINUOUS
 10
452.544025
 20
316.583239
 11
452.530324
 21
316.589505
  0
LINE
  8
1
 62
7
  6
CONTINUOUS
 10
452.530324
 20
316.589505
 11
452.515226
 21
316.596032
  0
LINE
  8
1
 62
7
  6
CONTINUOUS
 10
452.515226
 20
316.596032
 11
452.499449
 21
316.602387
  0
LINE
  8
1
 62
7
  6
CONTINUOUS
 10
452.499449
 20
316.602387
 11
452.483653
 21
316.608220
  0
LINE
  8
1
 62
7
  6
CONTINUOUS
 10
452.483653
 20
316.608220
 11
452.468400
 21
316.613296
  0
LINE
  8
1
 62
7
  6
CONTINUOUS
 10
452.468400
 20
316.613296
 11
452.454127
 21
316.617498
  0
LINE
  8
1
 62
7
  6
CONTINUOUS
 10
452.454127
 20
316.617498
 11
452.441141
 21
316.620817
  0
LINE
  8
1
 62
7
  6
CONTINUOUS
 10
452.441141
 20
316.620817
 11
452.429635
 21
316.623327
  0
LINE
  8
1
 62
7
  6
CONTINUOUS
 10
452.429635
 20
316.623327
 11
452.419705
 21
316.625152
  0
LINE
  8
1
 62
7
  6
CONTINUOUS
 10
452.419705
 20
316.625152
 11
452.411377
 21
316.626434
  0
LINE
  8
1
 62
7
  6
CONTINUOUS
 10
452.411377
 20
316.626434
 11
452.404636
 21
316.627308
  0
LINE
  8
1
 62
7
  6
CONTINUOUS
 10
452.404636
 20
316.627308
 11
452.399449
 21
316.627886
  0
LINE
  8
1
 62
7
  6
CONTINUOUS
 10
452.399449
 20
316.627886
 11
452.395776
 21
316.628250
  0
LINE
  8
1
 62
7
  6
CONTINUOUS
 10
452.395776
 20
316.628250
 11
452.393586
 21
316.628449
  0
LINE
  8
1
 62
7
  6
CONTINUOUS
 10
452.393586
 20
316.628449
 11
452.392858
 21
316.628513
  0
LINE
  8
1
 62
7
  6
CONTINUOUS
 10
452.392858
 20
316.628513
 11
452.392135
 21
316.628575
  0
LINE
  8
1
 62
7
  6
CONTINUOUS
 10
452.392135
 20
316.628575
 11
452.390010
 21
316.628751
  0
LINE
  8
1
 62
7
  6
CONTINUOUS
 10
452.390010
 20
316.628751
 11
452.386615
 21
316.629009
  0
LINE
  8
1
 62
7
  6
CONTINUOUS
 10
452.386615
 20
316.629009
 11
452.382145
 21
316.629307
  0
LINE
  8
1
 62
7
  6
CONTINUOUS
 10
452.382145
 20
316.629307
 11
452.376833
 21
316.629600
  0
LINE
  8
1
 62
7
  6
CONTINUOUS
 10
452.376833
 20
316.629600
 11
452.370922
 21
316.629851
  0
LINE
  8
1
 62
7
  6
CONTINUOUS
 10
452.370922
 20
316.629851
 11
452.364637
 21
316.630041
  0
LINE
  8
1
 62
7
  6
CONTINUOUS
 10
452.364637
 20
316.630041
 11
452.358170
 21
316.630169
  0
LINE
  8
1
 62
7
  6
CONTINUOUS
 10
452.358170
 20
316.630169
 11
452.351669
 21
316.630256
  0
LINE
  8
1
 62
7
  6
CONTINUOUS
 10
452.351669
 20
316.630256
 11
452.345249
 21
316.630336
  0
LINE
  8
1
 62
7
  6
CONTINUOUS
 10
452.345249
 20
316.630336
 11
452.338999
 21
316.630447
  0
LINE
  8
1
 62
7
  6
CONTINUOUS
 10
452.338999
 20
316.630447
 11
452.333006
 21
316.630620
  0
LINE
  8
1
 62
7
  6
CONTINUOUS
 10
452.333006
 20
316.630620
 11
452.327368
 21
316.630871
  0
LINE
  8
1
 62
7
  6
CONTINUOUS
 10
452.327368
 20
316.630871
 11
452.322205
 21
316.631192
  0
LINE
  8
1
 62
7
  6
CONTINUOUS
 10
452.322205
 20
316.631192
 11
452.317662
 21
316.631558
  0
LINE
  8
1
 62
7
  6
CONTINUOUS
 10
452.317662
 20
316.631558
 11
452.313899
 21
316.631923
  0
LINE
  8
1
 62
7
  6
CONTINUOUS
 10
452.313899
 20
316.631923
 11
452.311072
 21
316.632234
  0
LINE
  8
1
 62
7
  6
CONTINUOUS
 10
452.311072
 20
316.632234
 11
452.309315
 21
316.632444
  0
LINE
  8
1
 62
7
  6
CONTINUOUS
 10
452.309315
 20
316.632444
 11
452.308719
 21
316.632519
  0
LINE
  8
1
 62
7
  6
CONTINUOUS
 10
452.308719
 20
316.632519
 11
452.308120
 21
316.632595
  0
LINE
  8
1
 62
7
  6
CONTINUOUS
 10
452.308120
 20
316.632595
 11
452.306323
 21
316.632830
  0
LINE
  8
1
 62
7
  6
CONTINUOUS
 10
452.306323
 20
316.632830
 11
452.303325
 21
316.633241
  0
LINE
  8
1
 62
7
  6
CONTINUOUS
 10
452.303325
 20
316.633241
 11
452.299120
 21
316.633839
  0
LINE
  8
1
 62
7
  6
CONTINUOUS
 10
452.299120
 20
316.633839
 11
452.293691
 21
316.634603
  0
LINE
  8
1
 62
7
  6
CONTINUOUS
 10
452.293691
 20
316.634603
 11
452.287015
 21
316.635469
  0
LINE
  8
1
 62
7
  6
CONTINUOUS
 10
452.287015
 20
316.635469
 11
452.279072
 21
316.636314
  0
LINE
  8
1
 62
7
  6
CONTINUOUS
 10
452.279072
 20
316.636314
 11
452.269861
 21
316.636965
  0
LINE
  8
1
 62
7
  6
CONTINUOUS
 10
452.269861
 20
316.636965
 11
452.259424
 21
316.637224
  0
LINE
  8
1
 62
7
  6
CONTINUOUS
 10
452.259424
 20
316.637224
 11
452.247877
 21
316.636900
  0
LINE
  8
1
 62
7
  6
CONTINUOUS
 10
452.247877
 20
316.636900
 11
452.235433
 21
316.635851
  0
LINE
  8
1
 62
7
  6
CONTINUOUS
 10
452.235433
 20
316.635851
 11
452.222425
 21
316.634029
  0
LINE
  8
1
 62
7
  6
CONTINUOUS
 10
452.222425
 20
316.634029
 11
452.209308
 21
316.631503
  0
LINE
  8
1
 62
7
  6
CONTINUOUS
 10
452.209308
 20
316.631503
 11
452.196640
 21
316.628464
  0
LINE
  8
1
 62
7
  6
CONTINUOUS
 10
452.196640
 20
316.628464
 11
452.185051
 21
316.625216
  0
LINE
  8
1
 62
7
  6
CONTINUOUS
 10
452.185051
 20
316.625216
 11
452.175185
 21
316.622125
  0
LINE
  8
1
 62
7
  6
CONTINUOUS
 10
452.175185
 20
316.622125
 11
452.167639
 21
316.619574
  0
LINE
  8
1
 62
7
  6
CONTINUOUS
 10
452.167639
 20
316.619574
 11
452.162901
 21
316.617893
  0
LINE
  8
1
 62
7
  6
CONTINUOUS
 10
452.162901
 20
316.617893
 11
452.161284
 21
316.617306
  0
LINE
  8
1
 62
7
  6
CONTINUOUS
 10
452.161284
 20
316.617306
 11
452.159657
 21
316.616708
  0
LINE
  8
1
 62
7
  6
CONTINUOUS
 10
452.159657
 20
316.616708
 11
452.154752
 21
316.614865
  0
LINE
  8
1
 62
7
  6
CONTINUOUS
 10
452.154752
 20
316.614865
 11
452.146507
 21
316.611628
  0
LINE
  8
1
 62
7
  6
CONTINUOUS
 10
452.146507
 20
316.611628
 11
452.134836
 21
316.606752
  0
LINE
  8
1
 62
7
  6
CONTINUOUS
 10
452.134836
 20
316.606752
 11
452.119657
 21
316.599901
  0
LINE
  8
1
 62
7
  6
CONTINUOUS
 10
452.119657
 20
316.599901
 11
452.100924
 21
316.590680
  0
LINE
  8
1
 62
7
  6
CONTINUOUS
 10
452.100924
 20
316.590680
 11
452.078673
 21
316.578675
  0
LINE
  8
1
 62
7
  6
CONTINUOUS
 10
452.078673
 20
316.578675
 11
452.053068
 21
316.563526
  0
LINE
  8
1
 62
7
  6
CONTINUOUS
 10
452.053068
 20
316.563526
 11
452.024444
 21
316.545011
  0
LINE
  8
1
 62
7
  6
CONTINUOUS
 10
452.024444
 20
316.545011
 11
451.993344
 21
316.523144
  0
LINE
  8
1
 62
7
  6
CONTINUOUS
 10
451.993344
 20
316.523144
 11
451.960540
 21
316.498256
  0
LINE
  8
1
 62
7
  6
CONTINUOUS
 10
451.960540
 20
316.498256
 11
451.927028
 21
316.471051
  0
LINE
  8
1
 62
7
  6
CONTINUOUS
 10
451.927028
 20
316.471051
 11
451.893999
 21
316.442613
  0
LINE
  8
1
 62
7
  6
CONTINUOUS
 10
451.893999
 20
316.442613
 11
451.862785
 21
316.414364
  0
LINE
  8
1
 62
7
  6
CONTINUOUS
 10
451.862785
 20
316.414364
 11
451.834776
 21
316.387952
  0
LINE
  8
1
 62
7
  6
CONTINUOUS
 10
451.834776
 20
316.387952
 11
451.811315
 21
316.365100
  0
LINE
  8
1
 62
7
  6
CONTINUOUS
 10
451.811315
 20
316.365100
 11
451.793598
 21
316.347422
  0
LINE
  8
1
 62
7
  6
CONTINUOUS
 10
451.793598
 20
316.347422
 11
451.782566
 21
316.336236
  0
LINE
  8
1
 62
7
  6
CONTINUOUS
 10
451.782566
 20
316.336236
 11
451.778819
 21
316.332408
  0
LINE
  8
1
 62
7
  6
CONTINUOUS
 10
451.778819
 20
316.332408
 11
451.775055
 21
316.328546
  0
LINE
  8
1
 62
7
  6
CONTINUOUS
 10
451.775055
 20
316.328546
 11
451.763761
 21
316.316868
  0
LINE
  8
1
 62
7
  6
CONTINUOUS
 10
451.763761
 20
316.316868
 11
451.744962
 21
316.297129
  0
LINE
  8
1
 62
7
  6
CONTINUOUS
 10
451.744962
 20
316.297129
 11
451.718771
 21
316.269011
  0
LINE
  8
1
 62
7
  6
CONTINUOUS
 10
451.718771
 20
316.269011
 11
451.685484
 21
316.232242
  0
LINE
  8
1
 62
7
  6
CONTINUOUS
 10
451.685484
 20
316.232242
 11
451.645672
 21
316.186740
  0
LINE
  8
1
 62
7
  6
CONTINUOUS
 10
451.645672
 20
316.186740
 11
451.600239
 21
316.132744
  0
LINE
  8
1
 62
7
  6
CONTINUOUS
 10
451.600239
 20
316.132744
 11
451.550446
 21
316.070927
  0
LINE
  8
1
 62
7
  6
CONTINUOUS
 10
451.550446
 20
316.070927
 11
451.497865
 21
316.002463
  0
LINE
  8
1
 62
7
  6
CONTINUOUS
 10
451.497865
 20
316.002463
 11
451.444283
 21
315.929036
  0
LINE
  8
1
 62
7
  6
CONTINUOUS
 10
451.444283
 20
315.929036
 11
451.391573
 21
315.852802
  0
LINE
  8
1
 62
7
  6
CONTINUOUS
 10
451.391573
 20
315.852802
 11
451.341537
 21
315.776287
  0
LINE
  8
1
 62
7
  6
CONTINUOUS
 10
451.341537
 20
315.776287
 11
451.295772
 21
315.702257
  0
LINE
  8
1
 62
7
  6
CONTINUOUS
 10
451.295772
 20
315.702257
 11
451.255576
 21
315.633557
  0
LINE
  8
1
 62
7
  6
CONTINUOUS
 10
451.255576
 20
315.633557
 11
451.221894
 21
315.572940
  0
LINE
  8
1
 62
7
  6
CONTINUOUS
 10
451.221894
 20
315.572940
 11
451.195340
 21
315.522907
  0
LINE
  8
1
 62
7
  6
CONTINUOUS
 10
451.195340
 20
315.522907
 11
451.176250
 21
315.485562
  0
LINE
  8
1
 62
7
  6
CONTINUOUS
 10
451.176250
 20
315.485562
 11
451.164767
 21
315.462495
  0
LINE
  8
1
 62
7
  6
CONTINUOUS
 10
451.164767
 20
315.462495
 11
451.160938
 21
315.454694
  0
LINE
  8
1
 62
7
  6
CONTINUOUS
 10
451.160938
 20
315.454694
 11
451.157125
 21
315.446873
  0
LINE
  8
1
 62
7
  6
CONTINUOUS
 10
451.157125
 20
315.446873
 11
451.145890
 21
315.423501
  0
LINE
  8
1
 62
7
  6
CONTINUOUS
 10
451.145890
 20
315.423501
 11
451.127818
 21
315.384878
  0
LINE
  8
1
 62
7
  6
CONTINUOUS
 10
451.127818
 20
315.384878
 11
451.103815
 21
315.331554
  0
LINE
  8
1
 62
7
  6
CONTINUOUS
 10
451.103815
 20
315.331554
 11
451.075011
 21
315.264407
  0
LINE
  8
1
 62
7
  6
CONTINUOUS
 10
451.075011
 20
315.264407
 11
451.042651
 21
315.184709
  0
LINE
  8
1
 62
7
  6
CONTINUOUS
 10
451.042651
 20
315.184709
 11
451.007992
 21
315.094179
  0
LINE
  8
1
 62
7
  6
CONTINUOUS
 10
451.007992
 20
315.094179
 11
450.972219
 21
314.994995
  0
LINE
  8
1
 62
7
  6
CONTINUOUS
 10
450.972219
 20
314.994995
 11
450.936385
 21
314.889769
  0
LINE
  8
1
 62
7
  6
CONTINUOUS
 10
450.936385
 20
314.889769
 11
450.901390
 21
314.781464
  0
LINE
  8
1
 62
7
  6
CONTINUOUS
 10
450.901390
 20
314.781464
 11
450.867991
 21
314.673277
  0
LINE
  8
1
 62
7
  6
CONTINUOUS
 10
450.867991
 20
314.673277
 11
450.836824
 21
314.568491
  0
LINE
  8
1
 62
7
  6
CONTINUOUS
 10
450.836824
 20
314.568491
 11
450.808443
 21
314.470326
  0
LINE
  8
1
 62
7
  6
CONTINUOUS
 10
450.808443
 20
314.470326
 11
450.783353
 21
314.381788
  0
LINE
  8
1
 62
7
  6
CONTINUOUS
 10
450.783353
 20
314.381788
 11
450.762022
 21
314.305553
  0
LINE
  8
1
 62
7
  6
CONTINUOUS
 10
450.762022
 20
314.305553
 11
450.744886
 21
314.243878
  0
LINE
  8
1
 62
7
  6
CONTINUOUS
 10
450.744886
 20
314.243878
 11
450.732331
 21
314.198545
  0
LINE
  8
1
 62
7
  6
CONTINUOUS
 10
450.732331
 20
314.198545
 11
450.724665
 21
314.170834
  0
LINE
  8
1
 62
7
  6
CONTINUOUS
 10
450.724665
 20
314.170834
 11
450.722087
 21
314.161511
  0
LINE
  8
1
 62
7
  6
CONTINUOUS
 10
450.524406
 20
313.761511
 11
454.137834
 21
313.761511
  0
LINE
  8
1
 62
7
  6
CONTINUOUS
 10
449.424406
 20
314.861511
 11
447.437834
 21
314.861511
  0
LINE
  8
1
 62
7
  6
CONTINUOUS
 10
450.124406
 20
314.161511
 11
450.722087
 21
314.161511
  0
LINE
  8
1
 62
7
  6
CONTINUOUS
 10
445.137834
 20
292.361511
 11
445.137834
 21
293.361511
  0
LINE
  8
1
 62
7
  6
CONTINUOUS
 10
445.137834
 20
293.361511
 11
441.637834
 21
293.361511
  0
LINE
  8
1
 62
7
  6
CONTINUOUS
 10
445.137834
 20
310.861511
 11
445.137834
 21
312.661511
  0
LINE
  8
1
 62
7
  6
CONTINUOUS
 10
445.137834
 20
310.861511
 11
441.637834
 21
310.861511
  0
LINE
  8
1
 62
7
  6
CONTINUOUS
 10
441.637834
 20
293.361511
 11
441.637834
 21
310.861511
  0
LINE
  8
1
 62
7
  6
CONTINUOUS
 10
422.579983
 20
312.661511
 11
421.279983
 21
312.661511
  0
LINE
  8
1
 62
7
  6
CONTINUOUS
 10
416.579983
 20
312.661511
 11
417.879983
 21
312.661511
  0
LINE
  8
1
 62
7
  6
CONTINUOUS
 10
421.279983
 20
314.861511
 11
422.579983
 21
314.861511
  0
LINE
  8
1
 62
7
  6
CONTINUOUS
 10
417.879983
 20
314.861511
 11
416.579983
 21
314.861511
  0
LINE
  8
1
 62
7
  6
CONTINUOUS
 10
422.579983
 20
314.861511
 11
422.579983
 21
292.161511
  0
LINE
  8
1
 62
7
  6
CONTINUOUS
 10
416.579983
 20
292.161511
 11
416.579983
 21
314.861511
  0
LINE
  8
1
 62
7
  6
CONTINUOUS
 10
419.779983
 20
309.481511
 11
419.779983
 21
308.741511
  0
LINE
  8
1
 62
7
  6
CONTINUOUS
 10
419.779983
 20
308.741511
 11
419.379983
 21
308.741511
  0
LINE
  8
1
 62
7
  6
CONTINUOUS
 10
419.379983
 20
308.741511
 11
419.379983
 21
309.481511
  0
LINE
  8
1
 62
7
  6
CONTINUOUS
 10
419.379983
 20
309.481511
 11
419.779983
 21
309.481511
  0
LINE
  8
1
 62
7
  6
DASHDOT
 10
420.677243
 20
309.111511
 11
418.487613
 21
309.111511
  0
LINE
  8
1
 62
7
  6
CONTINUOUS
 10
419.779983
 20
307.481511
 11
419.779983
 21
306.741511
  0
LINE
  8
1
 62
7
  6
CONTINUOUS
 10
419.779983
 20
306.741511
 11
419.379983
 21
306.741511
  0
LINE
  8
1
 62
7
  6
CONTINUOUS
 10
419.379983
 20
306.741511
 11
419.379983
 21
307.481511
  0
LINE
  8
1
 62
7
  6
CONTINUOUS
 10
419.379983
 20
307.481511
 11
419.779983
 21
307.481511
  0
LINE
  8
1
 62
7
  6
DASHDOT
 10
420.677243
 20
307.111511
 11
418.487613
 21
307.111511
  0
LINE
  8
1
 62
7
  6
CONTINUOUS
 10
419.779983
 20
305.481511
 11
419.779983
 21
304.741511
  0
LINE
  8
1
 62
7
  6
CONTINUOUS
 10
419.779983
 20
304.741511
 11
419.379983
 21
304.741511
  0
LINE
  8
1
 62
7
  6
CONTINUOUS
 10
419.379983
 20
304.741511
 11
419.379983
 21
305.481511
  0
LINE
  8
1
 62
7
  6
CONTINUOUS
 10
419.379983
 20
305.481511
 11
419.779983
 21
305.481511
  0
LINE
  8
1
 62
7
  6
DASHDOT
 10
420.677243
 20
305.111511
 11
418.487613
 21
305.111511
  0
LINE
  8
1
 62
7
  6
CONTINUOUS
 10
419.779983
 20
303.481511
 11
419.779983
 21
302.741511
  0
LINE
  8
1
 62
7
  6
CONTINUOUS
 10
419.779983
 20
302.741511
 11
419.379983
 21
302.741511
  0
LINE
  8
1
 62
7
  6
CONTINUOUS
 10
419.379983
 20
302.741511
 11
419.379983
 21
303.481511
  0
LINE
  8
1
 62
7
  6
CONTINUOUS
 10
419.379983
 20
303.481511
 11
419.779983
 21
303.481511
  0
LINE
  8
1
 62
7
  6
DASHDOT
 10
420.677243
 20
303.111511
 11
418.487613
 21
303.111511
  0
LINE
  8
1
 62
7
  6
CONTINUOUS
 10
419.779983
 20
301.481511
 11
419.779983
 21
300.741511
  0
LINE
  8
1
 62
7
  6
CONTINUOUS
 10
419.779983
 20
300.741511
 11
419.379983
 21
300.741511
  0
LINE
  8
1
 62
7
  6
CONTINUOUS
 10
419.379983
 20
300.741511
 11
419.379983
 21
301.481511
  0
LINE
  8
1
 62
7
  6
CONTINUOUS
 10
419.379983
 20
301.481511
 11
419.779983
 21
301.481511
  0
LINE
  8
1
 62
7
  6
DASHDOT
 10
420.677243
 20
301.111511
 11
418.487613
 21
301.111511
  0
LINE
  8
1
 62
7
  6
CONTINUOUS
 10
419.779983
 20
299.481511
 11
419.779983
 21
298.741511
  0
LINE
  8
1
 62
7
  6
CONTINUOUS
 10
419.779983
 20
298.741511
 11
419.379983
 21
298.741511
  0
LINE
  8
1
 62
7
  6
CONTINUOUS
 10
419.379983
 20
298.741511
 11
419.379983
 21
299.481511
  0
LINE
  8
1
 62
7
  6
CONTINUOUS
 10
419.379983
 20
299.481511
 11
419.779983
 21
299.481511
  0
LINE
  8
1
 62
7
  6
DASHDOT
 10
420.677243
 20
299.111511
 11
418.487613
 21
299.111511
  0
LINE
  8
1
 62
7
  6
CONTINUOUS
 10
419.779983
 20
297.481511
 11
419.779983
 21
296.741511
  0
LINE
  8
1
 62
7
  6
CONTINUOUS
 10
419.779983
 20
296.741511
 11
419.379983
 21
296.741511
  0
LINE
  8
1
 62
7
  6
CONTINUOUS
 10
419.379983
 20
296.741511
 11
419.379983
 21
297.481511
  0
LINE
  8
1
 62
7
  6
CONTINUOUS
 10
419.379983
 20
297.481511
 11
419.779983
 21
297.481511
  0
LINE
  8
1
 62
7
  6
DASHDOT
 10
420.677243
 20
297.111511
 11
418.487613
 21
297.111511
  0
LINE
  8
1
 62
7
  6
CONTINUOUS
 10
419.779983
 20
295.481511
 11
419.779983
 21
294.741511
  0
LINE
  8
1
 62
7
  6
CONTINUOUS
 10
419.779983
 20
294.741511
 11
419.379983
 21
294.741511
  0
LINE
  8
1
 62
7
  6
CONTINUOUS
 10
419.379983
 20
294.741511
 11
419.379983
 21
295.481511
  0
LINE
  8
1
 62
7
  6
CONTINUOUS
 10
419.379983
 20
295.481511
 11
419.779983
 21
295.481511
  0
LINE
  8
1
 62
7
  6
DASHDOT
 10
420.677243
 20
295.111511
 11
418.487613
 21
295.111511
  0
LINE
  8
1
 62
7
  6
CONTINUOUS
 10
421.279983
 20
312.661511
 11
421.279983
 21
316.634603
  0
LINE
  8
1
 62
7
  6
CONTINUOUS
 10
417.879983
 20
312.661511
 11
417.879983
 21
316.634603
  0
LINE
  8
1
 62
7
  6
CONTINUOUS
 10
417.879983
 20
316.634603
 11
421.279983
 21
316.634603
  0
LINE
  8
2
 62
134
  6
CONTINUOUS
 10
452.226525
 20
316.634603
 11
432.586867
 21
316.634603
  0
LINE
  8
1
 62
7
  6
DASHDOT
 10
520.890894
 20
302.111511
 11
530.967654
 21
302.111511
  0
DIMENSION
  8
2
 62
134
  6
CONTINUOUS
  2
*D12
 10
585.558130
 20
292.611511
 11
585.558130
 21
302.222649
 70
     0
  1
φ19
 13
575.421046
 23
292.611511
 14
575.421046
 24
311.611511
 50
90.000000
  0
DIMENSION
  8
2
 62
134
  6
CONTINUOUS
  2
*D13
 10
576.221046
 20
318.291508
 11
553.879523
 21
318.291508
 70
     0
  1
49
 13
576.221046
 23
308.861511
 14
527.221046
 24
308.861511
 50
180.000000
  0
TEXT
  8
4
 62
54
  6
CONTINUOUS
 10
544.320352
 20
287.480415
 40
4.000000
 41
1.000000
  1
⑯
  7
KANJI
 50
360.000000
 51
0.000000
  0
LINE
  8
2
 62
134
  6
CONTINUOUS
 10
520.357862
 20
298.461511
 11
513.051087
 21
287.683381
  0
LINE
  8
2
 62
134
  6
CONTINUOUS
 10
513.051087
 20
287.683381
 11
489.568679
 21
287.683381
  0
TEXT
  8
2
 62
134
  6
CONTINUOUS
 10
489.568679
 20
287.683381
 40
4.000000
 41
1.000000
  1
　接続ｹｰﾌﾞﾙ
  7
KANJI
 50
360.000000
 51
0.000000
  0
LINE
  8
2
 62
134
  6
CONTINUOUS
 10
520.357862
 20
298.461511
 11
519.702293
 21
296.572007
  0
LINE
  8
2
 62
134
  6
CONTINUOUS
 10
520.357862
 20
298.461511
 11
518.845370
 21
297.152937
  0
LINE
  8
2
 62
134
  6
CONTINUOUS
 10
519.702293
 20
296.572007
 11
518.845370
 21
297.152937
  0
LINE
  8
2
 62
134
  6
CONTINUOUS
 10
520.086855
 20
298.061752
 11
519.759070
 21
297.116999
  0
LINE
  8
2
 62
134
  6
CONTINUOUS
 10
520.086855
 20
298.061752
 11
519.330609
 21
297.407464
  0
LINE
  8
2
 62
134
  6
CONTINUOUS
 10
519.759070
 20
297.116999
 11
519.330609
 21
297.407464
  0
TEXT
  8
4
 62
54
  6
CONTINUOUS
 10
508.788801
 20
287.336769
 40
4.000000
 41
1.000000
  1
⑮
  7
KANJI
 50
360.000000
 51
0.000000
  0
LINE
  8
1
 62
7
  6
DASHDOT
 10
520.890894
 20
274.053061
 11
530.967654
 21
274.053061
  0
LINE
  8
1
 62
7
  6
CONTINUOUS
 10
569.421046
 20
273.703061
 11
569.421046
 21
274.053061
  0
LINE
  8
1
 62
7
  6
CONTINUOUS
 10
503.958719
 20
280.136830
 11
507.910536
 21
268.281379
  0
TEXT
  8
2
 62
134
  6
CONTINUOUS
 10
527.077550
 20
283.683381
 40
4.000000
 41
1.000000
  1
ｽﾄﾚｰﾄ(標準)
  7
KANJI
 50
360.000000
 51
30.000000
  0
LINE
  8
1
 62
7
  6
DASHDOT
 10
581.684998
 20
302.111511
 11
505.986642
 21
302.111511
  0
LINE
  8
1
 62
7
  6
CONTINUOUS
 10
570.421046
 20
311.611511
 11
570.421046
 21
292.611511
  0
LINE
  8
1
 62
7
  6
CONTINUOUS
 10
570.421046
 20
311.211511
 11
574.421046
 21
311.211511
  0
LINE
  8
1
 62
7
  6
CONTINUOUS
 10
570.421046
 20
293.011511
 11
574.421046
 21
293.011511
  0
LINE
  8
1
 62
7
  6
CONTINUOUS
 10
570.421046
 20
292.611511
 11
565.944306
 21
292.611511
  0
LINE
  8
1
 62
7
  6
CONTINUOUS
 10
565.944306
 20
311.611511
 11
570.421046
 21
311.611511
  0
LINE
  8
1
 62
7
  6
CONTINUOUS
 10
574.421046
 20
311.211511
 11
574.421046
 21
293.011511
  0
LINE
  8
1
 62
7
  6
CONTINUOUS
 10
565.944306
 20
311.611511
 11
562.921046
 21
311.611511
  0
LINE
  8
1
 62
7
  6
CONTINUOUS
 10
562.921046
 20
292.611511
 11
565.944306
 21
292.611511
  0
LINE
  8
1
 62
7
  6
CONTINUOUS
 10
562.921046
 20
311.611511
 11
562.921046
 21
292.611511
  0
LINE
  8
1
 62
7
  6
CONTINUOUS
 10
562.921046
 20
311.611511
 11
558.821046
 21
311.611511
  0
LINE
  8
1
 62
7
  6
CONTINUOUS
 10
562.921046
 20
292.611511
 11
558.821046
 21
292.611511
  0
LINE
  8
1
 62
7
  6
CONTINUOUS
 10
558.821046
 20
311.611511
 11
558.821046
 21
292.611511
  0
LINE
  8
1
 62
7
  6
CONTINUOUS
 10
558.821046
 20
310.811511
 11
553.021046
 21
310.811511
  0
LINE
  8
1
 62
7
  6
CONTINUOUS
 10
553.021046
 20
310.811511
 11
553.021046
 21
293.411511
  0
LINE
  8
1
 62
7
  6
CONTINUOUS
 10
553.021046
 20
293.411511
 11
558.821046
 21
293.411511
  0
LINE
  8
1
 62
7
  6
CONTINUOUS
 10
553.021046
 20
309.211511
 11
543.621046
 21
309.211511
  0
LINE
  8
1
 62
7
  6
CONTINUOUS
 10
553.021046
 20
295.011511
 11
543.621046
 21
295.011511
  0
LINE
  8
1
 62
7
  6
CONTINUOUS
 10
543.621046
 20
309.411511
 11
543.621046
 21
294.811511
  0
LINE
  8
1
 62
7
  6
CONTINUOUS
 10
533.621046
 20
309.411511
 11
533.621046
 21
294.811511
  0
LINE
  8
1
 62
7
  6
CONTINUOUS
 10
543.621046
 20
309.411511
 11
530.921046
 21
309.411511
  0
LINE
  8
1
 62
7
  6
CONTINUOUS
 10
530.921046
 20
294.811511
 11
543.621046
 21
294.811511
  0
LINE
  8
1
 62
7
  6
CONTINUOUS
 10
530.921046
 20
309.411511
 11
530.921046
 21
294.811511
  0
LINE
  8
1
 62
7
  6
CONTINUOUS
 10
574.421046
 20
307.861511
 11
576.221046
 21
307.861511
  0
LINE
  8
1
 62
7
  6
CONTINUOUS
 10
576.221046
 20
296.361511
 11
574.421046
 21
296.361511
  0
LINE
  8
1
 62
7
  6
CONTINUOUS
 10
576.221046
 20
307.861511
 11
576.221046
 21
296.361511
  0
LINE
  8
1
 62
7
  6
CONTINUOUS
 10
527.221046
 20
298.611511
 11
507.203309
 21
298.611511
  0
LINE
  8
1
 62
7
  6
CONTINUOUS
 10
504.769975
 20
305.611511
 11
527.221046
 21
305.611511
  0
LINE
  8
1
 62
7
  6
CONTINUOUS
 10
527.221046
 20
307.861511
 11
530.921046
 21
309.411511
  0
LINE
  8
1
 62
7
  6
CONTINUOUS
 10
527.221046
 20
296.361511
 11
530.921046
 21
294.811511
  0
LINE
  8
1
 62
7
  6
CONTINUOUS
 10
527.221046
 20
307.861511
 11
527.221046
 21
296.361511
  0
LINE
  8
1
 62
7
  6
DASHDOT
 10
560.721046
 20
274.053061
 11
505.986642
 21
274.053061
  0
LINE
  8
1
 62
7
  6
DASHDOT
 10
560.721046
 20
245.039109
 11
560.721046
 21
274.053061
  0
LINE
  8
1
 62
7
  6
CONTINUOUS
 10
570.221046
 20
256.303061
 11
551.221046
 21
256.303061
  0
LINE
  8
1
 62
7
  6
CONTINUOUS
 10
569.821046
 20
256.303061
 11
569.821046
 21
252.303061
  0
LINE
  8
1
 62
7
  6
CONTINUOUS
 10
551.621046
 20
256.303061
 11
551.621046
 21
252.303061
  0
LINE
  8
1
 62
7
  6
CONTINUOUS
 10
551.221046
 20
256.303061
 11
551.221046
 21
260.779802
  0
LINE
  8
1
 62
7
  6
CONTINUOUS
 10
570.221046
 20
260.779802
 11
570.221046
 21
256.303061
  0
LINE
  8
1
 62
7
  6
CONTINUOUS
 10
569.821046
 20
252.303061
 11
551.621046
 21
252.303061
  0
LINE
  8
1
 62
7
  6
CONTINUOUS
 10
570.221046
 20
260.779802
 11
570.221046
 21
263.803061
  0
LINE
  8
1
 62
7
  6
CONTINUOUS
 10
551.221046
 20
263.803061
 11
551.221046
 21
260.779802
  0
LINE
  8
1
 62
7
  6
CONTINUOUS
 10
570.221046
 20
263.803061
 11
551.221046
 21
263.803061
  0
LINE
  8
1
 62
7
  6
CONTINUOUS
 10
570.221046
 20
263.803061
 11
570.221046
 21
267.903061
  0
LINE
  8
1
 62
7
  6
CONTINUOUS
 10
551.221046
 20
263.803061
 11
551.221046
 21
267.903061
  0
LINE
  8
1
 62
7
  6
CONTINUOUS
 10
569.421046
 20
267.903061
 11
569.421046
 21
273.703061
  0
LINE
  8
1
 62
7
  6
CONTINUOUS
 10
566.471046
 20
252.303061
 11
566.471046
 21
250.503061
  0
LINE
  8
1
 62
7
  6
CONTINUOUS
 10
554.971046
 20
250.503061
 11
554.971046
 21
252.303061
  0
LINE
  8
1
 62
7
  6
CONTINUOUS
 10
566.471046
 20
250.503061
 11
554.971046
 21
250.503061
  0
LINE
  8
1
 62
7
  6
CONTINUOUS
 10
543.621046
 20
281.353061
 11
543.621046
 21
266.753061
  0
LINE
  8
1
 62
7
  6
CONTINUOUS
 10
533.621046
 20
281.353061
 11
533.621046
 21
266.753061
  0
LINE
  8
1
 62
7
  6
CONTINUOUS
 10
543.621046
 20
281.353061
 11
530.921046
 21
281.353061
  0
LINE
  8
1
 62
7
  6
CONTINUOUS
 10
530.921046
 20
266.753061
 11
543.621046
 21
266.753061
  0
LINE
  8
1
 62
7
  6
CONTINUOUS
 10
530.921046
 20
281.353061
 11
530.921046
 21
266.753061
  0
LINE
  8
1
 62
7
  6
CONTINUOUS
 10
527.221046
 20
270.553061
 11
507.203309
 21
270.553061
  0
LINE
  8
1
 62
7
  6
CONTINUOUS
 10
504.769975
 20
277.553061
 11
527.221046
 21
277.553061
  0
LINE
  8
1
 62
7
  6
CONTINUOUS
 10
527.221046
 20
279.803061
 11
530.921046
 21
281.353061
  0
LINE
  8
1
 62
7
  6
CONTINUOUS
 10
527.221046
 20
268.303061
 11
530.921046
 21
266.753061
  0
LINE
  8
1
 62
7
  6
CONTINUOUS
 10
527.221046
 20
279.803061
 11
527.221046
 21
268.303061
  0
LINE
  8
1
 62
7
  6
CONTINUOUS
 10
570.221046
 20
267.903061
 11
550.252800
 21
267.903061
  0
LINE
  8
1
 62
7
  6
CONTINUOUS
 10
550.252800
 20
266.953061
 11
550.252800
 21
267.903061
  0
LINE
  8
1
 62
7
  6
CONTINUOUS
 10
550.252800
 20
266.953061
 11
543.621046
 21
266.953061
  0
ARC
  8
1
 62
7
  6
CONTINUOUS
 10
562.321046
 20
274.053061
 40
7.100000
 50
0.000000
 51
90.000000
  0
LINE
  8
1
 62
7
  6
CONTINUOUS
 10
562.321046
 20
281.153061
 11
543.621046
 21
281.153061
  0
TEXT
  8
4
 62
54
  6
CONTINUOUS
 10
516.444655
 20
251.861006
 40
4.000000
 41
1.000000
  1
⑯
  7
KANJI
 50
360.000000
 51
0.000000
  0
TEXT
  8
2
 62
134
  6
CONTINUOUS
 10
495.201853
 20
248.063972
 40
4.000000
 41
0.500000
  1
ｱﾝｸﾞﾙ(ｵﾌﾟｼｮﾝ)
  7
KANJI
 50
360.000000
 51
30.000000
  0
DIMENSION
  8
2
 62
134
  6
CONTINUOUS
  2
*D14
 10
560.721046
 20
246.256604
 11
544.296271
 21
246.256604
 70
     0
  1
33.5
 13
560.721046
 23
246.256604
 14
527.221046
 24
267.303061
 50
180.000000
  0
TEXT
  8
2
 62
134
  6
CONTINUOUS
 10
376.617056
 20
314.065055
 40
3.000000
 41
1.000000
  1
XN2A-1870（オムロン）
  7
KANJI
 50
360.000000
 51
0.000000
  0
TEXT
  8
2
 62
134
  6
CONTINUOUS
 10
376.683115
 20
317.698284
 40
3.000000
 41
1.000000
  1
e-CON コネクタ　8ピン
  7
KANJI
 50
360.000000
 51
0.000000
  0
LINE
  8
2
 62
134
  6
CONTINUOUS
 10
408.754415
 20
313.592584
 11
373.754415
 21
313.592584
  0
LINE
  8
2
 62
134
  6
CONTINUOUS
 10
403.754415
 20
313.592584
 11
403.754415
 21
281.460833
  0
LINE
  8
2
 62
134
  6
CONTINUOUS
 10
408.754415
 20
284.960833
 11
373.754415
 21
284.960833
  0
LINE
  8
2
 62
134
  6
CONTINUOUS
 10
373.754415
 20
288.460833
 11
408.754415
 21
288.460833
  0
LINE
  8
2
 62
134
  6
CONTINUOUS
 10
408.754415
 20
291.960833
 11
373.754415
 21
291.960833
  0
LINE
  8
2
 62
134
  6
CONTINUOUS
 10
373.754415
 20
295.460833
 11
408.754415
 21
295.460833
  0
LINE
  8
2
 62
134
  6
CONTINUOUS
 10
408.754415
 20
298.960833
 11
373.754415
 21
298.960833
  0
LINE
  8
2
 62
134
  6
CONTINUOUS
 10
373.754415
 20
302.460833
 11
408.754415
 21
302.460833
  0
LINE
  8
2
 62
134
  6
CONTINUOUS
 10
408.754415
 20
309.460833
 11
373.754415
 21
309.460833
  0
LINE
  8
2
 62
134
  6
CONTINUOUS
 10
408.754415
 20
305.960833
 11
373.754415
 21
305.960833
  0
LINE
  8
2
 62
134
  6
CONTINUOUS
 10
373.754415
 20
281.460833
 11
408.754415
 21
281.460833
  0
LINE
  8
2
 62
134
  6
CONTINUOUS
 10
373.754415
 20
313.592584
 11
373.754415
 21
281.460833
  0
LINE
  8
2
 62
134
  6
CONTINUOUS
 10
408.754415
 20
313.592584
 11
408.754415
 21
281.460833
  0
TEXT
  8
2
 62
134
  6
CONTINUOUS
 10
405.553106
 20
281.451882
 40
3.000000
 41
0.500000
  1
8
  7
KANJI
 50
360.000000
 51
0.000000
  0
TEXT
  8
2
 62
134
  6
CONTINUOUS
 10
405.553106
 20
284.951882
 40
3.000000
 41
0.500000
  1
7
  7
KANJI
 50
360.000000
 51
0.000000
  0
TEXT
  8
2
 62
134
  6
CONTINUOUS
 10
376.553106
 20
291.951882
 40
3.000000
 41
1.000000
  1
ｱﾗｰﾑ出力/外部照準
  7
KANJI
 50
360.000000
 51
0.000000
  0
TEXT
  8
2
 62
134
  6
CONTINUOUS
 10
405.553106
 20
291.951882
 40
3.000000
 41
0.500000
  1
5
  7
KANJI
 50
360.000000
 51
0.000000
  0
TEXT
  8
2
 62
134
  6
CONTINUOUS
 10
405.553106
 20
288.451882
 40
3.000000
 41
0.500000
  1
6
  7
KANJI
 50
360.000000
 51
0.000000
  0
TEXT
  8
2
 62
134
  6
CONTINUOUS
 10
387.053106
 20
295.451882
 40
3.000000
 41
0.500000
  1
RS232C TxD
  7
KANJI
 50
360.000000
 51
0.000000
  0
TEXT
  8
2
 62
134
  6
CONTINUOUS
 10
387.053106
 20
302.451882
 40
3.000000
 41
0.500000
  1
RS232C RxD
  7
KANJI
 50
360.000000
 51
0.000000
  0
TEXT
  8
2
 62
134
  6
CONTINUOUS
 10
386.603331
 20
309.920377
 40
3.000000
 41
1.000000
  1
信号名
  7
KANJI
 50
360.000000
 51
0.000000
  0
TEXT
  8
2
 62
134
  6
CONTINUOUS
 10
404.599955
 20
310.083634
 40
3.000000
 41
0.500000
  1
No
  7
KANJI
 50
360.000000
 51
0.000000
  0
TEXT
  8
2
 62
134
  6
CONTINUOUS
 10
405.553106
 20
295.451882
 40
3.000000
 41
0.500000
  1
4
  7
KANJI
 50
360.000000
 51
0.000000
  0
TEXT
  8
2
 62
134
  6
CONTINUOUS
 10
405.553106
 20
298.951882
 40
3.000000
 41
0.500000
  1
3
  7
KANJI
 50
360.000000
 51
0.000000
  0
TEXT
  8
2
 62
134
  6
CONTINUOUS
 10
405.553106
 20
302.451882
 40
3.000000
 41
0.500000
  1
2
  7
KANJI
 50
360.000000
 51
0.000000
  0
TEXT
  8
2
 62
134
  6
CONTINUOUS
 10
405.553106
 20
305.951882
 40
3.000000
 41
0.500000
  1
1
  7
KANJI
 50
360.000000
 51
0.000000
  0
TEXT
  8
2
 62
134
  6
CONTINUOUS
 10
381.053106
 20
305.951882
 40
3.000000
 41
1.000000
  1
DCIN 4.7V～27V
  7
KANJI
 50
360.000000
 51
0.000000
  0
TEXT
  8
2
 62
134
  6
CONTINUOUS
 10
393.053106
 20
298.951882
 40
3.000000
 41
0.500000
  1
DC-GND
  7
KANJI
 50
360.000000
 51
0.000000
  0
TEXT
  8
2
 62
134
  6
CONTINUOUS
 10
385.553106
 20
284.951882
 40
3.000000
 41
0.500000
  1
ｱﾅﾛｸﾞ-GND 1
  7
KANJI
 50
360.000000
 51
0.000000
  0
TEXT
  8
2
 62
134
  6
CONTINUOUS
 10
388.553106
 20
288.451882
 40
3.000000
 41
1.000000
  1
ｱﾅﾛｸﾞ出力
  7
KANJI
 50
360.000000
 51
0.000000
  0
TEXT
  8
2
 62
134
  6
CONTINUOUS
 10
385.553106
 20
281.451882
 40
3.000000
 41
0.500000
  1
ｱﾅﾛｸﾞ-GND 2
  7
KANJI
 50
360.000000
 51
0.000000
  0
LINE
  8
2
 62
134
  6
CONTINUOUS
 10
442.123175
 20
313.676634
 11
409.555744
 21
321.097600
  0
LINE
  8
2
 62
134
  6
CONTINUOUS
 10
409.555744
 20
321.097600
 11
386.441432
 21
321.097600
  0
TEXT
  8
2
 62
134
  6
CONTINUOUS
 10
386.441432
 20
321.097600
 40
4.000000
 41
1.000000
  1
　出力ｺﾈｸﾀ
  7
KANJI
 50
360.000000
 51
0.000000
  0
LINE
  8
2
 62
134
  6
CONTINUOUS
 10
442.123175
 20
313.676634
 11
440.124601
 21
313.601132
  0
LINE
  8
2
 62
134
  6
CONTINUOUS
 10
442.123175
 20
313.676634
 11
440.354608
 21
314.610534
  0
LINE
  8
2
 62
134
  6
CONTINUOUS
 10
440.124601
 20
313.601132
 11
440.354608
 21
314.610534
  0
LINE
  8
2
 62
134
  6
CONTINUOUS
 10
441.652283
 20
313.783934
 11
440.652995
 21
313.746183
  0
LINE
  8
2
 62
134
  6
CONTINUOUS
 10
441.652283
 20
313.783934
 11
440.767999
 21
314.250884
  0
LINE
  8
2
 62
134
  6
CONTINUOUS
 10
440.652995
 20
313.746183
 11
440.767999
 21
314.250884
  0
TEXT
  8
4
 62
54
  6
CONTINUOUS
 10
403.702763
 20
321.890760
 40
4.000000
 41
1.000000
  1
⑰
  7
KANJI
 50
360.000000
 51
0.000000
  0
TEXT
  8
2
 62
134
  6
CONTINUOUS
 10
432.845734
 20
307.478761
 40
4.000000
 41
0.500000
  1
1
  7
KANJI
 50
360.000000
 51
0.000000
  0
TEXT
  8
2
 62
134
  6
CONTINUOUS
 10
432.794726
 20
293.076623
 40
4.000000
 41
0.500000
  1
8
  7
KANJI
 50
360.000000
 51
0.000000
  0
DIMENSION
  8
2
 62
134
  6
CONTINUOUS
  2
*D15
 10
427.381452
 20
292.161511
 11
427.381452
 21
303.130241
 70
     0
  1
24.5
 13
449.221003
 23
292.161511
 14
431.586867
 24
316.634603
 50
90.000000
  0
DIMENSION
  8
2
 62
134
  6
CONTINUOUS
  2
*D16
 10
576.221046
 20
323.571276
 11
514.381178
 21
323.571276
 70
     0
  1
ｹｰﾌﾞﾙ長(標準2m)
 13
576.221046
 23
308.861511
 14
454.137834
 24
314.548473
 50
180.000000
  0
DIMENSION
  8
2
 62
134
  6
CONTINUOUS
  2
*D17
 10
454.137834
 20
323.571276
 11
445.887582
 21
323.571276
 70
     0
  1
18
 13
454.137834
 23
314.761511
 14
436.137834
 24
314.548473
 50
180.000000
  0
LINE
  8
2
 62
134
  6
CONTINUOUS
 10
554.963563
 20
293.911511
 11
549.077550
 21
287.683381
  0
LINE
  8
2
 62
134
  6
CONTINUOUS
 10
549.077550
 20
287.683381
 11
514.500754
 21
287.683381
  0
TEXT
  8
2
 62
134
  6
CONTINUOUS
 10
514.500754
 20
287.480415
 40
4.000000
 41
1.000000
  1
　ﾍｯﾄﾞｺﾈｸﾀ(ﾌﾟﾗｸﾞ)
  7
KANJI
 50
360.000000
 51
0.000000
  0
LINE
  8
2
 62
134
  6
CONTINUOUS
 10
554.963563
 20
293.911511
 11
554.012857
 21
292.151921
  0
LINE
  8
2
 62
134
  6
CONTINUOUS
 10
554.963563
 20
293.911511
 11
553.260433
 21
292.863014
  0
LINE
  8
2
 62
134
  6
CONTINUOUS
 10
554.012857
 20
292.151921
 11
553.260433
 21
292.863014
  0
LINE
  8
2
 62
134
  6
CONTINUOUS
 10
554.631834
 20
293.560501
 11
554.156481
 21
292.680705
  0
LINE
  8
2
 62
134
  6
CONTINUOUS
 10
554.631834
 20
293.560501
 11
553.780268
 21
293.036252
  0
LINE
  8
2
 62
134
  6
CONTINUOUS
 10
554.156481
 20
292.680705
 11
553.780268
 21
293.036252
  0
LINE
  8
2
 62
134
  6
CONTINUOUS
 10
547.018319
 20
266.953061
 11
521.201853
 21
252.063972
  0
LINE
  8
2
 62
134
  6
CONTINUOUS
 10
521.201853
 20
252.063972
 11
486.737755
 21
252.063972
  0
TEXT
  8
2
 62
134
  6
CONTINUOUS
 10
486.737755
 20
251.861006
 40
4.000000
 41
1.000000
  1
　ﾍｯﾄﾞｺﾈｸﾀ(ﾌﾟﾗｸﾞ)
  7
KANJI
 50
360.000000
 51
0.000000
  0
LINE
  8
2
 62
134
  6
CONTINUOUS
 10
547.018319
 20
266.953061
 11
545.603446
 21
265.539507
  0
LINE
  8
2
 62
134
  6
CONTINUOUS
 10
547.018319
 20
266.953061
 11
545.086226
 21
266.436324
  0
LINE
  8
2
 62
134
  6
CONTINUOUS
 10
545.603446
 20
265.539507
 11
545.086226
 21
266.436324
  0
LINE
  8
2
 62
134
  6
CONTINUOUS
 10
546.599948
 20
266.711775
 11
545.892512
 21
266.004998
  0
LINE
  8
2
 62
134
  6
CONTINUOUS
 10
546.599948
 20
266.711775
 11
545.633902
 21
266.453406
  0
LINE
  8
2
 62
134
  6
CONTINUOUS
 10
545.892512
 20
266.004998
 11
545.633902
 21
266.453406
  0
TEXT
  8
5
 62
94
  6
CONTINUOUS
 10
236.077166
 20
19.879949
 40
4.000000
 41
1.000000
  1
００５－０６５－Ａ１７５
  7
KANJI
 50
0.000000
 51
0.000000
  0
TEXT
  8
5
 62
94
  6
CONTINUOUS
 10
239.171535
 20
36.594343
 40
4.000000
 41
1.000000
  1
分岐ケーブル
  7
KANJI
 50
0.000000
 51
0.000000
  0
TEXT
  8
5
 62
94
  6
CONTINUOUS
 10
239.338824
 20
31.817343
 40
4.000000
 41
1.000000
  1
ＴＭＢＸ－Ｂ０１
  7
KANJI
 50
0.000000
 51
0.000000
  0
TEXT
  8
5
 62
94
  6
CONTINUOUS
 10
239.338824
 20
27.212899
 40
4.000000
 41
1.000000
  1
外形図
  7
KANJI
 50
0.000000
 51
0.000000
  0
LINE
  8
1
 62
7
  6
CONTINUOUS
 10
119.466170
 20
103.500000
 11
119.466170
 21
95.375000
  0
LINE
  8
1
 62
7
  6
CONTINUOUS
 10
99.466170
 20
103.500000
 11
99.466170
 21
95.375000
  0
LINE
  8
1
 62
7
  6
CONTINUOUS
 10
99.466170
 20
95.375000
 11
119.466170
 21
95.375000
  0
LINE
  8
1
 62
7
  6
CONTINUOUS
 10
238.965540
 20
101.800000
 11
238.403302
 21
101.800000
  0
LINE
  8
1
 62
7
  6
CONTINUOUS
 10
238.403302
 20
105.200000
 11
238.965540
 21
105.200000
  0
LINE
  8
1
 62
7
  6
DASHDOT
 10
249.379772
 20
103.500000
 11
238.403302
 21
103.500000
  0
LINE
  8
1
 62
7
  6
CONTINUOUS
 10
238.403302
 20
101.800000
 11
238.965540
 21
101.800000
  0
LINE
  8
1
 62
7
  6
CONTINUOUS
 10
238.965540
 20
105.200000
 11
238.403302
 21
105.200000
  0
LINE
  8
1
 62
7
  6
DASHDOT
 10
249.379772
 20
103.500000
 11
238.403302
 21
103.500000
  0
LINE
  8
1
 62
7
  6
CONTINUOUS
 10
227.332140
 20
105.500000
 11
227.332140
 21
101.500000
  0
LINE
  8
1
 62
7
  6
CONTINUOUS
 10
227.332140
 20
101.500000
 11
238.403302
 21
101.500000
  0
LINE
  8
1
 62
7
  6
CONTINUOUS
 10
238.403302
 20
101.500000
 11
238.403302
 21
105.500000
  0
LINE
  8
1
 62
7
  6
CONTINUOUS
 10
238.403302
 20
105.500000
 11
227.332140
 21
105.500000
  0
ARC
  8
1
 62
7
  6
CONTINUOUS
 10
241.596391
 20
110.944954
 40
5.000000
 50
-76.912432
 51
-63.764215
  0
LINE
  8
1
 62
7
  6
CONTINUOUS
 10
238.965540
 20
105.200000
 11
242.728591
 21
106.074829
  0
ARC
  8
1
 62
7
  6
CONTINUOUS
 10
245.265540
 20
103.500000
 40
3.300000
 50
-116.282036
 51
116.235785
  0
ARC
  8
1
 62
7
  6
CONTINUOUS
 10
241.590382
 20
96.058010
 40
5.000000
 50
63.717964
 51
76.935117
  0
LINE
  8
1
 62
7
  6
CONTINUOUS
 10
238.965540
 20
101.800000
 11
242.720654
 21
100.928584
  0
LINE
  8
1
 62
7
  6
DASHDOT
 10
245.265540
 20
99.692803
 11
245.265540
 21
107.556067
  0
CIRCLE
  8
1
 62
7
  6
CONTINUOUS
 10
245.265540
 20
103.500000
 40
1.850000
  0
ARC
  8
1
 62
7
  6
CONTINUOUS
 10
241.596391
 20
96.055046
 40
5.000000
 50
63.764215
 51
76.912432
  0
LINE
  8
1
 62
7
  6
CONTINUOUS
 10
238.965540
 20
101.800000
 11
242.728591
 21
100.925171
  0
ARC
  8
1
 62
7
  6
CONTINUOUS
 10
245.265540
 20
103.500000
 40
3.300000
 50
-116.235785
 51
116.282036
  0
ARC
  8
1
 62
7
  6
CONTINUOUS
 10
241.590382
 20
110.941990
 40
5.000000
 50
-76.935117
 51
-63.717964
  0
LINE
  8
1
 62
7
  6
CONTINUOUS
 10
238.965540
 20
105.200000
 11
242.720654
 21
106.071416
  0
LINE
  8
1
 62
7
  6
DASHDOT
 10
245.265540
 20
107.307197
 11
245.265540
 21
99.443933
  0
CIRCLE
  8
1
 62
7
  6
CONTINUOUS
 10
245.265540
 20
103.500000
 40
1.850000
  0
LINE
  8
1
 62
7
  6
CONTINUOUS
 10
227.332140
 20
104.393048
 11
214.095931
 21
104.393048
  0
LINE
  8
1
 62
7
  6
CONTINUOUS
 10
227.332140
 20
103.193048
 11
214.120423
 21
103.193048
  0
TEXT
  8
1
 62
7
  6
DASHDOT
 10
231.879679
 20
121.500000
 40
4.000000
 41
0.500000
  1
1
  7
KANJI
 50
0.000000
 51
0.000000
  0
LINE
  8
1
 62
7
  6
CONTINUOUS
 10
238.965540
 20
121.800000
 11
238.403302
 21
121.800000
  0
LINE
  8
1
 62
7
  6
CONTINUOUS
 10
238.403302
 20
125.200000
 11
238.965540
 21
125.200000
  0
LINE
  8
1
 62
7
  6
DASHDOT
 10
249.379772
 20
123.500000
 11
238.403302
 21
123.500000
  0
LINE
  8
1
 62
7
  6
CONTINUOUS
 10
238.403302
 20
121.800000
 11
238.965540
 21
121.800000
  0
LINE
  8
1
 62
7
  6
CONTINUOUS
 10
238.965540
 20
125.200000
 11
238.403302
 21
125.200000
  0
LINE
  8
1
 62
7
  6
DASHDOT
 10
249.379772
 20
123.500000
 11
238.403302
 21
123.500000
  0
LINE
  8
1
 62
7
  6
CONTINUOUS
 10
227.332140
 20
125.500000
 11
227.332140
 21
121.500000
  0
LINE
  8
1
 62
7
  6
CONTINUOUS
 10
227.332140
 20
121.500000
 11
238.403302
 21
121.500000
  0
LINE
  8
1
 62
7
  6
CONTINUOUS
 10
238.403302
 20
121.500000
 11
238.403302
 21
125.500000
  0
LINE
  8
1
 62
7
  6
CONTINUOUS
 10
238.403302
 20
125.500000
 11
227.332140
 21
125.500000
  0
ARC
  8
1
 62
7
  6
CONTINUOUS
 10
241.596391
 20
130.944954
 40
5.000000
 50
-76.912432
 51
-63.764215
  0
LINE
  8
1
 62
7
  6
CONTINUOUS
 10
238.965540
 20
125.200000
 11
242.728591
 21
126.074829
  0
ARC
  8
1
 62
7
  6
CONTINUOUS
 10
245.265540
 20
123.500000
 40
3.300000
 50
-116.282036
 51
116.235785
  0
ARC
  8
1
 62
7
  6
CONTINUOUS
 10
241.590382
 20
116.058010
 40
5.000000
 50
63.717964
 51
76.935117
  0
LINE
  8
1
 62
7
  6
CONTINUOUS
 10
238.965540
 20
121.800000
 11
242.720654
 21
120.928584
  0
LINE
  8
1
 62
7
  6
DASHDOT
 10
245.265540
 20
119.692803
 11
245.265540
 21
127.556067
  0
CIRCLE
  8
1
 62
7
  6
CONTINUOUS
 10
245.265540
 20
123.500000
 40
1.850000
  0
ARC
  8
1
 62
7
  6
CONTINUOUS
 10
241.596391
 20
116.055046
 40
5.000000
 50
63.764215
 51
76.912432
  0
LINE
  8
1
 62
7
  6
CONTINUOUS
 10
238.965540
 20
121.800000
 11
242.728591
 21
120.925171
  0
ARC
  8
1
 62
7
  6
CONTINUOUS
 10
245.265540
 20
123.500000
 40
3.300000
 50
-116.235785
 51
116.282036
  0
ARC
  8
1
 62
7
  6
CONTINUOUS
 10
241.590382
 20
130.941990
 40
5.000000
 50
-76.935117
 51
-63.717964
  0
LINE
  8
1
 62
7
  6
CONTINUOUS
 10
238.965540
 20
125.200000
 11
242.720654
 21
126.071416
  0
LINE
  8
1
 62
7
  6
DASHDOT
 10
245.265540
 20
127.307197
 11
245.265540
 21
119.443933
  0
CIRCLE
  8
1
 62
7
  6
CONTINUOUS
 10
245.265540
 20
123.500000
 40
1.850000
  0
LINE
  8
1
 62
7
  6
CONTINUOUS
 10
238.965540
 20
111.800000
 11
238.403302
 21
111.800000
  0
LINE
  8
1
 62
7
  6
CONTINUOUS
 10
238.403302
 20
115.200000
 11
238.965540
 21
115.200000
  0
LINE
  8
1
 62
7
  6
DASHDOT
 10
249.379772
 20
113.500000
 11
238.403302
 21
113.500000
  0
LINE
  8
1
 62
7
  6
CONTINUOUS
 10
238.403302
 20
111.800000
 11
238.965540
 21
111.800000
  0
LINE
  8
1
 62
7
  6
CONTINUOUS
 10
238.965540
 20
115.200000
 11
238.403302
 21
115.200000
  0
LINE
  8
1
 62
7
  6
DASHDOT
 10
249.379772
 20
113.500000
 11
238.403302
 21
113.500000
  0
LINE
  8
1
 62
7
  6
CONTINUOUS
 10
227.332140
 20
115.500000
 11
227.332140
 21
111.500000
  0
LINE
  8
1
 62
7
  6
CONTINUOUS
 10
227.332140
 20
111.500000
 11
238.403302
 21
111.500000
  0
LINE
  8
1
 62
7
  6
CONTINUOUS
 10
238.403302
 20
111.500000
 11
238.403302
 21
115.500000
  0
LINE
  8
1
 62
7
  6
CONTINUOUS
 10
238.403302
 20
115.500000
 11
227.332140
 21
115.500000
  0
ARC
  8
1
 62
7
  6
CONTINUOUS
 10
241.596391
 20
120.944954
 40
5.000000
 50
-76.912432
 51
-63.764215
  0
LINE
  8
1
 62
7
  6
CONTINUOUS
 10
238.965540
 20
115.200000
 11
242.728591
 21
116.074829
  0
ARC
  8
1
 62
7
  6
CONTINUOUS
 10
245.265540
 20
113.500000
 40
3.300000
 50
-116.282036
 51
116.235785
  0
ARC
  8
1
 62
7
  6
CONTINUOUS
 10
241.590382
 20
106.058010
 40
5.000000
 50
63.717964
 51
76.935117
  0
LINE
  8
1
 62
7
  6
CONTINUOUS
 10
238.965540
 20
111.800000
 11
242.720654
 21
110.928584
  0
LINE
  8
1
 62
7
  6
DASHDOT
 10
245.265540
 20
109.692803
 11
245.265540
 21
117.556067
  0
CIRCLE
  8
1
 62
7
  6
CONTINUOUS
 10
245.265540
 20
113.500000
 40
1.850000
  0
ARC
  8
1
 62
7
  6
CONTINUOUS
 10
241.596391
 20
106.055046
 40
5.000000
 50
63.764215
 51
76.912432
  0
LINE
  8
1
 62
7
  6
CONTINUOUS
 10
238.965540
 20
111.800000
 11
242.728591
 21
110.925171
  0
ARC
  8
1
 62
7
  6
CONTINUOUS
 10
245.265540
 20
113.500000
 40
3.300000
 50
-116.235785
 51
116.282036
  0
ARC
  8
1
 62
7
  6
CONTINUOUS
 10
241.590382
 20
120.941990
 40
5.000000
 50
-76.935117
 51
-63.717964
  0
LINE
  8
1
 62
7
  6
CONTINUOUS
 10
238.965540
 20
115.200000
 11
242.720654
 21
116.071416
  0
LINE
  8
1
 62
7
  6
DASHDOT
 10
245.265540
 20
117.307197
 11
245.265540
 21
109.443933
  0
CIRCLE
  8
1
 62
7
  6
CONTINUOUS
 10
245.265540
 20
113.500000
 40
1.850000
  0
LINE
  8
1
 62
7
  6
CONTINUOUS
 10
227.332140
 20
114.393048
 11
214.095931
 21
114.393048
  0
LINE
  8
1
 62
7
  6
CONTINUOUS
 10
227.332140
 20
113.193048
 11
214.120423
 21
113.193048
  0
LINE
  8
1
 62
7
  6
CONTINUOUS
 10
238.965540
 20
91.800000
 11
238.403302
 21
91.800000
  0
LINE
  8
1
 62
7
  6
CONTINUOUS
 10
238.403302
 20
95.200000
 11
238.965540
 21
95.200000
  0
LINE
  8
1
 62
7
  6
DASHDOT
 10
249.379772
 20
93.500000
 11
238.403302
 21
93.500000
  0
LINE
  8
1
 62
7
  6
CONTINUOUS
 10
238.403302
 20
91.800000
 11
238.965540
 21
91.800000
  0
LINE
  8
1
 62
7
  6
CONTINUOUS
 10
238.965540
 20
95.200000
 11
238.403302
 21
95.200000
  0
LINE
  8
1
 62
7
  6
DASHDOT
 10
249.379772
 20
93.500000
 11
238.403302
 21
93.500000
  0
LINE
  8
1
 62
7
  6
CONTINUOUS
 10
227.332140
 20
95.500000
 11
227.332140
 21
91.500000
  0
LINE
  8
1
 62
7
  6
CONTINUOUS
 10
227.332140
 20
91.500000
 11
238.403302
 21
91.500000
  0
LINE
  8
1
 62
7
  6
CONTINUOUS
 10
238.403302
 20
91.500000
 11
238.403302
 21
95.500000
  0
LINE
  8
1
 62
7
  6
CONTINUOUS
 10
238.403302
 20
95.500000
 11
227.332140
 21
95.500000
  0
ARC
  8
1
 62
7
  6
CONTINUOUS
 10
241.596391
 20
100.944954
 40
5.000000
 50
-76.912432
 51
-63.764215
  0
LINE
  8
1
 62
7
  6
CONTINUOUS
 10
238.965540
 20
95.200000
 11
242.728591
 21
96.074829
  0
ARC
  8
1
 62
7
  6
CONTINUOUS
 10
245.265540
 20
93.500000
 40
3.300000
 50
-116.282036
 51
116.235785
  0
ARC
  8
1
 62
7
  6
CONTINUOUS
 10
241.590382
 20
86.058010
 40
5.000000
 50
63.717964
 51
76.935117
  0
LINE
  8
1
 62
7
  6
CONTINUOUS
 10
238.965540
 20
91.800000
 11
242.720654
 21
90.928584
  0
LINE
  8
1
 62
7
  6
DASHDOT
 10
245.265540
 20
89.692803
 11
245.265540
 21
97.556067
  0
CIRCLE
  8
1
 62
7
  6
CONTINUOUS
 10
245.265540
 20
93.500000
 40
1.850000
  0
ARC
  8
1
 62
7
  6
CONTINUOUS
 10
241.596391
 20
86.055046
 40
5.000000
 50
63.764215
 51
76.912432
  0
LINE
  8
1
 62
7
  6
CONTINUOUS
 10
238.965540
 20
91.800000
 11
242.728591
 21
90.925171
  0
ARC
  8
1
 62
7
  6
CONTINUOUS
 10
245.265540
 20
93.500000
 40
3.300000
 50
-116.235785
 51
116.282036
  0
ARC
  8
1
 62
7
  6
CONTINUOUS
 10
241.590382
 20
100.941990
 40
5.000000
 50
-76.935117
 51
-63.717964
  0
LINE
  8
1
 62
7
  6
CONTINUOUS
 10
238.965540
 20
95.200000
 11
242.720654
 21
96.071416
  0
LINE
  8
1
 62
7
  6
DASHDOT
 10
245.265540
 20
97.307197
 11
245.265540
 21
89.443933
  0
CIRCLE
  8
1
 62
7
  6
CONTINUOUS
 10
245.265540
 20
93.500000
 40
1.850000
  0
LINE
  8
1
 62
7
  6
CONTINUOUS
 10
227.332140
 20
94.393048
 11
214.095931
 21
94.393048
  0
LINE
  8
1
 62
7
  6
CONTINUOUS
 10
227.332140
 20
93.193048
 11
214.120423
 21
93.193048
  0
TEXT
  8
2
 62
134
  6
CONTINUOUS
 10
233.508842
 20
128.871426
 40
3.000000
 41
1.000000
  1
M3圧着端子
  7
KANJI
 50
0.000000
 51
0.000000
  0
TEXT
  8
2
 62
134
  6
CONTINUOUS
 10
220.685700
 20
104.393048
 40
4.000000
 41
0.500000
  1
ｼﾛ
  7
KANJI
 50
0.000000
 51
0.000000
  0
TEXT
  8
2
 62
134
  6
CONTINUOUS
 10
251.436707
 20
82.586918
 40
3.000000
 41
0.500000
  1
ｱﾅﾛｸﾞ-GND 1
  7
KANJI
 50
0.000000
 51
0.000000
  0
TEXT
  8
2
 62
134
  6
CONTINUOUS
 10
251.436707
 20
102.586918
 40
3.000000
 41
1.000000
  1
ｱﾗｰﾑ出力/外部照準
  7
KANJI
 50
0.000000
 51
0.000000
  0
LINE
  8
1
 62
7
  6
CONTINUOUS
 10
238.965540
 20
81.800000
 11
238.403302
 21
81.800000
  0
LINE
  8
1
 62
7
  6
CONTINUOUS
 10
238.403302
 20
85.200000
 11
238.965540
 21
85.200000
  0
LINE
  8
1
 62
7
  6
DASHDOT
 10
249.379772
 20
83.500000
 11
238.403302
 21
83.500000
  0
LINE
  8
1
 62
7
  6
CONTINUOUS
 10
238.403302
 20
81.800000
 11
238.965540
 21
81.800000
  0
LINE
  8
1
 62
7
  6
CONTINUOUS
 10
238.965540
 20
85.200000
 11
238.403302
 21
85.200000
  0
LINE
  8
1
 62
7
  6
DASHDOT
 10
249.379772
 20
83.500000
 11
238.403302
 21
83.500000
  0
LINE
  8
1
 62
7
  6
CONTINUOUS
 10
227.332140
 20
85.500000
 11
227.332140
 21
81.500000
  0
LINE
  8
1
 62
7
  6
CONTINUOUS
 10
227.332140
 20
81.500000
 11
238.403302
 21
81.500000
  0
LINE
  8
1
 62
7
  6
CONTINUOUS
 10
238.403302
 20
81.500000
 11
238.403302
 21
85.500000
  0
LINE
  8
1
 62
7
  6
CONTINUOUS
 10
238.403302
 20
85.500000
 11
227.332140
 21
85.500000
  0
ARC
  8
1
 62
7
  6
CONTINUOUS
 10
241.596391
 20
90.944954
 40
5.000000
 50
-76.912432
 51
-63.764215
  0
LINE
  8
1
 62
7
  6
CONTINUOUS
 10
238.965540
 20
85.200000
 11
242.728591
 21
86.074829
  0
ARC
  8
1
 62
7
  6
CONTINUOUS
 10
245.265540
 20
83.500000
 40
3.300000
 50
-116.282036
 51
116.235785
  0
ARC
  8
1
 62
7
  6
CONTINUOUS
 10
241.590382
 20
76.058010
 40
5.000000
 50
63.717964
 51
76.935117
  0
LINE
  8
1
 62
7
  6
CONTINUOUS
 10
238.965540
 20
81.800000
 11
242.720654
 21
80.928584
  0
LINE
  8
1
 62
7
  6
DASHDOT
 10
245.265540
 20
79.692803
 11
245.265540
 21
87.556067
  0
CIRCLE
  8
1
 62
7
  6
CONTINUOUS
 10
245.265540
 20
83.500000
 40
1.850000
  0
ARC
  8
1
 62
7
  6
CONTINUOUS
 10
241.596391
 20
76.055046
 40
5.000000
 50
63.764215
 51
76.912432
  0
LINE
  8
1
 62
7
  6
CONTINUOUS
 10
238.965540
 20
81.800000
 11
242.728591
 21
80.925171
  0
ARC
  8
1
 62
7
  6
CONTINUOUS
 10
245.265540
 20
83.500000
 40
3.300000
 50
-116.235785
 51
116.282036
  0
ARC
  8
1
 62
7
  6
CONTINUOUS
 10
241.590382
 20
90.941990
 40
5.000000
 50
-76.935117
 51
-63.717964
  0
LINE
  8
1
 62
7
  6
CONTINUOUS
 10
238.965540
 20
85.200000
 11
242.720654
 21
86.071416
  0
LINE
  8
1
 62
7
  6
DASHDOT
 10
245.265540
 20
87.307197
 11
245.265540
 21
79.443933
  0
CIRCLE
  8
1
 62
7
  6
CONTINUOUS
 10
245.265540
 20
83.500000
 40
1.850000
  0
LINE
  8
1
 62
7
  6
CONTINUOUS
 10
227.332140
 20
84.393048
 11
214.095931
 21
84.393048
  0
LINE
  8
1
 62
7
  6
CONTINUOUS
 10
238.965540
 20
71.800000
 11
238.403302
 21
71.800000
  0
LINE
  8
1
 62
7
  6
CONTINUOUS
 10
238.403302
 20
75.200000
 11
238.965540
 21
75.200000
  0
LINE
  8
1
 62
7
  6
DASHDOT
 10
249.379772
 20
73.500000
 11
238.403302
 21
73.500000
  0
LINE
  8
1
 62
7
  6
CONTINUOUS
 10
238.403302
 20
71.800000
 11
238.965540
 21
71.800000
  0
LINE
  8
1
 62
7
  6
CONTINUOUS
 10
238.965540
 20
75.200000
 11
238.403302
 21
75.200000
  0
LINE
  8
1
 62
7
  6
DASHDOT
 10
249.379772
 20
73.500000
 11
238.403302
 21
73.500000
  0
LINE
  8
1
 62
7
  6
CONTINUOUS
 10
227.332140
 20
75.500000
 11
227.332140
 21
71.500000
  0
LINE
  8
1
 62
7
  6
CONTINUOUS
 10
227.332140
 20
71.500000
 11
238.403302
 21
71.500000
  0
LINE
  8
1
 62
7
  6
CONTINUOUS
 10
238.403302
 20
71.500000
 11
238.403302
 21
75.500000
  0
LINE
  8
1
 62
7
  6
CONTINUOUS
 10
238.403302
 20
75.500000
 11
227.332140
 21
75.500000
  0
ARC
  8
1
 62
7
  6
CONTINUOUS
 10
241.596391
 20
80.944954
 40
5.000000
 50
-76.912432
 51
-63.764215
  0
LINE
  8
1
 62
7
  6
CONTINUOUS
 10
238.965540
 20
75.200000
 11
242.728591
 21
76.074829
  0
ARC
  8
1
 62
7
  6
CONTINUOUS
 10
245.265540
 20
73.500000
 40
3.300000
 50
-116.282036
 51
116.235785
  0
ARC
  8
1
 62
7
  6
CONTINUOUS
 10
241.590382
 20
66.058010
 40
5.000000
 50
63.717964
 51
76.935117
  0
LINE
  8
1
 62
7
  6
CONTINUOUS
 10
238.965540
 20
71.800000
 11
242.720654
 21
70.928584
  0
LINE
  8
1
 62
7
  6
DASHDOT
 10
245.265540
 20
69.692803
 11
245.265540
 21
77.556067
  0
CIRCLE
  8
1
 62
7
  6
CONTINUOUS
 10
245.265540
 20
73.500000
 40
1.850000
  0
ARC
  8
1
 62
7
  6
CONTINUOUS
 10
241.596391
 20
66.055046
 40
5.000000
 50
63.764215
 51
76.912432
  0
LINE
  8
1
 62
7
  6
CONTINUOUS
 10
238.965540
 20
71.800000
 11
242.728591
 21
70.925171
  0
ARC
  8
1
 62
7
  6
CONTINUOUS
 10
245.265540
 20
73.500000
 40
3.300000
 50
-116.235785
 51
116.282036
  0
ARC
  8
1
 62
7
  6
CONTINUOUS
 10
241.590382
 20
80.941990
 40
5.000000
 50
-76.935117
 51
-63.717964
  0
LINE
  8
1
 62
7
  6
CONTINUOUS
 10
238.965540
 20
75.200000
 11
242.720654
 21
76.071416
  0
LINE
  8
1
 62
7
  6
DASHDOT
 10
245.265540
 20
77.307197
 11
245.265540
 21
69.443933
  0
CIRCLE
  8
1
 62
7
  6
CONTINUOUS
 10
245.265540
 20
73.500000
 40
1.850000
  0
LINE
  8
1
 62
7
  6
CONTINUOUS
 10
227.332140
 20
74.393048
 11
214.095931
 21
74.393048
  0
TEXT
  8
1
 62
7
  6
DASHDOT
 10
231.879679
 20
111.500000
 40
4.000000
 41
0.500000
  1
3
  7
KANJI
 50
0.000000
 51
0.000000
  0
TEXT
  8
1
 62
7
  6
DASHDOT
 10
231.879679
 20
101.500000
 40
4.000000
 41
0.500000
  1
5
  7
KANJI
 50
0.000000
 51
0.000000
  0
TEXT
  8
1
 62
7
  6
DASHDOT
 10
231.879679
 20
91.500000
 40
4.000000
 41
0.500000
  1
6
  7
KANJI
 50
0.000000
 51
0.000000
  0
TEXT
  8
1
 62
7
  6
DASHDOT
 10
231.879679
 20
81.500000
 40
4.000000
 41
0.500000
  1
7
  7
KANJI
 50
0.000000
 51
0.000000
  0
TEXT
  8
1
 62
7
  6
DASHDOT
 10
231.879679
 20
71.500000
 40
4.000000
 41
0.500000
  1
8
  7
KANJI
 50
0.000000
 51
0.000000
  0
LINE
  8
1
 62
7
  6
CONTINUOUS
 10
214.095931
 20
114.393048
 11
180.190211
 21
99.700000
  0
LINE
  8
1
 62
7
  6
CONTINUOUS
 10
227.332140
 20
73.193048
 11
214.091418
 21
73.193048
  0
LINE
  8
1
 62
7
  6
CONTINUOUS
 10
214.091418
 20
73.193048
 11
180.190211
 21
97.300000
  0
LINE
  8
1
 62
7
  6
CONTINUOUS
 10
214.086849
 20
83.193048
 11
180.190211
 21
97.300000
  0
LINE
  8
1
 62
7
  6
CONTINUOUS
 10
227.332140
 20
83.193048
 11
214.086849
 21
83.193048
  0
LINE
  8
1
 62
7
  6
CONTINUOUS
 10
214.095931
 20
124.393048
 11
180.190211
 21
99.700000
  0
LINE
  8
1
 62
7
  6
CONTINUOUS
 10
227.332140
 20
124.393048
 11
214.095931
 21
124.393048
  0
LINE
  8
1
 62
7
  6
CONTINUOUS
 10
227.332140
 20
123.193048
 11
214.095931
 21
123.193048
  0
LINE
  8
1
 62
7
  6
CONTINUOUS
 10
214.095931
 20
123.193048
 11
184.258898
 21
101.463166
  0
LINE
  8
1
 62
7
  6
CONTINUOUS
 10
214.095931
 20
74.393048
 11
184.071071
 21
95.740711
  0
LINE
  8
1
 62
7
  6
CONTINUOUS
 10
214.095931
 20
103.189660
 11
180.190211
 21
97.900000
  0
LINE
  8
1
 62
7
  6
CONTINUOUS
 10
214.095931
 20
104.393048
 11
180.190211
 21
99.100000
  0
LINE
  8
1
 62
7
  6
CONTINUOUS
 10
214.095931
 20
93.196012
 11
180.190211
 21
97.900000
  0
LINE
  8
1
 62
7
  6
CONTINUOUS
 10
182.313853
 20
99.419616
 11
214.120423
 21
113.193048
  0
LINE
  8
1
 62
7
  6
CONTINUOUS
 10
214.095931
 20
94.393048
 11
184.260276
 21
98.534974
  0
LINE
  8
1
 62
7
  6
CONTINUOUS
 10
214.095931
 20
84.393048
 11
182.472092
 21
97.550591
  0
TEXT
  8
2
 62
134
  6
CONTINUOUS
 10
251.436707
 20
122.586918
 40
3.000000
 41
1.000000
  1
DCIN 4.7V～27V
  7
KANJI
 50
0.000000
 51
0.000000
  0
TEXT
  8
2
 62
134
  6
CONTINUOUS
 10
251.436707
 20
92.586918
 40
3.000000
 41
1.000000
  1
ｱﾅﾛｸﾞ出力
  7
KANJI
 50
0.000000
 51
0.000000
  0
TEXT
  8
2
 62
134
  6
CONTINUOUS
 10
251.436707
 20
112.586918
 40
3.000000
 41
0.500000
  1
DC-GND
  7
KANJI
 50
0.000000
 51
0.000000
  0
TEXT
  8
2
 62
134
  6
CONTINUOUS
 10
251.436707
 20
72.586918
 40
3.000000
 41
0.500000
  1
ｱﾅﾛｸﾞ-GND 2
  7
KANJI
 50
0.000000
 51
0.000000
  0
TEXT
  8
2
 62
134
  6
CONTINUOUS
 10
220.685700
 20
124.393048
 40
4.000000
 41
0.500000
  1
ｱｶ
  7
KANJI
 50
0.000000
 51
0.000000
  0
TEXT
  8
2
 62
134
  6
CONTINUOUS
 10
220.685700
 20
74.393048
 40
4.000000
 41
0.500000
  1
ﾁｬ
  7
KANJI
 50
0.000000
 51
0.000000
  0
TEXT
  8
2
 62
134
  6
CONTINUOUS
 10
220.496895
 20
114.393048
 40
4.000000
 41
0.500000
  1
ｸﾛ
  7
KANJI
 50
0.000000
 51
0.000000
  0
TEXT
  8
2
 62
134
  6
CONTINUOUS
 10
219.926588
 20
85.787923
 40
4.000000
 41
0.500000
  1
ｷ
  7
KANJI
 50
0.000000
 51
0.000000
  0
TEXT
  8
2
 62
134
  6
CONTINUOUS
 10
219.536065
 20
94.393048
 40
4.000000
 41
0.500000
  1
ﾐﾄﾞﾘ
  7
KANJI
 50
0.000000
 51
0.000000
  0
LINE
  8
1
 62
7
  6
CONTINUOUS
 10
180.190211
 20
95.875000
 11
180.190211
 21
101.125000
  0
LINE
  8
1
 62
7
  6
DASHDOT
 10
151.059375
 20
98.500000
 11
114.293142
 21
98.500000
  0
LINE
  8
1
 62
7
  6
DASHDOT
 10
179.767839
 20
98.500000
 11
152.322243
 21
98.500000
  0
LINE
  8
1
 62
7
  6
CONTINUOUS
 10
151.253662
 20
103.226806
 11
149.310789
 21
93.415294
  0
LINE
  8
1
 62
7
  6
CONTINUOUS
 10
152.382936
 20
103.226806
 11
150.440062
 21
93.415294
  0
LINE
  8
1
 62
7
  6
CONTINUOUS
 10
119.466170
 20
95.875000
 11
149.797859
 21
95.875000
  0
LINE
  8
1
 62
7
  6
CONTINUOUS
 10
119.466170
 20
101.125000
 11
150.837463
 21
101.125000
  0
LINE
  8
1
 62
7
  6
CONTINUOUS
 10
151.966737
 20
101.125000
 11
180.190211
 21
101.125000
  0
LINE
  8
1
 62
7
  6
CONTINUOUS
 10
150.927133
 20
95.875000
 11
180.190211
 21
95.875000
  0
LINE
  8
1
 62
7
  6
CONTINUOUS
 10
191.004106
 20
159.250000
 11
191.004106
 21
155.750000
  0
LINE
  8
1
 62
7
  6
CONTINUOUS
 10
129.466170
 20
103.000000
 11
160.683141
 21
159.250000
  0
LINE
  8
1
 62
7
  6
CONTINUOUS
 10
132.470554
 20
101.125000
 11
162.785701
 21
155.750000
  0
LINE
  8
1
 62
7
  6
DASHDOT
 10
174.328044
 20
157.500000
 11
224.316692
 21
157.500000
  0
LINE
  8
1
 62
7
  6
DASHDOT
 10
155.350819
 20
157.500000
 11
171.703504
 21
157.500000
  0
LINE
  8
1
 62
7
  6
CONTINUOUS
 10
172.670440
 20
161.568029
 11
170.736568
 21
153.418141
  0
LINE
  8
1
 62
7
  6
CONTINUOUS
 10
174.100854
 20
161.568029
 11
172.166982
 21
153.418141
  0
LINE
  8
1
 62
7
  6
CONTINUOUS
 10
160.683141
 20
159.250000
 11
172.120399
 21
159.250000
  0
LINE
  8
1
 62
7
  6
CONTINUOUS
 10
162.785701
 20
155.750000
 11
171.289891
 21
155.750000
  0
LINE
  8
1
 62
7
  6
CONTINUOUS
 10
172.720305
 20
155.750000
 11
191.004106
 21
155.750000
  0
LINE
  8
1
 62
7
  6
CONTINUOUS
 10
173.550813
 20
159.250000
 11
191.004106
 21
159.250000
  0
DIMENSION
  8
2
 62
134
  6
CONTINUOUS
  2
*D18
 10
42.062851
 20
120.894765
 11
45.262851
 21
120.894765
 70
     0
  1
6.5
 13
42.062851
 23
113.506213
 14
48.462851
 24
113.506213
 50
0.000000
  0
DIMENSION
  8
2
 62
134
  6
CONTINUOUS
  2
*D19
 10
64.800000
 20
120.894765
 11
75.287562
 21
120.894765
 70
     0
  1
23.5
 13
64.800000
 23
113.506213
 14
88.000000
 24
109.506213
 50
0.000000
  0
DIMENSION
  8
2
 62
134
  6
CONTINUOUS
  2
*D20
 10
59.294328
 20
88.806213
 11
59.294328
 21
100.466010
 70
     0
  1
24
 13
63.800000
 23
88.806213
 14
63.800000
 24
112.506213
 50
90.000000
  0
LINE
  8
1
 62
7
  6
CONTINUOUS
 10
42.062851
 20
88.806213
 11
48.462851
 21
88.806213
  0
LINE
  8
1
 62
7
  6
CONTINUOUS
 10
47.762851
 20
89.506213
 11
42.762851
 21
89.506213
  0
LINE
  8
1
 62
7
  6
CONTINUOUS
 10
42.062851
 20
112.506213
 11
42.062851
 21
88.806213
  0
LINE
  8
1
 62
7
  6
CONTINUOUS
 10
48.462851
 20
112.506213
 11
42.062851
 21
112.506213
  0
LINE
  8
1
 62
7
  6
CONTINUOUS
 10
48.462851
 20
88.806213
 11
48.462851
 21
112.506213
  0
LINE
  8
1
 62
7
  6
CONTINUOUS
 10
42.762851
 20
111.806213
 11
42.762851
 21
89.506213
  0
LINE
  8
1
 62
7
  6
CONTINUOUS
 10
42.762851
 20
111.806213
 11
47.762851
 21
111.806213
  0
LINE
  8
1
 62
7
  6
CONTINUOUS
 10
47.762851
 20
111.806213
 11
47.762851
 21
89.506213
  0
LINE
  8
1
 62
7
  6
DASHDOT
 10
45.262851
 20
118.665845
 11
45.262851
 21
85.638584
  0
LINE
  8
1
 62
7
  6
CONTINUOUS
 10
46.962851
 20
108.035000
 11
46.962851
 21
90.835000
  0
LINE
  8
1
 62
7
  6
CONTINUOUS
 10
46.962851
 20
90.835000
 11
43.562851
 21
90.835000
  0
LINE
  8
1
 62
7
  6
CONTINUOUS
 10
43.562851
 20
90.835000
 11
43.562851
 21
108.035000
  0
LINE
  8
1
 62
7
  6
CONTINUOUS
 10
43.562851
 20
108.035000
 11
46.962851
 21
108.035000
  0
LINE
  8
1
 62
7
  6
CONTINUOUS
 10
45.062851
 20
106.805000
 11
45.062851
 21
106.065000
  0
LINE
  8
1
 62
7
  6
CONTINUOUS
 10
45.062851
 20
106.065000
 11
45.462851
 21
106.065000
  0
LINE
  8
1
 62
7
  6
CONTINUOUS
 10
45.462851
 20
106.065000
 11
45.462851
 21
106.805000
  0
LINE
  8
1
 62
7
  6
CONTINUOUS
 10
45.462851
 20
106.805000
 11
45.062851
 21
106.805000
  0
LINE
  8
1
 62
7
  6
DASHDOT
 10
44.165592
 20
106.435000
 11
46.355221
 21
106.435000
  0
LINE
  8
1
 62
7
  6
CONTINUOUS
 10
45.062851
 20
104.805000
 11
45.062851
 21
104.065000
  0
LINE
  8
1
 62
7
  6
CONTINUOUS
 10
45.062851
 20
104.065000
 11
45.462851
 21
104.065000
  0
LINE
  8
1
 62
7
  6
CONTINUOUS
 10
45.462851
 20
104.065000
 11
45.462851
 21
104.805000
  0
LINE
  8
1
 62
7
  6
CONTINUOUS
 10
45.462851
 20
104.805000
 11
45.062851
 21
104.805000
  0
LINE
  8
1
 62
7
  6
DASHDOT
 10
44.165592
 20
104.435000
 11
46.355221
 21
104.435000
  0
LINE
  8
1
 62
7
  6
CONTINUOUS
 10
45.062851
 20
102.805000
 11
45.062851
 21
102.065000
  0
LINE
  8
1
 62
7
  6
CONTINUOUS
 10
45.062851
 20
102.065000
 11
45.462851
 21
102.065000
  0
LINE
  8
1
 62
7
  6
CONTINUOUS
 10
45.462851
 20
102.065000
 11
45.462851
 21
102.805000
  0
LINE
  8
1
 62
7
  6
CONTINUOUS
 10
45.462851
 20
102.805000
 11
45.062851
 21
102.805000
  0
LINE
  8
1
 62
7
  6
DASHDOT
 10
44.165592
 20
102.435000
 11
46.355221
 21
102.435000
  0
LINE
  8
1
 62
7
  6
CONTINUOUS
 10
45.062851
 20
100.805000
 11
45.062851
 21
100.065000
  0
LINE
  8
1
 62
7
  6
CONTINUOUS
 10
45.062851
 20
100.065000
 11
45.462851
 21
100.065000
  0
LINE
  8
1
 62
7
  6
CONTINUOUS
 10
45.462851
 20
100.065000
 11
45.462851
 21
100.805000
  0
LINE
  8
1
 62
7
  6
CONTINUOUS
 10
45.462851
 20
100.805000
 11
45.062851
 21
100.805000
  0
LINE
  8
1
 62
7
  6
DASHDOT
 10
44.165592
 20
100.435000
 11
46.355221
 21
100.435000
  0
LINE
  8
1
 62
7
  6
CONTINUOUS
 10
45.062851
 20
98.805000
 11
45.062851
 21
98.065000
  0
LINE
  8
1
 62
7
  6
CONTINUOUS
 10
45.062851
 20
98.065000
 11
45.462851
 21
98.065000
  0
LINE
  8
1
 62
7
  6
CONTINUOUS
 10
45.462851
 20
98.065000
 11
45.462851
 21
98.805000
  0
LINE
  8
1
 62
7
  6
CONTINUOUS
 10
45.462851
 20
98.805000
 11
45.062851
 21
98.805000
  0
LINE
  8
1
 62
7
  6
DASHDOT
 10
44.165592
 20
98.435000
 11
46.355221
 21
98.435000
  0
LINE
  8
1
 62
7
  6
CONTINUOUS
 10
45.062851
 20
96.805000
 11
45.062851
 21
96.065000
  0
LINE
  8
1
 62
7
  6
CONTINUOUS
 10
45.062851
 20
96.065000
 11
45.462851
 21
96.065000
  0
LINE
  8
1
 62
7
  6
CONTINUOUS
 10
45.462851
 20
96.065000
 11
45.462851
 21
96.805000
  0
LINE
  8
1
 62
7
  6
CONTINUOUS
 10
45.462851
 20
96.805000
 11
45.062851
 21
96.805000
  0
LINE
  8
1
 62
7
  6
DASHDOT
 10
44.165592
 20
96.435000
 11
46.355221
 21
96.435000
  0
LINE
  8
1
 62
7
  6
CONTINUOUS
 10
45.062851
 20
94.805000
 11
45.062851
 21
94.065000
  0
LINE
  8
1
 62
7
  6
CONTINUOUS
 10
45.062851
 20
94.065000
 11
45.462851
 21
94.065000
  0
LINE
  8
1
 62
7
  6
CONTINUOUS
 10
45.462851
 20
94.065000
 11
45.462851
 21
94.805000
  0
LINE
  8
1
 62
7
  6
CONTINUOUS
 10
45.462851
 20
94.805000
 11
45.062851
 21
94.805000
  0
LINE
  8
1
 62
7
  6
DASHDOT
 10
44.165592
 20
94.435000
 11
46.355221
 21
94.435000
  0
LINE
  8
1
 62
7
  6
CONTINUOUS
 10
45.062851
 20
92.805000
 11
45.062851
 21
92.065000
  0
LINE
  8
1
 62
7
  6
CONTINUOUS
 10
45.062851
 20
92.065000
 11
45.462851
 21
92.065000
  0
LINE
  8
1
 62
7
  6
CONTINUOUS
 10
45.462851
 20
92.065000
 11
45.462851
 21
92.805000
  0
LINE
  8
1
 62
7
  6
CONTINUOUS
 10
45.462851
 20
92.805000
 11
45.062851
 21
92.805000
  0
LINE
  8
1
 62
7
  6
DASHDOT
 10
44.165592
 20
92.435000
 11
46.355221
 21
92.435000
  0
LINE
  8
1
 62
7
  6
DASHDOT
 10
39.614905
 20
99.435000
 11
50.809487
 21
99.435000
  0
LINE
  8
1
 62
7
  6
CONTINUOUS
 10
88.000000
 20
107.506213
 11
88.000000
 21
91.285000
  0
LINE
  8
1
 62
7
  6
CONTINUOUS
 10
88.000000
 20
108.506213
 11
88.000000
 21
90.285000
  0
LINE
  8
1
 62
7
  6
CONTINUOUS
 10
97.998518
 20
99.435000
 11
99.466170
 21
99.435000
  0
LINE
  8
1
 62
7
  6
CONTINUOUS
 10
88.000000
 20
107.035000
 11
91.236208
 21
107.035000
  0
LINE
  8
1
 62
7
  6
CONTINUOUS
 10
88.000000
 20
105.835000
 11
91.211717
 21
105.835000
  0
LINE
  8
1
 62
7
  6
CONTINUOUS
 10
97.998518
 20
102.235000
 11
99.466170
 21
102.235000
  0
LINE
  8
1
 62
7
  6
CONTINUOUS
 10
97.998518
 20
101.035000
 11
99.466170
 21
101.035000
  0
LINE
  8
1
 62
7
  6
CONTINUOUS
 10
97.998518
 20
102.235000
 11
91.236208
 21
107.035000
  0
LINE
  8
1
 62
7
  6
CONTINUOUS
 10
97.998518
 20
101.035000
 11
91.211717
 21
105.835000
  0
LINE
  8
1
 62
7
  6
CONTINUOUS
 10
88.000000
 20
91.835000
 11
91.236208
 21
91.835000
  0
LINE
  8
1
 62
7
  6
CONTINUOUS
 10
88.000000
 20
93.035000
 11
91.211717
 21
93.035000
  0
LINE
  8
1
 62
7
  6
CONTINUOUS
 10
97.998518
 20
96.635000
 11
99.466170
 21
96.635000
  0
LINE
  8
1
 62
7
  6
CONTINUOUS
 10
97.998518
 20
97.835000
 11
99.466170
 21
97.835000
  0
LINE
  8
1
 62
7
  6
CONTINUOUS
 10
97.998518
 20
96.635000
 11
91.236208
 21
91.835000
  0
LINE
  8
1
 62
7
  6
CONTINUOUS
 10
97.998518
 20
97.835000
 11
91.211717
 21
93.035000
  0
LINE
  8
1
 62
7
  6
CONTINUOUS
 10
88.000000
 20
101.035000
 11
91.236208
 21
101.035000
  0
LINE
  8
1
 62
7
  6
CONTINUOUS
 10
88.000000
 20
99.835000
 11
91.211717
 21
99.835000
  0
LINE
  8
1
 62
7
  6
CONTINUOUS
 10
97.998518
 20
100.635000
 11
99.466170
 21
100.635000
  0
LINE
  8
1
 62
7
  6
CONTINUOUS
 10
97.998518
 20
100.635000
 11
91.236208
 21
101.035000
  0
LINE
  8
1
 62
7
  6
CONTINUOUS
 10
97.998518
 20
99.435000
 11
91.211717
 21
99.835000
  0
LINE
  8
1
 62
7
  6
CONTINUOUS
 10
88.000000
 20
103.035000
 11
91.236208
 21
103.035000
  0
LINE
  8
1
 62
7
  6
CONTINUOUS
 10
88.000000
 20
101.835000
 11
91.211717
 21
101.835000
  0
LINE
  8
1
 62
7
  6
CONTINUOUS
 10
88.000000
 20
105.035000
 11
91.236208
 21
105.035000
  0
LINE
  8
1
 62
7
  6
CONTINUOUS
 10
88.000000
 20
103.835000
 11
91.211717
 21
103.835000
  0
LINE
  8
1
 62
7
  6
CONTINUOUS
 10
94.950137
 20
103.167686
 11
91.236208
 21
105.035000
  0
LINE
  8
1
 62
7
  6
CONTINUOUS
 10
97.545846
 20
100.661776
 11
91.211717
 21
103.835000
  0
LINE
  8
1
 62
7
  6
CONTINUOUS
 10
94.636641
 20
102.079584
 11
91.236208
 21
103.035000
  0
LINE
  8
1
 62
7
  6
CONTINUOUS
 10
94.685502
 20
100.862496
 11
91.211717
 21
101.835000
  0
LINE
  8
1
 62
7
  6
CONTINUOUS
 10
88.000000
 20
97.835000
 11
91.236208
 21
97.835000
  0
LINE
  8
1
 62
7
  6
CONTINUOUS
 10
88.000000
 20
99.035000
 11
91.211717
 21
99.035000
  0
LINE
  8
1
 62
7
  6
CONTINUOUS
 10
97.998518
 20
98.235000
 11
99.466170
 21
98.235000
  0
LINE
  8
1
 62
7
  6
CONTINUOUS
 10
97.998518
 20
98.235000
 11
91.236208
 21
97.835000
  0
LINE
  8
1
 62
7
  6
CONTINUOUS
 10
97.998518
 20
99.435000
 11
91.211717
 21
99.035000
  0
LINE
  8
1
 62
7
  6
CONTINUOUS
 10
88.000000
 20
95.835000
 11
91.236208
 21
95.835000
  0
LINE
  8
1
 62
7
  6
CONTINUOUS
 10
88.000000
 20
97.035000
 11
91.211717
 21
97.035000
  0
LINE
  8
1
 62
7
  6
CONTINUOUS
 10
88.000000
 20
93.835000
 11
91.236208
 21
93.835000
  0
LINE
  8
1
 62
7
  6
CONTINUOUS
 10
88.000000
 20
95.035000
 11
91.211717
 21
95.035000
  0
LINE
  8
1
 62
7
  6
CONTINUOUS
 10
94.950137
 20
95.702314
 11
91.236208
 21
93.835000
  0
LINE
  8
1
 62
7
  6
CONTINUOUS
 10
97.545846
 20
98.208224
 11
91.211717
 21
95.035000
  0
LINE
  8
1
 62
7
  6
CONTINUOUS
 10
94.636641
 20
96.790416
 11
91.236208
 21
95.835000
  0
LINE
  8
1
 62
7
  6
CONTINUOUS
 10
94.685502
 20
98.007504
 11
91.211717
 21
97.035000
  0
LINE
  8
1
 62
7
  6
CONTINUOUS
 10
64.800000
 20
89.685000
 11
64.800000
 21
88.806213
  0
LINE
  8
1
 62
7
  6
DASHDOT
 10
103.533018
 20
99.435000
 11
65.507150
 21
99.435000
  0
LINE
  8
1
 62
7
  6
CONTINUOUS
 10
64.800000
 20
112.506213
 11
64.800000
 21
110.106213
  0
LINE
  8
1
 62
7
  6
CONTINUOUS
 10
66.300000
 20
91.285000
 11
66.300000
 21
89.685000
  0
LINE
  8
1
 62
7
  6
CONTINUOUS
 10
66.300000
 20
89.685000
 11
64.800000
 21
89.685000
  0
LINE
  8
1
 62
7
  6
CONTINUOUS
 10
64.800000
 20
110.106213
 11
66.300000
 21
110.106213
  0
LINE
  8
1
 62
7
  6
CONTINUOUS
 10
66.300000
 20
110.106213
 11
66.300000
 21
107.506213
  0
LINE
  8
1
 62
7
  6
DASHDOT
 10
68.494262
 20
106.435000
 11
88.848991
 21
106.435000
  0
LINE
  8
1
 62
7
  6
DASHDOT
 10
68.550004
 20
92.435000
 11
88.891500
 21
92.435000
  0
LINE
  8
1
 62
7
  6
DASHDOT
 10
68.494262
 20
104.435000
 11
88.848991
 21
104.435000
  0
LINE
  8
1
 62
7
  6
DASHDOT
 10
68.494262
 20
102.435000
 11
88.848991
 21
102.435000
  0
LINE
  8
1
 62
7
  6
DASHDOT
 10
68.494262
 20
100.435000
 11
88.848991
 21
100.435000
  0
LINE
  8
1
 62
7
  6
DASHDOT
 10
68.494262
 20
98.435000
 11
88.848991
 21
98.435000
  0
LINE
  8
1
 62
7
  6
DASHDOT
 10
68.494262
 20
96.435000
 11
88.848991
 21
96.435000
  0
LINE
  8
1
 62
7
  6
DASHDOT
 10
68.494262
 20
94.435000
 11
88.848991
 21
94.435000
  0
LINE
  8
1
 62
7
  6
CONTINUOUS
 10
69.800000
 20
107.506213
 11
69.800000
 21
91.285000
  0
LINE
  8
1
 62
7
  6
CONTINUOUS
 10
66.300000
 20
107.506213
 11
69.800000
 21
107.506213
  0
LINE
  8
1
 62
7
  6
CONTINUOUS
 10
69.800000
 20
91.285000
 11
66.300000
 21
91.285000
  0
LINE
  8
1
 62
7
  6
CONTINUOUS
 10
88.000000
 20
108.506213
 11
77.800000
 21
109.985000
  0
LINE
  8
1
 62
7
  6
CONTINUOUS
 10
88.000000
 20
90.285000
 11
77.800000
 21
88.806213
  0
LINE
  8
1
 62
7
  6
CONTINUOUS
 10
77.800000
 20
112.506213
 11
77.800000
 21
109.985000
  0
LINE
  8
1
 62
7
  6
CONTINUOUS
 10
64.800000
 20
88.806213
 11
77.800000
 21
88.806213
  0
LINE
  8
1
 62
7
  6
CONTINUOUS
 10
77.800000
 20
112.506213
 11
64.800000
 21
112.506213
  0
LINE
  8
1
 62
7
  6
CONTINUOUS
 10
77.800000
 20
91.285000
 11
88.000000
 21
91.285000
  0
LINE
  8
1
 62
7
  6
CONTINUOUS
 10
77.800000
 20
107.506213
 11
77.800000
 21
91.285000
  0
LINE
  8
1
 62
7
  6
CONTINUOUS
 10
88.000000
 20
107.506213
 11
77.800000
 21
107.506213
  0
LINE
  8
2
 62
134
  6
CONTINUOUS
 10
23.370289
 20
160.371550
 11
58.370289
 21
160.371550
  0
LINE
  8
2
 62
134
  6
CONTINUOUS
 10
28.370289
 20
160.371550
 11
28.370289
 21
128.239799
  0
LINE
  8
2
 62
134
  6
CONTINUOUS
 10
23.370289
 20
131.739799
 11
58.370289
 21
131.739799
  0
LINE
  8
2
 62
134
  6
CONTINUOUS
 10
58.370289
 20
135.239799
 11
23.370289
 21
135.239799
  0
LINE
  8
2
 62
134
  6
CONTINUOUS
 10
23.370289
 20
138.739799
 11
58.370289
 21
138.739799
  0
LINE
  8
2
 62
134
  6
CONTINUOUS
 10
58.370289
 20
142.239799
 11
23.370289
 21
142.239799
  0
LINE
  8
2
 62
134
  6
CONTINUOUS
 10
23.370289
 20
145.739799
 11
58.370289
 21
145.739799
  0
LINE
  8
2
 62
134
  6
CONTINUOUS
 10
58.370289
 20
149.239799
 11
23.370289
 21
149.239799
  0
LINE
  8
2
 62
134
  6
CONTINUOUS
 10
23.370289
 20
156.239799
 11
58.370289
 21
156.239799
  0
LINE
  8
2
 62
134
  6
CONTINUOUS
 10
23.370289
 20
152.739799
 11
58.370289
 21
152.739799
  0
LINE
  8
2
 62
134
  6
CONTINUOUS
 10
58.370289
 20
128.239799
 11
23.370289
 21
128.239799
  0
LINE
  8
2
 62
134
  6
CONTINUOUS
 10
58.370289
 20
160.371550
 11
58.370289
 21
128.239799
  0
LINE
  8
2
 62
134
  6
CONTINUOUS
 10
23.370289
 20
160.371550
 11
23.370289
 21
128.239799
  0
TEXT
  8
2
 62
134
  6
CONTINUOUS
 10
25.071598
 20
128.230849
 40
3.000000
 41
0.500000
  1
8
  7
KANJI
 50
0.000000
 51
0.000000
  0
TEXT
  8
2
 62
134
  6
CONTINUOUS
 10
25.071598
 20
131.730849
 40
3.000000
 41
0.500000
  1
7
  7
KANJI
 50
0.000000
 51
0.000000
  0
TEXT
  8
2
 62
134
  6
CONTINUOUS
 10
30.071598
 20
138.730849
 40
3.000000
 41
1.000000
  1
ｱﾗｰﾑ出力/外部照準
  7
KANJI
 50
0.000000
 51
0.000000
  0
TEXT
  8
2
 62
134
  6
CONTINUOUS
 10
25.071598
 20
138.730849
 40
3.000000
 41
0.500000
  1
5
  7
KANJI
 50
0.000000
 51
0.000000
  0
TEXT
  8
2
 62
134
  6
CONTINUOUS
 10
25.071598
 20
135.230849
 40
3.000000
 41
0.500000
  1
6
  7
KANJI
 50
0.000000
 51
0.000000
  0
TEXT
  8
2
 62
134
  6
CONTINUOUS
 10
36.521373
 20
156.699343
 40
3.000000
 41
1.000000
  1
信号名
  7
KANJI
 50
0.000000
 51
0.000000
  0
TEXT
  8
2
 62
134
  6
CONTINUOUS
 10
24.524749
 20
156.862600
 40
3.000000
 41
0.500000
  1
No
  7
KANJI
 50
0.000000
 51
0.000000
  0
TEXT
  8
2
 62
134
  6
CONTINUOUS
 10
25.071598
 20
142.230849
 40
3.000000
 41
0.500000
  1
4
  7
KANJI
 50
0.000000
 51
0.000000
  0
TEXT
  8
2
 62
134
  6
CONTINUOUS
 10
25.071598
 20
145.730849
 40
3.000000
 41
0.500000
  1
3
  7
KANJI
 50
0.000000
 51
0.000000
  0
TEXT
  8
2
 62
134
  6
CONTINUOUS
 10
25.071598
 20
149.230849
 40
3.000000
 41
0.500000
  1
2
  7
KANJI
 50
0.000000
 51
0.000000
  0
TEXT
  8
2
 62
134
  6
CONTINUOUS
 10
25.071598
 20
152.730849
 40
3.000000
 41
0.500000
  1
1
  7
KANJI
 50
0.000000
 51
0.000000
  0
TEXT
  8
2
 62
134
  6
CONTINUOUS
 10
30.071598
 20
152.730849
 40
3.000000
 41
1.000000
  1
DCIN 4.7V～27V
  7
KANJI
 50
0.000000
 51
0.000000
  0
TEXT
  8
2
 62
134
  6
CONTINUOUS
 10
30.071598
 20
145.730849
 40
3.000000
 41
0.500000
  1
DC-GND
  7
KANJI
 50
0.000000
 51
0.000000
  0
TEXT
  8
2
 62
134
  6
CONTINUOUS
 10
30.071598
 20
131.730849
 40
3.000000
 41
0.500000
  1
ｱﾅﾛｸﾞ-GND 1
  7
KANJI
 50
0.000000
 51
0.000000
  0
TEXT
  8
2
 62
134
  6
CONTINUOUS
 10
30.071598
 20
135.230849
 40
3.000000
 41
1.000000
  1
ｱﾅﾛｸﾞ出力
  7
KANJI
 50
0.000000
 51
0.000000
  0
TEXT
  8
2
 62
134
  6
CONTINUOUS
 10
30.071598
 20
128.230849
 40
3.000000
 41
0.500000
  1
ｱﾅﾛｸﾞ-GND 2
  7
KANJI
 50
0.000000
 51
0.000000
  0
TEXT
  8
2
 62
134
  6
CONTINUOUS
 10
30.071598
 20
149.230849
 40
3.000000
 41
1.000000
  1
RS232C(温度計) TXD
  7
KANJI
 50
0.000000
 51
0.000000
  0
TEXT
  8
2
 62
134
  6
CONTINUOUS
 10
30.071598
 20
142.230849
 40
3.000000
 41
1.000000
  1
RS232C(温度計) RXD
  7
KANJI
 50
0.000000
 51
0.000000
  0
TEXT
  8
2
 62
134
  6
CONTINUOUS
 10
66.930261
 20
133.006123
 40
4.000000
 41
0.500000
  1
e-CON
  7
KANJI
 50
0.000000
 51
0.000000
  0
TEXT
  8
2
 62
134
  6
CONTINUOUS
 10
66.930261
 20
128.597364
 40
4.000000
 41
0.500000
  1
(ｿｹｯﾄ)
  7
KANJI
 50
0.000000
 51
0.000000
  0
DIMENSION
  8
2
 62
134
  6
CONTINUOUS
  2
*D21
 10
88.000000
 20
179.895130
 11
147.235138
 21
179.895130
 70
     0
  1
1m(標準)
 13
88.000000
 23
111.071213
 14
202.470276
 24
171.150000
 50
0.000000
  0
DIMENSION
  8
2
 62
134
  6
CONTINUOUS
  2
*D22
 10
88.000000
 20
74.793560
 11
140.709571
 21
74.793560
 70
     0
  1
1m(標準)
 13
88.000000
 23
90.285000
 14
180.190211
 24
94.875000
 50
0.000000
  0
TEXT
  8
2
 62
134
  6
CONTINUOUS
 10
101.951613
 20
67.467742
 40
4.000000
 41
1.000000
  1
質量： 85g
  7
KANJI
 50
0.000000
 51
0.000000
  0
ENDSEC
  0
EOF
