  0
SECTION
  2
HEADER
  9
$ACADVER
  1
AC1009
  9
$INSBASE
 10
0.000000
 20
0.000000
  9
$EXTMIN
 10
0.000000
 20
0.000000
  9
$EXTMAX
 10
297.000000
 20
210.000000
  9
$LIMMIN
 10
0.000000
 20
0.000000
  9
$LIMMAX
 10
297.000000
 20
210.000000
  9
$VIEWCTR
 10
148.500000
 20
105.000000
  9
$VIEWSIZE
 40
210.000000
  9
$PEXTMIN
 10
0.000000
 20
0.000000
 30
0.000000
  9
$PEXTMAX
 10
297.000000
 20
210.000000
 30
0.000000
  9
$SNAPMODE
 70
     0
  9
$SNAPUNIT
 10
1.000000
 20
1.000000
  9
$SNAPBASE
 10
0.000000
 20
0.000000
  9
$SNAPANG
 50
0.000000
  9
$SNAPISOPAIR
 70
     0
  9
$SNAPSTYLE
 70
     0
  9
$GRIDMODE
 70
     0
  9
$GRIDUNIT
 10
0.000000
 20
0.000000
  9
$ORTHOMODE
 70
     0
  9
$REGENMODE
 70
     1
  9
$FILLMODE
 70
     1
  9
$QTEXTMODE
 70
     0
  9
$DRAGMODE
 70
     2
  9
$LTSCALE
 40
0.250000
  9
$OSMODE
 70
     0
  9
$ATTMODE
 70
     1
  9
$TEXTSIZE
 40
4.000000
  9
$TRACEWID
 40
0.050000
  9
$TEXTSTYLE
  7
STANDARD
  9
$CLAYER
  8
0
  9
$CELTYPE
  6
BYLAYER
  9
$CECOLOR
 62
   256
  9
$DIMSCALE
 40
1.000000
  9
$DIMASZ
 40
1.000000
  9
$DIMEXO
 40
0.000000
  9
$DIMDLI
 40
0.500000
  9
$DIMRND
 40
0.000000
  9
$DIMDLE
 40
0.000000
  9
$DIMEXE
 40
0.000000
  9
$DIMTP
 40
0.000000
  9
$DIMTM
 40
0.000000
  9
$DIMTXT
 40
4.000000
  9
$DIMCEN
 40
0.000000
  9
$DIMTSZ
 40
0.000000
  9
$DIMTOL
 70
     0
  9
$DIMLIM
 70
     0
  9
$DIMTIH
 70
     1
  9
$DIMTOH
 70
     1
  9
$DIMSE1
 70
     0
  9
$DIMSE2
 70
     0
  9
$DIMTAD
 70
     0
  9
$DIMZIN
 70
     0
  9
$DIMBLK
  1

  9
$DIMASO
 70
     0
  9
$DIMSHO
 70
     0
  9
$DIMPOST
  1

  9
$DIMAPOST
  1

  9
$DIMALT
 70
     0
  9
$DIMALTD
 70
     0
  9
$DIMALTF
 40
25.400000
  9
$DIMLFAC
 40
1.000000
  9
$DIMTOFL
 70
     0
  9
$DIMTVP
 40
0.000000
  9
$DIMTIX
 70
     0
  9
$DIMSOXD
 70
     0
  9
$DIMSAH
 70
     0
  9
$DIMBLKL
  1

  9
$DIMBLKR
  1

  9
$LUNITS
 70
     2
  9
$LUPREC
 70
     2
  9
$AXISMODE
 70
     0
  9
$AXISUNIT
 10
1.000000
 20
1.000000
  9
$SKETCHINC
 40
0.000000
  9
$FILLETRAD
 40
0.000000
  9
$AUNITS
 70
     1
  9
$AUPREC
 70
     2
  9
$MENU
  1
ACAD
  9
$ELEVATION
 40
0.000000
  9
$THICKNESS
 40
0.000000
  9
$VIEWDIR
 10
0.000000
 20
0.000000
 30
1.000000
  9
$LIMCHECK
 70
     1
  9
$BLIPMODE
 70
     1
  9
$CHAMFERA
 40
0.000000
  9
$CHAMFERB
 40
0.000000
  9
$FASTZOOM
 70
     1
  9
$SKPOLY
 70
     0
  9
$TDCREATE
 40
0.000000
  9
$TDUPDATE
 40
0.000000
  9
$TDINDWG
 40
0.000000
  9
$TDUSRTIMER
 40
0.000000
  9
$USRTIMER
 70
     1
  9
$ANGBASE
 50
0.000000
  9
$ANGDIR
 70
     0
  9
$PDMODE
 70
     0
  9
$PDSIZE
 40
0.000000
  9
$PLINEWID
 40
0.000000
  9
$COORDS
 70
     2
  9
$USERI1
 70
     0
  9
$USERI2
 70
     0
  9
$USERI3
 70
     0
  9
$USERI4
 70
     0
  9
$USERI5
 70
     0
  9
$USERR1
 40
0.000000
  9
$USERR2
 40
0.000000
  9
$USERR3
 40
0.000000
  9
$USERR4
 40
0.000000
  9
$USERR5
 40
0.000000
  0
ENDSEC
  0
SECTION
  2
TABLES
  0
TABLE
  2
LTYPE
 70
     5
  0
LTYPE
  2
CONTINUOUS
 70
    64
  3
Solid line
 72
    65
 73
     0
 40
0.0
  0
LTYPE
  2
HIDDEN
 70
    64
  3
------------------------
 72
    65
 73
     2
 40
12.6
 49
8.4
 49
-4.2
  0
LTYPE
  2
DOT
 70
    64
  3
････････････････････････
 72
    65
 73
     2
 40
8.0
 49
6.0
 49
-2.0
  0
LTYPE
  2
DASHDOT
 70
    64
  3
--･--･--･--･--･--･--･--
 72
    65
 73
     4
 40
50.5
 49
30.0
 49
-9.0
 49
2.5
 49
-9.0
  0
LTYPE
  2
DIVIDE
 70
    64
  3
--･･--･･--･･--･･--･･--
 72
    65
 73
     6
 40
58.0
 49
30.0
 49
-9.0
 49
2.5
 49
-5.0
 49
2.5
 49
-9.0
  0
LTYPE
  2
ACAD_ISO06W100
 70
    64
  3
____ ... ____ ... ____
 72
    65
 73
     8
 40
37.5
 49
24.0
 49
-3.0
 49
0.5
 49
-3.0
 49
0.5
 49
-3.0
 49
0.5
 49
-3.0
  0
LTYPE
  2
ACAD_ISO14W100
 70
    64
  3
__ . . . __ . . . __ . . . 
 72
    65
 73
     8
 40
25.5
 49
12.0
 49
-3.0
 49
0.5
 49
-3.0
 49
0.5
 49
-3.0
 49
0.5
 49
-3.0
  0
ENDTAB
  0
TABLE
  2
LAYER
 70
3
  0
LAYER
  2
1
 70
64
 62
7
  6
CONTINUOUS
  0
LAYER
  2
2
 70
64
 62
7
  6
CONTINUOUS
  0
LAYER
  2
5
 70
64
 62
94
  6
CONTINUOUS
  0
ENDTAB
  0
TABLE
  2
STYLE
 70
     2
  0
STYLE
  2
STANDARD
 70
    64
 40
0.0
 41
1.0
 50
0.0
 71
     0
 42
0.2
  3
TXT
  4

  0
STYLE
  2
KANJI
 70
    64
 40
0.0
 41
1.0
 50
0.0
 71
     0
 42
0.2
  3
TXT
  4
BIGFONT
  0
ENDTAB
  0
TABLE
  2
VIEW
 70
     0
  0
ENDTAB
  0
ENDSEC
  0
SECTION
  2
BLOCKS
  0
BLOCK
  8
2
 62
7
  6
CONTINUOUS
  2
*D1
 70
    65
 10
0.0
 20
0.0
  0
LINE
  8
2
 62
7
  6
CONTINUOUS
 10
126.871245
 20
130.946054
 11
126.871245
 21
156.749410
  0
LINE
  8
2
 62
7
  6
CONTINUOUS
 10
126.871245
 20
144.949410
 11
127.388883
 21
143.017558
  0
LINE
  8
2
 62
7
  6
CONTINUOUS
 10
126.871245
 20
144.949410
 11
126.353607
 21
143.017558
  0
LINE
  8
2
 62
7
  6
CONTINUOUS
 10
127.388883
 20
143.017558
 11
126.353607
 21
143.017558
  0
LINE
  8
2
 62
7
  6
CONTINUOUS
 10
126.871245
 20
144.466447
 11
127.130064
 21
143.500521
  0
LINE
  8
2
 62
7
  6
CONTINUOUS
 10
126.871245
 20
144.466447
 11
126.612426
 21
143.500521
  0
LINE
  8
2
 62
7
  6
CONTINUOUS
 10
127.130064
 20
143.500521
 11
126.612426
 21
143.500521
  0
LINE
  8
2
 62
7
  6
CONTINUOUS
 10
126.871245
 20
148.749410
 11
126.353607
 21
150.681262
  0
LINE
  8
2
 62
7
  6
CONTINUOUS
 10
126.871245
 20
148.749410
 11
127.388883
 21
150.681262
  0
LINE
  8
2
 62
7
  6
CONTINUOUS
 10
126.353607
 20
150.681262
 11
127.388883
 21
150.681262
  0
LINE
  8
2
 62
7
  6
CONTINUOUS
 10
126.871245
 20
149.232373
 11
126.612426
 21
150.198299
  0
LINE
  8
2
 62
7
  6
CONTINUOUS
 10
126.871245
 20
149.232373
 11
127.130064
 21
150.198299
  0
LINE
  8
2
 62
7
  6
CONTINUOUS
 10
126.612426
 20
150.198299
 11
127.130064
 21
150.198299
  0
TEXT
  8
2
 62
7
  6
CONTINUOUS
 10
126.871245
 20
130.946054
 40
4.000000
 41
1.000000
  1
φ3.8
  7
KANJI
 50
90.000000
 51
0.000000
  0
ENDBLK
  0
BLOCK
  8
1
 62
7
  6
CONTINUOUS
  2
*D2
 70
    65
 10
0.0
 20
0.0
  0
LINE
  8
1
 62
7
  6
CONTINUOUS
 10
233.762644
 20
166.894914
 11
239.762644
 21
166.894914
  0
LINE
  8
1
 62
7
  6
CONTINUOUS
 10
233.762644
 20
168.894914
 11
233.762644
 21
160.185150
  0
LINE
  8
1
 62
7
  6
CONTINUOUS
 10
239.762644
 20
168.894914
 11
239.762644
 21
160.185150
  0
LINE
  8
1
 62
7
  6
CONTINUOUS
 10
233.762644
 20
166.894914
 11
235.694496
 21
167.412552
  0
LINE
  8
1
 62
7
  6
CONTINUOUS
 10
233.762644
 20
166.894914
 11
235.694496
 21
166.377276
  0
LINE
  8
1
 62
7
  6
CONTINUOUS
 10
235.694496
 20
167.412552
 11
235.694496
 21
166.377276
  0
LINE
  8
1
 62
7
  6
CONTINUOUS
 10
234.245607
 20
166.894914
 11
235.211533
 21
167.153733
  0
LINE
  8
1
 62
7
  6
CONTINUOUS
 10
234.245607
 20
166.894914
 11
235.211533
 21
166.636095
  0
LINE
  8
1
 62
7
  6
CONTINUOUS
 10
235.211533
 20
167.153733
 11
235.211533
 21
166.636095
  0
LINE
  8
1
 62
7
  6
CONTINUOUS
 10
239.762644
 20
166.894914
 11
237.830793
 21
166.377276
  0
LINE
  8
1
 62
7
  6
CONTINUOUS
 10
239.762644
 20
166.894914
 11
237.830793
 21
167.412552
  0
LINE
  8
1
 62
7
  6
CONTINUOUS
 10
237.830793
 20
166.377276
 11
237.830793
 21
167.412552
  0
LINE
  8
1
 62
7
  6
CONTINUOUS
 10
239.279682
 20
166.894914
 11
238.313756
 21
166.636095
  0
LINE
  8
1
 62
7
  6
CONTINUOUS
 10
239.279682
 20
166.894914
 11
238.313756
 21
167.153733
  0
LINE
  8
1
 62
7
  6
CONTINUOUS
 10
238.313756
 20
166.636095
 11
238.313756
 21
167.153733
  0
TEXT
  8
1
 62
7
  6
CONTINUOUS
 10
235.762644
 20
166.894914
 40
4.000000
 41
0.500000
  1
6
  7
KANJI
 50
0.000000
 51
30.000000
  0
ENDBLK
  0
BLOCK
  8
1
 62
7
  6
CONTINUOUS
  2
*D3
 70
    65
 10
0.0
 20
0.0
  0
LINE
  8
1
 62
7
  6
CONTINUOUS
 10
202.204793
 20
166.894914
 11
220.204793
 21
166.894914
  0
LINE
  8
1
 62
7
  6
CONTINUOUS
 10
202.204793
 20
167.894914
 11
202.204793
 21
158.085150
  0
LINE
  8
1
 62
7
  6
CONTINUOUS
 10
220.204793
 20
167.894914
 11
220.204793
 21
157.872111
  0
LINE
  8
1
 62
7
  6
CONTINUOUS
 10
202.204793
 20
166.894914
 11
204.136645
 21
167.412552
  0
LINE
  8
1
 62
7
  6
CONTINUOUS
 10
202.204793
 20
166.894914
 11
204.136645
 21
166.377276
  0
LINE
  8
1
 62
7
  6
CONTINUOUS
 10
204.136645
 20
167.412552
 11
204.136645
 21
166.377276
  0
LINE
  8
1
 62
7
  6
CONTINUOUS
 10
202.687756
 20
166.894914
 11
203.653682
 21
167.153733
  0
LINE
  8
1
 62
7
  6
CONTINUOUS
 10
202.687756
 20
166.894914
 11
203.653682
 21
166.636095
  0
LINE
  8
1
 62
7
  6
CONTINUOUS
 10
203.653682
 20
167.153733
 11
203.653682
 21
166.636095
  0
LINE
  8
1
 62
7
  6
CONTINUOUS
 10
220.204793
 20
166.894914
 11
218.272941
 21
166.377276
  0
LINE
  8
1
 62
7
  6
CONTINUOUS
 10
220.204793
 20
166.894914
 11
218.272941
 21
167.412552
  0
LINE
  8
1
 62
7
  6
CONTINUOUS
 10
218.272941
 20
166.377276
 11
218.272941
 21
167.412552
  0
LINE
  8
1
 62
7
  6
CONTINUOUS
 10
219.721830
 20
166.894914
 11
218.755904
 21
166.636095
  0
LINE
  8
1
 62
7
  6
CONTINUOUS
 10
219.721830
 20
166.894914
 11
218.755904
 21
167.153733
  0
LINE
  8
1
 62
7
  6
CONTINUOUS
 10
218.755904
 20
166.636095
 11
218.755904
 21
167.153733
  0
TEXT
  8
1
 62
7
  6
CONTINUOUS
 10
208.455046
 20
166.894914
 40
4.000000
 41
0.500000
  1
18
  7
KANJI
 50
0.000000
 51
0.000000
  0
ENDBLK
  0
BLOCK
  8
1
 62
7
  6
CONTINUOUS
  2
*D4
 70
    65
 10
0.0
 20
0.0
  0
LINE
  8
1
 62
7
  6
CONTINUOUS
 10
228.961175
 20
135.485150
 11
228.961175
 21
159.958242
  0
LINE
  8
1
 62
7
  6
CONTINUOUS
 10
229.961175
 20
135.485150
 11
207.121624
 21
135.485150
  0
LINE
  8
1
 62
7
  6
CONTINUOUS
 10
229.961175
 20
159.958242
 11
224.755761
 21
159.958242
  0
LINE
  8
1
 62
7
  6
CONTINUOUS
 10
228.961175
 20
135.485150
 11
228.443537
 21
137.417001
  0
LINE
  8
1
 62
7
  6
CONTINUOUS
 10
228.961175
 20
135.485150
 11
229.478813
 21
137.417001
  0
LINE
  8
1
 62
7
  6
CONTINUOUS
 10
228.443537
 20
137.417001
 11
229.478813
 21
137.417001
  0
LINE
  8
1
 62
7
  6
CONTINUOUS
 10
228.961175
 20
135.968113
 11
228.702356
 21
136.934038
  0
LINE
  8
1
 62
7
  6
CONTINUOUS
 10
228.961175
 20
135.968113
 11
229.219994
 21
136.934038
  0
LINE
  8
1
 62
7
  6
CONTINUOUS
 10
228.702356
 20
136.934038
 11
229.219994
 21
136.934038
  0
LINE
  8
1
 62
7
  6
CONTINUOUS
 10
228.961175
 20
159.958242
 11
229.478813
 21
158.026390
  0
LINE
  8
1
 62
7
  6
CONTINUOUS
 10
228.961175
 20
159.958242
 11
228.443537
 21
158.026390
  0
LINE
  8
1
 62
7
  6
CONTINUOUS
 10
229.478813
 20
158.026390
 11
228.443537
 21
158.026390
  0
LINE
  8
1
 62
7
  6
CONTINUOUS
 10
228.961175
 20
159.475279
 11
229.219994
 21
158.509353
  0
LINE
  8
1
 62
7
  6
CONTINUOUS
 10
228.961175
 20
159.475279
 11
228.702356
 21
158.509353
  0
LINE
  8
1
 62
7
  6
CONTINUOUS
 10
229.219994
 20
158.509353
 11
228.702356
 21
158.509353
  0
TEXT
  8
1
 62
7
  6
CONTINUOUS
 10
228.961175
 20
142.453879
 40
4.000000
 41
0.500000
  1
24.5
  7
KANJI
 50
90.000000
 51
0.000000
  0
ENDBLK
  0
BLOCK
  8
2
 62
7
  6
CONTINUOUS
  2
*D5
 70
    65
 10
0.0
 20
0.0
  0
LINE
  8
2
 62
7
  6
CONTINUOUS
 10
85.935435
 20
158.973720
 11
190.738623
 21
158.973720
  0
LINE
  8
2
 62
7
  6
CONTINUOUS
 10
85.935435
 20
159.973720
 11
85.935435
 21
144.754420
  0
LINE
  8
2
 62
7
  6
CONTINUOUS
 10
190.738623
 20
159.973720
 11
190.738623
 21
149.749410
  0
LINE
  8
2
 62
7
  6
CONTINUOUS
 10
85.935435
 20
158.973720
 11
87.867287
 21
159.491359
  0
LINE
  8
2
 62
7
  6
CONTINUOUS
 10
85.935435
 20
158.973720
 11
87.867287
 21
158.456082
  0
LINE
  8
2
 62
7
  6
CONTINUOUS
 10
87.867287
 20
159.491359
 11
87.867287
 21
158.456082
  0
LINE
  8
2
 62
7
  6
CONTINUOUS
 10
86.418398
 20
158.973720
 11
87.384324
 21
159.232540
  0
LINE
  8
2
 62
7
  6
CONTINUOUS
 10
86.418398
 20
158.973720
 11
87.384324
 21
158.714901
  0
LINE
  8
2
 62
7
  6
CONTINUOUS
 10
87.384324
 20
159.232540
 11
87.384324
 21
158.714901
  0
LINE
  8
2
 62
7
  6
CONTINUOUS
 10
190.738623
 20
158.973720
 11
188.806771
 21
158.456082
  0
LINE
  8
2
 62
7
  6
CONTINUOUS
 10
190.738623
 20
158.973720
 11
188.806771
 21
159.491359
  0
LINE
  8
2
 62
7
  6
CONTINUOUS
 10
188.806771
 20
158.456082
 11
188.806771
 21
159.491359
  0
LINE
  8
2
 62
7
  6
CONTINUOUS
 10
190.255660
 20
158.973720
 11
189.289734
 21
158.714901
  0
LINE
  8
2
 62
7
  6
CONTINUOUS
 10
190.255660
 20
158.973720
 11
189.289734
 21
159.232540
  0
LINE
  8
2
 62
7
  6
CONTINUOUS
 10
189.289734
 20
158.714901
 11
189.289734
 21
159.232540
  0
TEXT
  8
2
 62
7
  6
CONTINUOUS
 10
138.998712
 20
158.973720
 40
4.000000
 41
0.500000
  1
1m
  7
KANJI
 50
0.000000
 51
0.000000
  0
ENDBLK
  0
ENDSEC
  0
SECTION
  2
ENTITIES
  0
LINE
  8
5
 62
94
  6
CONTINUOUS
 10
285.000000
 20
195.000000
 11
10.000000
 21
195.000000
  0
LINE
  8
5
 62
94
  6
CONTINUOUS
 10
10.000000
 20
195.000000
 11
10.000000
 21
10.000000
  0
LINE
  8
5
 62
94
  6
CONTINUOUS
 10
10.000000
 20
10.000000
 11
285.000000
 21
10.000000
  0
LINE
  8
5
 62
94
  6
CONTINUOUS
 10
285.000000
 20
10.000000
 11
285.000000
 21
195.000000
  0
TEXT
  8
5
 62
94
  6
CONTINUOUS
 10
210.962748
 20
25.651490
 40
1.750000
 41
4.000000
  1
製図
  7
KANJI
 50
-90.000000
 51
0.000000
  0
TEXT
  8
5
 62
94
  6
CONTINUOUS
 10
230.795530
 20
25.487583
 40
1.750000
 41
4.000000
  1
図番
  7
KANJI
 50
-90.000000
 51
0.000000
  0
TEXT
  8
5
 62
94
  6
CONTINUOUS
 10
230.795530
 20
38.764073
 40
1.750000
 41
4.000000
  1
図　名
  7
KANJI
 50
-90.000000
 51
0.000000
  0
TEXT
  8
5
 62
94
  6
CONTINUOUS
 10
165.888245
 20
33.355132
 40
1.750000
 41
4.000000
  1
日付
  7
KANJI
 50
-90.000000
 51
0.000000
  0
TEXT
  8
5
 62
94
  6
CONTINUOUS
 10
200.964404
 20
33.519040
 40
1.750000
 41
4.000000
  1
図法
  7
KANJI
 50
-90.000000
 51
0.000000
  0
TEXT
  8
5
 62
94
  6
CONTINUOUS
 10
200.800497
 20
41.550497
 40
1.750000
 41
4.000000
  1
尺度
  7
KANJI
 50
-90.000000
 51
0.000000
  0
TEXT
  8
5
 62
94
  6
CONTINUOUS
 10
165.888245
 20
41.386589
 40
1.750000
 41
4.000000
  1
公差
  7
KANJI
 50
-90.000000
 51
0.000000
  0
TEXT
  8
5
 62
94
  6
CONTINUOUS
 10
165.888245
 20
25.487583
 40
1.750000
 41
4.000000
  1
承認
  7
KANJI
 50
-90.000000
 51
0.000000
  0
TEXT
  8
5
 62
94
  6
CONTINUOUS
 10
190.966060
 20
25.487583
 40
1.750000
 41
4.000000
  1
設計
  7
KANJI
 50
-90.000000
 51
0.000000
  0
TEXT
  8
5
 62
94
  6
CONTINUOUS
 10
184.409768
 20
11.555464
 40
4.500000
 41
1.888889
  1
ジャパンセンサー株式会社
  7
KANJI
 50
0.000000
 51
0.000000
  0
LINE
  8
5
 62
94
  6
CONTINUOUS
 10
165.000000
 20
42.000000
 11
285.000000
 21
42.000000
  0
LINE
  8
5
 62
94
  6
CONTINUOUS
 10
165.000000
 20
10.000000
 11
165.000000
 21
42.000000
  0
LINE
  8
5
 62
94
  6
CONTINUOUS
 10
285.000000
 20
18.000000
 11
165.000000
 21
18.000000
  0
LINE
  8
5
 62
94
  6
CONTINUOUS
 10
230.000000
 20
42.000000
 11
230.000000
 21
18.000000
  0
LINE
  8
5
 62
94
  6
CONTINUOUS
 10
285.000000
 20
26.000000
 11
165.000000
 21
26.000000
  0
LINE
  8
5
 62
94
  6
CONTINUOUS
 10
235.000000
 20
18.000000
 11
235.000000
 21
42.000000
  0
LINE
  8
5
 62
94
  6
CONTINUOUS
 10
205.000000
 20
42.000000
 11
205.000000
 21
26.000000
  0
LINE
  8
5
 62
94
  6
CONTINUOUS
 10
170.000000
 20
18.000000
 11
170.000000
 21
42.000000
  0
LINE
  8
5
 62
94
  6
CONTINUOUS
 10
165.000000
 20
34.000000
 11
230.000000
 21
34.000000
  0
LINE
  8
5
 62
94
  6
CONTINUOUS
 10
200.000000
 20
42.000000
 11
200.000000
 21
26.000000
  0
LINE
  8
5
 62
94
  6
CONTINUOUS
 10
190.000000
 20
18.000000
 11
190.000000
 21
26.000000
  0
LINE
  8
5
 62
94
  6
CONTINUOUS
 10
210.000000
 20
18.000000
 11
210.000000
 21
26.000000
  0
LINE
  8
5
 62
94
  6
CONTINUOUS
 10
195.000000
 20
26.000000
 11
195.000000
 21
18.000000
  0
LINE
  8
5
 62
94
  6
CONTINUOUS
 10
215.000000
 20
26.000000
 11
215.000000
 21
18.000000
  0
TEXT
  8
5
 62
94
  6
CONTINUOUS
 10
196.211093
 20
19.750828
 40
4.000000
 41
1.000000
  1
須藤
  7
KANJI
 50
0.810149
 51
0.000000
  0
TEXT
  8
5
 62
94
  6
CONTINUOUS
 10
216.207781
 20
19.914735
 40
4.000000
 41
1.000000
  1
須藤
  7
KANJI
 50
-0.112820
 51
0.000000
  0
TEXT
  8
5
 62
94
  6
CONTINUOUS
 10
239.144921
 20
36.381924
 40
4.000000
 41
1.000000
  1
ＴＭＢＸ－Ｎ
  7
KANJI
 50
0.000000
 51
0.000000
  0
TEXT
  8
5
 62
94
  6
CONTINUOUS
 10
239.702349
 20
31.247176
 40
4.000000
 41
1.000000
  1
PWCX用変換ｹｰﾌﾞﾙ
  7
KANJI
 50
0.000000
 51
0.000000
  0
TEXT
  8
5
 62
94
  6
CONTINUOUS
 10
239.808511
 20
26.735259
 40
4.000000
 41
1.000000
  1
外形図
  7
KANJI
 50
0.000000
 51
0.000000
  0
TEXT
  8
5
 62
94
  6
CONTINUOUS
 10
175.086614
 20
27.831693
 40
4.000000
 41
0.500000
  1
2013/01/14
  7
KANJI
 50
0.000000
 51
0.000000
  0
LINE
  8
1
 62
7
  6
CONTINUOUS
 10
71.135435
 20
151.249410
 11
71.135435
 21
142.449410
  0
LINE
  8
1
 62
7
  6
CONTINUOUS
 10
71.135435
 20
142.449410
 11
76.135435
 21
142.449410
  0
LINE
  8
1
 62
7
  6
CONTINUOUS
 10
76.135435
 20
142.449410
 11
76.135435
 21
151.249410
  0
LINE
  8
1
 62
7
  6
CONTINUOUS
 10
76.135435
 20
151.249410
 11
71.135435
 21
151.249410
  0
LINE
  8
1
 62
7
  6
CONTINUOUS
 10
76.135435
 20
143.249410
 11
85.135435
 21
143.249410
  0
LINE
  8
1
 62
7
  6
CONTINUOUS
 10
85.135435
 20
143.249410
 11
85.135435
 21
150.449410
  0
LINE
  8
1
 62
7
  6
CONTINUOUS
 10
85.135435
 20
150.449410
 11
76.135435
 21
150.449410
  0
LINE
  8
1
 62
7
  6
CONTINUOUS
 10
97.135435
 20
144.249410
 11
97.135435
 21
149.449410
  0
LINE
  8
1
 62
7
  6
CONTINUOUS
 10
87.635435
 20
143.774410
 11
87.635435
 21
149.924410
  0
LINE
  8
1
 62
7
  6
CONTINUOUS
 10
89.635435
 20
143.874410
 11
89.635435
 21
149.824410
  0
LINE
  8
1
 62
7
  6
CONTINUOUS
 10
91.335435
 20
143.959410
 11
91.335435
 21
149.739410
  0
LINE
  8
1
 62
7
  6
CONTINUOUS
 10
93.335435
 20
144.059410
 11
93.335435
 21
149.639410
  0
LINE
  8
1
 62
7
  6
CONTINUOUS
 10
95.035435
 20
144.144410
 11
95.035435
 21
149.554410
  0
LINE
  8
1
 62
7
  6
CONTINUOUS
 10
93.335435
 20
145.599410
 11
95.035435
 21
145.599410
  0
LINE
  8
1
 62
7
  6
CONTINUOUS
 10
89.635435
 20
145.599410
 11
91.335435
 21
145.599410
  0
LINE
  8
1
 62
7
  6
CONTINUOUS
 10
89.635435
 20
148.099410
 11
91.335435
 21
148.099410
  0
LINE
  8
1
 62
7
  6
CONTINUOUS
 10
93.335435
 20
148.099410
 11
95.035435
 21
148.099410
  0
LINE
  8
1
 62
7
  6
CONTINUOUS
 10
95.035435
 20
144.144410
 11
97.135435
 21
144.249410
  0
LINE
  8
1
 62
7
  6
CONTINUOUS
 10
95.035435
 20
149.554410
 11
97.135435
 21
149.449410
  0
LINE
  8
1
 62
7
  6
CONTINUOUS
 10
91.335435
 20
149.739410
 11
93.335435
 21
149.639410
  0
LINE
  8
1
 62
7
  6
CONTINUOUS
 10
91.335435
 20
143.959410
 11
93.335435
 21
144.059410
  0
LINE
  8
1
 62
7
  6
CONTINUOUS
 10
87.635435
 20
149.924410
 11
89.635435
 21
149.824410
  0
LINE
  8
1
 62
7
  6
CONTINUOUS
 10
87.635435
 20
143.774410
 11
89.635435
 21
143.874410
  0
LINE
  8
1
 62
7
  6
CONTINUOUS
 10
85.935435
 20
143.754420
 11
85.935435
 21
150.035872
  0
LINE
  8
1
 62
7
  6
CONTINUOUS
 10
85.935435
 20
143.754420
 11
85.135435
 21
143.249410
  0
LINE
  8
1
 62
7
  6
CONTINUOUS
 10
85.135435
 20
150.449410
 11
85.935435
 21
150.035872
  0
LINE
  8
1
 62
7
  6
CONTINUOUS
 10
85.935435
 20
148.099410
 11
87.635435
 21
148.099410
  0
LINE
  8
1
 62
7
  6
CONTINUOUS
 10
85.935435
 20
145.599410
 11
87.635435
 21
145.599410
  0
LINE
  8
1
 62
7
  6
CONTINUOUS
 10
66.935435
 20
145.599410
 11
66.935435
 21
148.099410
  0
LINE
  8
1
 62
7
  6
CONTINUOUS
 10
63.035435
 20
145.599410
 11
63.035435
 21
148.099410
  0
LINE
  8
1
 62
7
  6
CONTINUOUS
 10
63.545974
 20
145.599410
 11
63.545974
 21
148.099410
  0
LINE
  8
1
 62
7
  6
CONTINUOUS
 10
63.035435
 20
145.949410
 11
60.735817
 21
145.745112
  0
LINE
  8
1
 62
7
  6
CONTINUOUS
 10
63.035435
 20
147.749410
 11
60.865443
 21
147.942192
  0
ARC
  8
1
 62
7
  6
CONTINUOUS
 10
60.735435
 20
146.849410
 40
1.100000
 50
83.215416
 51
-84.923162
  0
LINE
  8
1
 62
7
  6
CONTINUOUS
 10
63.035435
 20
145.599410
 11
70.635435
 21
145.599410
  0
LINE
  8
1
 62
7
  6
CONTINUOUS
 10
63.035435
 20
148.099410
 11
70.635435
 21
148.099410
  0
LINE
  8
1
 62
7
  6
DASHDOT
 10
55.210496
 20
146.849410
 11
87.056674
 21
146.849410
  0
LINE
  8
1
 62
7
  6
CONTINUOUS
 10
70.635435
 20
150.449410
 11
71.135435
 21
150.449410
  0
LINE
  8
1
 62
7
  6
CONTINUOUS
 10
71.135435
 20
143.249410
 11
70.635435
 21
143.249410
  0
LINE
  8
1
 62
7
  6
CONTINUOUS
 10
70.635435
 20
143.249410
 11
70.635435
 21
150.449410
  0
LINE
  8
1
 62
7
  6
CONTINUOUS
 10
71.135435
 20
150.449410
 11
71.135435
 21
143.249410
  0
LINE
  8
2
 62
7
  6
CONTINUOUS
 10
61.042278
 20
146.849410
 11
57.969966
 21
139.251406
  0
CIRCLE
  8
2
 62
7
  6
CONTINUOUS
 10
57.220224
 20
137.397252
 40
2.000000
  0
TEXT
  8
2
 62
7
  6
CONTINUOUS
 10
56.220224
 20
135.397252
 40
4.000000
 41
0.500000
  1
2
  7
KANJI
 50
0.000000
 51
30.000000
  0
LINE
  8
2
 62
7
  6
CONTINUOUS
 10
61.042278
 20
146.849410
 11
60.797974
 21
144.864387
  0
LINE
  8
2
 62
7
  6
CONTINUOUS
 10
61.042278
 20
146.849410
 11
59.838193
 21
145.252482
  0
LINE
  8
2
 62
7
  6
CONTINUOUS
 10
60.797974
 20
144.864387
 11
59.838193
 21
145.252482
  0
LINE
  8
2
 62
7
  6
CONTINUOUS
 10
60.861230
 20
146.401666
 11
60.739077
 21
145.409155
  0
LINE
  8
2
 62
7
  6
CONTINUOUS
 10
60.861230
 20
146.401666
 11
60.259187
 21
145.603202
  0
LINE
  8
2
 62
7
  6
CONTINUOUS
 10
60.739077
 20
145.409155
 11
60.259187
 21
145.603202
  0
LINE
  8
2
 62
7
  6
CONTINUOUS
 10
64.960207
 20
146.849410
 11
65.577872
 21
139.467445
  0
CIRCLE
  8
2
 62
7
  6
CONTINUOUS
 10
65.744634
 20
137.474410
 40
2.000000
  0
TEXT
  8
2
 62
7
  6
CONTINUOUS
 10
64.744634
 20
135.474410
 40
4.000000
 41
0.500000
  1
3
  7
KANJI
 50
0.000000
 51
30.000000
  0
LINE
  8
2
 62
7
  6
CONTINUOUS
 10
64.960207
 20
146.849410
 11
65.637122
 21
144.967447
  0
LINE
  8
2
 62
7
  6
CONTINUOUS
 10
64.960207
 20
146.849410
 11
64.605451
 21
144.881124
  0
LINE
  8
2
 62
7
  6
CONTINUOUS
 10
65.637122
 20
144.967447
 11
64.605451
 21
144.881124
  0
LINE
  8
2
 62
7
  6
CONTINUOUS
 10
65.000477
 20
146.368129
 11
65.338934
 21
145.427147
  0
LINE
  8
2
 62
7
  6
CONTINUOUS
 10
65.000477
 20
146.368129
 11
64.823099
 21
145.383986
  0
LINE
  8
2
 62
7
  6
CONTINUOUS
 10
65.338934
 20
145.427147
 11
64.823099
 21
145.383986
  0
LINE
  8
2
 62
7
  6
CONTINUOUS
 10
68.468277
 20
146.849410
 11
73.775480
 21
139.122965
  0
CIRCLE
  8
2
 62
7
  6
CONTINUOUS
 10
74.907853
 20
137.474410
 40
2.000000
  0
TEXT
  8
2
 62
7
  6
CONTINUOUS
 10
73.907853
 20
135.474410
 40
4.000000
 41
0.500000
  1
1
  7
KANJI
 50
0.000000
 51
30.000000
  0
LINE
  8
2
 62
7
  6
CONTINUOUS
 10
68.468277
 20
146.849410
 11
69.988743
 21
145.550108
  0
LINE
  8
2
 62
7
  6
CONTINUOUS
 10
68.468277
 20
146.849410
 11
69.135388
 21
144.963949
  0
LINE
  8
2
 62
7
  6
CONTINUOUS
 10
69.988743
 20
145.550108
 11
69.135388
 21
144.963949
  0
LINE
  8
2
 62
7
  6
CONTINUOUS
 10
68.741724
 20
146.451315
 11
69.501957
 21
145.801664
  0
LINE
  8
2
 62
7
  6
CONTINUOUS
 10
68.741724
 20
146.451315
 11
69.075280
 21
145.508584
  0
LINE
  8
2
 62
7
  6
CONTINUOUS
 10
69.501957
 20
145.801664
 11
69.075280
 21
145.508584
  0
DIMENSION
  8
2
 62
7
  6
CONTINUOUS
  2
*D1
 10
126.871245
 20
144.949410
 11
126.871245
 21
135.946054
 70
     0
  1
φ3.8
 13
126.871245
 23
144.949410
 14
126.871245
 24
148.749410
 50
90.000000
  0
LINE
  8
2
 62
7
  6
CONTINUOUS
 10
74.504019
 20
151.233091
 11
88.921425
 21
170.155937
  0
LINE
  8
2
 62
7
  6
CONTINUOUS
 10
88.921425
 20
170.155937
 11
115.797861
 21
170.155937
  0
TEXT
  8
2
 62
7
  6
CONTINUOUS
 10
89.797861
 20
170.074020
 40
4.000000
 41
1.000000
  1
φ2.5 ﾐﾆﾌﾟﾗｸﾞ
  7
KANJI
 50
0.000000
 51
0.000000
  0
LINE
  8
2
 62
7
  6
CONTINUOUS
 10
74.504019
 20
151.233091
 11
75.263059
 21
153.083458
  0
LINE
  8
2
 62
7
  6
CONTINUOUS
 10
74.504019
 20
151.233091
 11
76.086550
 21
152.456036
  0
LINE
  8
2
 62
7
  6
CONTINUOUS
 10
75.263059
 20
153.083458
 11
76.086550
 21
152.456036
  0
LINE
  8
2
 62
7
  6
CONTINUOUS
 10
74.796715
 20
151.617255
 11
75.176235
 21
152.542438
  0
LINE
  8
2
 62
7
  6
CONTINUOUS
 10
74.796715
 20
151.617255
 11
75.587981
 21
152.228727
  0
LINE
  8
2
 62
7
  6
CONTINUOUS
 10
75.176235
 20
152.542438
 11
75.587981
 21
152.228727
  0
DIMENSION
  8
1
 62
7
  6
CONTINUOUS
  2
*D2
 10
233.762644
 20
166.894914
 11
236.762644
 21
166.894914
 70
     0
  1
6
 13
233.762644
 23
160.185150
 14
239.762644
 24
160.185150
 50
0.000000
  0
LINE
  8
1
 62
7
  6
CONTINUOUS
 10
236.962644
 20
138.805150
 11
236.562644
 21
138.805150
  0
LINE
  8
1
 62
7
  6
CONTINUOUS
 10
236.962644
 20
138.065150
 11
236.962644
 21
138.805150
  0
LINE
  8
1
 62
7
  6
CONTINUOUS
 10
236.562644
 20
138.065150
 11
236.962644
 21
138.065150
  0
LINE
  8
1
 62
7
  6
CONTINUOUS
 10
236.562644
 20
138.805150
 11
236.562644
 21
138.065150
  0
LINE
  8
1
 62
7
  6
CONTINUOUS
 10
236.962644
 20
140.805150
 11
236.562644
 21
140.805150
  0
LINE
  8
1
 62
7
  6
CONTINUOUS
 10
236.962644
 20
140.065150
 11
236.962644
 21
140.805150
  0
LINE
  8
1
 62
7
  6
CONTINUOUS
 10
236.562644
 20
140.065150
 11
236.962644
 21
140.065150
  0
LINE
  8
1
 62
7
  6
CONTINUOUS
 10
236.562644
 20
140.805150
 11
236.562644
 21
140.065150
  0
LINE
  8
1
 62
7
  6
CONTINUOUS
 10
236.962644
 20
142.805150
 11
236.562644
 21
142.805150
  0
LINE
  8
1
 62
7
  6
CONTINUOUS
 10
236.962644
 20
142.065150
 11
236.962644
 21
142.805150
  0
LINE
  8
1
 62
7
  6
CONTINUOUS
 10
236.562644
 20
142.065150
 11
236.962644
 21
142.065150
  0
LINE
  8
1
 62
7
  6
CONTINUOUS
 10
236.562644
 20
142.805150
 11
236.562644
 21
142.065150
  0
LINE
  8
1
 62
7
  6
CONTINUOUS
 10
236.962644
 20
144.805150
 11
236.562644
 21
144.805150
  0
LINE
  8
1
 62
7
  6
CONTINUOUS
 10
236.962644
 20
144.065150
 11
236.962644
 21
144.805150
  0
LINE
  8
1
 62
7
  6
CONTINUOUS
 10
236.562644
 20
144.065150
 11
236.962644
 21
144.065150
  0
LINE
  8
1
 62
7
  6
CONTINUOUS
 10
236.562644
 20
144.805150
 11
236.562644
 21
144.065150
  0
LINE
  8
1
 62
7
  6
CONTINUOUS
 10
236.962644
 20
146.805150
 11
236.562644
 21
146.805150
  0
LINE
  8
1
 62
7
  6
CONTINUOUS
 10
236.962644
 20
146.065150
 11
236.962644
 21
146.805150
  0
LINE
  8
1
 62
7
  6
CONTINUOUS
 10
236.562644
 20
146.065150
 11
236.962644
 21
146.065150
  0
LINE
  8
1
 62
7
  6
CONTINUOUS
 10
236.562644
 20
146.805150
 11
236.562644
 21
146.065150
  0
LINE
  8
1
 62
7
  6
CONTINUOUS
 10
236.962644
 20
148.805150
 11
236.562644
 21
148.805150
  0
LINE
  8
1
 62
7
  6
CONTINUOUS
 10
236.962644
 20
148.065150
 11
236.962644
 21
148.805150
  0
LINE
  8
1
 62
7
  6
CONTINUOUS
 10
236.562644
 20
148.065150
 11
236.962644
 21
148.065150
  0
LINE
  8
1
 62
7
  6
CONTINUOUS
 10
236.562644
 20
148.805150
 11
236.562644
 21
148.065150
  0
LINE
  8
1
 62
7
  6
CONTINUOUS
 10
236.962644
 20
150.805150
 11
236.562644
 21
150.805150
  0
LINE
  8
1
 62
7
  6
CONTINUOUS
 10
236.962644
 20
150.065150
 11
236.962644
 21
150.805150
  0
LINE
  8
1
 62
7
  6
CONTINUOUS
 10
236.562644
 20
150.065150
 11
236.962644
 21
150.065150
  0
LINE
  8
1
 62
7
  6
CONTINUOUS
 10
236.562644
 20
150.805150
 11
236.562644
 21
150.065150
  0
LINE
  8
1
 62
7
  6
CONTINUOUS
 10
236.962644
 20
152.805150
 11
236.562644
 21
152.805150
  0
LINE
  8
1
 62
7
  6
CONTINUOUS
 10
236.962644
 20
152.065150
 11
236.962644
 21
152.805150
  0
LINE
  8
1
 62
7
  6
CONTINUOUS
 10
236.562644
 20
152.065150
 11
236.962644
 21
152.065150
  0
LINE
  8
1
 62
7
  6
CONTINUOUS
 10
236.562644
 20
152.805150
 11
236.562644
 21
152.065150
  0
LINE
  8
1
 62
7
  6
CONTINUOUS
 10
235.062644
 20
154.035150
 11
238.462644
 21
154.035150
  0
LINE
  8
1
 62
7
  6
CONTINUOUS
 10
235.062644
 20
136.835150
 11
235.062644
 21
154.035150
  0
LINE
  8
1
 62
7
  6
CONTINUOUS
 10
238.462644
 20
136.835150
 11
235.062644
 21
136.835150
  0
LINE
  8
1
 62
7
  6
CONTINUOUS
 10
238.462644
 20
154.035150
 11
238.462644
 21
136.835150
  0
DIMENSION
  8
1
 62
7
  6
CONTINUOUS
  2
*D3
 10
202.204793
 20
166.894914
 11
210.455046
 21
166.894914
 70
     0
  1
18
 13
202.204793
 23
158.085150
 14
220.204793
 24
157.872111
 50
0.000000
  0
DIMENSION
  8
1
 62
7
  6
CONTINUOUS
  2
*D4
 10
228.961175
 20
135.485150
 11
228.961175
 21
146.453879
 70
     0
  1
24.5
 13
207.121624
 23
135.485150
 14
224.755761
 24
159.958242
 50
90.000000
  0
TEXT
  8
1
 62
7
  6
CONTINUOUS
 10
221.547902
 20
136.400261
 40
4.000000
 41
0.500000
  1
8
  7
KANJI
 50
0.000000
 51
0.000000
  0
TEXT
  8
1
 62
7
  6
CONTINUOUS
 10
221.496894
 20
150.802399
 40
4.000000
 41
0.500000
  1
1
  7
KANJI
 50
0.000000
 51
0.000000
  0
LINE
  8
1
 62
7
  6
CONTINUOUS
 10
204.116102
 20
159.958242
 11
223.755761
 21
159.958242
  0
LINE
  8
1
 62
7
  6
CONTINUOUS
 10
238.462644
 20
159.958242
 11
235.062644
 21
159.958242
  0
LINE
  8
1
 62
7
  6
CONTINUOUS
 10
238.462644
 20
155.985150
 11
238.462644
 21
159.958242
  0
LINE
  8
1
 62
7
  6
CONTINUOUS
 10
235.062644
 20
155.985150
 11
235.062644
 21
159.958242
  0
LINE
  8
1
 62
7
  6
DASHDOT
 10
235.665385
 20
138.435150
 11
237.855014
 21
138.435150
  0
LINE
  8
1
 62
7
  6
DASHDOT
 10
235.665385
 20
140.435150
 11
237.855014
 21
140.435150
  0
LINE
  8
1
 62
7
  6
DASHDOT
 10
235.665385
 20
142.435150
 11
237.855014
 21
142.435150
  0
LINE
  8
1
 62
7
  6
DASHDOT
 10
235.665385
 20
144.435150
 11
237.855014
 21
144.435150
  0
LINE
  8
1
 62
7
  6
DASHDOT
 10
235.665385
 20
146.435150
 11
237.855014
 21
146.435150
  0
LINE
  8
1
 62
7
  6
DASHDOT
 10
235.665385
 20
148.435150
 11
237.855014
 21
148.435150
  0
LINE
  8
1
 62
7
  6
DASHDOT
 10
235.665385
 20
150.435150
 11
237.855014
 21
150.435150
  0
LINE
  8
1
 62
7
  6
DASHDOT
 10
235.665385
 20
152.435150
 11
237.855014
 21
152.435150
  0
LINE
  8
1
 62
7
  6
CONTINUOUS
 10
239.762644
 20
135.485150
 11
239.762644
 21
158.185150
  0
LINE
  8
1
 62
7
  6
CONTINUOUS
 10
233.762644
 20
158.185150
 11
233.762644
 21
135.485150
  0
LINE
  8
1
 62
7
  6
CONTINUOUS
 10
238.462644
 20
158.185150
 11
239.762644
 21
158.185150
  0
LINE
  8
1
 62
7
  6
CONTINUOUS
 10
235.062644
 20
158.185150
 11
233.762644
 21
158.185150
  0
LINE
  8
1
 62
7
  6
CONTINUOUS
 10
239.762644
 20
155.985150
 11
238.462644
 21
155.985150
  0
LINE
  8
1
 62
7
  6
CONTINUOUS
 10
233.762644
 20
155.985150
 11
235.062644
 21
155.985150
  0
LINE
  8
1
 62
7
  6
CONTINUOUS
 10
214.704793
 20
136.685150
 11
214.704793
 21
154.185150
  0
LINE
  8
1
 62
7
  6
CONTINUOUS
 10
211.204793
 20
154.185150
 11
214.704793
 21
154.185150
  0
LINE
  8
1
 62
7
  6
CONTINUOUS
 10
211.204793
 20
154.185150
 11
211.204793
 21
155.985150
  0
LINE
  8
1
 62
7
  6
CONTINUOUS
 10
211.204793
 20
136.685150
 11
214.704793
 21
136.685150
  0
LINE
  8
1
 62
7
  6
CONTINUOUS
 10
211.204793
 20
135.685150
 11
211.204793
 21
136.685150
  0
LINE
  8
1
 62
7
  6
CONTINUOUS
 10
206.218222
 20
157.485150
 11
205.620540
 21
157.485150
  0
LINE
  8
1
 62
7
  6
CONTINUOUS
 10
206.918222
 20
158.185150
 11
208.904793
 21
158.185150
  0
LINE
  8
1
 62
7
  6
CONTINUOUS
 10
205.818222
 20
157.085150
 11
202.204793
 21
157.085150
  0
LINE
  8
1
 62
7
  6
CONTINUOUS
 10
202.204793
 20
157.085150
 11
202.205977
 21
157.091366
  0
LINE
  8
1
 62
7
  6
CONTINUOUS
 10
202.205977
 20
157.091366
 11
202.209498
 21
157.109845
  0
LINE
  8
1
 62
7
  6
CONTINUOUS
 10
202.209498
 20
157.109845
 11
202.215264
 21
157.140081
  0
LINE
  8
1
 62
7
  6
CONTINUOUS
 10
202.215264
 20
157.140081
 11
202.223136
 21
157.181243
  0
LINE
  8
1
 62
7
  6
CONTINUOUS
 10
202.223136
 20
157.181243
 11
202.232940
 21
157.232191
  0
LINE
  8
1
 62
7
  6
CONTINUOUS
 10
202.232940
 20
157.232191
 11
202.244484
 21
157.291509
  0
LINE
  8
1
 62
7
  6
CONTINUOUS
 10
202.244484
 20
157.291509
 11
202.257561
 21
157.357537
  0
LINE
  8
1
 62
7
  6
CONTINUOUS
 10
202.257561
 20
157.357537
 11
202.271950
 21
157.428423
  0
LINE
  8
1
 62
7
  6
CONTINUOUS
 10
202.271950
 20
157.428423
 11
202.287410
 21
157.502177
  0
LINE
  8
1
 62
7
  6
CONTINUOUS
 10
202.287410
 20
157.502177
 11
202.303658
 21
157.576733
  0
LINE
  8
1
 62
7
  6
CONTINUOUS
 10
202.303658
 20
157.576733
 11
202.320350
 21
157.650022
  0
LINE
  8
1
 62
7
  6
CONTINUOUS
 10
202.320350
 20
157.650022
 11
202.337071
 21
157.720028
  0
LINE
  8
1
 62
7
  6
CONTINUOUS
 10
202.337071
 20
157.720028
 11
202.353325
 21
157.784857
  0
LINE
  8
1
 62
7
  6
CONTINUOUS
 10
202.353325
 20
157.784857
 11
202.368548
 21
157.842787
  0
LINE
  8
1
 62
7
  6
CONTINUOUS
 10
202.368548
 20
157.842787
 11
202.382135
 21
157.892308
  0
LINE
  8
1
 62
7
  6
CONTINUOUS
 10
202.382135
 20
157.892308
 11
202.393483
 21
157.932158
  0
LINE
  8
1
 62
7
  6
CONTINUOUS
 10
202.393483
 20
157.932158
 11
202.402041
 21
157.961340
  0
LINE
  8
1
 62
7
  6
CONTINUOUS
 10
202.402041
 20
157.961340
 11
202.407368
 21
157.979138
  0
LINE
  8
1
 62
7
  6
CONTINUOUS
 10
202.407368
 20
157.979138
 11
202.409177
 21
157.985119
  0
LINE
  8
1
 62
7
  6
CONTINUOUS
 10
202.409177
 20
157.985119
 11
202.410994
 21
157.991096
  0
LINE
  8
1
 62
7
  6
CONTINUOUS
 10
202.410994
 20
157.991096
 11
202.416448
 21
158.008846
  0
LINE
  8
1
 62
7
  6
CONTINUOUS
 10
202.416448
 20
158.008846
 11
202.425539
 21
158.037831
  0
LINE
  8
1
 62
7
  6
CONTINUOUS
 10
202.425539
 20
158.037831
 11
202.438259
 21
158.077182
  0
LINE
  8
1
 62
7
  6
CONTINUOUS
 10
202.438259
 20
158.077182
 11
202.454573
 21
158.125732
  0
LINE
  8
1
 62
7
  6
CONTINUOUS
 10
202.454573
 20
158.125732
 11
202.474397
 21
158.182070
  0
LINE
  8
1
 62
7
  6
CONTINUOUS
 10
202.474397
 20
158.182070
 11
202.497568
 21
158.244582
  0
LINE
  8
1
 62
7
  6
CONTINUOUS
 10
202.497568
 20
158.244582
 11
202.523810
 21
158.311517
  0
LINE
  8
1
 62
7
  6
CONTINUOUS
 10
202.523810
 20
158.311517
 11
202.552706
 21
158.381030
  0
LINE
  8
1
 62
7
  6
CONTINUOUS
 10
202.552706
 20
158.381030
 11
202.583669
 21
158.451236
  0
LINE
  8
1
 62
7
  6
CONTINUOUS
 10
202.583669
 20
158.451236
 11
202.615928
 21
158.520256
  0
LINE
  8
1
 62
7
  6
CONTINUOUS
 10
202.615928
 20
158.520256
 11
202.648531
 21
158.586259
  0
LINE
  8
1
 62
7
  6
CONTINUOUS
 10
202.648531
 20
158.586259
 11
202.680371
 21
158.647502
  0
LINE
  8
1
 62
7
  6
CONTINUOUS
 10
202.680371
 20
158.647502
 11
202.710235
 21
158.702369
  0
LINE
  8
1
 62
7
  6
CONTINUOUS
 10
202.710235
 20
158.702369
 11
202.736870
 21
158.749408
  0
LINE
  8
1
 62
7
  6
CONTINUOUS
 10
202.736870
 20
158.749408
 11
202.759075
 21
158.787369
  0
LINE
  8
1
 62
7
  6
CONTINUOUS
 10
202.759075
 20
158.787369
 11
202.775785
 21
158.815238
  0
LINE
  8
1
 62
7
  6
CONTINUOUS
 10
202.775785
 20
158.815238
 11
202.786168
 21
158.832266
  0
LINE
  8
1
 62
7
  6
CONTINUOUS
 10
202.786168
 20
158.832266
 11
202.789690
 21
158.837994
  0
LINE
  8
1
 62
7
  6
CONTINUOUS
 10
202.789690
 20
158.837994
 11
202.793227
 21
158.843721
  0
LINE
  8
1
 62
7
  6
CONTINUOUS
 10
202.793227
 20
158.843721
 11
202.803826
 21
158.860744
  0
LINE
  8
1
 62
7
  6
CONTINUOUS
 10
202.803826
 20
158.860744
 11
202.821437
 21
158.888580
  0
LINE
  8
1
 62
7
  6
CONTINUOUS
 10
202.821437
 20
158.888580
 11
202.845912
 21
158.926408
  0
LINE
  8
1
 62
7
  6
CONTINUOUS
 10
202.845912
 20
158.926408
 11
202.876936
 21
158.973060
  0
LINE
  8
1
 62
7
  6
CONTINUOUS
 10
202.876936
 20
158.973060
 11
202.913954
 21
159.027025
  0
LINE
  8
1
 62
7
  6
CONTINUOUS
 10
202.913954
 20
159.027025
 11
202.956119
 21
159.086483
  0
LINE
  8
1
 62
7
  6
CONTINUOUS
 10
202.956119
 20
159.086483
 11
203.002284
 21
159.149377
  0
LINE
  8
1
 62
7
  6
CONTINUOUS
 10
203.002284
 20
159.149377
 11
203.051029
 21
159.213516
  0
LINE
  8
1
 62
7
  6
CONTINUOUS
 10
203.051029
 20
159.213516
 11
203.100748
 21
159.276715
  0
LINE
  8
1
 62
7
  6
CONTINUOUS
 10
203.100748
 20
159.276715
 11
203.149759
 21
159.336931
  0
LINE
  8
1
 62
7
  6
CONTINUOUS
 10
203.149759
 20
159.336931
 11
203.196425
 21
159.392405
  0
LINE
  8
1
 62
7
  6
CONTINUOUS
 10
203.196425
 20
159.392405
 11
203.239276
 21
159.441749
  0
LINE
  8
1
 62
7
  6
CONTINUOUS
 10
203.239276
 20
159.441749
 11
203.277086
 21
159.484003
  0
LINE
  8
1
 62
7
  6
CONTINUOUS
 10
203.277086
 20
159.484003
 11
203.308925
 21
159.518615
  0
LINE
  8
1
 62
7
  6
CONTINUOUS
 10
203.308925
 20
159.518615
 11
203.334149
 21
159.545379
  0
LINE
  8
1
 62
7
  6
CONTINUOUS
 10
203.334149
 20
159.545379
 11
203.352361
 21
159.564327
  0
LINE
  8
1
 62
7
  6
CONTINUOUS
 10
203.352361
 20
159.564327
 11
203.363349
 21
159.575600
  0
LINE
  8
1
 62
7
  6
CONTINUOUS
 10
203.363349
 20
159.575600
 11
203.367021
 21
159.579339
  0
LINE
  8
1
 62
7
  6
CONTINUOUS
 10
203.367021
 20
159.579339
 11
203.370679
 21
159.583051
  0
LINE
  8
1
 62
7
  6
CONTINUOUS
 10
203.370679
 20
159.583051
 11
203.381478
 21
159.593926
  0
LINE
  8
1
 62
7
  6
CONTINUOUS
 10
203.381478
 20
159.593926
 11
203.398902
 21
159.611215
  0
LINE
  8
1
 62
7
  6
CONTINUOUS
 10
203.398902
 20
159.611215
 11
203.422137
 21
159.633764
  0
LINE
  8
1
 62
7
  6
CONTINUOUS
 10
203.422137
 20
159.633764
 11
203.450131
 21
159.660147
  0
LINE
  8
1
 62
7
  6
CONTINUOUS
 10
203.450131
 20
159.660147
 11
203.481669
 21
159.688818
  0
LINE
  8
1
 62
7
  6
CONTINUOUS
 10
203.481669
 20
159.688818
 11
203.515462
 21
159.718260
  0
LINE
  8
1
 62
7
  6
CONTINUOUS
 10
203.515462
 20
159.718260
 11
203.550224
 21
159.747119
  0
LINE
  8
1
 62
7
  6
CONTINUOUS
 10
203.550224
 20
159.747119
 11
203.584750
 21
159.774300
  0
LINE
  8
1
 62
7
  6
CONTINUOUS
 10
203.584750
 20
159.774300
 11
203.617973
 21
159.799011
  0
LINE
  8
1
 62
7
  6
CONTINUOUS
 10
203.617973
 20
159.799011
 11
203.649007
 21
159.820773
  0
LINE
  8
1
 62
7
  6
CONTINUOUS
 10
203.649007
 20
159.820773
 11
203.677165
 21
159.839382
  0
LINE
  8
1
 62
7
  6
CONTINUOUS
 10
203.677165
 20
159.839382
 11
203.701955
 21
159.854852
  0
LINE
  8
1
 62
7
  6
CONTINUOUS
 10
203.701955
 20
159.854852
 11
203.723070
 21
159.867345
  0
LINE
  8
1
 62
7
  6
CONTINUOUS
 10
203.723070
 20
159.867345
 11
203.740347
 21
159.877096
  0
LINE
  8
1
 62
7
  6
CONTINUOUS
 10
203.740347
 20
159.877096
 11
203.753735
 21
159.884362
  0
LINE
  8
1
 62
7
  6
CONTINUOUS
 10
203.753735
 20
159.884362
 11
203.763248
 21
159.889373
  0
LINE
  8
1
 62
7
  6
CONTINUOUS
 10
203.763248
 20
159.889373
 11
203.768929
 21
159.892305
  0
LINE
  8
1
 62
7
  6
CONTINUOUS
 10
203.768929
 20
159.892305
 11
203.770817
 21
159.893270
  0
LINE
  8
1
 62
7
  6
CONTINUOUS
 10
203.770817
 20
159.893270
 11
203.772694
 21
159.894224
  0
LINE
  8
1
 62
7
  6
CONTINUOUS
 10
203.772694
 20
159.894224
 11
203.778209
 21
159.896999
  0
LINE
  8
1
 62
7
  6
CONTINUOUS
 10
203.778209
 20
159.896999
 11
203.787020
 21
159.901344
  0
LINE
  8
1
 62
7
  6
CONTINUOUS
 10
203.787020
 20
159.901344
 11
203.798603
 21
159.906877
  0
LINE
  8
1
 62
7
  6
CONTINUOUS
 10
203.798603
 20
159.906877
 11
203.812303
 21
159.913143
  0
LINE
  8
1
 62
7
  6
CONTINUOUS
 10
203.812303
 20
159.913143
 11
203.827401
 21
159.919670
  0
LINE
  8
1
 62
7
  6
CONTINUOUS
 10
203.827401
 20
159.919670
 11
203.843179
 21
159.926025
  0
LINE
  8
1
 62
7
  6
CONTINUOUS
 10
203.843179
 20
159.926025
 11
203.858974
 21
159.931858
  0
LINE
  8
1
 62
7
  6
CONTINUOUS
 10
203.858974
 20
159.931858
 11
203.874227
 21
159.936934
  0
LINE
  8
1
 62
7
  6
CONTINUOUS
 10
203.874227
 20
159.936934
 11
203.888501
 21
159.941136
  0
LINE
  8
1
 62
7
  6
CONTINUOUS
 10
203.888501
 20
159.941136
 11
203.901486
 21
159.944456
  0
LINE
  8
1
 62
7
  6
CONTINUOUS
 10
203.901486
 20
159.944456
 11
203.912992
 21
159.946965
  0
LINE
  8
1
 62
7
  6
CONTINUOUS
 10
203.912992
 20
159.946965
 11
203.922923
 21
159.948790
  0
LINE
  8
1
 62
7
  6
CONTINUOUS
 10
203.922923
 20
159.948790
 11
203.931251
 21
159.950072
  0
LINE
  8
1
 62
7
  6
CONTINUOUS
 10
203.931251
 20
159.950072
 11
203.937991
 21
159.950946
  0
LINE
  8
1
 62
7
  6
CONTINUOUS
 10
203.937991
 20
159.950946
 11
203.943179
 21
159.951524
  0
LINE
  8
1
 62
7
  6
CONTINUOUS
 10
203.943179
 20
159.951524
 11
203.946852
 21
159.951888
  0
LINE
  8
1
 62
7
  6
CONTINUOUS
 10
203.946852
 20
159.951888
 11
203.949042
 21
159.952087
  0
LINE
  8
1
 62
7
  6
CONTINUOUS
 10
203.949042
 20
159.952087
 11
203.949770
 21
159.952151
  0
LINE
  8
1
 62
7
  6
CONTINUOUS
 10
203.949770
 20
159.952151
 11
203.950493
 21
159.952213
  0
LINE
  8
1
 62
7
  6
CONTINUOUS
 10
203.950493
 20
159.952213
 11
203.952617
 21
159.952389
  0
LINE
  8
1
 62
7
  6
CONTINUOUS
 10
203.952617
 20
159.952389
 11
203.956012
 21
159.952647
  0
LINE
  8
1
 62
7
  6
CONTINUOUS
 10
203.956012
 20
159.952647
 11
203.960483
 21
159.952945
  0
LINE
  8
1
 62
7
  6
CONTINUOUS
 10
203.960483
 20
159.952945
 11
203.965795
 21
159.953238
  0
LINE
  8
1
 62
7
  6
CONTINUOUS
 10
203.965795
 20
159.953238
 11
203.971706
 21
159.953489
  0
LINE
  8
1
 62
7
  6
CONTINUOUS
 10
203.971706
 20
159.953489
 11
203.977990
 21
159.953679
  0
LINE
  8
1
 62
7
  6
CONTINUOUS
 10
203.977990
 20
159.953679
 11
203.984458
 21
159.953807
  0
LINE
  8
1
 62
7
  6
CONTINUOUS
 10
203.984458
 20
159.953807
 11
203.990958
 21
159.953894
  0
LINE
  8
1
 62
7
  6
CONTINUOUS
 10
203.990958
 20
159.953894
 11
203.997379
 21
159.953974
  0
LINE
  8
1
 62
7
  6
CONTINUOUS
 10
203.997379
 20
159.953974
 11
204.003628
 21
159.954085
  0
LINE
  8
1
 62
7
  6
CONTINUOUS
 10
204.003628
 20
159.954085
 11
204.009621
 21
159.954258
  0
LINE
  8
1
 62
7
  6
CONTINUOUS
 10
204.009621
 20
159.954258
 11
204.015260
 21
159.954509
  0
LINE
  8
1
 62
7
  6
CONTINUOUS
 10
204.015260
 20
159.954509
 11
204.020422
 21
159.954831
  0
LINE
  8
1
 62
7
  6
CONTINUOUS
 10
204.020422
 20
159.954831
 11
204.024965
 21
159.955196
  0
LINE
  8
1
 62
7
  6
CONTINUOUS
 10
204.024965
 20
159.955196
 11
204.028729
 21
159.955561
  0
LINE
  8
1
 62
7
  6
CONTINUOUS
 10
204.028729
 20
159.955561
 11
204.031556
 21
159.955873
  0
LINE
  8
1
 62
7
  6
CONTINUOUS
 10
204.031556
 20
159.955873
 11
204.033312
 21
159.956083
  0
LINE
  8
1
 62
7
  6
CONTINUOUS
 10
204.033312
 20
159.956083
 11
204.033909
 21
159.956157
  0
LINE
  8
1
 62
7
  6
CONTINUOUS
 10
204.033909
 20
159.956157
 11
204.034507
 21
159.956233
  0
LINE
  8
1
 62
7
  6
CONTINUOUS
 10
204.034507
 20
159.956233
 11
204.036304
 21
159.956468
  0
LINE
  8
1
 62
7
  6
CONTINUOUS
 10
204.036304
 20
159.956468
 11
204.039302
 21
159.956880
  0
LINE
  8
1
 62
7
  6
CONTINUOUS
 10
204.039302
 20
159.956880
 11
204.043507
 21
159.957477
  0
LINE
  8
1
 62
7
  6
CONTINUOUS
 10
204.043507
 20
159.957477
 11
204.048937
 21
159.958242
  0
LINE
  8
1
 62
7
  6
CONTINUOUS
 10
204.048937
 20
159.958242
 11
204.055612
 21
159.959107
  0
LINE
  8
1
 62
7
  6
CONTINUOUS
 10
204.055612
 20
159.959107
 11
204.063555
 21
159.959952
  0
LINE
  8
1
 62
7
  6
CONTINUOUS
 10
204.063555
 20
159.959952
 11
204.072766
 21
159.960603
  0
LINE
  8
1
 62
7
  6
CONTINUOUS
 10
204.072766
 20
159.960603
 11
204.083203
 21
159.960862
  0
LINE
  8
1
 62
7
  6
CONTINUOUS
 10
204.083203
 20
159.960862
 11
204.094751
 21
159.960538
  0
LINE
  8
1
 62
7
  6
CONTINUOUS
 10
204.094751
 20
159.960538
 11
204.107195
 21
159.959489
  0
LINE
  8
1
 62
7
  6
CONTINUOUS
 10
204.107195
 20
159.959489
 11
204.120202
 21
159.957667
  0
LINE
  8
1
 62
7
  6
CONTINUOUS
 10
204.120202
 20
159.957667
 11
204.133319
 21
159.955141
  0
LINE
  8
1
 62
7
  6
CONTINUOUS
 10
204.133319
 20
159.955141
 11
204.145987
 21
159.952102
  0
LINE
  8
1
 62
7
  6
CONTINUOUS
 10
204.145987
 20
159.952102
 11
204.157577
 21
159.948854
  0
LINE
  8
1
 62
7
  6
CONTINUOUS
 10
204.157577
 20
159.948854
 11
204.167443
 21
159.945763
  0
LINE
  8
1
 62
7
  6
CONTINUOUS
 10
204.167443
 20
159.945763
 11
204.174988
 21
159.943212
  0
LINE
  8
1
 62
7
  6
CONTINUOUS
 10
204.174988
 20
159.943212
 11
204.179727
 21
159.941531
  0
LINE
  8
1
 62
7
  6
CONTINUOUS
 10
204.179727
 20
159.941531
 11
204.181343
 21
159.940944
  0
LINE
  8
1
 62
7
  6
CONTINUOUS
 10
204.181343
 20
159.940944
 11
204.182971
 21
159.940346
  0
LINE
  8
1
 62
7
  6
CONTINUOUS
 10
204.182971
 20
159.940346
 11
204.187876
 21
159.938503
  0
LINE
  8
1
 62
7
  6
CONTINUOUS
 10
204.187876
 20
159.938503
 11
204.196121
 21
159.935266
  0
LINE
  8
1
 62
7
  6
CONTINUOUS
 10
204.196121
 20
159.935266
 11
204.207791
 21
159.930390
  0
LINE
  8
1
 62
7
  6
CONTINUOUS
 10
204.207791
 20
159.930390
 11
204.222971
 21
159.923539
  0
LINE
  8
1
 62
7
  6
CONTINUOUS
 10
204.222971
 20
159.923539
 11
204.241704
 21
159.914318
  0
LINE
  8
1
 62
7
  6
CONTINUOUS
 10
204.241704
 20
159.914318
 11
204.263955
 21
159.902313
  0
LINE
  8
1
 62
7
  6
CONTINUOUS
 10
204.263955
 20
159.902313
 11
204.289560
 21
159.887164
  0
LINE
  8
1
 62
7
  6
CONTINUOUS
 10
204.289560
 20
159.887164
 11
204.318184
 21
159.868649
  0
LINE
  8
1
 62
7
  6
CONTINUOUS
 10
204.318184
 20
159.868649
 11
204.349283
 21
159.846783
  0
LINE
  8
1
 62
7
  6
CONTINUOUS
 10
204.349283
 20
159.846783
 11
204.382087
 21
159.821894
  0
LINE
  8
1
 62
7
  6
CONTINUOUS
 10
204.382087
 20
159.821894
 11
204.415600
 21
159.794689
  0
LINE
  8
1
 62
7
  6
CONTINUOUS
 10
204.415600
 20
159.794689
 11
204.448629
 21
159.766251
  0
LINE
  8
1
 62
7
  6
CONTINUOUS
 10
204.448629
 20
159.766251
 11
204.479842
 21
159.738002
  0
LINE
  8
1
 62
7
  6
CONTINUOUS
 10
204.479842
 20
159.738002
 11
204.507852
 21
159.711590
  0
LINE
  8
1
 62
7
  6
CONTINUOUS
 10
204.507852
 20
159.711590
 11
204.531312
 21
159.688738
  0
LINE
  8
1
 62
7
  6
CONTINUOUS
 10
204.531312
 20
159.688738
 11
204.549029
 21
159.671060
  0
LINE
  8
1
 62
7
  6
CONTINUOUS
 10
204.549029
 20
159.671060
 11
204.560062
 21
159.659874
  0
LINE
  8
1
 62
7
  6
CONTINUOUS
 10
204.560062
 20
159.659874
 11
204.563808
 21
159.656046
  0
LINE
  8
1
 62
7
  6
CONTINUOUS
 10
204.563808
 20
159.656046
 11
204.567573
 21
159.652184
  0
LINE
  8
1
 62
7
  6
CONTINUOUS
 10
204.567573
 20
159.652184
 11
204.578866
 21
159.640506
  0
LINE
  8
1
 62
7
  6
CONTINUOUS
 10
204.578866
 20
159.640506
 11
204.597666
 21
159.620767
  0
LINE
  8
1
 62
7
  6
CONTINUOUS
 10
204.597666
 20
159.620767
 11
204.623857
 21
159.592649
  0
LINE
  8
1
 62
7
  6
CONTINUOUS
 10
204.623857
 20
159.592649
 11
204.657143
 21
159.555880
  0
LINE
  8
1
 62
7
  6
CONTINUOUS
 10
204.657143
 20
159.555880
 11
204.696955
 21
159.510378
  0
LINE
  8
1
 62
7
  6
CONTINUOUS
 10
204.696955
 20
159.510378
 11
204.742388
 21
159.456382
  0
LINE
  8
1
 62
7
  6
CONTINUOUS
 10
204.742388
 20
159.456382
 11
204.792181
 21
159.394565
  0
LINE
  8
1
 62
7
  6
CONTINUOUS
 10
204.792181
 20
159.394565
 11
204.844763
 21
159.326101
  0
LINE
  8
1
 62
7
  6
CONTINUOUS
 10
204.844763
 20
159.326101
 11
204.898344
 21
159.252674
  0
LINE
  8
1
 62
7
  6
CONTINUOUS
 10
204.898344
 20
159.252674
 11
204.951054
 21
159.176440
  0
LINE
  8
1
 62
7
  6
CONTINUOUS
 10
204.951054
 20
159.176440
 11
205.001091
 21
159.099925
  0
LINE
  8
1
 62
7
  6
CONTINUOUS
 10
205.001091
 20
159.099925
 11
205.046855
 21
159.025895
  0
LINE
  8
1
 62
7
  6
CONTINUOUS
 10
205.046855
 20
159.025895
 11
205.087052
 21
158.957195
  0
LINE
  8
1
 62
7
  6
CONTINUOUS
 10
205.087052
 20
158.957195
 11
205.120733
 21
158.896578
  0
LINE
  8
1
 62
7
  6
CONTINUOUS
 10
205.120733
 20
158.896578
 11
205.147287
 21
158.846545
  0
LINE
  8
1
 62
7
  6
CONTINUOUS
 10
205.147287
 20
158.846545
 11
205.166378
 21
158.809200
  0
LINE
  8
1
 62
7
  6
CONTINUOUS
 10
205.166378
 20
158.809200
 11
205.177860
 21
158.786133
  0
LINE
  8
1
 62
7
  6
CONTINUOUS
 10
205.177860
 20
158.786133
 11
205.181690
 21
158.778332
  0
LINE
  8
1
 62
7
  6
CONTINUOUS
 10
205.181690
 20
158.778332
 11
205.185502
 21
158.770511
  0
LINE
  8
1
 62
7
  6
CONTINUOUS
 10
205.185502
 20
158.770511
 11
205.196738
 21
158.747140
  0
LINE
  8
1
 62
7
  6
CONTINUOUS
 10
205.196738
 20
158.747140
 11
205.214809
 21
158.708516
  0
LINE
  8
1
 62
7
  6
CONTINUOUS
 10
205.214809
 20
158.708516
 11
205.238812
 21
158.655192
  0
LINE
  8
1
 62
7
  6
CONTINUOUS
 10
205.238812
 20
158.655192
 11
205.267617
 21
158.588045
  0
LINE
  8
1
 62
7
  6
CONTINUOUS
 10
205.267617
 20
158.588045
 11
205.299977
 21
158.508348
  0
LINE
  8
1
 62
7
  6
CONTINUOUS
 10
205.299977
 20
158.508348
 11
205.334635
 21
158.417817
  0
LINE
  8
1
 62
7
  6
CONTINUOUS
 10
205.334635
 20
158.417817
 11
205.370408
 21
158.318633
  0
LINE
  8
1
 62
7
  6
CONTINUOUS
 10
205.370408
 20
158.318633
 11
205.406243
 21
158.213407
  0
LINE
  8
1
 62
7
  6
CONTINUOUS
 10
205.406243
 20
158.213407
 11
205.441237
 21
158.105102
  0
LINE
  8
1
 62
7
  6
CONTINUOUS
 10
205.441237
 20
158.105102
 11
205.474636
 21
157.996915
  0
LINE
  8
1
 62
7
  6
CONTINUOUS
 10
205.474636
 20
157.996915
 11
205.505803
 21
157.892130
  0
LINE
  8
1
 62
7
  6
CONTINUOUS
 10
205.505803
 20
157.892130
 11
205.534184
 21
157.793964
  0
LINE
  8
1
 62
7
  6
CONTINUOUS
 10
205.534184
 20
157.793964
 11
205.559275
 21
157.705426
  0
LINE
  8
1
 62
7
  6
CONTINUOUS
 10
205.559275
 20
157.705426
 11
205.580606
 21
157.629191
  0
LINE
  8
1
 62
7
  6
CONTINUOUS
 10
205.580606
 20
157.629191
 11
205.597741
 21
157.567516
  0
LINE
  8
1
 62
7
  6
CONTINUOUS
 10
205.597741
 20
157.567516
 11
205.610296
 21
157.522184
  0
LINE
  8
1
 62
7
  6
CONTINUOUS
 10
205.610296
 20
157.522184
 11
205.617962
 21
157.494472
  0
LINE
  8
1
 62
7
  6
CONTINUOUS
 10
205.617962
 20
157.494472
 11
205.620540
 21
157.485150
  0
LINE
  8
1
 62
7
  6
CONTINUOUS
 10
202.204793
 20
157.085150
 11
202.204793
 21
135.985150
  0
LINE
  8
1
 62
7
  6
CONTINUOUS
 10
205.818222
 20
157.085150
 11
206.918222
 21
158.185150
  0
LINE
  8
1
 62
7
  6
CONTINUOUS
 10
219.704793
 20
157.372111
 11
209.404793
 21
157.485150
  0
LINE
  8
1
 62
7
  6
CONTINUOUS
 10
220.204793
 20
156.872111
 11
220.204793
 21
136.185150
  0
ARC
  8
1
 62
7
  6
CONTINUOUS
 10
219.704793
 20
156.872111
 40
0.500000
 50
0.000000
 51
90.000000
  0
LINE
  8
1
 62
7
  6
CONTINUOUS
 10
209.404793
 20
157.685150
 11
209.404793
 21
155.985150
  0
ARC
  8
1
 62
7
  6
CONTINUOUS
 10
208.904793
 20
157.685150
 40
0.500000
 50
0.000000
 51
90.000000
  0
LINE
  8
1
 62
7
  6
CONTINUOUS
 10
209.404793
 20
155.985150
 11
220.204793
 21
155.985150
  0
ARC
  8
1
 62
7
  6
CONTINUOUS
 10
219.704793
 20
136.185150
 40
0.500000
 50
-90.000000
 51
0.000000
  0
LINE
  8
1
 62
7
  6
CONTINUOUS
 10
206.121624
 20
135.685150
 11
219.704793
 21
135.685150
  0
LINE
  8
1
 62
7
  6
CONTINUOUS
 10
206.121624
 20
135.485150
 11
206.121624
 21
135.685150
  0
LINE
  8
1
 62
7
  6
CONTINUOUS
 10
206.204793
 20
153.285150
 11
206.204793
 21
137.285150
  0
LINE
  8
1
 62
7
  6
CONTINUOUS
 10
206.204793
 20
153.285150
 11
204.704793
 21
153.285150
  0
LINE
  8
1
 62
7
  6
CONTINUOUS
 10
204.704793
 20
153.285150
 11
204.704793
 21
137.285150
  0
LINE
  8
1
 62
7
  6
CONTINUOUS
 10
204.704793
 20
137.285150
 11
206.204793
 21
137.285150
  0
LINE
  8
1
 62
7
  6
CONTINUOUS
 10
195.519291
 20
146.862645
 11
198.993077
 21
147.835150
  0
LINE
  8
1
 62
7
  6
CONTINUOUS
 10
195.568152
 20
148.079733
 11
198.968585
 21
149.035150
  0
LINE
  8
1
 62
7
  6
CONTINUOUS
 10
192.658947
 20
146.661926
 11
198.993077
 21
149.835150
  0
LINE
  8
1
 62
7
  6
CONTINUOUS
 10
202.204793
 20
149.835150
 11
198.993077
 21
149.835150
  0
LINE
  8
1
 62
7
  6
CONTINUOUS
 10
202.204793
 20
151.035150
 11
198.968585
 21
151.035150
  0
LINE
  8
1
 62
7
  6
CONTINUOUS
 10
202.204793
 20
147.835150
 11
198.993077
 21
147.835150
  0
LINE
  8
1
 62
7
  6
CONTINUOUS
 10
202.204793
 20
149.035150
 11
198.968585
 21
149.035150
  0
LINE
  8
1
 62
7
  6
CONTINUOUS
 10
192.206275
 20
145.435150
 11
198.993077
 21
145.835150
  0
LINE
  8
1
 62
7
  6
CONTINUOUS
 10
192.206275
 20
146.635150
 11
198.968585
 21
147.035150
  0
LINE
  8
1
 62
7
  6
CONTINUOUS
 10
192.206275
 20
146.635150
 11
190.738623
 21
146.635150
  0
LINE
  8
1
 62
7
  6
CONTINUOUS
 10
202.204793
 20
145.835150
 11
198.993077
 21
145.835150
  0
LINE
  8
1
 62
7
  6
CONTINUOUS
 10
202.204793
 20
147.035150
 11
198.968585
 21
147.035150
  0
LINE
  8
1
 62
7
  6
DASHDOT
 10
231.114698
 20
145.435150
 11
242.109280
 21
145.435150
  0
LINE
  8
1
 62
7
  6
CONTINUOUS
 10
233.762644
 20
135.485150
 11
239.762644
 21
135.485150
  0
LINE
  8
1
 62
7
  6
DASHDOT
 10
236.762644
 20
164.665995
 11
236.762644
 21
131.638734
  0
LINE
  8
1
 62
7
  6
CONTINUOUS
 10
192.206275
 20
145.435150
 11
190.738623
 21
145.435150
  0
LINE
  8
1
 62
7
  6
DASHDOT
 10
200.899055
 20
140.435150
 11
221.053784
 21
140.435150
  0
LINE
  8
1
 62
7
  6
DASHDOT
 10
200.899055
 20
142.435150
 11
221.053784
 21
142.435150
  0
LINE
  8
1
 62
7
  6
DASHDOT
 10
200.899055
 20
144.435150
 11
221.053784
 21
144.435150
  0
LINE
  8
1
 62
7
  6
DASHDOT
 10
200.899055
 20
146.435150
 11
221.053784
 21
146.435150
  0
LINE
  8
1
 62
7
  6
DASHDOT
 10
200.899055
 20
148.435150
 11
221.053784
 21
148.435150
  0
LINE
  8
1
 62
7
  6
DASHDOT
 10
200.899055
 20
150.435150
 11
221.053784
 21
150.435150
  0
LINE
  8
1
 62
7
  6
DASHDOT
 10
200.954797
 20
138.435150
 11
221.096293
 21
138.435150
  0
LINE
  8
1
 62
7
  6
DASHDOT
 10
200.899055
 20
152.435150
 11
221.053784
 21
152.435150
  0
ARC
  8
1
 62
7
  6
CONTINUOUS
 10
202.704793
 20
135.985150
 40
0.500000
 50
180.000000
 51
-90.000000
  0
LINE
  8
1
 62
7
  6
CONTINUOUS
 10
206.121624
 20
135.485150
 11
202.704793
 21
135.485150
  0
LINE
  8
1
 62
7
  6
CONTINUOUS
 10
193.399624
 20
148.235150
 11
198.968585
 21
151.035150
  0
LINE
  8
1
 62
7
  6
CONTINUOUS
 10
193.399624
 20
148.235150
 11
190.738623
 21
148.235150
  0
LINE
  8
1
 62
7
  6
CONTINUOUS
 10
193.403946
 20
147.035150
 11
190.738623
 21
147.035150
  0
LINE
  8
1
 62
7
  6
DASHDOT
 10
197.723960
 20
145.435150
 11
224.051209
 21
145.435150
  0
LINE
  8
1
 62
7
  6
DASHDOT
 10
143.754128
 20
146.849410
 11
190.706291
 21
146.849410
  0
LINE
  8
1
 62
7
  6
CONTINUOUS
 10
145.313630
 20
151.422933
 11
142.315767
 21
142.001079
  0
LINE
  8
1
 62
7
  6
CONTINUOUS
 10
143.497169
 20
151.422933
 11
140.499306
 21
142.001079
  0
LINE
  8
1
 62
7
  6
CONTINUOUS
 10
97.135435
 20
144.949410
 11
141.355838
 21
144.949410
  0
LINE
  8
1
 62
7
  6
CONTINUOUS
 10
97.135435
 20
148.749410
 11
142.554983
 21
148.749410
  0
LINE
  8
1
 62
7
  6
DASHDOT
 10
95.035435
 20
146.849410
 11
141.937667
 21
146.849410
  0
LINE
  8
1
 62
7
  6
CONTINUOUS
 10
144.462963
 20
148.749410
 11
190.738623
 21
148.749410
  0
LINE
  8
1
 62
7
  6
CONTINUOUS
 10
143.253872
 20
144.949410
 11
190.738623
 21
144.949410
  0
LINE
  8
1
 62
7
  6
CONTINUOUS
 10
190.738623
 20
148.749410
 11
190.738623
 21
144.949410
  0
DIMENSION
  8
2
 62
7
  6
CONTINUOUS
  2
*D5
 10
85.935435
 20
158.973720
 11
140.998712
 21
158.973720
 70
     0
  1
1m
 13
85.935435
 23
144.754420
 14
190.738623
 24
149.749410
 50
0.000000
  0
TEXT
  8
1
 62
7
  6
CONTINUOUS
 10
196.487369
 20
101.698911
 40
3.999900
 41
1.000000
  1
線色
  7
KANJI
 50
0.000000
 51
0.000000
  0
LINE
  8
1
 62
7
  6
CONTINUOUS
 10
204.928438
 20
106.377394
 11
204.928438
 21
63.536130
  0
TEXT
  8
1
 62
7
  6
CONTINUOUS
 10
207.196793
 20
86.856947
 40
3.999900
 41
0.500000
  1
DC-GND
  7
KANJI
 50
0.000000
 51
0.000000
  0
TEXT
  8
1
 62
7
  6
CONTINUOUS
 10
215.796278
 20
101.481240
 40
3.999900
 41
1.000000
  1
信号名
  7
KANJI
 50
0.000000
 51
0.000000
  0
TEXT
  8
1
 62
7
  6
CONTINUOUS
 10
191.197193
 20
96.190047
 40
3.999900
 41
0.500000
  1
1
  7
KANJI
 50
0.000000
 51
0.000000
  0
TEXT
  8
1
 62
7
  6
CONTINUOUS
 10
191.197193
 20
91.523497
 40
3.999900
 41
0.500000
  1
2
  7
KANJI
 50
0.000000
 51
0.000000
  0
TEXT
  8
1
 62
7
  6
CONTINUOUS
 10
191.197193
 20
86.856947
 40
3.999900
 41
0.500000
  1
3
  7
KANJI
 50
0.000000
 51
0.000000
  0
TEXT
  8
1
 62
7
  6
CONTINUOUS
 10
191.197193
 20
82.190397
 40
3.999900
 41
0.500000
  1
4
  7
KANJI
 50
0.000000
 51
0.000000
  0
TEXT
  8
1
 62
7
  6
CONTINUOUS
 10
190.468079
 20
101.698911
 40
3.999900
 41
0.500000
  1
No
  7
KANJI
 50
0.000000
 51
0.000000
  0
TEXT
  8
1
 62
7
  6
CONTINUOUS
 10
191.197193
 20
72.857297
 40
3.999900
 41
0.500000
  1
6
  7
KANJI
 50
0.000000
 51
0.000000
  0
TEXT
  8
1
 62
7
  6
CONTINUOUS
 10
191.197193
 20
77.523847
 40
3.999900
 41
0.500000
  1
5
  7
KANJI
 50
0.000000
 51
0.000000
  0
TEXT
  8
1
 62
7
  6
CONTINUOUS
 10
191.197193
 20
68.190747
 40
3.999900
 41
0.500000
  1
7
  7
KANJI
 50
0.000000
 51
0.000000
  0
TEXT
  8
1
 62
7
  6
CONTINUOUS
 10
191.197193
 20
63.524197
 40
3.999900
 41
0.500000
  1
8
  7
KANJI
 50
0.000000
 51
0.000000
  0
LINE
  8
1
 62
7
  6
CONTINUOUS
 10
188.928838
 20
106.377394
 11
188.928838
 21
63.536130
  0
LINE
  8
1
 62
7
  6
CONTINUOUS
 10
195.595338
 20
106.377394
 11
195.595338
 21
63.536130
  0
TEXT
  8
1
 62
7
  6
CONTINUOUS
 10
203.023552
 20
111.851524
 40
3.999900
 41
1.000000
  1
e-CON コネクタ　8ピン
  7
KANJI
 50
0.000000
 51
0.000000
  0
TEXT
  8
1
 62
7
  6
CONTINUOUS
 10
197.863693
 20
86.856947
 40
3.999900
 41
1.000000
  1
黒
  7
KANJI
 50
0.000000
 51
0.000000
  0
LINE
  8
1
 62
7
  6
CONTINUOUS
 10
256.428149
 20
106.377394
 11
256.428149
 21
63.536130
  0
LINE
  8
1
 62
7
  6
CONTINUOUS
 10
256.428149
 20
63.536130
 11
188.928838
 21
63.536130
  0
LINE
  8
1
 62
7
  6
CONTINUOUS
 10
188.928838
 20
96.201980
 11
256.428149
 21
96.201980
  0
LINE
  8
1
 62
7
  6
CONTINUOUS
 10
188.928838
 20
100.868530
 11
256.428149
 21
100.868530
  0
LINE
  8
1
 62
7
  6
CONTINUOUS
 10
256.428149
 20
91.535430
 11
188.928838
 21
91.535430
  0
LINE
  8
1
 62
7
  6
CONTINUOUS
 10
188.928838
 20
86.868880
 11
256.428149
 21
86.868880
  0
LINE
  8
1
 62
7
  6
CONTINUOUS
 10
256.428149
 20
82.202330
 11
188.928838
 21
82.202330
  0
LINE
  8
1
 62
7
  6
CONTINUOUS
 10
188.928838
 20
77.535780
 11
256.428149
 21
77.535780
  0
LINE
  8
1
 62
7
  6
CONTINUOUS
 10
256.428149
 20
72.869230
 11
188.928838
 21
72.869230
  0
LINE
  8
1
 62
7
  6
CONTINUOUS
 10
188.928838
 20
68.202680
 11
256.428149
 21
68.202680
  0
LINE
  8
1
 62
7
  6
CONTINUOUS
 10
188.928838
 20
106.377394
 11
256.428149
 21
106.377394
  0
TEXT
  8
1
 62
7
  6
CONTINUOUS
 10
214.612340
 20
107.007339
 40
3.999900
 41
1.000000
  1
XN2A-1870（オムロン）
  7
KANJI
 50
0.000000
 51
0.000000
  0
TEXT
  8
1
 62
7
  6
CONTINUOUS
 10
207.196793
 20
91.523497
 40
3.999900
 41
1.000000
  1
RS232C TXD(温度計)→RXD
  7
KANJI
 50
0.000000
 51
0.000000
  0
TEXT
  8
1
 62
7
  6
CONTINUOUS
 10
41.534000
 20
96.190047
 40
3.999900
 41
0.500000
  1
1
  7
KANJI
 50
0.000000
 51
0.000000
  0
TEXT
  8
1
 62
7
  6
CONTINUOUS
 10
41.534000
 20
91.523497
 40
3.999900
 41
0.500000
  1
2
  7
KANJI
 50
0.000000
 51
0.000000
  0
TEXT
  8
1
 62
7
  6
CONTINUOUS
 10
41.534000
 20
86.856947
 40
3.999900
 41
0.500000
  1
3
  7
KANJI
 50
0.000000
 51
0.000000
  0
TEXT
  8
1
 62
7
  6
CONTINUOUS
 10
40.804886
 20
101.698911
 40
3.999900
 41
0.500000
  1
No
  7
KANJI
 50
0.000000
 51
0.000000
  0
TEXT
  8
1
 62
7
  6
CONTINUOUS
 10
197.863693
 20
91.523497
 40
3.999900
 41
1.000000
  1
白
  7
KANJI
 50
0.000000
 51
0.000000
  0
TEXT
  8
1
 62
7
  6
CONTINUOUS
 10
197.863693
 20
82.190397
 40
3.999900
 41
1.000000
  1
赤
  7
KANJI
 50
0.000000
 51
0.000000
  0
TEXT
  8
1
 62
7
  6
CONTINUOUS
 10
55.418784
 20
101.481240
 40
3.999900
 41
1.000000
  1
信号名
  7
KANJI
 50
0.000000
 51
0.000000
  0
LINE
  8
1
 62
7
  6
CONTINUOUS
 10
39.265645
 20
96.201980
 11
96.050655
 21
96.201980
  0
LINE
  8
1
 62
7
  6
CONTINUOUS
 10
39.265645
 20
100.868530
 11
96.050655
 21
100.868530
  0
LINE
  8
1
 62
7
  6
CONTINUOUS
 10
96.050655
 20
91.535430
 11
39.265645
 21
91.535430
  0
LINE
  8
1
 62
7
  6
CONTINUOUS
 10
39.265645
 20
86.868880
 11
96.050655
 21
86.868880
  0
LINE
  8
1
 62
7
  6
CONTINUOUS
 10
39.265645
 20
106.377394
 11
96.050655
 21
106.377394
  0
TEXT
  8
1
 62
7
  6
CONTINUOUS
 10
46.819299
 20
91.523497
 40
3.999900
 41
1.000000
  1
RS232C TXD(温度計)→RXD
  7
KANJI
 50
0.000000
 51
0.000000
  0
TEXT
  8
1
 62
7
  6
CONTINUOUS
 10
46.819299
 20
96.190047
 40
3.999900
 41
0.500000
  1
DC-GND
  7
KANJI
 50
0.000000
 51
0.000000
  0
TEXT
  8
1
 62
7
  6
CONTINUOUS
 10
46.819299
 20
86.856947
 40
3.999900
 41
1.000000
  1
RS232C RXD(温度計)←TXD
  7
KANJI
 50
0.000000
 51
0.000000
  0
LINE
  8
1
 62
7
  6
CONTINUOUS
 10
39.265645
 20
106.377394
 11
39.265645
 21
86.868880
  0
LINE
  8
1
 62
7
  6
CONTINUOUS
 10
45.932145
 20
106.377394
 11
45.932145
 21
86.868880
  0
LINE
  8
1
 62
7
  6
CONTINUOUS
 10
96.050655
 20
106.377394
 11
96.050655
 21
86.868880
  0
TEXT
  8
1
 62
7
  6
CONTINUOUS
 10
207.196793
 20
82.190397
 40
3.999900
 41
1.000000
  1
RS232C RXD(温度計)←TXD
  7
KANJI
 50
0.000000
 51
0.000000
  0
LINE
  8
1
 62
7
  6
CONTINUOUS
 10
204.838571
 20
135.485150
 11
218.169217
 21
125.435150
  0
LINE
  8
1
 62
7
  6
CONTINUOUS
 10
218.169217
 20
125.435150
 11
232.146542
 21
125.435150
  0
TEXT
  8
1
 62
7
  6
CONTINUOUS
 10
222.146542
 20
125.435150
 40
4.000000
 41
0.500000
  1
e-CON
  7
KANJI
 50
0.000000
 51
30.000000
  0
LINE
  8
1
 62
7
  6
CONTINUOUS
 10
204.838571
 20
135.485150
 11
206.692773
 21
134.735525
  0
LINE
  8
1
 62
7
  6
CONTINUOUS
 10
204.838571
 20
135.485150
 11
206.069545
 21
133.908855
  0
LINE
  8
1
 62
7
  6
CONTINUOUS
 10
206.692773
 20
134.735525
 11
206.069545
 21
133.908855
  0
LINE
  8
1
 62
7
  6
CONTINUOUS
 10
205.224218
 20
135.194410
 11
206.151319
 21
134.819597
  0
LINE
  8
1
 62
7
  6
CONTINUOUS
 10
205.224218
 20
135.194410
 11
205.839705
 21
134.406262
  0
LINE
  8
1
 62
7
  6
CONTINUOUS
 10
206.151319
 20
134.819597
 11
205.839705
 21
134.406262
  0
TEXT
  8
5
 62
94
  6
CONTINUOUS
 10
237.187914
 20
20.406457
 40
4.000000
 41
1.000000
  1
００５－０６５－Ａ１７１
  7
KANJI
 50
0.000000
 51
0.000000
  0
TEXT
  8
2
 62
7
  6
CONTINUOUS
 10
145.983871
 20
133.177419
 40
4.000000
 41
1.000000
  1
質量： 35g
  7
KANJI
 50
0.000000
 51
0.000000
  0
ENDSEC
  0
EOF
