  0
SECTION
  2
HEADER
  9
$ACADVER
  1
AC1009
  9
$INSBASE
 10
0.000000
 20
0.000000
  9
$EXTMIN
 10
0.000000
 20
0.000000
  9
$EXTMAX
 10
297.000000
 20
210.000000
  9
$LIMMIN
 10
0.000000
 20
0.000000
  9
$LIMMAX
 10
297.000000
 20
210.000000
  9
$VIEWCTR
 10
148.500000
 20
105.000000
  9
$VIEWSIZE
 40
210.000000
  9
$PEXTMIN
 10
0.000000
 20
0.000000
 30
0.000000
  9
$PEXTMAX
 10
297.000000
 20
210.000000
 30
0.000000
  9
$SNAPMODE
 70
     0
  9
$SNAPUNIT
 10
1.000000
 20
1.000000
  9
$SNAPBASE
 10
0.000000
 20
0.000000
  9
$SNAPANG
 50
0.000000
  9
$SNAPISOPAIR
 70
     0
  9
$SNAPSTYLE
 70
     0
  9
$GRIDMODE
 70
     0
  9
$GRIDUNIT
 10
0.000000
 20
0.000000
  9
$ORTHOMODE
 70
     0
  9
$REGENMODE
 70
     1
  9
$FILLMODE
 70
     1
  9
$QTEXTMODE
 70
     0
  9
$DRAGMODE
 70
     2
  9
$LTSCALE
 40
0.250000
  9
$OSMODE
 70
     0
  9
$ATTMODE
 70
     1
  9
$TEXTSIZE
 40
4.000000
  9
$TRACEWID
 40
0.050000
  9
$TEXTSTYLE
  7
STANDARD
  9
$CLAYER
  8
0
  9
$CELTYPE
  6
BYLAYER
  9
$CECOLOR
 62
   256
  9
$DIMSCALE
 40
1.000000
  9
$DIMASZ
 40
1.000000
  9
$DIMEXO
 40
0.000000
  9
$DIMDLI
 40
0.500000
  9
$DIMRND
 40
0.000000
  9
$DIMDLE
 40
0.000000
  9
$DIMEXE
 40
0.000000
  9
$DIMTP
 40
0.000000
  9
$DIMTM
 40
0.000000
  9
$DIMTXT
 40
4.000000
  9
$DIMCEN
 40
0.000000
  9
$DIMTSZ
 40
0.000000
  9
$DIMTOL
 70
     0
  9
$DIMLIM
 70
     0
  9
$DIMTIH
 70
     1
  9
$DIMTOH
 70
     1
  9
$DIMSE1
 70
     0
  9
$DIMSE2
 70
     0
  9
$DIMTAD
 70
     0
  9
$DIMZIN
 70
     0
  9
$DIMBLK
  1

  9
$DIMASO
 70
     0
  9
$DIMSHO
 70
     0
  9
$DIMPOST
  1

  9
$DIMAPOST
  1

  9
$DIMALT
 70
     0
  9
$DIMALTD
 70
     0
  9
$DIMALTF
 40
25.400000
  9
$DIMLFAC
 40
1.000000
  9
$DIMTOFL
 70
     0
  9
$DIMTVP
 40
0.000000
  9
$DIMTIX
 70
     0
  9
$DIMSOXD
 70
     0
  9
$DIMSAH
 70
     0
  9
$DIMBLKL
  1

  9
$DIMBLKR
  1

  9
$LUNITS
 70
     2
  9
$LUPREC
 70
     2
  9
$AXISMODE
 70
     0
  9
$AXISUNIT
 10
1.000000
 20
1.000000
  9
$SKETCHINC
 40
0.000000
  9
$FILLETRAD
 40
0.000000
  9
$AUNITS
 70
     1
  9
$AUPREC
 70
     2
  9
$MENU
  1
ACAD
  9
$ELEVATION
 40
0.000000
  9
$THICKNESS
 40
0.000000
  9
$VIEWDIR
 10
0.000000
 20
0.000000
 30
1.000000
  9
$LIMCHECK
 70
     1
  9
$BLIPMODE
 70
     1
  9
$CHAMFERA
 40
0.000000
  9
$CHAMFERB
 40
0.000000
  9
$FASTZOOM
 70
     1
  9
$SKPOLY
 70
     0
  9
$TDCREATE
 40
0.000000
  9
$TDUPDATE
 40
0.000000
  9
$TDINDWG
 40
0.000000
  9
$TDUSRTIMER
 40
0.000000
  9
$USRTIMER
 70
     1
  9
$ANGBASE
 50
0.000000
  9
$ANGDIR
 70
     0
  9
$PDMODE
 70
     0
  9
$PDSIZE
 40
0.000000
  9
$PLINEWID
 40
0.000000
  9
$COORDS
 70
     2
  9
$USERI1
 70
     0
  9
$USERI2
 70
     0
  9
$USERI3
 70
     0
  9
$USERI4
 70
     0
  9
$USERI5
 70
     0
  9
$USERR1
 40
0.000000
  9
$USERR2
 40
0.000000
  9
$USERR3
 40
0.000000
  9
$USERR4
 40
0.000000
  9
$USERR5
 40
0.000000
  0
ENDSEC
  0
SECTION
  2
TABLES
  0
TABLE
  2
LTYPE
 70
     5
  0
LTYPE
  2
CONTINUOUS
 70
    64
  3
Solid line
 72
    65
 73
     0
 40
0.0
  0
LTYPE
  2
HIDDEN
 70
    64
  3
------------------------
 72
    65
 73
     2
 40
12.6
 49
8.4
 49
-4.2
  0
LTYPE
  2
DOT
 70
    64
  3
････････････････････････
 72
    65
 73
     2
 40
8.0
 49
6.0
 49
-2.0
  0
LTYPE
  2
DASHDOT
 70
    64
  3
--･--･--･--･--･--･--･--
 72
    65
 73
     4
 40
50.5
 49
30.0
 49
-9.0
 49
2.5
 49
-9.0
  0
LTYPE
  2
DIVIDE
 70
    64
  3
--･･--･･--･･--･･--･･--
 72
    65
 73
     6
 40
58.0
 49
30.0
 49
-9.0
 49
2.5
 49
-5.0
 49
2.5
 49
-9.0
  0
LTYPE
  2
ACAD_ISO06W100
 70
    64
  3
____ ... ____ ... ____
 72
    65
 73
     8
 40
37.5
 49
24.0
 49
-3.0
 49
0.5
 49
-3.0
 49
0.5
 49
-3.0
 49
0.5
 49
-3.0
  0
LTYPE
  2
ACAD_ISO14W100
 70
    64
  3
__ . . . __ . . . __ . . . 
 72
    65
 73
     8
 40
25.5
 49
12.0
 49
-3.0
 49
0.5
 49
-3.0
 49
0.5
 49
-3.0
 49
0.5
 49
-3.0
  0
ENDTAB
  0
TABLE
  2
LAYER
 70
4
  0
LAYER
  2
1
 70
64
 62
7
  6
CONTINUOUS
  0
LAYER
  2
2
 70
64
 62
134
  6
CONTINUOUS
  0
LAYER
  2
4
 70
64
 62
54
  6
CONTINUOUS
  0
LAYER
  2
5
 70
64
 62
94
  6
CONTINUOUS
  0
ENDTAB
  0
TABLE
  2
STYLE
 70
     2
  0
STYLE
  2
STANDARD
 70
    64
 40
0.0
 41
1.0
 50
0.0
 71
     0
 42
0.2
  3
TXT
  4

  0
STYLE
  2
KANJI
 70
    64
 40
0.0
 41
1.0
 50
0.0
 71
     0
 42
0.2
  3
TXT
  4
BIGFONT
  0
ENDTAB
  0
TABLE
  2
VIEW
 70
     0
  0
ENDTAB
  0
ENDSEC
  0
SECTION
  2
BLOCKS
  0
BLOCK
  8
2
 62
134
  6
CONTINUOUS
  2
*D1
 70
    65
 10
0.0
 20
0.0
  0
LINE
  8
2
 62
134
  6
CONTINUOUS
 10
136.743543
 20
128.611842
 11
136.743543
 21
72.621817
  0
LINE
  8
2
 62
134
  6
CONTINUOUS
 10
135.743543
 20
128.611842
 11
157.569541
 21
128.611842
  0
LINE
  8
2
 62
134
  6
CONTINUOUS
 10
135.743543
 20
72.621817
 11
157.569541
 21
72.621817
  0
LINE
  8
2
 62
134
  6
CONTINUOUS
 10
136.743543
 20
128.611842
 11
137.261181
 21
126.679990
  0
LINE
  8
2
 62
134
  6
CONTINUOUS
 10
136.743543
 20
128.611842
 11
136.225905
 21
126.679990
  0
LINE
  8
2
 62
134
  6
CONTINUOUS
 10
137.261181
 20
126.679990
 11
136.225905
 21
126.679990
  0
LINE
  8
2
 62
134
  6
CONTINUOUS
 10
136.743543
 20
128.128879
 11
137.002362
 21
127.162953
  0
LINE
  8
2
 62
134
  6
CONTINUOUS
 10
136.743543
 20
128.128879
 11
136.484724
 21
127.162953
  0
LINE
  8
2
 62
134
  6
CONTINUOUS
 10
137.002362
 20
127.162953
 11
136.484724
 21
127.162953
  0
LINE
  8
2
 62
134
  6
CONTINUOUS
 10
136.743543
 20
72.621817
 11
136.225905
 21
74.553669
  0
LINE
  8
2
 62
134
  6
CONTINUOUS
 10
136.743543
 20
72.621817
 11
137.261181
 21
74.553669
  0
LINE
  8
2
 62
134
  6
CONTINUOUS
 10
136.225905
 20
74.553669
 11
137.261181
 21
74.553669
  0
LINE
  8
2
 62
134
  6
CONTINUOUS
 10
136.743543
 20
73.104780
 11
136.484724
 21
74.070706
  0
LINE
  8
2
 62
134
  6
CONTINUOUS
 10
136.743543
 20
73.104780
 11
137.002362
 21
74.070706
  0
LINE
  8
2
 62
134
  6
CONTINUOUS
 10
136.484724
 20
74.070706
 11
137.002362
 21
74.070706
  0
TEXT
  8
2
 62
134
  6
CONTINUOUS
 10
136.743543
 20
93.117661
 40
4.000000
 41
0.500000
  1
56
  7
KANJI
 50
90.000000
 51
0.000000
  0
ENDBLK
  0
BLOCK
  8
2
 62
134
  6
CONTINUOUS
  2
*D2
 70
    65
 10
0.0
 20
0.0
  0
LINE
  8
2
 62
134
  6
CONTINUOUS
 10
146.904078
 20
73.421817
 11
146.904078
 21
127.811842
  0
LINE
  8
2
 62
134
  6
CONTINUOUS
 10
145.904078
 20
73.421817
 11
156.069541
 21
73.421817
  0
LINE
  8
2
 62
134
  6
CONTINUOUS
 10
145.904078
 20
127.811842
 11
156.069541
 21
127.811842
  0
LINE
  8
2
 62
134
  6
CONTINUOUS
 10
146.904078
 20
73.421817
 11
146.386440
 21
75.353669
  0
LINE
  8
2
 62
134
  6
CONTINUOUS
 10
146.904078
 20
73.421817
 11
147.421716
 21
75.353669
  0
LINE
  8
2
 62
134
  6
CONTINUOUS
 10
146.386440
 20
75.353669
 11
147.421716
 21
75.353669
  0
LINE
  8
2
 62
134
  6
CONTINUOUS
 10
146.904078
 20
73.904780
 11
146.645259
 21
74.870706
  0
LINE
  8
2
 62
134
  6
CONTINUOUS
 10
146.904078
 20
73.904780
 11
147.162897
 21
74.870706
  0
LINE
  8
2
 62
134
  6
CONTINUOUS
 10
146.645259
 20
74.870706
 11
147.162897
 21
74.870706
  0
LINE
  8
2
 62
134
  6
CONTINUOUS
 10
146.904078
 20
127.811842
 11
147.421716
 21
125.879990
  0
LINE
  8
2
 62
134
  6
CONTINUOUS
 10
146.904078
 20
127.811842
 11
146.386440
 21
125.879990
  0
LINE
  8
2
 62
134
  6
CONTINUOUS
 10
147.421716
 20
125.879990
 11
146.386440
 21
125.879990
  0
LINE
  8
2
 62
134
  6
CONTINUOUS
 10
146.904078
 20
127.328879
 11
147.162897
 21
126.362953
  0
LINE
  8
2
 62
134
  6
CONTINUOUS
 10
146.904078
 20
127.328879
 11
146.645259
 21
126.362953
  0
LINE
  8
2
 62
134
  6
CONTINUOUS
 10
147.162897
 20
126.362953
 11
146.645259
 21
126.362953
  0
TEXT
  8
2
 62
134
  6
CONTINUOUS
 10
146.904078
 20
91.117661
 40
4.000000
 41
0.500000
  1
54.4
  7
KANJI
 50
90.000000
 51
0.000000
  0
ENDBLK
  0
BLOCK
  8
2
 62
134
  6
CONTINUOUS
  2
*D3
 70
    65
 10
0.0
 20
0.0
  0
LINE
  8
2
 62
134
  6
CONTINUOUS
 10
147.681505
 20
62.613483
 11
170.569541
 21
62.613483
  0
LINE
  8
2
 62
134
  6
CONTINUOUS
 10
156.069541
 20
61.613483
 11
156.069541
 21
73.421817
  0
LINE
  8
2
 62
134
  6
CONTINUOUS
 10
162.569541
 20
61.613483
 11
162.569541
 21
79.099101
  0
LINE
  8
2
 62
134
  6
CONTINUOUS
 10
156.069541
 20
62.613483
 11
154.137689
 21
62.095845
  0
LINE
  8
2
 62
134
  6
CONTINUOUS
 10
156.069541
 20
62.613483
 11
154.137689
 21
63.131121
  0
LINE
  8
2
 62
134
  6
CONTINUOUS
 10
154.137689
 20
62.095845
 11
154.137689
 21
63.131121
  0
LINE
  8
2
 62
134
  6
CONTINUOUS
 10
155.586578
 20
62.613483
 11
154.620652
 21
62.354664
  0
LINE
  8
2
 62
134
  6
CONTINUOUS
 10
155.586578
 20
62.613483
 11
154.620652
 21
62.872302
  0
LINE
  8
2
 62
134
  6
CONTINUOUS
 10
154.620652
 20
62.354664
 11
154.620652
 21
62.872302
  0
LINE
  8
2
 62
134
  6
CONTINUOUS
 10
162.569541
 20
62.613483
 11
164.501393
 21
63.131121
  0
LINE
  8
2
 62
134
  6
CONTINUOUS
 10
162.569541
 20
62.613483
 11
164.501393
 21
62.095845
  0
LINE
  8
2
 62
134
  6
CONTINUOUS
 10
164.501393
 20
63.131121
 11
164.501393
 21
62.095845
  0
LINE
  8
2
 62
134
  6
CONTINUOUS
 10
163.052504
 20
62.613483
 11
164.018430
 21
62.872302
  0
LINE
  8
2
 62
134
  6
CONTINUOUS
 10
163.052504
 20
62.613483
 11
164.018430
 21
62.354664
  0
LINE
  8
2
 62
134
  6
CONTINUOUS
 10
164.018430
 20
62.872302
 11
164.018430
 21
62.354664
  0
TEXT
  8
2
 62
134
  6
CONTINUOUS
 10
147.681505
 20
62.613483
 40
4.000000
 41
0.500000
  1
6.5
  7
KANJI
 50
0.000000
 51
0.000000
  0
ENDBLK
  0
BLOCK
  8
2
 62
134
  6
CONTINUOUS
  2
*D4
 70
    65
 10
0.0
 20
0.0
  0
LINE
  8
2
 62
134
  6
CONTINUOUS
 10
156.069541
 20
53.600915
 11
214.069541
 21
53.600915
  0
LINE
  8
2
 62
134
  6
CONTINUOUS
 10
156.069541
 20
52.600915
 11
156.069541
 21
73.421817
  0
LINE
  8
2
 62
134
  6
CONTINUOUS
 10
214.069541
 20
52.600915
 11
214.069541
 21
72.418491
  0
LINE
  8
2
 62
134
  6
CONTINUOUS
 10
156.069541
 20
53.600915
 11
158.001393
 21
54.118553
  0
LINE
  8
2
 62
134
  6
CONTINUOUS
 10
156.069541
 20
53.600915
 11
158.001393
 21
53.083277
  0
LINE
  8
2
 62
134
  6
CONTINUOUS
 10
158.001393
 20
54.118553
 11
158.001393
 21
53.083277
  0
LINE
  8
2
 62
134
  6
CONTINUOUS
 10
156.552504
 20
53.600915
 11
157.518430
 21
53.859734
  0
LINE
  8
2
 62
134
  6
CONTINUOUS
 10
156.552504
 20
53.600915
 11
157.518430
 21
53.342096
  0
LINE
  8
2
 62
134
  6
CONTINUOUS
 10
157.518430
 20
53.859734
 11
157.518430
 21
53.342096
  0
LINE
  8
2
 62
134
  6
CONTINUOUS
 10
214.069541
 20
53.600915
 11
212.137689
 21
53.083277
  0
LINE
  8
2
 62
134
  6
CONTINUOUS
 10
214.069541
 20
53.600915
 11
212.137689
 21
54.118553
  0
LINE
  8
2
 62
134
  6
CONTINUOUS
 10
212.137689
 20
53.083277
 11
212.137689
 21
54.118553
  0
LINE
  8
2
 62
134
  6
CONTINUOUS
 10
213.586578
 20
53.600915
 11
212.620652
 21
53.342096
  0
LINE
  8
2
 62
134
  6
CONTINUOUS
 10
213.586578
 20
53.600915
 11
212.620652
 21
53.859734
  0
LINE
  8
2
 62
134
  6
CONTINUOUS
 10
212.620652
 20
53.342096
 11
212.620652
 21
53.859734
  0
TEXT
  8
2
 62
134
  6
CONTINUOUS
 10
176.634405
 20
53.600915
 40
4.000000
 41
0.500000
  1
58
  7
KANJI
 50
0.000000
 51
0.000000
  0
ENDBLK
  0
BLOCK
  8
2
 62
134
  6
CONTINUOUS
  2
*D5
 70
    65
 10
0.0
 20
0.0
  0
LINE
  8
2
 62
134
  6
CONTINUOUS
 10
223.935193
 20
63.645262
 11
223.935193
 21
91.618492
  0
LINE
  8
2
 62
134
  6
CONTINUOUS
 10
224.935193
 20
73.421817
 11
215.069541
 21
73.421817
  0
LINE
  8
2
 62
134
  6
CONTINUOUS
 10
224.935193
 20
83.618492
 11
169.314995
 21
83.618492
  0
LINE
  8
2
 62
134
  6
CONTINUOUS
 10
223.935193
 20
73.421817
 11
224.452832
 21
71.489966
  0
LINE
  8
2
 62
134
  6
CONTINUOUS
 10
223.935193
 20
73.421817
 11
223.417555
 21
71.489966
  0
LINE
  8
2
 62
134
  6
CONTINUOUS
 10
224.452832
 20
71.489966
 11
223.417555
 21
71.489966
  0
LINE
  8
2
 62
134
  6
CONTINUOUS
 10
223.935193
 20
72.938854
 11
224.194012
 21
71.972929
  0
LINE
  8
2
 62
134
  6
CONTINUOUS
 10
223.935193
 20
72.938854
 11
223.676374
 21
71.972929
  0
LINE
  8
2
 62
134
  6
CONTINUOUS
 10
224.194012
 20
71.972929
 11
223.676374
 21
71.972929
  0
LINE
  8
2
 62
134
  6
CONTINUOUS
 10
223.935193
 20
83.618492
 11
223.417555
 21
85.550344
  0
LINE
  8
2
 62
134
  6
CONTINUOUS
 10
223.935193
 20
83.618492
 11
224.452832
 21
85.550344
  0
LINE
  8
2
 62
134
  6
CONTINUOUS
 10
223.417555
 20
85.550344
 11
224.452832
 21
85.550344
  0
LINE
  8
2
 62
134
  6
CONTINUOUS
 10
223.935193
 20
84.101455
 11
223.676374
 21
85.067381
  0
LINE
  8
2
 62
134
  6
CONTINUOUS
 10
223.935193
 20
84.101455
 11
224.194012
 21
85.067381
  0
LINE
  8
2
 62
134
  6
CONTINUOUS
 10
223.676374
 20
85.067381
 11
224.194012
 21
85.067381
  0
TEXT
  8
2
 62
134
  6
CONTINUOUS
 10
223.935193
 20
63.645262
 40
4.000000
 41
0.500000
  1
10.2
  7
KANJI
 50
90.000000
 51
0.000000
  0
ENDBLK
  0
BLOCK
  8
2
 62
134
  6
CONTINUOUS
  2
*D6
 70
    65
 10
0.0
 20
0.0
  0
LINE
  8
2
 62
134
  6
CONTINUOUS
 10
176.219740
 20
83.618492
 11
176.219740
 21
116.618492
  0
LINE
  8
2
 62
134
  6
CONTINUOUS
 10
177.219740
 20
83.618492
 11
169.314995
 21
83.618492
  0
LINE
  8
2
 62
134
  6
CONTINUOUS
 10
177.219740
 20
116.618492
 11
168.933636
 21
116.618492
  0
LINE
  8
2
 62
134
  6
CONTINUOUS
 10
176.219740
 20
83.618492
 11
175.702101
 21
85.550344
  0
LINE
  8
2
 62
134
  6
CONTINUOUS
 10
176.219740
 20
83.618492
 11
176.737378
 21
85.550344
  0
LINE
  8
2
 62
134
  6
CONTINUOUS
 10
175.702101
 20
85.550344
 11
176.737378
 21
85.550344
  0
LINE
  8
2
 62
134
  6
CONTINUOUS
 10
176.219740
 20
84.101455
 11
175.960920
 21
85.067381
  0
LINE
  8
2
 62
134
  6
CONTINUOUS
 10
176.219740
 20
84.101455
 11
176.478559
 21
85.067381
  0
LINE
  8
2
 62
134
  6
CONTINUOUS
 10
175.960920
 20
85.067381
 11
176.478559
 21
85.067381
  0
LINE
  8
2
 62
134
  6
CONTINUOUS
 10
176.219740
 20
116.618492
 11
176.737378
 21
114.686641
  0
LINE
  8
2
 62
134
  6
CONTINUOUS
 10
176.219740
 20
116.618492
 11
175.702101
 21
114.686641
  0
LINE
  8
2
 62
134
  6
CONTINUOUS
 10
176.737378
 20
114.686641
 11
175.702101
 21
114.686641
  0
LINE
  8
2
 62
134
  6
CONTINUOUS
 10
176.219740
 20
116.135529
 11
176.478559
 21
115.169603
  0
LINE
  8
2
 62
134
  6
CONTINUOUS
 10
176.219740
 20
116.135529
 11
175.960920
 21
115.169603
  0
LINE
  8
2
 62
134
  6
CONTINUOUS
 10
176.478559
 20
115.169603
 11
175.960920
 21
115.169603
  0
TEXT
  8
2
 62
134
  6
CONTINUOUS
 10
176.219740
 20
98.368492
 40
4.000000
 41
0.500000
  1
33
  7
KANJI
 50
90.000000
 51
0.000000
  0
ENDBLK
  0
BLOCK
  8
2
 62
134
  6
CONTINUOUS
  2
*D7
 70
    65
 10
0.0
 20
0.0
  0
LINE
  8
2
 62
134
  6
CONTINUOUS
 10
223.935193
 20
83.618492
 11
223.935193
 21
119.618492
  0
LINE
  8
2
 62
134
  6
CONTINUOUS
 10
224.935193
 20
83.618492
 11
169.314995
 21
83.618492
  0
LINE
  8
2
 62
134
  6
CONTINUOUS
 10
224.935193
 20
119.618492
 11
210.311083
 21
119.618492
  0
LINE
  8
2
 62
134
  6
CONTINUOUS
 10
223.935193
 20
83.618492
 11
223.417555
 21
85.550344
  0
LINE
  8
2
 62
134
  6
CONTINUOUS
 10
223.935193
 20
83.618492
 11
224.452832
 21
85.550344
  0
LINE
  8
2
 62
134
  6
CONTINUOUS
 10
223.417555
 20
85.550344
 11
224.452832
 21
85.550344
  0
LINE
  8
2
 62
134
  6
CONTINUOUS
 10
223.935193
 20
84.101455
 11
223.676374
 21
85.067381
  0
LINE
  8
2
 62
134
  6
CONTINUOUS
 10
223.935193
 20
84.101455
 11
224.194012
 21
85.067381
  0
LINE
  8
2
 62
134
  6
CONTINUOUS
 10
223.676374
 20
85.067381
 11
224.194012
 21
85.067381
  0
LINE
  8
2
 62
134
  6
CONTINUOUS
 10
223.935193
 20
119.618492
 11
224.452832
 21
117.686641
  0
LINE
  8
2
 62
134
  6
CONTINUOUS
 10
223.935193
 20
119.618492
 11
223.417555
 21
117.686641
  0
LINE
  8
2
 62
134
  6
CONTINUOUS
 10
224.452832
 20
117.686641
 11
223.417555
 21
117.686641
  0
LINE
  8
2
 62
134
  6
CONTINUOUS
 10
223.935193
 20
119.135529
 11
224.194012
 21
118.169603
  0
LINE
  8
2
 62
134
  6
CONTINUOUS
 10
223.935193
 20
119.135529
 11
223.676374
 21
118.169603
  0
LINE
  8
2
 62
134
  6
CONTINUOUS
 10
224.194012
 20
118.169603
 11
223.676374
 21
118.169603
  0
TEXT
  8
2
 62
134
  6
CONTINUOUS
 10
223.935193
 20
99.118492
 40
4.000000
 41
0.500000
  1
36
  7
KANJI
 50
90.000000
 51
0.000000
  0
ENDBLK
  0
BLOCK
  8
2
 62
134
  6
CONTINUOUS
  2
*D8
 70
    65
 10
0.0
 20
0.0
  0
LINE
  8
2
 62
134
  6
CONTINUOUS
 10
73.324187
 20
62.613483
 11
89.324187
 21
62.613483
  0
LINE
  8
2
 62
134
  6
CONTINUOUS
 10
73.324187
 20
61.613483
 11
73.324187
 21
68.906596
  0
LINE
  8
2
 62
134
  6
CONTINUOUS
 10
89.324187
 20
61.613483
 11
89.324187
 21
73.421817
  0
LINE
  8
2
 62
134
  6
CONTINUOUS
 10
73.324187
 20
62.613483
 11
75.256038
 21
63.131121
  0
LINE
  8
2
 62
134
  6
CONTINUOUS
 10
73.324187
 20
62.613483
 11
75.256038
 21
62.095845
  0
LINE
  8
2
 62
134
  6
CONTINUOUS
 10
75.256038
 20
63.131121
 11
75.256038
 21
62.095845
  0
LINE
  8
2
 62
134
  6
CONTINUOUS
 10
73.807150
 20
62.613483
 11
74.773076
 21
62.872302
  0
LINE
  8
2
 62
134
  6
CONTINUOUS
 10
73.807150
 20
62.613483
 11
74.773076
 21
62.354664
  0
LINE
  8
2
 62
134
  6
CONTINUOUS
 10
74.773076
 20
62.872302
 11
74.773076
 21
62.354664
  0
LINE
  8
2
 62
134
  6
CONTINUOUS
 10
89.324187
 20
62.613483
 11
87.392335
 21
62.095845
  0
LINE
  8
2
 62
134
  6
CONTINUOUS
 10
89.324187
 20
62.613483
 11
87.392335
 21
63.131121
  0
LINE
  8
2
 62
134
  6
CONTINUOUS
 10
87.392335
 20
62.095845
 11
87.392335
 21
63.131121
  0
LINE
  8
2
 62
134
  6
CONTINUOUS
 10
88.841224
 20
62.613483
 11
87.875298
 21
62.354664
  0
LINE
  8
2
 62
134
  6
CONTINUOUS
 10
88.841224
 20
62.613483
 11
87.875298
 21
62.872302
  0
LINE
  8
2
 62
134
  6
CONTINUOUS
 10
87.875298
 20
62.354664
 11
87.875298
 21
62.872302
  0
TEXT
  8
2
 62
134
  6
CONTINUOUS
 10
79.540112
 20
62.613483
 40
4.000000
 41
0.500000
  1
16
  7
KANJI
 50
0.000000
 51
0.000000
  0
ENDBLK
  0
BLOCK
  8
2
 62
134
  6
CONTINUOUS
  2
*D9
 70
    65
 10
0.0
 20
0.0
  0
LINE
  8
2
 62
134
  6
CONTINUOUS
 10
57.324187
 20
53.600915
 11
89.324187
 21
53.600915
  0
LINE
  8
2
 62
134
  6
CONTINUOUS
 10
57.324187
 20
52.600915
 11
57.324187
 21
74.518492
  0
LINE
  8
2
 62
134
  6
CONTINUOUS
 10
89.324187
 20
52.600915
 11
89.324187
 21
73.421817
  0
LINE
  8
2
 62
134
  6
CONTINUOUS
 10
57.324187
 20
53.600915
 11
59.256038
 21
54.118553
  0
LINE
  8
2
 62
134
  6
CONTINUOUS
 10
57.324187
 20
53.600915
 11
59.256038
 21
53.083277
  0
LINE
  8
2
 62
134
  6
CONTINUOUS
 10
59.256038
 20
54.118553
 11
59.256038
 21
53.083277
  0
LINE
  8
2
 62
134
  6
CONTINUOUS
 10
57.807150
 20
53.600915
 11
58.773076
 21
53.859734
  0
LINE
  8
2
 62
134
  6
CONTINUOUS
 10
57.807150
 20
53.600915
 11
58.773076
 21
53.342096
  0
LINE
  8
2
 62
134
  6
CONTINUOUS
 10
58.773076
 20
53.859734
 11
58.773076
 21
53.342096
  0
LINE
  8
2
 62
134
  6
CONTINUOUS
 10
89.324187
 20
53.600915
 11
87.392335
 21
53.083277
  0
LINE
  8
2
 62
134
  6
CONTINUOUS
 10
89.324187
 20
53.600915
 11
87.392335
 21
54.118553
  0
LINE
  8
2
 62
134
  6
CONTINUOUS
 10
87.392335
 20
53.083277
 11
87.392335
 21
54.118553
  0
LINE
  8
2
 62
134
  6
CONTINUOUS
 10
88.841224
 20
53.600915
 11
87.875298
 21
53.342096
  0
LINE
  8
2
 62
134
  6
CONTINUOUS
 10
88.841224
 20
53.600915
 11
87.875298
 21
53.859734
  0
LINE
  8
2
 62
134
  6
CONTINUOUS
 10
87.875298
 20
53.342096
 11
87.875298
 21
53.859734
  0
TEXT
  8
2
 62
134
  6
CONTINUOUS
 10
65.480430
 20
53.600915
 40
4.000000
 41
0.500000
  1
32
  7
KANJI
 50
0.000000
 51
0.000000
  0
ENDBLK
  0
BLOCK
  8
2
 62
134
  6
CONTINUOUS
  2
*D10
 70
    65
 10
0.0
 20
0.0
  0
LINE
  8
2
 62
134
  6
CONTINUOUS
 10
96.486892
 20
64.894560
 11
96.486892
 21
93.118492
  0
LINE
  8
2
 62
134
  6
CONTINUOUS
 10
97.486892
 20
73.421817
 11
89.324187
 21
73.421817
  0
LINE
  8
2
 62
134
  6
CONTINUOUS
 10
97.486892
 20
85.118492
 11
90.324187
 21
85.118492
  0
LINE
  8
2
 62
134
  6
CONTINUOUS
 10
96.486892
 20
73.421817
 11
97.004530
 21
71.489966
  0
LINE
  8
2
 62
134
  6
CONTINUOUS
 10
96.486892
 20
73.421817
 11
95.969254
 21
71.489966
  0
LINE
  8
2
 62
134
  6
CONTINUOUS
 10
97.004530
 20
71.489966
 11
95.969254
 21
71.489966
  0
LINE
  8
2
 62
134
  6
CONTINUOUS
 10
96.486892
 20
72.938854
 11
96.745711
 21
71.972929
  0
LINE
  8
2
 62
134
  6
CONTINUOUS
 10
96.486892
 20
72.938854
 11
96.228073
 21
71.972929
  0
LINE
  8
2
 62
134
  6
CONTINUOUS
 10
96.745711
 20
71.972929
 11
96.228073
 21
71.972929
  0
LINE
  8
2
 62
134
  6
CONTINUOUS
 10
96.486892
 20
85.118492
 11
95.969254
 21
87.050344
  0
LINE
  8
2
 62
134
  6
CONTINUOUS
 10
96.486892
 20
85.118492
 11
97.004530
 21
87.050344
  0
LINE
  8
2
 62
134
  6
CONTINUOUS
 10
95.969254
 20
87.050344
 11
97.004530
 21
87.050344
  0
LINE
  8
2
 62
134
  6
CONTINUOUS
 10
96.486892
 20
85.601455
 11
96.228073
 21
86.567381
  0
LINE
  8
2
 62
134
  6
CONTINUOUS
 10
96.486892
 20
85.601455
 11
96.745711
 21
86.567381
  0
LINE
  8
2
 62
134
  6
CONTINUOUS
 10
96.228073
 20
86.567381
 11
96.745711
 21
86.567381
  0
TEXT
  8
2
 62
134
  6
CONTINUOUS
 10
96.486892
 20
64.894560
 40
4.000000
 41
0.500000
  1
11.7
  7
KANJI
 50
90.000000
 51
0.000000
  0
ENDBLK
  0
BLOCK
  8
2
 62
134
  6
CONTINUOUS
  2
*D11
 70
    65
 10
0.0
 20
0.0
  0
LINE
  8
2
 62
134
  6
CONTINUOUS
 10
96.486892
 20
85.118492
 11
96.486892
 21
116.118492
  0
LINE
  8
2
 62
134
  6
CONTINUOUS
 10
97.486892
 20
85.118492
 11
90.324187
 21
85.118492
  0
LINE
  8
2
 62
134
  6
CONTINUOUS
 10
97.486892
 20
116.118492
 11
90.324187
 21
116.118492
  0
LINE
  8
2
 62
134
  6
CONTINUOUS
 10
96.486892
 20
85.118492
 11
95.969254
 21
87.050344
  0
LINE
  8
2
 62
134
  6
CONTINUOUS
 10
96.486892
 20
85.118492
 11
97.004530
 21
87.050344
  0
LINE
  8
2
 62
134
  6
CONTINUOUS
 10
95.969254
 20
87.050344
 11
97.004530
 21
87.050344
  0
LINE
  8
2
 62
134
  6
CONTINUOUS
 10
96.486892
 20
85.601455
 11
96.228073
 21
86.567381
  0
LINE
  8
2
 62
134
  6
CONTINUOUS
 10
96.486892
 20
85.601455
 11
96.745711
 21
86.567381
  0
LINE
  8
2
 62
134
  6
CONTINUOUS
 10
96.228073
 20
86.567381
 11
96.745711
 21
86.567381
  0
LINE
  8
2
 62
134
  6
CONTINUOUS
 10
96.486892
 20
116.118492
 11
97.004530
 21
114.186641
  0
LINE
  8
2
 62
134
  6
CONTINUOUS
 10
96.486892
 20
116.118492
 11
95.969254
 21
114.186641
  0
LINE
  8
2
 62
134
  6
CONTINUOUS
 10
97.004530
 20
114.186641
 11
95.969254
 21
114.186641
  0
LINE
  8
2
 62
134
  6
CONTINUOUS
 10
96.486892
 20
115.635529
 11
96.745711
 21
114.669603
  0
LINE
  8
2
 62
134
  6
CONTINUOUS
 10
96.486892
 20
115.635529
 11
96.228073
 21
114.669603
  0
LINE
  8
2
 62
134
  6
CONTINUOUS
 10
96.745711
 20
114.669603
 11
96.228073
 21
114.669603
  0
TEXT
  8
2
 62
134
  6
CONTINUOUS
 10
96.486892
 20
98.618492
 40
4.000000
 41
0.500000
  1
31
  7
KANJI
 50
90.000000
 51
0.000000
  0
ENDBLK
  0
ENDSEC
  0
SECTION
  2
ENTITIES
  0
LINE
  8
5
 62
94
  6
CONTINUOUS
 10
10.997545
 20
10.767159
 11
285.997545
 21
10.767159
  0
LINE
  8
5
 62
94
  6
CONTINUOUS
 10
285.997545
 20
10.767159
 11
285.997545
 21
195.767159
  0
LINE
  8
5
 62
94
  6
CONTINUOUS
 10
285.997545
 20
195.767159
 11
10.997545
 21
195.767159
  0
LINE
  8
5
 62
94
  6
CONTINUOUS
 10
10.997545
 20
195.767159
 11
10.997545
 21
10.767159
  0
TEXT
  8
5
 62
94
  6
CONTINUOUS
 10
211.960293
 20
26.418649
 40
1.750000
 41
4.000000
  1
製図
  7
KANJI
 50
-90.000000
 51
0.000000
  0
TEXT
  8
5
 62
94
  6
CONTINUOUS
 10
231.793075
 20
26.254742
 40
1.750000
 41
4.000000
  1
図番
  7
KANJI
 50
-90.000000
 51
0.000000
  0
TEXT
  8
5
 62
94
  6
CONTINUOUS
 10
231.793075
 20
39.531232
 40
1.750000
 41
4.000000
  1
図　名
  7
KANJI
 50
-90.000000
 51
0.000000
  0
TEXT
  8
5
 62
94
  6
CONTINUOUS
 10
166.885790
 20
34.122291
 40
1.750000
 41
4.000000
  1
日付
  7
KANJI
 50
-90.000000
 51
0.000000
  0
TEXT
  8
5
 62
94
  6
CONTINUOUS
 10
201.961949
 20
34.286199
 40
1.750000
 41
4.000000
  1
図法
  7
KANJI
 50
-90.000000
 51
0.000000
  0
TEXT
  8
5
 62
94
  6
CONTINUOUS
 10
201.798042
 20
42.317656
 40
1.750000
 41
4.000000
  1
尺度
  7
KANJI
 50
-90.000000
 51
0.000000
  0
TEXT
  8
5
 62
94
  6
CONTINUOUS
 10
166.885790
 20
42.153748
 40
1.750000
 41
4.000000
  1
公差
  7
KANJI
 50
-90.000000
 51
0.000000
  0
TEXT
  8
5
 62
94
  6
CONTINUOUS
 10
166.885790
 20
26.254742
 40
1.750000
 41
4.000000
  1
承認
  7
KANJI
 50
-90.000000
 51
0.000000
  0
TEXT
  8
5
 62
94
  6
CONTINUOUS
 10
191.963605
 20
26.254742
 40
1.750000
 41
4.000000
  1
設計
  7
KANJI
 50
-90.000000
 51
0.000000
  0
TEXT
  8
5
 62
94
  6
CONTINUOUS
 10
185.407313
 20
12.322623
 40
4.500000
 41
1.888889
  1
ジャパンセンサー株式会社
  7
KANJI
 50
0.000000
 51
0.000000
  0
LINE
  8
5
 62
94
  6
CONTINUOUS
 10
165.997545
 20
42.767159
 11
285.997545
 21
42.767159
  0
LINE
  8
5
 62
94
  6
CONTINUOUS
 10
165.997545
 20
10.767159
 11
165.997545
 21
42.767159
  0
LINE
  8
5
 62
94
  6
CONTINUOUS
 10
285.997545
 20
18.767159
 11
165.997545
 21
18.767159
  0
LINE
  8
5
 62
94
  6
CONTINUOUS
 10
230.997545
 20
42.767159
 11
230.997545
 21
18.767159
  0
LINE
  8
5
 62
94
  6
CONTINUOUS
 10
285.997545
 20
26.767159
 11
165.997545
 21
26.767159
  0
LINE
  8
5
 62
94
  6
CONTINUOUS
 10
235.997545
 20
18.767159
 11
235.997545
 21
42.767159
  0
LINE
  8
5
 62
94
  6
CONTINUOUS
 10
205.997545
 20
42.767159
 11
205.997545
 21
26.767159
  0
LINE
  8
5
 62
94
  6
CONTINUOUS
 10
170.997545
 20
18.767159
 11
170.997545
 21
42.767159
  0
LINE
  8
5
 62
94
  6
CONTINUOUS
 10
165.997545
 20
34.767159
 11
230.997545
 21
34.767159
  0
LINE
  8
5
 62
94
  6
CONTINUOUS
 10
200.997545
 20
42.767159
 11
200.997545
 21
26.767159
  0
LINE
  8
5
 62
94
  6
CONTINUOUS
 10
190.997545
 20
18.767159
 11
190.997545
 21
26.767159
  0
LINE
  8
5
 62
94
  6
CONTINUOUS
 10
210.997545
 20
18.767159
 11
210.997545
 21
26.767159
  0
LINE
  8
5
 62
94
  6
CONTINUOUS
 10
195.997545
 20
26.767159
 11
195.997545
 21
18.767159
  0
LINE
  8
5
 62
94
  6
CONTINUOUS
 10
215.997545
 20
26.767159
 11
215.997545
 21
18.767159
  0
TEXT
  8
5
 62
94
  6
CONTINUOUS
 10
209.993406
 20
28.057722
 40
4.000000
 41
1.000000
  1
三角法
  7
KANJI
 50
0.000000
 51
0.000000
  0
LINE
  8
5
 62
94
  6
CONTINUOUS
 10
238.641246
 20
34.737631
 11
282.781994
 21
34.737631
  0
TEXT
  8
5
 62
94
  6
CONTINUOUS
 10
199.177663
 20
20.706135
 40
4.000000
 41
1.000000
  1
須藤
  7
KANJI
 50
0.000000
 51
0.000000
  0
TEXT
  8
5
 62
94
  6
CONTINUOUS
 10
219.177663
 20
20.706135
 40
4.000000
 41
1.000000
  1
須藤
  7
KANJI
 50
0.000000
 51
0.000000
  0
TEXT
  8
5
 62
94
  6
CONTINUOUS
 10
212.624514
 20
36.491568
 40
4.000000
 41
1.000000
  1
１／１
  7
KANJI
 50
0.000000
 51
0.000000
  0
TEXT
  8
5
 62
94
  6
CONTINUOUS
 10
236.771118
 20
20.706135
 40
4.000000
 41
1.000000
  1
００５－０６５－Ａ１３３
  7
KANJI
 50
0.000000
 51
0.000000
  0
TEXT
  8
5
 62
94
  6
CONTINUOUS
 10
241.151256
 20
36.760557
 40
4.000000
 41
1.000000
  1
ＴＭＳＸ－Ｂ４
  7
KANJI
 50
0.000000
 51
0.000000
  0
TEXT
  8
5
 62
94
  6
CONTINUOUS
 10
238.919538
 20
28.619102
 40
4.000000
 41
1.000000
  1
ｼｰﾙﾄﾞｹｰｽB4  外形図
  7
KANJI
 50
0.000000
 51
0.000000
  0
TEXT
  8
5
 62
94
  6
CONTINUOUS
 10
176.084159
 20
28.598852
 40
4.000000
 41
0.500000
  1
2014/01/23
  7
KANJI
 50
0.000000
 51
0.000000
  0
LINE
  8
4
 62
54
  6
DASHDOT
 10
172.733152
 20
100.618492
 11
153.539174
 21
100.618492
  0
LINE
  8
4
 62
54
  6
DASHDOT
 10
169.020843
 20
118.115168
 11
160.506886
 21
118.115168
  0
LINE
  8
4
 62
54
  6
DASHDOT
 10
162.569541
 20
81.020784
 11
162.569541
 21
87.609685
  0
LINE
  8
4
 62
54
  6
DASHDOT
 10
157.689893
 20
83.618492
 11
166.456398
 21
83.618492
  0
CIRCLE
  8
4
 62
54
  6
DOT
 10
162.569541
 20
83.611841
 40
3.000000
  0
LINE
  8
4
 62
54
  6
DASHDOT
 10
204.569541
 20
121.553698
 11
204.569541
 21
116.342904
  0
LINE
  8
4
 62
54
  6
DASHDOT
 10
201.574747
 20
119.618492
 11
208.241120
 21
119.618492
  0
CIRCLE
  8
4
 62
54
  6
DOT
 10
204.569541
 20
119.618492
 40
3.000000
  0
CIRCLE
  8
4
 62
54
  6
DOT
 10
204.569541
 20
119.618492
 40
3.000000
  0
LINE
  8
4
 62
54
  6
DASHDOT
 10
168.348034
 20
100.618492
 11
102.860551
 21
100.618492
  0
LINE
  8
4
 62
54
  6
DASHDOT
 10
204.205589
 20
105.618492
 11
214.907555
 21
105.618492
  0
LINE
  8
4
 62
54
  6
DASHDOT
 10
162.569541
 20
119.216200
 11
162.569541
 21
112.627299
  0
LINE
  8
4
 62
54
  6
DASHDOT
 10
157.689893
 20
116.618492
 11
166.456398
 21
116.618492
  0
CIRCLE
  8
4
 62
54
  6
DOT
 10
162.569541
 20
116.625143
 40
3.000000
  0
LINE
  8
1
 62
7
  6
DASHDOT
 10
204.569541
 20
114.214241
 11
204.569541
 21
124.040884
  0
LINE
  8
1
 62
7
  6
DASHDOT
 10
221.923710
 20
100.618492
 11
149.517965
 21
100.618492
  0
LINE
  8
1
 62
7
  6
DASHDOT
 10
199.395750
 20
119.618492
 11
209.311083
 21
119.618492
  0
LINE
  8
1
 62
7
  6
DASHDOT
 10
157.827623
 20
83.618492
 11
168.314995
 21
83.618492
  0
LINE
  8
1
 62
7
  6
DASHDOT
 10
162.569541
 20
88.472511
 11
162.569541
 21
80.099101
  0
LINE
  8
1
 62
7
  6
DASHDOT
 10
162.569541
 20
110.877350
 11
162.569541
 21
121.078702
  0
LINE
  8
1
 62
7
  6
DASHDOT
 10
157.541604
 20
116.618492
 11
167.933636
 21
116.618492
  0
CIRCLE
  8
1
 62
7
  6
CONTINUOUS
 10
162.569541
 20
83.618492
 40
3.100000
  0
CIRCLE
  8
1
 62
7
  6
CONTINUOUS
 10
204.569541
 20
119.618492
 40
3.100000
  0
CIRCLE
  8
1
 62
7
  6
CONTINUOUS
 10
162.569541
 20
116.618492
 40
3.100000
  0
LINE
  8
1
 62
7
  6
CONTINUOUS
 10
214.069541
 20
126.711842
 11
214.069541
 21
75.518492
  0
LINE
  8
1
 62
7
  6
CONTINUOUS
 10
157.069541
 20
75.518492
 11
157.069541
 21
126.715167
  0
LINE
  8
1
 62
7
  6
CONTINUOUS
 10
214.069541
 20
74.521817
 11
214.069541
 21
75.518492
  0
LINE
  8
1
 62
7
  6
CONTINUOUS
 10
157.069541
 20
75.518492
 11
157.069541
 21
74.518492
  0
LINE
  8
1
 62
7
  6
CONTINUOUS
 10
212.469541
 20
127.811842
 11
207.669541
 21
127.811842
  0
LINE
  8
1
 62
7
  6
CONTINUOUS
 10
207.669541
 20
127.811842
 11
207.669541
 21
128.411842
  0
LINE
  8
1
 62
7
  6
CONTINUOUS
 10
207.669541
 20
128.411842
 11
212.469541
 21
128.411842
  0
LINE
  8
1
 62
7
  6
CONTINUOUS
 10
212.469541
 20
128.411842
 11
212.469541
 21
127.811842
  0
LINE
  8
1
 62
7
  6
CONTINUOUS
 10
208.569541
 20
128.411842
 11
211.569541
 21
128.411842
  0
LINE
  8
1
 62
7
  6
CONTINUOUS
 10
211.569541
 20
128.411842
 11
211.569541
 21
128.611842
  0
LINE
  8
1
 62
7
  6
CONTINUOUS
 10
211.569541
 20
128.611842
 11
208.569541
 21
128.611842
  0
LINE
  8
1
 62
7
  6
CONTINUOUS
 10
208.569541
 20
128.611842
 11
208.569541
 21
128.411842
  0
LINE
  8
1
 62
7
  6
DASHDOT
 10
210.069541
 20
126.321525
 11
210.069541
 21
129.534160
  0
LINE
  8
1
 62
7
  6
CONTINUOUS
 10
162.469541
 20
127.811842
 11
157.669541
 21
127.811842
  0
LINE
  8
1
 62
7
  6
CONTINUOUS
 10
157.669541
 20
127.811842
 11
157.669541
 21
128.411842
  0
LINE
  8
1
 62
7
  6
CONTINUOUS
 10
157.669541
 20
128.411842
 11
162.469541
 21
128.411842
  0
LINE
  8
1
 62
7
  6
CONTINUOUS
 10
162.469541
 20
128.411842
 11
162.469541
 21
127.811842
  0
LINE
  8
1
 62
7
  6
CONTINUOUS
 10
158.569541
 20
128.411842
 11
161.569541
 21
128.411842
  0
LINE
  8
1
 62
7
  6
CONTINUOUS
 10
161.569541
 20
128.411842
 11
161.569541
 21
128.611842
  0
LINE
  8
1
 62
7
  6
CONTINUOUS
 10
161.569541
 20
128.611842
 11
158.569541
 21
128.611842
  0
LINE
  8
1
 62
7
  6
CONTINUOUS
 10
158.569541
 20
128.611842
 11
158.569541
 21
128.411842
  0
LINE
  8
1
 62
7
  6
DASHDOT
 10
160.069541
 20
126.321525
 11
160.069541
 21
129.534160
  0
LINE
  8
1
 62
7
  6
CONTINUOUS
 10
157.669541
 20
73.421817
 11
162.469541
 21
73.421817
  0
LINE
  8
1
 62
7
  6
CONTINUOUS
 10
162.469541
 20
73.421817
 11
162.469541
 21
72.821817
  0
LINE
  8
1
 62
7
  6
CONTINUOUS
 10
162.469541
 20
72.821817
 11
157.669541
 21
72.821817
  0
LINE
  8
1
 62
7
  6
CONTINUOUS
 10
157.669541
 20
72.821817
 11
157.669541
 21
73.421817
  0
LINE
  8
1
 62
7
  6
CONTINUOUS
 10
161.569541
 20
72.821817
 11
158.569541
 21
72.821817
  0
LINE
  8
1
 62
7
  6
CONTINUOUS
 10
158.569541
 20
72.821817
 11
158.569541
 21
72.621817
  0
LINE
  8
1
 62
7
  6
CONTINUOUS
 10
158.569541
 20
72.621817
 11
161.569541
 21
72.621817
  0
LINE
  8
1
 62
7
  6
CONTINUOUS
 10
161.569541
 20
72.621817
 11
161.569541
 21
72.821817
  0
LINE
  8
1
 62
7
  6
DASHDOT
 10
160.069541
 20
74.912134
 11
160.069541
 21
71.699499
  0
LINE
  8
1
 62
7
  6
CONTINUOUS
 10
207.669541
 20
73.421817
 11
212.469541
 21
73.421817
  0
LINE
  8
1
 62
7
  6
CONTINUOUS
 10
212.469541
 20
73.421817
 11
212.469541
 21
72.821817
  0
LINE
  8
1
 62
7
  6
CONTINUOUS
 10
212.469541
 20
72.821817
 11
207.669541
 21
72.821817
  0
LINE
  8
1
 62
7
  6
CONTINUOUS
 10
207.669541
 20
72.821817
 11
207.669541
 21
73.421817
  0
LINE
  8
1
 62
7
  6
CONTINUOUS
 10
211.569541
 20
72.821817
 11
208.569541
 21
72.821817
  0
LINE
  8
1
 62
7
  6
CONTINUOUS
 10
208.569541
 20
72.821817
 11
208.569541
 21
72.621817
  0
LINE
  8
1
 62
7
  6
CONTINUOUS
 10
208.569541
 20
72.621817
 11
211.569541
 21
72.621817
  0
LINE
  8
1
 62
7
  6
CONTINUOUS
 10
211.569541
 20
72.621817
 11
211.569541
 21
72.821817
  0
LINE
  8
1
 62
7
  6
DASHDOT
 10
210.069541
 20
74.912134
 11
210.069541
 21
71.699499
  0
LINE
  8
1
 62
7
  6
DOT
 10
214.069541
 20
125.715167
 11
157.069541
 21
125.715167
  0
LINE
  8
1
 62
7
  6
DOT
 10
157.069541
 20
126.711842
 11
214.069541
 21
126.711842
  0
LINE
  8
1
 62
7
  6
DOT
 10
214.069541
 20
75.518492
 11
157.069541
 21
75.518492
  0
LINE
  8
1
 62
7
  6
DOT
 10
157.069541
 20
74.521817
 11
214.069541
 21
74.521817
  0
LINE
  8
1
 62
7
  6
DASHDOT
 10
160.069541
 20
68.787326
 11
160.069541
 21
78.988678
  0
LINE
  8
1
 62
7
  6
DASHDOT
 10
160.069541
 20
120.594662
 11
160.069541
 21
131.574228
  0
LINE
  8
1
 62
7
  6
DASHDOT
 10
204.569541
 20
114.214241
 11
204.569541
 21
124.034234
  0
LINE
  8
1
 62
7
  6
DASHDOT
 10
199.395750
 20
119.618492
 11
209.311083
 21
119.618492
  0
LINE
  8
1
 62
7
  6
DASHDOT
 10
157.827623
 20
83.618492
 11
168.314995
 21
83.618492
  0
LINE
  8
1
 62
7
  6
DASHDOT
 10
162.569541
 20
88.472511
 11
162.569541
 21
80.099101
  0
LINE
  8
1
 62
7
  6
DASHDOT
 10
162.569541
 20
110.877350
 11
162.569541
 21
121.078702
  0
LINE
  8
1
 62
7
  6
DASHDOT
 10
157.741604
 20
116.618492
 11
167.933636
 21
116.618492
  0
CIRCLE
  8
1
 62
7
  6
CONTINUOUS
 10
162.569541
 20
83.618492
 40
3.100000
  0
CIRCLE
  8
1
 62
7
  6
CONTINUOUS
 10
204.569541
 20
119.618492
 40
3.100000
  0
CIRCLE
  8
1
 62
7
  6
CONTINUOUS
 10
162.569541
 20
116.618492
 40
3.100000
  0
LINE
  8
1
 62
7
  6
DOT
 10
157.069541
 20
85.118492
 11
157.069541
 21
74.425143
  0
LINE
  8
1
 62
7
  6
CONTINUOUS
 10
157.069541
 20
85.118492
 11
157.069541
 21
116.118492
  0
LINE
  8
1
 62
7
  6
DASHDOT
 10
146.664782
 20
100.618492
 11
220.559003
 21
100.618492
  0
LINE
  8
1
 62
7
  6
CONTINUOUS
 10
156.069541
 20
126.811842
 11
156.069541
 21
116.118492
  0
LINE
  8
1
 62
7
  6
CONTINUOUS
 10
156.069541
 20
116.118492
 11
157.069541
 21
116.118492
  0
LINE
  8
1
 62
7
  6
CONTINUOUS
 10
156.069541
 20
74.421817
 11
156.069541
 21
85.118492
  0
LINE
  8
1
 62
7
  6
CONTINUOUS
 10
156.069541
 20
85.118492
 11
157.069541
 21
85.118492
  0
LINE
  8
1
 62
7
  6
CONTINUOUS
 10
214.069541
 20
127.811842
 11
214.069541
 21
73.418491
  0
LINE
  8
1
 62
7
  6
DOT
 10
157.069541
 20
74.425143
 11
214.069541
 21
74.425143
  0
LINE
  8
1
 62
7
  6
CONTINUOUS
 10
214.069541
 20
73.421817
 11
157.069541
 21
73.421817
  0
ARC
  8
1
 62
7
  6
CONTINUOUS
 10
157.069541
 20
74.421817
 40
1.000000
 50
180.000000
 51
-90.000000
  0
LINE
  8
1
 62
7
  6
DOT
 10
157.069541
 20
126.808517
 11
214.069541
 21
126.808517
  0
LINE
  8
1
 62
7
  6
CONTINUOUS
 10
214.069541
 20
127.811842
 11
157.069541
 21
127.811842
  0
ARC
  8
1
 62
7
  6
CONTINUOUS
 10
157.069541
 20
126.811842
 40
1.000000
 50
90.000000
 51
180.000000
  0
LINE
  8
1
 62
7
  6
DASHDOT
 10
210.069541
 20
68.787326
 11
210.069541
 21
78.988678
  0
LINE
  8
1
 62
7
  6
DASHDOT
 10
210.069541
 20
120.964049
 11
210.069541
 21
131.165401
  0
LINE
  8
1
 62
7
  6
DOT
 10
157.069541
 20
116.118492
 11
157.069541
 21
126.808517
  0
LINE
  8
1
 62
7
  6
CONTINUOUS
 10
88.324187
 20
116.118492
 11
88.324187
 21
85.118492
  0
LINE
  8
1
 62
7
  6
DASHDOT
 10
56.011552
 20
100.618492
 11
96.428425
 21
100.618492
  0
LINE
  8
1
 62
7
  6
CONTINUOUS
 10
57.824187
 20
116.118492
 11
89.324187
 21
116.118492
  0
LINE
  8
1
 62
7
  6
CONTINUOUS
 10
57.824187
 20
85.118492
 11
89.324187
 21
85.118492
  0
ARC
  8
1
 62
7
  6
CONTINUOUS
 10
88.324187
 20
126.811842
 40
1.000000
 50
0.000000
 51
90.000000
  0
LINE
  8
1
 62
7
  6
DOT
 10
88.324187
 20
116.118492
 11
88.324187
 21
126.805191
  0
LINE
  8
1
 62
7
  6
CONTINUOUS
 10
57.824187
 20
126.811842
 11
57.824187
 21
127.811842
  0
LINE
  8
1
 62
7
  6
DOT
 10
57.824187
 20
126.811842
 11
88.324187
 21
126.811842
  0
LINE
  8
1
 62
7
  6
CONTINUOUS
 10
57.824187
 20
127.811842
 11
88.324187
 21
127.811842
  0
LINE
  8
1
 62
7
  6
CONTINUOUS
 10
57.824187
 20
126.811842
 11
57.824187
 21
116.118492
  0
ARC
  8
1
 62
7
  6
CONTINUOUS
 10
88.324187
 20
74.421817
 40
1.000000
 50
-90.000000
 51
0.000000
  0
LINE
  8
1
 62
7
  6
DASHDOT
 10
73.324187
 20
130.791429
 11
73.324187
 21
69.906596
  0
LINE
  8
1
 62
7
  6
DOT
 10
88.324187
 20
85.118492
 11
88.324187
 21
74.421817
  0
LINE
  8
1
 62
7
  6
CONTINUOUS
 10
57.824187
 20
74.421817
 11
57.824187
 21
73.421817
  0
LINE
  8
1
 62
7
  6
DOT
 10
57.824187
 20
74.421817
 11
88.324187
 21
74.421817
  0
LINE
  8
1
 62
7
  6
CONTINUOUS
 10
57.824187
 20
73.421817
 11
88.324187
 21
73.421817
  0
LINE
  8
1
 62
7
  6
CONTINUOUS
 10
57.824187
 20
85.118492
 11
57.824187
 21
73.418491
  0
LINE
  8
1
 62
7
  6
CONTINUOUS
 10
89.324187
 20
126.811842
 11
89.324187
 21
74.421817
  0
LINE
  8
1
 62
7
  6
CONTINUOUS
 10
75.724187
 20
127.811842
 11
70.924187
 21
127.811842
  0
LINE
  8
1
 62
7
  6
CONTINUOUS
 10
70.924187
 20
127.811842
 11
70.924187
 21
128.411842
  0
LINE
  8
1
 62
7
  6
CONTINUOUS
 10
70.924187
 20
128.411842
 11
75.724187
 21
128.411842
  0
LINE
  8
1
 62
7
  6
CONTINUOUS
 10
75.724187
 20
128.411842
 11
75.724187
 21
127.811842
  0
LINE
  8
1
 62
7
  6
CONTINUOUS
 10
71.824187
 20
128.411842
 11
74.824187
 21
128.411842
  0
LINE
  8
1
 62
7
  6
CONTINUOUS
 10
74.824187
 20
128.411842
 11
74.824187
 21
128.611842
  0
LINE
  8
1
 62
7
  6
CONTINUOUS
 10
74.824187
 20
128.611842
 11
71.824187
 21
128.611842
  0
LINE
  8
1
 62
7
  6
CONTINUOUS
 10
71.824187
 20
128.611842
 11
71.824187
 21
128.411842
  0
LINE
  8
1
 62
7
  6
DASHDOT
 10
73.324187
 20
126.321525
 11
73.324187
 21
129.534160
  0
LINE
  8
1
 62
7
  6
CONTINUOUS
 10
70.924187
 20
73.421817
 11
75.724187
 21
73.421817
  0
LINE
  8
1
 62
7
  6
CONTINUOUS
 10
75.724187
 20
73.421817
 11
75.724187
 21
72.821817
  0
LINE
  8
1
 62
7
  6
CONTINUOUS
 10
75.724187
 20
72.821817
 11
70.924187
 21
72.821817
  0
LINE
  8
1
 62
7
  6
CONTINUOUS
 10
70.924187
 20
72.821817
 11
70.924187
 21
73.421817
  0
LINE
  8
1
 62
7
  6
CONTINUOUS
 10
74.824187
 20
72.821817
 11
71.824187
 21
72.821817
  0
LINE
  8
1
 62
7
  6
CONTINUOUS
 10
71.824187
 20
72.821817
 11
71.824187
 21
72.621817
  0
LINE
  8
1
 62
7
  6
CONTINUOUS
 10
71.824187
 20
72.621817
 11
74.824187
 21
72.621817
  0
LINE
  8
1
 62
7
  6
CONTINUOUS
 10
74.824187
 20
72.621817
 11
74.824187
 21
72.821817
  0
LINE
  8
1
 62
7
  6
DASHDOT
 10
73.324187
 20
74.912134
 11
73.324187
 21
71.699499
  0
LINE
  8
1
 62
7
  6
DOT
 10
86.324187
 20
126.715167
 11
58.324187
 21
126.715167
  0
LINE
  8
1
 62
7
  6
DOT
 10
58.324187
 20
125.715167
 11
86.324187
 21
125.715167
  0
LINE
  8
1
 62
7
  6
DOT
 10
86.324187
 20
125.715167
 11
86.324187
 21
126.715167
  0
LINE
  8
1
 62
7
  6
CONTINUOUS
 10
58.324187
 20
125.715167
 11
58.324187
 21
75.518492
  0
LINE
  8
1
 62
7
  6
CONTINUOUS
 10
57.324187
 20
125.715167
 11
57.324187
 21
75.518492
  0
ARC
  8
1
 62
7
  6
CONTINUOUS
 10
58.324187
 20
125.715167
 40
1.000000
 50
90.000000
 51
180.000000
  0
LINE
  8
1
 62
7
  6
DOT
 10
86.324187
 20
74.518492
 11
58.324187
 21
74.518492
  0
LINE
  8
1
 62
7
  6
DOT
 10
58.324187
 20
75.518492
 11
86.324187
 21
75.518492
  0
LINE
  8
1
 62
7
  6
DOT
 10
86.324187
 20
75.518492
 11
86.324187
 21
74.518492
  0
ARC
  8
1
 62
7
  6
CONTINUOUS
 10
58.324187
 20
75.518492
 40
1.000000
 50
180.000000
 51
-90.000000
  0
DIMENSION
  8
2
 62
134
  6
CONTINUOUS
  2
*D1
 10
136.743543
 20
128.611842
 11
136.743543
 21
100.617661
 70
     0
  1
56
 13
157.569541
 23
128.611842
 14
157.569541
 24
72.621817
 50
-90.000000
  0
TEXT
  8
2
 62
134
  6
CONTINUOUS
 10
136.743543
 20
98.117661
 40
4.000000
 41
1.000000
  1
±0.5
  7
KANJI
 50
90.000000
 51
0.000000
  0
DIMENSION
  8
2
 62
134
  6
CONTINUOUS
  2
*D2
 10
146.904078
 20
73.421817
 11
146.904078
 21
100.617661
 70
     0
  1
54.4
 13
156.069541
 23
73.421817
 14
156.069541
 24
127.811842
 50
90.000000
  0
TEXT
  8
2
 62
134
  6
CONTINUOUS
 10
146.904078
 20
100.117661
 40
4.000000
 41
1.000000
  1
±0.5
  7
KANJI
 50
90.000000
 51
0.000000
  0
DIMENSION
  8
2
 62
134
  6
CONTINUOUS
  2
*D3
 10
156.069541
 20
62.613483
 11
150.681505
 21
62.613483
 70
     0
  1
6.5
 13
156.069541
 23
73.421817
 14
162.569541
 24
79.099101
 50
0.000000
  0
DIMENSION
  8
2
 62
134
  6
CONTINUOUS
  2
*D4
 10
156.069541
 20
53.600915
 11
184.134405
 21
53.600915
 70
     0
  1
58
 13
156.069541
 23
73.421817
 14
214.069541
 24
72.418491
 50
0.000000
  0
TEXT
  8
2
 62
134
  6
CONTINUOUS
 10
181.634405
 20
53.600915
 40
4.000000
 41
1.000000
  1
±0.5
  7
KANJI
 50
0.000000
 51
0.000000
  0
DIMENSION
  8
2
 62
134
  6
CONTINUOUS
  2
*D5
 10
223.935193
 20
73.421817
 11
223.935193
 21
67.645262
 70
     0
  1
10.2
 13
215.069541
 23
73.421817
 14
169.314995
 24
83.618492
 50
90.000000
  0
DIMENSION
  8
2
 62
134
  6
CONTINUOUS
  2
*D6
 10
176.219740
 20
83.618492
 11
176.219740
 21
100.368492
 70
     0
  1
33
 13
169.314995
 23
83.618492
 14
168.933636
 24
116.618492
 50
90.000000
  0
DIMENSION
  8
2
 62
134
  6
CONTINUOUS
  2
*D7
 10
223.935193
 20
83.618492
 11
223.935193
 21
101.118492
 70
     0
  1
36
 13
169.314995
 23
83.618492
 14
210.311083
 24
119.618492
 50
90.000000
  0
DIMENSION
  8
2
 62
134
  6
CONTINUOUS
  2
*D8
 10
73.324187
 20
62.613483
 11
81.540112
 21
62.613483
 70
     0
  1
16
 13
73.324187
 23
68.906596
 14
89.324187
 24
73.421817
 50
0.000000
  0
DIMENSION
  8
2
 62
134
  6
CONTINUOUS
  2
*D9
 10
57.324187
 20
53.600915
 11
72.980430
 21
53.600915
 70
     0
  1
32
 13
57.324187
 23
74.518492
 14
89.324187
 24
73.421817
 50
0.000000
  0
TEXT
  8
2
 62
134
  6
CONTINUOUS
 10
70.480430
 20
53.600915
 40
4.000000
 41
1.000000
  1
±0.5
  7
KANJI
 50
0.000000
 51
0.000000
  0
DIMENSION
  8
2
 62
134
  6
CONTINUOUS
  2
*D10
 10
96.486892
 20
73.421817
 11
96.486892
 21
68.894560
 70
     0
  1
11.7
 13
89.324187
 23
73.421817
 14
90.324187
 24
85.118492
 50
90.000000
  0
DIMENSION
  8
2
 62
134
  6
CONTINUOUS
  2
*D11
 10
96.486892
 20
85.118492
 11
96.486892
 21
100.618492
 70
     0
  1
31
 13
90.324187
 23
85.118492
 14
90.324187
 24
116.118492
 50
90.000000
  0
LINE
  8
4
 62
54
  6
DOT
 10
167.069541
 20
77.618492
 11
159.069541
 21
77.618492
  0
LINE
  8
4
 62
54
  6
DOT
 10
167.069541
 20
123.615167
 11
159.069541
 21
123.615167
  0
LINE
  8
4
 62
54
  6
DOT
 10
157.569541
 20
122.115167
 11
157.569541
 21
79.118492
  0
LINE
  8
4
 62
54
  6
DOT
 10
157.569541
 20
79.118492
 11
159.069541
 21
77.618492
  0
LINE
  8
4
 62
54
  6
DOT
 10
157.569541
 20
122.115167
 11
159.069541
 21
123.615167
  0
LINE
  8
4
 62
54
  6
DOT
 10
167.069541
 20
123.611842
 11
207.069541
 21
123.611842
  0
LINE
  8
4
 62
54
  6
DOT
 10
167.069541
 20
77.618492
 11
207.069541
 21
77.618492
  0
LINE
  8
4
 62
54
  6
DOT
 10
208.569541
 20
122.111842
 11
207.069541
 21
123.611842
  0
LINE
  8
4
 62
54
  6
DOT
 10
208.569541
 20
79.118492
 11
208.569541
 21
122.111842
  0
LINE
  8
4
 62
54
  6
DOT
 10
207.069541
 20
77.618492
 11
208.569541
 21
79.118492
  0
LINE
  8
4
 62
54
  6
DOT
 10
167.069541
 20
122.911843
 11
167.069541
 21
78.318491
  0
CIRCLE
  8
4
 62
54
  6
DOT
 10
162.569541
 20
116.618492
 40
1.750000
  0
CIRCLE
  8
4
 62
54
  6
DOT
 10
162.569541
 20
83.618492
 40
1.750000
  0
LINE
  8
4
 62
54
  6
DOT
 10
156.069541
 20
85.718492
 11
157.069541
 21
85.718492
  0
LINE
  8
4
 62
54
  6
DOT
 10
156.069541
 20
115.518492
 11
157.069541
 21
115.518492
  0
LINE
  8
4
 62
54
  6
DOT
 10
157.069541
 20
85.718492
 11
157.069541
 21
115.518492
  0
LINE
  8
4
 62
54
  6
DOT
 10
157.069541
 20
85.718492
 11
157.569541
 21
86.218492
  0
LINE
  8
4
 62
54
  6
DOT
 10
157.069541
 20
115.518492
 11
157.569541
 21
115.018492
  0
CIRCLE
  8
4
 62
54
  6
DOT
 10
204.569541
 20
119.618492
 40
1.750000
  0
LINE
  8
4
 62
54
  6
DOT
 10
208.569541
 20
117.318492
 11
208.569541
 21
93.918492
  0
LINE
  8
4
 62
54
  6
DOT
 10
208.569541
 20
93.918492
 11
211.069541
 21
93.918492
  0
LINE
  8
4
 62
54
  6
DOT
 10
211.069541
 20
93.918492
 11
211.069541
 21
117.318492
  0
LINE
  8
4
 62
54
  6
DOT
 10
211.069541
 20
117.318492
 11
208.569541
 21
117.318492
  0
LINE
  8
4
 62
54
  6
DOT
 10
211.069541
 20
117.248492
 11
211.069541
 21
111.248492
  0
LINE
  8
4
 62
54
  6
DOT
 10
212.569541
 20
117.248492
 11
211.069541
 21
117.248492
  0
ARC
  8
4
 62
54
  6
DOT
 10
212.569541
 20
115.748492
 40
1.500000
 50
0.000000
 51
90.000000
  0
LINE
  8
4
 62
54
  6
DOT
 10
214.069541
 20
112.748492
 11
214.069541
 21
115.748492
  0
LINE
  8
4
 62
54
  6
DOT
 10
211.069541
 20
111.248492
 11
212.569541
 21
111.248492
  0
ARC
  8
4
 62
54
  6
DOT
 10
212.569541
 20
112.748492
 40
1.500000
 50
-90.000000
 51
0.000000
  0
LINE
  8
4
 62
54
  6
DOT
 10
211.069541
 20
93.988492
 11
211.069541
 21
99.988492
  0
LINE
  8
4
 62
54
  6
DOT
 10
212.569541
 20
93.988492
 11
211.069541
 21
93.988492
  0
ARC
  8
4
 62
54
  6
DOT
 10
212.569541
 20
95.488492
 40
1.500000
 50
-90.000000
 51
0.000000
  0
LINE
  8
4
 62
54
  6
DOT
 10
214.069541
 20
98.488492
 11
214.069541
 21
95.488492
  0
LINE
  8
4
 62
54
  6
DOT
 10
211.069541
 20
99.988492
 11
212.569541
 21
99.988492
  0
ARC
  8
4
 62
54
  6
DOT
 10
212.569541
 20
98.488492
 40
1.500000
 50
0.000000
 51
90.000000
  0
LINE
  8
4
 62
54
  6
DOT
 10
217.309541
 20
112.918492
 11
217.309541
 21
98.318492
  0
LINE
  8
4
 62
54
  6
DOT
 10
214.069541
 20
112.918492
 11
217.309541
 21
112.918492
  0
LINE
  8
4
 62
54
  6
DOT
 10
217.309541
 20
98.318492
 11
214.069541
 21
98.318492
  0
LINE
  8
4
 62
54
  6
DASHDOT
 10
270.040762
 20
105.618492
 11
217.935358
 21
105.618492
  0
LINE
  8
4
 62
54
  6
DASHDOT
 10
207.716756
 20
105.618492
 11
271.484543
 21
105.618492
  0
LINE
  8
4
 62
54
  6
CONTINUOUS
 10
215.469541
 20
115.118492
 11
215.469541
 21
96.118492
  0
LINE
  8
4
 62
54
  6
CONTINUOUS
 10
215.469541
 20
96.118492
 11
219.946282
 21
96.118492
  0
LINE
  8
4
 62
54
  6
CONTINUOUS
 10
219.946282
 20
115.118492
 11
215.469541
 21
115.118492
  0
LINE
  8
4
 62
54
  6
CONTINUOUS
 10
219.946282
 20
115.118492
 11
222.969541
 21
115.118492
  0
LINE
  8
4
 62
54
  6
CONTINUOUS
 10
222.969541
 20
96.118492
 11
219.946282
 21
96.118492
  0
LINE
  8
4
 62
54
  6
CONTINUOUS
 10
222.969541
 20
115.118492
 11
222.969541
 21
96.118492
  0
LINE
  8
4
 62
54
  6
CONTINUOUS
 10
222.969541
 20
115.118492
 11
227.069541
 21
115.118492
  0
LINE
  8
4
 62
54
  6
CONTINUOUS
 10
222.969541
 20
96.118492
 11
227.069541
 21
96.118492
  0
LINE
  8
4
 62
54
  6
CONTINUOUS
 10
227.069541
 20
115.118492
 11
227.069541
 21
96.118492
  0
LINE
  8
4
 62
54
  6
CONTINUOUS
 10
227.069541
 20
114.318492
 11
232.869541
 21
114.318492
  0
LINE
  8
4
 62
54
  6
CONTINUOUS
 10
232.869541
 20
114.318492
 11
232.869541
 21
96.918492
  0
LINE
  8
4
 62
54
  6
CONTINUOUS
 10
232.869541
 20
96.918492
 11
227.069541
 21
96.918492
  0
LINE
  8
4
 62
54
  6
CONTINUOUS
 10
232.869541
 20
112.718492
 11
242.269541
 21
112.718492
  0
LINE
  8
4
 62
54
  6
CONTINUOUS
 10
232.869541
 20
98.518492
 11
242.269541
 21
98.518492
  0
LINE
  8
4
 62
54
  6
CONTINUOUS
 10
242.269541
 20
112.918492
 11
242.269541
 21
98.318492
  0
LINE
  8
4
 62
54
  6
CONTINUOUS
 10
252.269541
 20
112.918492
 11
252.269541
 21
98.318492
  0
LINE
  8
4
 62
54
  6
CONTINUOUS
 10
242.269541
 20
112.918492
 11
254.969541
 21
112.918492
  0
LINE
  8
4
 62
54
  6
CONTINUOUS
 10
254.969541
 20
98.318492
 11
242.269541
 21
98.318492
  0
LINE
  8
4
 62
54
  6
CONTINUOUS
 10
254.969541
 20
112.918492
 11
254.969541
 21
98.318492
  0
LINE
  8
4
 62
54
  6
CONTINUOUS
 10
258.669541
 20
111.368492
 11
254.969541
 21
112.918492
  0
LINE
  8
4
 62
54
  6
CONTINUOUS
 10
258.669541
 20
99.868492
 11
254.969541
 21
98.318492
  0
LINE
  8
4
 62
54
  6
CONTINUOUS
 10
258.669541
 20
111.368492
 11
258.669541
 21
99.868492
  0
LINE
  8
4
 62
54
  6
CONTINUOUS
 10
267.202600
 20
109.118492
 11
258.669541
 21
109.118492
  0
LINE
  8
4
 62
54
  6
CONTINUOUS
 10
258.669541
 20
102.118492
 11
267.844913
 21
102.118492
  0
LINE
  8
4
 62
54
  6
CONTINUOUS
 10
215.469541
 20
114.718492
 11
214.069541
 21
114.718492
  0
LINE
  8
4
 62
54
  6
CONTINUOUS
 10
215.469541
 20
96.518492
 11
214.069541
 21
96.518492
  0
LINE
  8
1
 62
7
  6
DASHDOT
 10
221.423710
 20
166.414191
 11
150.817965
 21
166.414191
  0
LINE
  8
1
 62
7
  6
DOT
 10
214.069541
 20
151.414191
 11
157.069541
 21
151.414191
  0
LINE
  8
1
 62
7
  6
DASHDOT
 10
210.069541
 20
170.557507
 11
210.069541
 21
162.734532
  0
LINE
  8
1
 62
7
  6
DOT
 10
157.069541
 20
151.414191
 11
157.069541
 21
181.914191
  0
LINE
  8
1
 62
7
  6
CONTINUOUS
 10
214.069541
 20
150.414191
 11
214.069541
 21
181.914191
  0
LINE
  8
1
 62
7
  6
CONTINUOUS
 10
214.069541
 20
181.914191
 11
156.069541
 21
181.914191
  0
LINE
  8
1
 62
7
  6
CONTINUOUS
 10
156.069541
 20
181.914191
 11
156.069541
 21
151.414191
  0
LINE
  8
1
 62
7
  6
CONTINUOUS
 10
157.069541
 20
150.414191
 11
214.069541
 21
150.414191
  0
ARC
  8
1
 62
7
  6
CONTINUOUS
 10
157.069541
 20
151.414191
 40
1.000000
 50
180.000000
 51
-90.000000
  0
LINE
  8
1
 62
7
  6
DASHDOT
 10
160.069541
 20
170.639854
 11
160.069541
 21
162.075755
  0
LINE
  8
1
 62
7
  6
CONTINUOUS
 10
157.069541
 20
182.414191
 11
214.081752
 21
182.414191
  0
LINE
  8
1
 62
7
  6
DOT
 10
157.069541
 20
181.414191
 11
214.069541
 21
181.414191
  0
LINE
  8
1
 62
7
  6
DOT
 10
158.069541
 20
153.414191
 11
213.069541
 21
153.414191
  0
LINE
  8
1
 62
7
  6
DOT
 10
157.069541
 20
154.414191
 11
158.069541
 21
153.414191
  0
LINE
  8
1
 62
7
  6
DOT
 10
213.069541
 20
153.414191
 11
214.069541
 21
154.414191
  0
LINE
  8
1
 62
7
  6
CONTINUOUS
 10
157.069541
 20
182.414191
 11
157.069541
 21
181.914191
  0
LINE
  8
1
 62
7
  6
CONTINUOUS
 10
214.069541
 20
182.414191
 11
214.069541
 21
181.914191
  0
CIRCLE
  8
1
 62
7
  6
CONTINUOUS
 10
210.069541
 20
166.414191
 40
2.400000
  0
CIRCLE
  8
1
 62
7
  6
CONTINUOUS
 10
210.069541
 20
166.414191
 40
1.063535
  0
LINE
  8
1
 62
7
  6
CONTINUOUS
 10
210.069541
 20
166.954191
 11
209.601887
 21
166.684191
  0
LINE
  8
1
 62
7
  6
CONTINUOUS
 10
209.601887
 20
166.684191
 11
209.601887
 21
166.144191
  0
LINE
  8
1
 62
7
  6
CONTINUOUS
 10
209.601887
 20
166.144191
 11
210.069541
 21
165.874191
  0
LINE
  8
1
 62
7
  6
CONTINUOUS
 10
210.069541
 20
165.874191
 11
210.537195
 21
166.144191
  0
LINE
  8
1
 62
7
  6
CONTINUOUS
 10
210.537195
 20
166.144191
 11
210.537195
 21
166.684191
  0
LINE
  8
1
 62
7
  6
CONTINUOUS
 10
210.537195
 20
166.684191
 11
210.069541
 21
166.954191
  0
CIRCLE
  8
1
 62
7
  6
CONTINUOUS
 10
160.069541
 20
166.414191
 40
2.400000
  0
CIRCLE
  8
1
 62
7
  6
CONTINUOUS
 10
160.069541
 20
166.414191
 40
1.063535
  0
LINE
  8
1
 62
7
  6
CONTINUOUS
 10
160.069541
 20
166.954191
 11
159.601887
 21
166.684191
  0
LINE
  8
1
 62
7
  6
CONTINUOUS
 10
159.601887
 20
166.684191
 11
159.601887
 21
166.144191
  0
LINE
  8
1
 62
7
  6
CONTINUOUS
 10
159.601887
 20
166.144191
 11
160.069541
 21
165.874191
  0
LINE
  8
1
 62
7
  6
CONTINUOUS
 10
160.069541
 20
165.874191
 11
160.537195
 21
166.144191
  0
LINE
  8
1
 62
7
  6
CONTINUOUS
 10
160.537195
 20
166.144191
 11
160.537195
 21
166.684191
  0
LINE
  8
1
 62
7
  6
CONTINUOUS
 10
160.537195
 20
166.684191
 11
160.069541
 21
166.954191
  0
LINE
  8
2
 62
134
  6
CONTINUOUS
 10
188.388154
 20
120.198378
 11
200.442092
 21
136.579370
  0
LINE
  8
2
 62
134
  6
CONTINUOUS
 10
200.442092
 20
136.579370
 11
214.937169
 21
136.579370
  0
TEXT
  8
2
 62
134
  6
CONTINUOUS
 10
200.937169
 20
136.656639
 40
4.000000
 41
0.500000
  1
ｾﾝｻﾍｯﾄﾞ
  7
KANJI
 50
0.000000
 51
0.000000
  0
LINE
  8
2
 62
134
  6
CONTINUOUS
 10
188.388154
 20
120.198378
 11
189.116200
 21
122.061158
  0
LINE
  8
2
 62
134
  6
CONTINUOUS
 10
188.388154
 20
120.198378
 11
189.950050
 21
121.447570
  0
LINE
  8
2
 62
134
  6
CONTINUOUS
 10
189.116200
 20
122.061158
 11
189.950050
 21
121.447570
  0
LINE
  8
2
 62
134
  6
CONTINUOUS
 10
188.674397
 20
120.587374
 11
189.038420
 21
121.518764
  0
LINE
  8
2
 62
134
  6
CONTINUOUS
 10
188.674397
 20
120.587374
 11
189.455345
 21
121.211970
  0
LINE
  8
2
 62
134
  6
CONTINUOUS
 10
189.038420
 20
121.518764
 11
189.455345
 21
121.211970
  0
LINE
  8
2
 62
134
  6
CONTINUOUS
 10
164.159931
 20
119.279443
 11
169.620937
 21
137.857893
  0
LINE
  8
2
 62
134
  6
CONTINUOUS
 10
169.620937
 20
137.857893
 11
183.444641
 21
137.857893
  0
TEXT
  8
2
 62
134
  6
CONTINUOUS
 10
171.444641
 20
137.947410
 40
4.000000
 41
1.000000
  1
取付ｱﾅ
  7
KANJI
 50
0.000000
 51
0.000000
  0
LINE
  8
2
 62
134
  6
CONTINUOUS
 10
164.159931
 20
119.279443
 11
164.208109
 21
121.278863
  0
LINE
  8
2
 62
134
  6
CONTINUOUS
 10
164.159931
 20
119.279443
 11
165.201364
 21
120.986902
  0
LINE
  8
2
 62
134
  6
CONTINUOUS
 10
164.208109
 20
121.278863
 11
165.201364
 21
120.986902
  0
LINE
  8
2
 62
134
  6
CONTINUOUS
 10
164.296132
 20
119.742803
 11
164.320221
 21
120.742513
  0
LINE
  8
2
 62
134
  6
CONTINUOUS
 10
164.296132
 20
119.742803
 11
164.816849
 21
120.596532
  0
LINE
  8
2
 62
134
  6
CONTINUOUS
 10
164.320221
 20
120.742513
 11
164.816849
 21
120.596532
  0
TEXT
  8
2
 62
134
  6
CONTINUOUS
 10
169.765151
 20
133.457680
 40
4.000000
 41
1.000000
  1
2-φ6.2ｱﾅ
  7
KANJI
 50
0.000000
 51
0.000000
  0
LINE
  8
4
 62
54
  6
DASHDOT
 10
120.982961
 20
100.618492
 11
106.229725
 21
100.618492
  0
LINE
  8
4
 62
54
  6
DOT
 10
115.969541
 20
88.118492
 11
115.969541
 21
113.118492
  0
LINE
  8
4
 62
54
  6
DOT
 10
115.969541
 20
113.118492
 11
117.560672
 21
113.118492
  0
ARC
  8
4
 62
54
  6
DOT
 10
63.109541
 20
100.618492
 40
55.860000
 50
-12.930779
 51
12.930779
  0
LINE
  8
4
 62
54
  6
DOT
 10
117.552994
 20
88.118492
 11
115.969541
 21
88.118492
  0
LINE
  8
4
 62
54
  6
DOT
 10
104.569541
 20
113.168492
 11
112.569541
 21
113.168492
  0
LINE
  8
4
 62
54
  6
DOT
 10
104.569541
 20
113.626567
 11
112.569541
 21
113.626567
  0
LINE
  8
4
 62
54
  6
DOT
 10
113.569541
 20
100.634642
 11
113.569541
 21
113.626567
  0
LINE
  8
4
 62
54
  6
DOT
 10
112.569541
 20
100.634642
 11
112.569541
 21
113.626567
  0
LINE
  8
4
 62
54
  6
DOT
 10
113.569541
 20
113.626567
 11
112.569541
 21
113.626567
  0
LINE
  8
4
 62
54
  6
DOT
 10
104.569541
 20
88.068492
 11
112.569541
 21
88.068492
  0
LINE
  8
4
 62
54
  6
DOT
 10
104.569541
 20
87.610417
 11
112.569541
 21
87.610417
  0
LINE
  8
4
 62
54
  6
DOT
 10
113.569541
 20
100.602343
 11
113.569541
 21
87.610417
  0
LINE
  8
4
 62
54
  6
DOT
 10
112.569541
 20
100.602343
 11
112.569541
 21
87.610417
  0
LINE
  8
4
 62
54
  6
DOT
 10
113.569541
 20
87.610417
 11
112.569541
 21
87.610417
  0
LINE
  8
4
 62
54
  6
CONTINUOUS
 10
104.569541
 20
115.018492
 11
105.069541
 21
115.518492
  0
LINE
  8
4
 62
54
  6
CONTINUOUS
 10
104.569541
 20
115.018492
 11
104.569541
 21
86.218492
  0
LINE
  8
4
 62
54
  6
CONTINUOUS
 10
104.569541
 20
86.218492
 11
105.069541
 21
85.718492
  0
LINE
  8
4
 62
54
  6
DASHDOT
 10
167.348034
 20
100.618492
 11
102.432605
 21
100.618492
  0
LINE
  8
4
 62
54
  6
CONTINUOUS
 10
105.069541
 20
85.718492
 11
105.069541
 21
115.518492
  0
LINE
  8
4
 62
54
  6
CONTINUOUS
 10
105.069541
 20
115.518492
 11
156.069541
 21
115.518492
  0
LINE
  8
4
 62
54
  6
CONTINUOUS
 10
105.069541
 20
85.718492
 11
156.069541
 21
85.718492
  0
LINE
  8
1
 62
7
  6
DASHDOT
 10
162.569541
 20
156.352631
 11
162.569541
 21
146.223936
  0
LINE
  8
1
 62
7
  6
DASHDOT
 10
204.569541
 20
156.344549
 11
204.569541
 21
146.223936
  0
LINE
  8
1
 62
7
  6
DASHDOT
 10
162.569541
 20
185.874069
 11
162.569541
 21
177.845226
  0
LINE
  8
1
 62
7
  6
DASHDOT
 10
204.569541
 20
186.244631
 11
204.569541
 21
178.092268
  0
LINE
  8
4
 62
54
  6
DASHDOT
 10
168.348034
 20
166.414191
 11
99.860551
 21
166.414191
  0
LINE
  8
4
 62
54
  6
DASHDOT
 10
120.982961
 20
166.414191
 11
106.229725
 21
166.414191
  0
LINE
  8
4
 62
54
  6
DOT
 10
115.969541
 20
153.914191
 11
115.969541
 21
178.914191
  0
LINE
  8
4
 62
54
  6
DOT
 10
115.969541
 20
178.914191
 11
117.560672
 21
178.914191
  0
ARC
  8
4
 62
54
  6
DOT
 10
63.109541
 20
166.414191
 40
55.860000
 50
-12.930779
 51
12.930779
  0
LINE
  8
4
 62
54
  6
DOT
 10
117.552994
 20
153.914191
 11
115.969541
 21
153.914191
  0
LINE
  8
4
 62
54
  6
DOT
 10
104.569541
 20
178.964191
 11
112.569541
 21
178.964191
  0
LINE
  8
4
 62
54
  6
DOT
 10
104.569541
 20
179.422266
 11
112.569541
 21
179.422266
  0
LINE
  8
4
 62
54
  6
DOT
 10
113.569541
 20
166.430340
 11
113.569541
 21
179.422266
  0
LINE
  8
4
 62
54
  6
DOT
 10
112.569541
 20
166.430340
 11
112.569541
 21
179.422266
  0
LINE
  8
4
 62
54
  6
DOT
 10
113.569541
 20
179.422266
 11
112.569541
 21
179.422266
  0
LINE
  8
4
 62
54
  6
DOT
 10
104.569541
 20
153.864191
 11
112.569541
 21
153.864191
  0
LINE
  8
4
 62
54
  6
DOT
 10
104.569541
 20
153.406116
 11
112.569541
 21
153.406116
  0
LINE
  8
4
 62
54
  6
DOT
 10
113.569541
 20
166.398041
 11
113.569541
 21
153.406116
  0
LINE
  8
4
 62
54
  6
DOT
 10
112.569541
 20
166.398041
 11
112.569541
 21
153.406116
  0
LINE
  8
4
 62
54
  6
DOT
 10
113.569541
 20
153.406116
 11
112.569541
 21
153.406116
  0
LINE
  8
4
 62
54
  6
DASHDOT
 10
204.205589
 20
166.414191
 11
214.907555
 21
166.414191
  0
LINE
  8
4
 62
54
  6
CONTINUOUS
 10
167.069541
 20
152.114190
 11
167.069541
 21
151.414191
  0
LINE
  8
4
 62
54
  6
DASHDOT
 10
162.569541
 20
149.255601
 11
162.569541
 21
182.941328
  0
LINE
  8
4
 62
54
  6
DASHDOT
 10
204.569541
 20
184.341104
 11
204.569541
 21
148.824806
  0
LINE
  8
4
 62
54
  6
CONTINUOUS
 10
104.569541
 20
180.814191
 11
105.069541
 21
181.314191
  0
LINE
  8
4
 62
54
  6
CONTINUOUS
 10
104.569541
 20
180.814191
 11
104.569541
 21
152.014191
  0
LINE
  8
4
 62
54
  6
CONTINUOUS
 10
104.569541
 20
152.014191
 11
105.069541
 21
151.514191
  0
LINE
  8
4
 62
54
  6
DASHDOT
 10
167.348034
 20
166.414191
 11
102.432605
 21
166.414191
  0
LINE
  8
4
 62
54
  6
CONTINUOUS
 10
105.069541
 20
151.514191
 11
105.069541
 21
181.314191
  0
LINE
  8
4
 62
54
  6
DOT
 10
167.069541
 20
181.417516
 11
157.567933
 21
181.417516
  0
LINE
  8
4
 62
54
  6
DOT
 10
167.069541
 20
181.414191
 11
167.069541
 21
151.414191
  0
LINE
  8
4
 62
54
  6
DOT
 10
167.069541
 20
181.414191
 11
207.069541
 21
181.414191
  0
LINE
  8
4
 62
54
  6
DOT
 10
167.069541
 20
180.714192
 11
167.069541
 21
181.414191
  0
LINE
  8
4
 62
54
  6
DOT
 10
208.569541
 20
179.914191
 11
207.069541
 21
181.414191
  0
LINE
  8
4
 62
54
  6
DOT
 10
208.569541
 20
152.914191
 11
208.569541
 21
179.914191
  0
LINE
  8
4
 62
54
  6
DOT
 10
167.069541
 20
151.414191
 11
207.069541
 21
151.414191
  0
LINE
  8
4
 62
54
  6
DOT
 10
207.069541
 20
151.414191
 11
208.569541
 21
152.914191
  0
LINE
  8
4
 62
54
  6
DOT
 10
167.069541
 20
151.414191
 11
157.569541
 21
151.414191
  0
LINE
  8
4
 62
54
  6
DOT
 10
157.069541
 20
151.514191
 11
157.069541
 21
181.314191
  0
LINE
  8
4
 62
54
  6
DOT
 10
156.069541
 20
181.314191
 11
157.069541
 21
181.314191
  0
LINE
  8
4
 62
54
  6
DOT
 10
157.069541
 20
181.314191
 11
157.569541
 21
180.814191
  0
LINE
  8
4
 62
54
  6
DOT
 10
156.069541
 20
151.514191
 11
157.069541
 21
151.514191
  0
LINE
  8
4
 62
54
  6
DOT
 10
157.069541
 20
151.514191
 11
157.569541
 21
152.014191
  0
LINE
  8
4
 62
54
  6
DOT
 10
157.569541
 20
179.917516
 11
157.569541
 21
151.414191
  0
LINE
  8
4
 62
54
  6
CONTINUOUS
 10
105.069541
 20
151.514191
 11
156.069541
 21
151.514191
  0
LINE
  8
4
 62
54
  6
CONTINUOUS
 10
105.069541
 20
181.314191
 11
156.069541
 21
181.314191
  0
LINE
  8
4
 62
54
  6
DOT
 10
208.569541
 20
178.114191
 11
208.569541
 21
154.714191
  0
LINE
  8
4
 62
54
  6
DOT
 10
208.569541
 20
154.714191
 11
211.069541
 21
154.714191
  0
LINE
  8
4
 62
54
  6
DOT
 10
211.069541
 20
154.714191
 11
211.069541
 21
178.114191
  0
LINE
  8
4
 62
54
  6
DOT
 10
211.069541
 20
178.114191
 11
208.569541
 21
178.114191
  0
LINE
  8
4
 62
54
  6
DOT
 10
211.069541
 20
178.044191
 11
211.069541
 21
172.044191
  0
LINE
  8
4
 62
54
  6
DOT
 10
212.569541
 20
178.044191
 11
211.069541
 21
178.044191
  0
ARC
  8
4
 62
54
  6
DOT
 10
212.569541
 20
176.544191
 40
1.500000
 50
0.000000
 51
90.000000
  0
LINE
  8
4
 62
54
  6
DOT
 10
214.069541
 20
173.544191
 11
214.069541
 21
176.544191
  0
LINE
  8
4
 62
54
  6
DOT
 10
211.069541
 20
172.044191
 11
212.569541
 21
172.044191
  0
ARC
  8
4
 62
54
  6
DOT
 10
212.569541
 20
173.544191
 40
1.500000
 50
-90.000000
 51
0.000000
  0
LINE
  8
4
 62
54
  6
DOT
 10
211.069541
 20
154.784191
 11
211.069541
 21
160.784191
  0
LINE
  8
4
 62
54
  6
DOT
 10
212.569541
 20
154.784191
 11
211.069541
 21
154.784191
  0
ARC
  8
4
 62
54
  6
DOT
 10
212.569541
 20
156.284191
 40
1.500000
 50
-90.000000
 51
0.000000
  0
LINE
  8
4
 62
54
  6
DOT
 10
214.069541
 20
159.284191
 11
214.069541
 21
156.284191
  0
LINE
  8
4
 62
54
  6
DOT
 10
211.069541
 20
160.784191
 11
212.569541
 21
160.784191
  0
ARC
  8
4
 62
54
  6
DOT
 10
212.569541
 20
159.284191
 40
1.500000
 50
0.000000
 51
90.000000
  0
LINE
  8
4
 62
54
  6
DOT
 10
217.309541
 20
173.714191
 11
217.309541
 21
159.114191
  0
LINE
  8
4
 62
54
  6
DOT
 10
214.069541
 20
173.714191
 11
217.309541
 21
173.714191
  0
LINE
  8
4
 62
54
  6
DOT
 10
217.309541
 20
159.114191
 11
214.069541
 21
159.114191
  0
LINE
  8
4
 62
54
  6
CONTINUOUS
 10
215.469541
 20
175.914191
 11
215.469541
 21
156.914191
  0
LINE
  8
4
 62
54
  6
CONTINUOUS
 10
215.469541
 20
156.914191
 11
219.946282
 21
156.914191
  0
LINE
  8
4
 62
54
  6
CONTINUOUS
 10
219.946282
 20
175.914191
 11
215.469541
 21
175.914191
  0
LINE
  8
4
 62
54
  6
CONTINUOUS
 10
219.946282
 20
175.914191
 11
222.969541
 21
175.914191
  0
LINE
  8
4
 62
54
  6
CONTINUOUS
 10
222.969541
 20
156.914191
 11
219.946282
 21
156.914191
  0
LINE
  8
4
 62
54
  6
CONTINUOUS
 10
222.969541
 20
175.914191
 11
222.969541
 21
156.914191
  0
LINE
  8
4
 62
54
  6
CONTINUOUS
 10
222.969541
 20
175.914191
 11
227.069541
 21
175.914191
  0
LINE
  8
4
 62
54
  6
CONTINUOUS
 10
222.969541
 20
156.914191
 11
227.069541
 21
156.914191
  0
LINE
  8
4
 62
54
  6
CONTINUOUS
 10
227.069541
 20
175.914191
 11
227.069541
 21
156.914191
  0
LINE
  8
4
 62
54
  6
CONTINUOUS
 10
227.069541
 20
175.114191
 11
232.869541
 21
175.114191
  0
LINE
  8
4
 62
54
  6
CONTINUOUS
 10
232.869541
 20
175.114191
 11
232.869541
 21
157.714191
  0
LINE
  8
4
 62
54
  6
CONTINUOUS
 10
232.869541
 20
157.714191
 11
227.069541
 21
157.714191
  0
LINE
  8
4
 62
54
  6
CONTINUOUS
 10
232.869541
 20
173.514191
 11
242.269541
 21
173.514191
  0
LINE
  8
4
 62
54
  6
CONTINUOUS
 10
232.869541
 20
159.314191
 11
242.269541
 21
159.314191
  0
LINE
  8
4
 62
54
  6
CONTINUOUS
 10
242.269541
 20
173.714191
 11
242.269541
 21
159.114191
  0
LINE
  8
4
 62
54
  6
CONTINUOUS
 10
252.269541
 20
173.714191
 11
252.269541
 21
159.114191
  0
LINE
  8
4
 62
54
  6
CONTINUOUS
 10
242.269541
 20
173.714191
 11
254.969541
 21
173.714191
  0
LINE
  8
4
 62
54
  6
CONTINUOUS
 10
254.969541
 20
159.114191
 11
242.269541
 21
159.114191
  0
LINE
  8
4
 62
54
  6
CONTINUOUS
 10
254.969541
 20
173.714191
 11
254.969541
 21
159.114191
  0
LINE
  8
4
 62
54
  6
CONTINUOUS
 10
258.669541
 20
172.164191
 11
254.969541
 21
173.714191
  0
LINE
  8
4
 62
54
  6
CONTINUOUS
 10
258.669541
 20
160.664191
 11
254.969541
 21
159.114191
  0
LINE
  8
4
 62
54
  6
CONTINUOUS
 10
258.669541
 20
172.164191
 11
258.669541
 21
160.664191
  0
LINE
  8
4
 62
54
  6
CONTINUOUS
 10
267.202600
 20
169.914191
 11
258.669541
 21
169.914191
  0
LINE
  8
4
 62
54
  6
CONTINUOUS
 10
258.669541
 20
162.914191
 11
267.844913
 21
162.914191
  0
LINE
  8
4
 62
54
  6
CONTINUOUS
 10
215.469541
 20
175.514191
 11
214.069541
 21
175.514191
  0
LINE
  8
4
 62
54
  6
CONTINUOUS
 10
215.469541
 20
157.314191
 11
214.069541
 21
157.314191
  0
LINE
  8
4
 62
54
  6
DASHDOT
 10
270.841543
 20
166.414191
 11
153.539174
 21
166.414191
  0
TEXT
  8
2
 62
134
  6
CONTINUOUS
 10
114.483871
 20
53.919355
 40
4.000000
 41
1.000000
  1
質量：100g
  7
KANJI
 50
0.000000
 51
0.000000
  0
ENDSEC
  0
EOF
