  0
SECTION
  2
HEADER
  9
$ACADVER
  1
AC1009
  9
$INSBASE
 10
0.000000
 20
0.000000
  9
$EXTMIN
 10
0.000000
 20
0.000000
  9
$EXTMAX
 10
210.000000
 20
297.000000
  9
$LIMMIN
 10
0.000000
 20
0.000000
  9
$LIMMAX
 10
210.000000
 20
297.000000
  9
$VIEWCTR
 10
105.000000
 20
148.500000
  9
$VIEWSIZE
 40
297.000000
  9
$PEXTMIN
 10
0.000000
 20
0.000000
 30
0.000000
  9
$PEXTMAX
 10
210.000000
 20
297.000000
 30
0.000000
  9
$SNAPMODE
 70
     0
  9
$SNAPUNIT
 10
1.000000
 20
1.000000
  9
$SNAPBASE
 10
0.000000
 20
0.000000
  9
$SNAPANG
 50
0.000000
  9
$SNAPISOPAIR
 70
     0
  9
$SNAPSTYLE
 70
     0
  9
$GRIDMODE
 70
     0
  9
$GRIDUNIT
 10
0.000000
 20
0.000000
  9
$ORTHOMODE
 70
     0
  9
$REGENMODE
 70
     1
  9
$FILLMODE
 70
     1
  9
$QTEXTMODE
 70
     0
  9
$DRAGMODE
 70
     2
  9
$LTSCALE
 40
0.250000
  9
$OSMODE
 70
     0
  9
$ATTMODE
 70
     1
  9
$TEXTSIZE
 40
4.000000
  9
$TRACEWID
 40
0.050000
  9
$TEXTSTYLE
  7
STANDARD
  9
$CLAYER
  8
0
  9
$CELTYPE
  6
BYLAYER
  9
$CECOLOR
 62
   256
  9
$DIMSCALE
 40
1.000000
  9
$DIMASZ
 40
1.000000
  9
$DIMEXO
 40
0.000000
  9
$DIMDLI
 40
0.500000
  9
$DIMRND
 40
0.000000
  9
$DIMDLE
 40
0.000000
  9
$DIMEXE
 40
0.000000
  9
$DIMTP
 40
0.000000
  9
$DIMTM
 40
0.000000
  9
$DIMTXT
 40
4.000000
  9
$DIMCEN
 40
0.000000
  9
$DIMTSZ
 40
0.000000
  9
$DIMTOL
 70
     0
  9
$DIMLIM
 70
     0
  9
$DIMTIH
 70
     1
  9
$DIMTOH
 70
     1
  9
$DIMSE1
 70
     0
  9
$DIMSE2
 70
     0
  9
$DIMTAD
 70
     0
  9
$DIMZIN
 70
     0
  9
$DIMBLK
  1

  9
$DIMASO
 70
     0
  9
$DIMSHO
 70
     0
  9
$DIMPOST
  1

  9
$DIMAPOST
  1

  9
$DIMALT
 70
     0
  9
$DIMALTD
 70
     0
  9
$DIMALTF
 40
25.400000
  9
$DIMLFAC
 40
1.000000
  9
$DIMTOFL
 70
     0
  9
$DIMTVP
 40
0.000000
  9
$DIMTIX
 70
     0
  9
$DIMSOXD
 70
     0
  9
$DIMSAH
 70
     0
  9
$DIMBLKL
  1

  9
$DIMBLKR
  1

  9
$LUNITS
 70
     2
  9
$LUPREC
 70
     2
  9
$AXISMODE
 70
     0
  9
$AXISUNIT
 10
1.000000
 20
1.000000
  9
$SKETCHINC
 40
0.000000
  9
$FILLETRAD
 40
0.000000
  9
$AUNITS
 70
     1
  9
$AUPREC
 70
     2
  9
$MENU
  1
ACAD
  9
$ELEVATION
 40
0.000000
  9
$THICKNESS
 40
0.000000
  9
$VIEWDIR
 10
0.000000
 20
0.000000
 30
1.000000
  9
$LIMCHECK
 70
     1
  9
$BLIPMODE
 70
     1
  9
$CHAMFERA
 40
0.000000
  9
$CHAMFERB
 40
0.000000
  9
$FASTZOOM
 70
     1
  9
$SKPOLY
 70
     0
  9
$TDCREATE
 40
0.000000
  9
$TDUPDATE
 40
0.000000
  9
$TDINDWG
 40
0.000000
  9
$TDUSRTIMER
 40
0.000000
  9
$USRTIMER
 70
     1
  9
$ANGBASE
 50
0.000000
  9
$ANGDIR
 70
     0
  9
$PDMODE
 70
     0
  9
$PDSIZE
 40
0.000000
  9
$PLINEWID
 40
0.000000
  9
$COORDS
 70
     2
  9
$USERI1
 70
     0
  9
$USERI2
 70
     0
  9
$USERI3
 70
     0
  9
$USERI4
 70
     0
  9
$USERI5
 70
     0
  9
$USERR1
 40
0.000000
  9
$USERR2
 40
0.000000
  9
$USERR3
 40
0.000000
  9
$USERR4
 40
0.000000
  9
$USERR5
 40
0.000000
  0
ENDSEC
  0
SECTION
  2
TABLES
  0
TABLE
  2
LTYPE
 70
     5
  0
LTYPE
  2
CONTINUOUS
 70
    64
  3
Solid line
 72
    65
 73
     0
 40
0.0
  0
LTYPE
  2
HIDDEN
 70
    64
  3
------------------------
 72
    65
 73
     2
 40
12.6
 49
8.4
 49
-4.2
  0
LTYPE
  2
DOT
 70
    64
  3
････････････････････････
 72
    65
 73
     2
 40
8.0
 49
6.0
 49
-2.0
  0
LTYPE
  2
DASHDOT
 70
    64
  3
--･--･--･--･--･--･--･--
 72
    65
 73
     4
 40
50.5
 49
30.0
 49
-9.0
 49
2.5
 49
-9.0
  0
LTYPE
  2
DIVIDE
 70
    64
  3
--･･--･･--･･--･･--･･--
 72
    65
 73
     6
 40
58.0
 49
30.0
 49
-9.0
 49
2.5
 49
-5.0
 49
2.5
 49
-9.0
  0
LTYPE
  2
ACAD_ISO06W100
 70
    64
  3
____ ... ____ ... ____
 72
    65
 73
     8
 40
37.5
 49
24.0
 49
-3.0
 49
0.5
 49
-3.0
 49
0.5
 49
-3.0
 49
0.5
 49
-3.0
  0
LTYPE
  2
ACAD_ISO14W100
 70
    64
  3
__ . . . __ . . . __ . . . 
 72
    65
 73
     8
 40
25.5
 49
12.0
 49
-3.0
 49
0.5
 49
-3.0
 49
0.5
 49
-3.0
 49
0.5
 49
-3.0
  0
ENDTAB
  0
TABLE
  2
LAYER
 70
4
  0
LAYER
  2
1
 70
64
 62
7
  6
CONTINUOUS
  0
LAYER
  2
2
 70
64
 62
134
  6
CONTINUOUS
  0
LAYER
  2
4
 70
64
 62
54
  6
CONTINUOUS
  0
LAYER
  2
5
 70
64
 62
94
  6
CONTINUOUS
  0
ENDTAB
  0
TABLE
  2
STYLE
 70
     2
  0
STYLE
  2
STANDARD
 70
    64
 40
0.0
 41
1.0
 50
0.0
 71
     0
 42
0.2
  3
TXT
  4

  0
STYLE
  2
KANJI
 70
    64
 40
0.0
 41
1.0
 50
0.0
 71
     0
 42
0.2
  3
TXT
  4
BIGFONT
  0
ENDTAB
  0
TABLE
  2
VIEW
 70
     0
  0
ENDTAB
  0
ENDSEC
  0
SECTION
  2
BLOCKS
  0
BLOCK
  8
2
 62
134
  6
CONTINUOUS
  2
*D1
 70
    65
 10
0.0
 20
0.0
  0
LINE
  8
2
 62
134
  6
CONTINUOUS
 10
112.916564
 20
146.124408
 11
112.916564
 21
166.124408
  0
LINE
  8
2
 62
134
  6
CONTINUOUS
 10
113.916564
 20
146.124408
 11
110.070357
 21
146.124408
  0
LINE
  8
2
 62
134
  6
CONTINUOUS
 10
113.916564
 20
166.124408
 11
109.688998
 21
166.124408
  0
LINE
  8
2
 62
134
  6
CONTINUOUS
 10
112.916564
 20
146.124408
 11
112.398926
 21
148.056259
  0
LINE
  8
2
 62
134
  6
CONTINUOUS
 10
112.916564
 20
146.124408
 11
113.434202
 21
148.056259
  0
LINE
  8
2
 62
134
  6
CONTINUOUS
 10
112.398926
 20
148.056259
 11
113.434202
 21
148.056259
  0
LINE
  8
2
 62
134
  6
CONTINUOUS
 10
112.916564
 20
146.607370
 11
112.657745
 21
147.573296
  0
LINE
  8
2
 62
134
  6
CONTINUOUS
 10
112.916564
 20
146.607370
 11
113.175383
 21
147.573296
  0
LINE
  8
2
 62
134
  6
CONTINUOUS
 10
112.657745
 20
147.573296
 11
113.175383
 21
147.573296
  0
LINE
  8
2
 62
134
  6
CONTINUOUS
 10
112.916564
 20
166.124408
 11
113.434202
 21
164.192556
  0
LINE
  8
2
 62
134
  6
CONTINUOUS
 10
112.916564
 20
166.124408
 11
112.398926
 21
164.192556
  0
LINE
  8
2
 62
134
  6
CONTINUOUS
 10
113.434202
 20
164.192556
 11
112.398926
 21
164.192556
  0
LINE
  8
2
 62
134
  6
CONTINUOUS
 10
112.916564
 20
165.641445
 11
113.175383
 21
164.675519
  0
LINE
  8
2
 62
134
  6
CONTINUOUS
 10
112.916564
 20
165.641445
 11
112.657745
 21
164.675519
  0
LINE
  8
2
 62
134
  6
CONTINUOUS
 10
113.175383
 20
164.675519
 11
112.657745
 21
164.675519
  0
TEXT
  8
2
 62
134
  6
CONTINUOUS
 10
112.916564
 20
154.124408
 40
4.000000
 41
0.500000
  1
20
  7
KANJI
 50
90.000000
 51
0.000000
  0
ENDBLK
  0
BLOCK
  8
2
 62
134
  6
CONTINUOUS
  2
*D2
 70
    65
 10
0.0
 20
0.0
  0
LINE
  8
2
 62
134
  6
CONTINUOUS
 10
89.824903
 20
130.149555
 11
111.324903
 21
130.149555
  0
LINE
  8
2
 62
134
  6
CONTINUOUS
 10
97.824903
 20
129.149555
 11
97.824903
 21
135.927733
  0
LINE
  8
2
 62
134
  6
CONTINUOUS
 10
103.324903
 20
129.149555
 11
103.324903
 21
141.605016
  0
LINE
  8
2
 62
134
  6
CONTINUOUS
 10
97.824903
 20
130.149555
 11
95.893051
 21
129.631917
  0
LINE
  8
2
 62
134
  6
CONTINUOUS
 10
97.824903
 20
130.149555
 11
95.893051
 21
130.667193
  0
LINE
  8
2
 62
134
  6
CONTINUOUS
 10
95.893051
 20
129.631917
 11
95.893051
 21
130.667193
  0
LINE
  8
2
 62
134
  6
CONTINUOUS
 10
97.341940
 20
130.149555
 11
96.376014
 21
129.890736
  0
LINE
  8
2
 62
134
  6
CONTINUOUS
 10
97.341940
 20
130.149555
 11
96.376014
 21
130.408374
  0
LINE
  8
2
 62
134
  6
CONTINUOUS
 10
96.376014
 20
129.890736
 11
96.376014
 21
130.408374
  0
LINE
  8
2
 62
134
  6
CONTINUOUS
 10
103.324903
 20
130.149555
 11
105.256755
 21
130.667193
  0
LINE
  8
2
 62
134
  6
CONTINUOUS
 10
103.324903
 20
130.149555
 11
105.256755
 21
129.631917
  0
LINE
  8
2
 62
134
  6
CONTINUOUS
 10
105.256755
 20
130.667193
 11
105.256755
 21
129.631917
  0
LINE
  8
2
 62
134
  6
CONTINUOUS
 10
103.807866
 20
130.149555
 11
104.773792
 21
130.408374
  0
LINE
  8
2
 62
134
  6
CONTINUOUS
 10
103.807866
 20
130.149555
 11
104.773792
 21
129.890736
  0
LINE
  8
2
 62
134
  6
CONTINUOUS
 10
104.773792
 20
130.408374
 11
104.773792
 21
129.890736
  0
TEXT
  8
2
 62
134
  6
CONTINUOUS
 10
89.991883
 20
130.149555
 40
4.000000
 41
0.500000
  1
5.5
  7
KANJI
 50
0.000000
 51
0.000000
  0
ENDBLK
  0
BLOCK
  8
2
 62
134
  6
CONTINUOUS
  2
*D3
 70
    65
 10
0.0
 20
0.0
  0
LINE
  8
2
 62
134
  6
CONTINUOUS
 10
97.824903
 20
124.452883
 11
149.824903
 21
124.452883
  0
LINE
  8
2
 62
134
  6
CONTINUOUS
 10
97.824903
 20
123.452883
 11
97.824903
 21
135.927733
  0
LINE
  8
2
 62
134
  6
CONTINUOUS
 10
149.824903
 20
123.452883
 11
149.824903
 21
135.924407
  0
LINE
  8
2
 62
134
  6
CONTINUOUS
 10
97.824903
 20
124.452883
 11
99.756755
 21
124.970521
  0
LINE
  8
2
 62
134
  6
CONTINUOUS
 10
97.824903
 20
124.452883
 11
99.756755
 21
123.935245
  0
LINE
  8
2
 62
134
  6
CONTINUOUS
 10
99.756755
 20
124.970521
 11
99.756755
 21
123.935245
  0
LINE
  8
2
 62
134
  6
CONTINUOUS
 10
98.307866
 20
124.452883
 11
99.273792
 21
124.711702
  0
LINE
  8
2
 62
134
  6
CONTINUOUS
 10
98.307866
 20
124.452883
 11
99.273792
 21
124.194064
  0
LINE
  8
2
 62
134
  6
CONTINUOUS
 10
99.273792
 20
124.711702
 11
99.273792
 21
124.194064
  0
LINE
  8
2
 62
134
  6
CONTINUOUS
 10
149.824903
 20
124.452883
 11
147.893051
 21
123.935245
  0
LINE
  8
2
 62
134
  6
CONTINUOUS
 10
149.824903
 20
124.452883
 11
147.893051
 21
124.970521
  0
LINE
  8
2
 62
134
  6
CONTINUOUS
 10
147.893051
 20
123.935245
 11
147.893051
 21
124.970521
  0
LINE
  8
2
 62
134
  6
CONTINUOUS
 10
149.341940
 20
124.452883
 11
148.376014
 21
124.194064
  0
LINE
  8
2
 62
134
  6
CONTINUOUS
 10
149.341940
 20
124.452883
 11
148.376014
 21
124.711702
  0
LINE
  8
2
 62
134
  6
CONTINUOUS
 10
148.376014
 20
124.194064
 11
148.376014
 21
124.711702
  0
TEXT
  8
2
 62
134
  6
CONTINUOUS
 10
115.771533
 20
124.452883
 40
4.000000
 41
0.500000
  1
52
  7
KANJI
 50
0.000000
 51
0.000000
  0
ENDBLK
  0
BLOCK
  8
2
 62
134
  6
CONTINUOUS
  2
*D4
 70
    65
 10
0.0
 20
0.0
  0
LINE
  8
2
 62
134
  6
CONTINUOUS
 10
61.906746
 20
130.149555
 11
48.906746
 21
130.149555
  0
LINE
  8
2
 62
134
  6
CONTINUOUS
 10
61.906746
 20
129.149555
 11
61.906746
 21
136.927733
  0
LINE
  8
2
 62
134
  6
CONTINUOUS
 10
48.906746
 20
129.149555
 11
48.906746
 21
132.412512
  0
LINE
  8
2
 62
134
  6
CONTINUOUS
 10
61.906746
 20
130.149555
 11
59.974895
 21
129.631917
  0
LINE
  8
2
 62
134
  6
CONTINUOUS
 10
61.906746
 20
130.149555
 11
59.974895
 21
130.667193
  0
LINE
  8
2
 62
134
  6
CONTINUOUS
 10
59.974895
 20
129.631917
 11
59.974895
 21
130.667193
  0
LINE
  8
2
 62
134
  6
CONTINUOUS
 10
61.423783
 20
130.149555
 11
60.457858
 21
129.890736
  0
LINE
  8
2
 62
134
  6
CONTINUOUS
 10
61.423783
 20
130.149555
 11
60.457858
 21
130.408374
  0
LINE
  8
2
 62
134
  6
CONTINUOUS
 10
60.457858
 20
129.890736
 11
60.457858
 21
130.408374
  0
LINE
  8
2
 62
134
  6
CONTINUOUS
 10
48.906746
 20
130.149555
 11
50.838598
 21
130.667193
  0
LINE
  8
2
 62
134
  6
CONTINUOUS
 10
48.906746
 20
130.149555
 11
50.838598
 21
129.631917
  0
LINE
  8
2
 62
134
  6
CONTINUOUS
 10
50.838598
 20
130.667193
 11
50.838598
 21
129.631917
  0
LINE
  8
2
 62
134
  6
CONTINUOUS
 10
49.389709
 20
130.149555
 11
50.355635
 21
130.408374
  0
LINE
  8
2
 62
134
  6
CONTINUOUS
 10
49.389709
 20
130.149555
 11
50.355635
 21
129.890736
  0
LINE
  8
2
 62
134
  6
CONTINUOUS
 10
50.355635
 20
130.408374
 11
50.355635
 21
129.890736
  0
TEXT
  8
2
 62
134
  6
CONTINUOUS
 10
52.141778
 20
130.149555
 40
4.000000
 41
0.500000
  1
13
  7
KANJI
 50
0.000000
 51
0.000000
  0
ENDBLK
  0
BLOCK
  8
2
 62
134
  6
CONTINUOUS
  2
*D5
 70
    65
 10
0.0
 20
0.0
  0
LINE
  8
2
 62
134
  6
CONTINUOUS
 10
61.906746
 20
124.452883
 11
35.906746
 21
124.452883
  0
LINE
  8
2
 62
134
  6
CONTINUOUS
 10
61.906746
 20
123.452883
 11
61.906746
 21
136.927733
  0
LINE
  8
2
 62
134
  6
CONTINUOUS
 10
35.906746
 20
123.452883
 11
35.906746
 21
138.024408
  0
LINE
  8
2
 62
134
  6
CONTINUOUS
 10
61.906746
 20
124.452883
 11
59.974895
 21
123.935245
  0
LINE
  8
2
 62
134
  6
CONTINUOUS
 10
61.906746
 20
124.452883
 11
59.974895
 21
124.970521
  0
LINE
  8
2
 62
134
  6
CONTINUOUS
 10
59.974895
 20
123.935245
 11
59.974895
 21
124.970521
  0
LINE
  8
2
 62
134
  6
CONTINUOUS
 10
61.423783
 20
124.452883
 11
60.457858
 21
124.194064
  0
LINE
  8
2
 62
134
  6
CONTINUOUS
 10
61.423783
 20
124.452883
 11
60.457858
 21
124.711702
  0
LINE
  8
2
 62
134
  6
CONTINUOUS
 10
60.457858
 20
124.194064
 11
60.457858
 21
124.711702
  0
LINE
  8
2
 62
134
  6
CONTINUOUS
 10
35.906746
 20
124.452883
 11
37.838598
 21
124.970521
  0
LINE
  8
2
 62
134
  6
CONTINUOUS
 10
35.906746
 20
124.452883
 11
37.838598
 21
123.935245
  0
LINE
  8
2
 62
134
  6
CONTINUOUS
 10
37.838598
 20
124.970521
 11
37.838598
 21
123.935245
  0
LINE
  8
2
 62
134
  6
CONTINUOUS
 10
36.389709
 20
124.452883
 11
37.355635
 21
124.711702
  0
LINE
  8
2
 62
134
  6
CONTINUOUS
 10
36.389709
 20
124.452883
 11
37.355635
 21
124.194064
  0
LINE
  8
2
 62
134
  6
CONTINUOUS
 10
37.355635
 20
124.711702
 11
37.355635
 21
124.194064
  0
TEXT
  8
2
 62
134
  6
CONTINUOUS
 10
41.406746
 20
124.452883
 40
4.000000
 41
0.500000
  1
26
  7
KANJI
 50
0.000000
 51
0.000000
  0
ENDBLK
  0
BLOCK
  8
2
 62
134
  6
CONTINUOUS
  2
*D6
 70
    65
 10
0.0
 20
0.0
  0
LINE
  8
2
 62
134
  6
CONTINUOUS
 10
41.099890
 20
149.102798
 11
56.713603
 21
163.146017
  0
LINE
  8
2
 62
134
  6
CONTINUOUS
 10
41.099890
 20
149.102798
 11
42.190084
 21
150.779544
  0
LINE
  8
2
 62
134
  6
CONTINUOUS
 10
41.099890
 20
149.102798
 11
42.882399
 21
150.009806
  0
LINE
  8
2
 62
134
  6
CONTINUOUS
 10
42.190084
 20
150.779544
 11
42.882399
 21
150.009806
  0
LINE
  8
2
 62
134
  6
CONTINUOUS
 10
41.458978
 20
149.425768
 11
42.004075
 21
150.264141
  0
LINE
  8
2
 62
134
  6
CONTINUOUS
 10
41.458978
 20
149.425768
 11
42.350232
 21
149.879272
  0
LINE
  8
2
 62
134
  6
CONTINUOUS
 10
42.004075
 20
150.264141
 11
42.350232
 21
149.879272
  0
LINE
  8
2
 62
134
  6
CONTINUOUS
 10
56.713603
 20
163.146017
 11
55.623409
 21
161.469271
  0
LINE
  8
2
 62
134
  6
CONTINUOUS
 10
56.713603
 20
163.146017
 11
54.931094
 21
162.239009
  0
LINE
  8
2
 62
134
  6
CONTINUOUS
 10
55.623409
 20
161.469271
 11
54.931094
 21
162.239009
  0
LINE
  8
2
 62
134
  6
CONTINUOUS
 10
56.354515
 20
162.823047
 11
55.809418
 21
161.984674
  0
LINE
  8
2
 62
134
  6
CONTINUOUS
 10
56.354515
 20
162.823047
 11
55.463260
 21
162.369544
  0
LINE
  8
2
 62
134
  6
CONTINUOUS
 10
55.809418
 20
161.984674
 11
55.463260
 21
162.369544
  0
TEXT
  8
2
 62
134
  6
CONTINUOUS
 10
46.164479
 20
153.657970
 40
4.000000
 41
1.000000
  1
φ21ｱﾅ
  7
KANJI
 50
41.968711
 51
0.000000
  0
ENDBLK
  0
BLOCK
  8
2
 62
134
  6
CONTINUOUS
  2
*D7
 70
    65
 10
0.0
 20
0.0
  0
LINE
  8
2
 62
134
  6
CONTINUOUS
 10
91.626401
 20
136.927733
 11
91.626401
 21
175.324408
  0
LINE
  8
2
 62
134
  6
CONTINUOUS
 10
90.626401
 20
136.927733
 11
96.824903
 21
136.927733
  0
LINE
  8
2
 62
134
  6
CONTINUOUS
 10
90.626401
 20
175.324408
 11
96.824903
 21
175.324408
  0
LINE
  8
2
 62
134
  6
CONTINUOUS
 10
91.626401
 20
136.927733
 11
91.108763
 21
138.859584
  0
LINE
  8
2
 62
134
  6
CONTINUOUS
 10
91.626401
 20
136.927733
 11
92.144039
 21
138.859584
  0
LINE
  8
2
 62
134
  6
CONTINUOUS
 10
91.108763
 20
138.859584
 11
92.144039
 21
138.859584
  0
LINE
  8
2
 62
134
  6
CONTINUOUS
 10
91.626401
 20
137.410696
 11
91.367582
 21
138.376622
  0
LINE
  8
2
 62
134
  6
CONTINUOUS
 10
91.626401
 20
137.410696
 11
91.885220
 21
138.376622
  0
LINE
  8
2
 62
134
  6
CONTINUOUS
 10
91.367582
 20
138.376622
 11
91.885220
 21
138.376622
  0
LINE
  8
2
 62
134
  6
CONTINUOUS
 10
91.626401
 20
175.324408
 11
92.144039
 21
173.392556
  0
LINE
  8
2
 62
134
  6
CONTINUOUS
 10
91.626401
 20
175.324408
 11
91.108763
 21
173.392556
  0
LINE
  8
2
 62
134
  6
CONTINUOUS
 10
92.144039
 20
173.392556
 11
91.108763
 21
173.392556
  0
LINE
  8
2
 62
134
  6
CONTINUOUS
 10
91.626401
 20
174.841445
 11
91.885220
 21
173.875519
  0
LINE
  8
2
 62
134
  6
CONTINUOUS
 10
91.626401
 20
174.841445
 11
91.367582
 21
173.875519
  0
LINE
  8
2
 62
134
  6
CONTINUOUS
 10
91.885220
 20
173.875519
 11
91.367582
 21
173.875519
  0
TEXT
  8
2
 62
134
  6
CONTINUOUS
 10
91.626401
 20
146.624408
 40
4.000000
 41
0.500000
  1
38.4
  7
KANJI
 50
90.000000
 51
0.000000
  0
ENDBLK
  0
BLOCK
  8
2
 62
134
  6
CONTINUOUS
  2
*D8
 70
    65
 10
0.0
 20
0.0
  0
LINE
  8
2
 62
134
  6
CONTINUOUS
 10
84.961983
 20
136.127733
 11
84.961983
 21
176.124408
  0
LINE
  8
2
 62
134
  6
CONTINUOUS
 10
83.961983
 20
136.127733
 11
99.324903
 21
136.127733
  0
LINE
  8
2
 62
134
  6
CONTINUOUS
 10
83.961983
 20
176.124408
 11
99.324903
 21
176.124408
  0
LINE
  8
2
 62
134
  6
CONTINUOUS
 10
84.961983
 20
136.127733
 11
84.444345
 21
138.059584
  0
LINE
  8
2
 62
134
  6
CONTINUOUS
 10
84.961983
 20
136.127733
 11
85.479621
 21
138.059584
  0
LINE
  8
2
 62
134
  6
CONTINUOUS
 10
84.444345
 20
138.059584
 11
85.479621
 21
138.059584
  0
LINE
  8
2
 62
134
  6
CONTINUOUS
 10
84.961983
 20
136.610696
 11
84.703164
 21
137.576622
  0
LINE
  8
2
 62
134
  6
CONTINUOUS
 10
84.961983
 20
136.610696
 11
85.220802
 21
137.576622
  0
LINE
  8
2
 62
134
  6
CONTINUOUS
 10
84.703164
 20
137.576622
 11
85.220802
 21
137.576622
  0
LINE
  8
2
 62
134
  6
CONTINUOUS
 10
84.961983
 20
176.124408
 11
85.479621
 21
174.192556
  0
LINE
  8
2
 62
134
  6
CONTINUOUS
 10
84.961983
 20
176.124408
 11
84.444345
 21
174.192556
  0
LINE
  8
2
 62
134
  6
CONTINUOUS
 10
85.479621
 20
174.192556
 11
84.444345
 21
174.192556
  0
LINE
  8
2
 62
134
  6
CONTINUOUS
 10
84.961983
 20
175.641445
 11
85.220802
 21
174.675519
  0
LINE
  8
2
 62
134
  6
CONTINUOUS
 10
84.961983
 20
175.641445
 11
84.703164
 21
174.675519
  0
LINE
  8
2
 62
134
  6
CONTINUOUS
 10
85.220802
 20
174.675519
 11
84.703164
 21
174.675519
  0
TEXT
  8
2
 62
134
  6
CONTINUOUS
 10
84.961983
 20
148.624408
 40
4.000000
 41
0.500000
  1
40
  7
KANJI
 50
90.000000
 51
0.000000
  0
ENDBLK
  0
ENDSEC
  0
SECTION
  2
ENTITIES
  0
TEXT
  8
5
 62
94
  6
CONTINUOUS
 10
124.569383
 20
25.035376
 40
1.750000
 41
4.000000
  1
製図
  7
KANJI
 50
-90.000000
 51
0.000000
  0
TEXT
  8
5
 62
94
  6
CONTINUOUS
 10
144.402165
 20
24.871469
 40
1.750000
 41
4.000000
  1
図番
  7
KANJI
 50
-90.000000
 51
0.000000
  0
TEXT
  8
5
 62
94
  6
CONTINUOUS
 10
144.402165
 20
38.147959
 40
1.750000
 41
4.000000
  1
図　名
  7
KANJI
 50
-90.000000
 51
0.000000
  0
TEXT
  8
5
 62
94
  6
CONTINUOUS
 10
79.494880
 20
32.739019
 40
1.750000
 41
4.000000
  1
日付
  7
KANJI
 50
-90.000000
 51
0.000000
  0
TEXT
  8
5
 62
94
  6
CONTINUOUS
 10
114.571039
 20
32.902926
 40
1.750000
 41
4.000000
  1
図法
  7
KANJI
 50
-90.000000
 51
0.000000
  0
TEXT
  8
5
 62
94
  6
CONTINUOUS
 10
114.407132
 20
40.934383
 40
1.750000
 41
4.000000
  1
尺度
  7
KANJI
 50
-90.000000
 51
0.000000
  0
TEXT
  8
5
 62
94
  6
CONTINUOUS
 10
79.494880
 20
40.770476
 40
1.750000
 41
4.000000
  1
公差
  7
KANJI
 50
-90.000000
 51
0.000000
  0
TEXT
  8
5
 62
94
  6
CONTINUOUS
 10
79.494880
 20
24.871469
 40
1.750000
 41
4.000000
  1
承認
  7
KANJI
 50
-90.000000
 51
0.000000
  0
TEXT
  8
5
 62
94
  6
CONTINUOUS
 10
104.572695
 20
24.871469
 40
1.750000
 41
4.000000
  1
設計
  7
KANJI
 50
-90.000000
 51
0.000000
  0
TEXT
  8
5
 62
94
  6
CONTINUOUS
 10
98.016403
 20
10.939350
 40
4.500000
 41
1.888889
  1
ジャパンセンサー株式会社
  7
KANJI
 50
0.000000
 51
0.000000
  0
LINE
  8
5
 62
94
  6
CONTINUOUS
 10
78.606635
 20
41.383886
 11
198.606635
 21
41.383886
  0
LINE
  8
5
 62
94
  6
CONTINUOUS
 10
78.606635
 20
9.383886
 11
78.606635
 21
41.383886
  0
LINE
  8
5
 62
94
  6
CONTINUOUS
 10
198.606635
 20
17.383886
 11
78.606635
 21
17.383886
  0
LINE
  8
5
 62
94
  6
CONTINUOUS
 10
143.606635
 20
41.383886
 11
143.606635
 21
17.383886
  0
LINE
  8
5
 62
94
  6
CONTINUOUS
 10
198.606635
 20
25.383886
 11
78.606635
 21
25.383886
  0
LINE
  8
5
 62
94
  6
CONTINUOUS
 10
148.606635
 20
17.383886
 11
148.606635
 21
41.383886
  0
LINE
  8
5
 62
94
  6
CONTINUOUS
 10
118.606635
 20
41.383886
 11
118.606635
 21
25.383886
  0
LINE
  8
5
 62
94
  6
CONTINUOUS
 10
83.606635
 20
17.383886
 11
83.606635
 21
41.383886
  0
LINE
  8
5
 62
94
  6
CONTINUOUS
 10
78.606635
 20
33.383886
 11
143.606635
 21
33.383886
  0
LINE
  8
5
 62
94
  6
CONTINUOUS
 10
113.606635
 20
41.383886
 11
113.606635
 21
25.383886
  0
LINE
  8
5
 62
94
  6
CONTINUOUS
 10
103.606635
 20
17.383886
 11
103.606635
 21
25.383886
  0
LINE
  8
5
 62
94
  6
CONTINUOUS
 10
123.606635
 20
17.383886
 11
123.606635
 21
25.383886
  0
LINE
  8
5
 62
94
  6
CONTINUOUS
 10
108.606635
 20
25.383886
 11
108.606635
 21
17.383886
  0
LINE
  8
5
 62
94
  6
CONTINUOUS
 10
128.606635
 20
25.383886
 11
128.606635
 21
17.383886
  0
TEXT
  8
5
 62
94
  6
CONTINUOUS
 10
122.602496
 20
26.674449
 40
4.000000
 41
1.000000
  1
三角法
  7
KANJI
 50
0.000000
 51
0.000000
  0
LINE
  8
5
 62
94
  6
CONTINUOUS
 10
151.250336
 20
33.354359
 11
195.391084
 21
33.354359
  0
TEXT
  8
5
 62
94
  6
CONTINUOUS
 10
111.786753
 20
19.322863
 40
4.000000
 41
1.000000
  1
須藤
  7
KANJI
 50
0.000000
 51
0.000000
  0
TEXT
  8
5
 62
94
  6
CONTINUOUS
 10
131.786753
 20
19.322863
 40
4.000000
 41
1.000000
  1
須藤
  7
KANJI
 50
0.000000
 51
0.000000
  0
LINE
  8
5
 62
94
  6
CONTINUOUS
 10
13.606635
 20
284.383886
 11
13.606635
 21
9.383886
  0
LINE
  8
5
 62
94
  6
CONTINUOUS
 10
13.606635
 20
9.383886
 11
198.606635
 21
9.383886
  0
LINE
  8
5
 62
94
  6
CONTINUOUS
 10
198.606635
 20
9.383886
 11
198.606635
 21
284.383886
  0
LINE
  8
5
 62
94
  6
CONTINUOUS
 10
198.606635
 20
284.383886
 11
13.606635
 21
284.383886
  0
TEXT
  8
5
 62
94
  6
CONTINUOUS
 10
153.760346
 20
35.377284
 40
4.000000
 41
1.000000
  1
ＴＭＳＸ－Ａ
  7
KANJI
 50
0.000000
 51
0.000000
  0
TEXT
  8
5
 62
94
  6
CONTINUOUS
 10
151.528628
 20
27.235829
 40
4.000000
 41
1.000000
  1
ｼｰﾙﾄﾞｹｰｽA  外形図
  7
KANJI
 50
0.000000
 51
0.000000
  0
TEXT
  8
5
 62
94
  6
CONTINUOUS
 10
88.693249
 20
27.215579
 40
4.000000
 41
0.500000
  1
2013/04/17
  7
KANJI
 50
0.000000
 51
0.000000
  0
LINE
  8
1
 62
7
  6
DASHDOT
 10
101.824903
 20
170.621919
 11
101.824903
 21
178.205254
  0
LINE
  8
1
 62
7
  6
DASHDOT
 10
101.824903
 20
141.626896
 11
101.824903
 21
133.943561
  0
LINE
  8
1
 62
7
  6
DASHDOT
 10
145.824903
 20
132.293241
 11
145.824903
 21
142.594593
  0
LINE
  8
1
 62
7
  6
DASHDOT
 10
145.824903
 20
168.373290
 11
145.824903
 21
178.574642
  0
LINE
  8
1
 62
7
  6
DASHDOT
 10
90.620614
 20
156.124408
 11
154.431889
 21
156.124408
  0
LINE
  8
1
 62
7
  6
CONTINUOUS
 10
149.824903
 20
175.324408
 11
149.824903
 21
136.924407
  0
LINE
  8
1
 62
7
  6
DOT
 10
98.824903
 20
174.321082
 11
149.824903
 21
174.321082
  0
LINE
  8
1
 62
7
  6
DOT
 10
98.824903
 20
137.931058
 11
149.824903
 21
137.931058
  0
LINE
  8
1
 62
7
  6
CONTINUOUS
 10
149.824903
 20
136.927733
 11
97.824903
 21
136.927733
  0
LINE
  8
1
 62
7
  6
CONTINUOUS
 10
97.824903
 20
136.927733
 11
97.824903
 21
175.324408
  0
LINE
  8
1
 62
7
  6
CONTINUOUS
 10
149.824903
 20
175.324408
 11
97.824903
 21
175.324408
  0
LINE
  8
1
 62
7
  6
DOT
 10
98.824903
 20
136.927733
 11
98.824903
 21
175.324408
  0
LINE
  8
1
 62
7
  6
DOT
 10
97.824903
 20
145.624408
 11
98.824903
 21
145.624408
  0
LINE
  8
1
 62
7
  6
DOT
 10
97.824903
 20
166.624408
 11
98.824903
 21
166.624408
  0
LINE
  8
1
 62
7
  6
DASHDOT
 10
101.824903
 20
222.307155
 11
101.824903
 21
213.743056
  0
LINE
  8
1
 62
7
  6
DOT
 10
98.824903
 20
206.081492
 11
149.824903
 21
206.081492
  0
LINE
  8
1
 62
7
  6
DASHDOT
 10
145.824903
 20
222.224808
 11
145.824903
 21
214.401833
  0
LINE
  8
1
 62
7
  6
DASHDOT
 10
90.620614
 20
218.081492
 11
153.254241
 21
218.081492
  0
LINE
  8
1
 62
7
  6
CONTINUOUS
 10
98.824903
 20
205.081492
 11
149.824903
 21
205.081492
  0
ARC
  8
1
 62
7
  6
CONTINUOUS
 10
98.824903
 20
206.081492
 40
1.000000
 50
-180.000000
 51
-90.000000
  0
LINE
  8
1
 62
7
  6
DOT
 10
98.824903
 20
230.581492
 11
98.824903
 21
206.081492
  0
LINE
  8
1
 62
7
  6
CONTINUOUS
 10
149.824903
 20
205.081492
 11
149.824903
 21
230.581492
  0
LINE
  8
1
 62
7
  6
CONTINUOUS
 10
149.824903
 20
230.581492
 11
97.824903
 21
230.581492
  0
LINE
  8
1
 62
7
  6
CONTINUOUS
 10
97.824903
 20
230.581492
 11
97.824903
 21
206.081492
  0
LINE
  8
1
 62
7
  6
DOT
 10
97.824903
 20
207.581492
 11
98.824903
 21
207.581492
  0
LINE
  8
1
 62
7
  6
DOT
 10
97.824903
 20
228.581492
 11
98.824903
 21
228.581492
  0
CIRCLE
  8
1
 62
7
  6
CONTINUOUS
 10
103.324903
 20
166.124408
 40
3.100000
  0
LINE
  8
1
 62
7
  6
DASHDOT
 10
103.324903
 20
160.383265
 11
103.324903
 21
170.584617
  0
CIRCLE
  8
1
 62
7
  6
CONTINUOUS
 10
103.324903
 20
146.124408
 40
3.100000
  0
LINE
  8
1
 62
7
  6
DASHDOT
 10
103.324903
 20
150.978427
 11
103.324903
 21
142.605016
  0
LINE
  8
1
 62
7
  6
DASHDOT
 10
98.582985
 20
146.124408
 11
109.070357
 21
146.124408
  0
LINE
  8
1
 62
7
  6
DASHDOT
 10
100.296966
 20
166.124408
 11
108.688998
 21
166.124408
  0
LINE
  8
1
 62
7
  6
DASHDOT
 10
103.324903
 20
209.307155
 11
103.324903
 21
200.743056
  0
LINE
  8
1
 62
7
  6
CONTINUOUS
 10
104.224903
 20
175.324408
 11
99.424903
 21
175.324408
  0
LINE
  8
1
 62
7
  6
CONTINUOUS
 10
99.424903
 20
175.324408
 11
99.424903
 21
175.924408
  0
LINE
  8
1
 62
7
  6
CONTINUOUS
 10
99.424903
 20
175.924408
 11
104.224903
 21
175.924408
  0
LINE
  8
1
 62
7
  6
CONTINUOUS
 10
104.224903
 20
175.924408
 11
104.224903
 21
175.324408
  0
LINE
  8
1
 62
7
  6
CONTINUOUS
 10
100.324903
 20
175.924408
 11
103.324903
 21
175.924408
  0
LINE
  8
1
 62
7
  6
CONTINUOUS
 10
103.324903
 20
175.924408
 11
103.324903
 21
176.124408
  0
LINE
  8
1
 62
7
  6
CONTINUOUS
 10
103.324903
 20
176.124408
 11
100.324903
 21
176.124408
  0
LINE
  8
1
 62
7
  6
CONTINUOUS
 10
100.324903
 20
176.124408
 11
100.324903
 21
175.924408
  0
LINE
  8
1
 62
7
  6
DASHDOT
 10
101.824903
 20
173.834091
 11
101.824903
 21
177.046725
  0
LINE
  8
1
 62
7
  6
CONTINUOUS
 10
148.224903
 20
175.324408
 11
143.424903
 21
175.324408
  0
LINE
  8
1
 62
7
  6
CONTINUOUS
 10
143.424903
 20
175.324408
 11
143.424903
 21
175.924408
  0
LINE
  8
1
 62
7
  6
CONTINUOUS
 10
143.424903
 20
175.924408
 11
148.224903
 21
175.924408
  0
LINE
  8
1
 62
7
  6
CONTINUOUS
 10
148.224903
 20
175.924408
 11
148.224903
 21
175.324408
  0
LINE
  8
1
 62
7
  6
CONTINUOUS
 10
144.324903
 20
175.924408
 11
147.324903
 21
175.924408
  0
LINE
  8
1
 62
7
  6
CONTINUOUS
 10
147.324903
 20
175.924408
 11
147.324903
 21
176.124408
  0
LINE
  8
1
 62
7
  6
CONTINUOUS
 10
147.324903
 20
176.124408
 11
144.324903
 21
176.124408
  0
LINE
  8
1
 62
7
  6
CONTINUOUS
 10
144.324903
 20
176.124408
 11
144.324903
 21
175.924408
  0
LINE
  8
1
 62
7
  6
DASHDOT
 10
145.824903
 20
173.834091
 11
145.824903
 21
177.046725
  0
LINE
  8
1
 62
7
  6
CONTINUOUS
 10
99.424903
 20
136.927733
 11
104.224903
 21
136.927733
  0
LINE
  8
1
 62
7
  6
CONTINUOUS
 10
104.224903
 20
136.927733
 11
104.224903
 21
136.327733
  0
LINE
  8
1
 62
7
  6
CONTINUOUS
 10
104.224903
 20
136.327733
 11
99.424903
 21
136.327733
  0
LINE
  8
1
 62
7
  6
CONTINUOUS
 10
99.424903
 20
136.327733
 11
99.424903
 21
136.927733
  0
LINE
  8
1
 62
7
  6
CONTINUOUS
 10
103.324903
 20
136.327733
 11
100.324903
 21
136.327733
  0
LINE
  8
1
 62
7
  6
CONTINUOUS
 10
100.324903
 20
136.327733
 11
100.324903
 21
136.127733
  0
LINE
  8
1
 62
7
  6
CONTINUOUS
 10
100.324903
 20
136.127733
 11
103.324903
 21
136.127733
  0
LINE
  8
1
 62
7
  6
CONTINUOUS
 10
103.324903
 20
136.127733
 11
103.324903
 21
136.327733
  0
LINE
  8
1
 62
7
  6
DASHDOT
 10
101.824903
 20
138.418049
 11
101.824903
 21
135.205415
  0
LINE
  8
1
 62
7
  6
CONTINUOUS
 10
143.424903
 20
136.927733
 11
148.224903
 21
136.927733
  0
LINE
  8
1
 62
7
  6
CONTINUOUS
 10
148.224903
 20
136.927733
 11
148.224903
 21
136.327733
  0
LINE
  8
1
 62
7
  6
CONTINUOUS
 10
148.224903
 20
136.327733
 11
143.424903
 21
136.327733
  0
LINE
  8
1
 62
7
  6
CONTINUOUS
 10
143.424903
 20
136.327733
 11
143.424903
 21
136.927733
  0
LINE
  8
1
 62
7
  6
CONTINUOUS
 10
147.324903
 20
136.327733
 11
144.324903
 21
136.327733
  0
LINE
  8
1
 62
7
  6
CONTINUOUS
 10
144.324903
 20
136.327733
 11
144.324903
 21
136.127733
  0
LINE
  8
1
 62
7
  6
CONTINUOUS
 10
144.324903
 20
136.127733
 11
147.324903
 21
136.127733
  0
LINE
  8
1
 62
7
  6
CONTINUOUS
 10
147.324903
 20
136.127733
 11
147.324903
 21
136.327733
  0
LINE
  8
1
 62
7
  6
DASHDOT
 10
145.824903
 20
138.418049
 11
145.824903
 21
135.205415
  0
LINE
  8
1
 62
7
  6
DOT
 10
99.024903
 20
230.081492
 11
149.824903
 21
230.081492
  0
LINE
  8
1
 62
7
  6
CONTINUOUS
 10
98.824903
 20
231.081492
 11
98.824903
 21
230.581492
  0
LINE
  8
1
 62
7
  6
CONTINUOUS
 10
98.824903
 20
231.081492
 11
149.824903
 21
231.081492
  0
LINE
  8
1
 62
7
  6
CONTINUOUS
 10
149.824903
 20
230.581492
 11
149.824903
 21
231.081492
  0
LINE
  8
1
 62
7
  6
DOT
 10
99.824903
 20
208.106084
 11
148.823643
 21
208.079774
  0
LINE
  8
1
 62
7
  6
DOT
 10
148.823643
 20
208.079774
 11
149.824903
 21
209.054242
  0
LINE
  8
1
 62
7
  6
DOT
 10
98.824903
 20
209.106084
 11
99.824903
 21
208.106084
  0
LINE
  8
1
 62
7
  6
DASHDOT
 10
103.324903
 20
233.743297
 11
103.324903
 21
228.081492
  0
CIRCLE
  8
1
 62
7
  6
CONTINUOUS
 10
101.824903
 20
218.081492
 40
2.400000
  0
CIRCLE
  8
1
 62
7
  6
CONTINUOUS
 10
101.824903
 20
218.081492
 40
1.063535
  0
LINE
  8
1
 62
7
  6
CONTINUOUS
 10
101.824903
 20
218.621492
 11
101.357249
 21
218.351492
  0
LINE
  8
1
 62
7
  6
CONTINUOUS
 10
101.357249
 20
218.351492
 11
101.357249
 21
217.811492
  0
LINE
  8
1
 62
7
  6
CONTINUOUS
 10
101.357249
 20
217.811492
 11
101.824903
 21
217.541492
  0
LINE
  8
1
 62
7
  6
CONTINUOUS
 10
101.824903
 20
217.541492
 11
102.292557
 21
217.811492
  0
LINE
  8
1
 62
7
  6
CONTINUOUS
 10
102.292557
 20
217.811492
 11
102.292557
 21
218.351492
  0
LINE
  8
1
 62
7
  6
CONTINUOUS
 10
102.292557
 20
218.351492
 11
101.824903
 21
218.621492
  0
CIRCLE
  8
1
 62
7
  6
CONTINUOUS
 10
145.824903
 20
218.081492
 40
2.400000
  0
CIRCLE
  8
1
 62
7
  6
CONTINUOUS
 10
145.824903
 20
218.081492
 40
1.063535
  0
LINE
  8
1
 62
7
  6
CONTINUOUS
 10
145.824903
 20
218.621492
 11
145.357249
 21
218.351492
  0
LINE
  8
1
 62
7
  6
CONTINUOUS
 10
145.357249
 20
218.351492
 11
145.357249
 21
217.811492
  0
LINE
  8
1
 62
7
  6
CONTINUOUS
 10
145.357249
 20
217.811492
 11
145.824903
 21
217.541492
  0
LINE
  8
1
 62
7
  6
CONTINUOUS
 10
145.824903
 20
217.541492
 11
146.292557
 21
217.811492
  0
LINE
  8
1
 62
7
  6
CONTINUOUS
 10
146.292557
 20
217.811492
 11
146.292557
 21
218.351492
  0
LINE
  8
1
 62
7
  6
CONTINUOUS
 10
146.292557
 20
218.351492
 11
145.824903
 21
218.621492
  0
DIMENSION
  8
2
 62
134
  6
CONTINUOUS
  2
*D1
 10
112.916564
 20
146.124408
 11
112.916564
 21
156.124408
 70
     0
  1
20
 13
110.070357
 23
146.124408
 14
109.688998
 24
166.124408
 50
90.000000
  0
DIMENSION
  8
2
 62
134
  6
CONTINUOUS
  2
*D2
 10
97.824903
 20
130.149555
 11
92.991883
 21
130.149555
 70
     0
  1
5.5
 13
97.824903
 23
135.927733
 14
103.324903
 24
141.605016
 50
0.000000
  0
DIMENSION
  8
2
 62
134
  6
CONTINUOUS
  2
*D3
 10
97.824903
 20
124.452883
 11
123.271533
 21
124.452883
 70
     0
  1
52
 13
97.824903
 23
135.927733
 14
149.824903
 24
135.924407
 50
0.000000
  0
TEXT
  8
2
 62
134
  6
CONTINUOUS
 10
120.771533
 20
124.452883
 40
4.000000
 41
1.000000
  1
±0.5
  7
KANJI
 50
0.000000
 51
0.000000
  0
TEXT
  8
5
 62
94
  6
CONTINUOUS
 10
125.233604
 20
35.108296
 40
4.000000
 41
1.000000
  1
１／１
  7
KANJI
 50
0.000000
 51
0.000000
  0
TEXT
  8
5
 62
94
  6
CONTINUOUS
 10
150.033506
 20
19.322863
 40
4.000000
 41
1.000000
  1
００５－０６５－Ａ１３１
  7
KANJI
 50
0.000000
 51
0.000000
  0
LINE
  8
4
 62
54
  6
DOT
 10
75.324903
 20
146.624407
 11
75.324903
 21
165.624407
  0
LINE
  8
4
 62
54
  6
DOT
 10
75.840577
 20
146.124407
 11
75.840577
 21
166.124407
  0
LINE
  8
4
 62
54
  6
DOT
 10
98.823941
 20
146.124407
 11
98.823941
 21
166.124407
  0
LINE
  8
4
 62
54
  6
DOT
 10
75.824903
 20
146.124407
 11
98.823941
 21
146.124407
  0
LINE
  8
4
 62
54
  6
DOT
 10
75.324903
 20
146.624407
 11
75.824903
 21
146.124407
  0
LINE
  8
4
 62
54
  6
DOT
 10
99.323969
 20
146.624407
 11
98.823941
 21
146.124407
  0
LINE
  8
4
 62
54
  6
DOT
 10
75.824903
 20
166.124407
 11
98.823941
 21
166.124407
  0
LINE
  8
4
 62
54
  6
DOT
 10
75.324903
 20
165.624407
 11
75.824903
 21
166.124407
  0
LINE
  8
4
 62
54
  6
DOT
 10
98.823941
 20
166.124407
 11
99.323969
 21
165.624407
  0
ARC
  8
1
 62
7
  6
CONTINUOUS
 10
60.906746
 20
174.321082
 40
1.000000
 50
0.000000
 51
90.000000
  0
ARC
  8
1
 62
7
  6
CONTINUOUS
 10
60.906746
 20
137.927733
 40
1.000000
 50
-90.000000
 51
0.000000
  0
LINE
  8
1
 62
7
  6
CONTINUOUS
 10
61.906746
 20
174.321082
 11
61.906746
 21
137.927733
  0
LINE
  8
1
 62
7
  6
CONTINUOUS
 10
36.406746
 20
174.321082
 11
36.406746
 21
175.321082
  0
LINE
  8
1
 62
7
  6
CONTINUOUS
 10
36.406746
 20
137.927733
 11
36.406746
 21
136.927733
  0
LINE
  8
1
 62
7
  6
DASHDOT
 10
35.094112
 20
156.124408
 11
72.010984
 21
156.124408
  0
LINE
  8
1
 62
7
  6
DOT
 10
36.406746
 20
174.321082
 11
60.906746
 21
174.321082
  0
LINE
  8
1
 62
7
  6
CONTINUOUS
 10
36.406746
 20
175.321082
 11
60.906746
 21
175.321082
  0
LINE
  8
1
 62
7
  6
CONTINUOUS
 10
36.406746
 20
136.927733
 11
60.906746
 21
136.927733
  0
LINE
  8
1
 62
7
  6
CONTINUOUS
 10
36.406746
 20
167.124408
 11
36.406746
 21
174.321082
  0
LINE
  8
1
 62
7
  6
CONTINUOUS
 10
36.406746
 20
139.024408
 11
36.406746
 21
145.124408
  0
CIRCLE
  8
1
 62
7
  6
CONTINUOUS
 10
48.906746
 20
156.124408
 40
10.500000
  0
LINE
  8
1
 62
7
  6
CONTINUOUS
 10
36.406746
 20
137.927733
 11
36.406746
 21
136.924407
  0
LINE
  8
1
 62
7
  6
CONTINUOUS
 10
36.406746
 20
174.321082
 11
36.406746
 21
137.927733
  0
LINE
  8
1
 62
7
  6
DASHDOT
 10
48.906746
 20
179.645349
 11
48.906746
 21
133.412512
  0
LINE
  8
1
 62
7
  6
DOT
 10
36.406746
 20
137.927733
 11
60.906746
 21
137.927733
  0
LINE
  8
1
 62
7
  6
DOT
 10
60.906746
 20
175.321082
 11
60.906746
 21
136.927733
  0
LINE
  8
1
 62
7
  6
CONTINUOUS
 10
51.306746
 20
175.321082
 11
46.506746
 21
175.321082
  0
LINE
  8
1
 62
7
  6
CONTINUOUS
 10
46.506746
 20
175.321082
 11
46.506746
 21
175.921082
  0
LINE
  8
1
 62
7
  6
CONTINUOUS
 10
46.506746
 20
175.921082
 11
51.306746
 21
175.921082
  0
LINE
  8
1
 62
7
  6
CONTINUOUS
 10
51.306746
 20
175.921082
 11
51.306746
 21
175.321082
  0
LINE
  8
1
 62
7
  6
CONTINUOUS
 10
47.406746
 20
175.921082
 11
50.406746
 21
175.921082
  0
LINE
  8
1
 62
7
  6
CONTINUOUS
 10
50.406746
 20
175.921082
 11
50.406746
 21
176.121082
  0
LINE
  8
1
 62
7
  6
CONTINUOUS
 10
50.406746
 20
176.121082
 11
47.406746
 21
176.121082
  0
LINE
  8
1
 62
7
  6
CONTINUOUS
 10
47.406746
 20
176.121082
 11
47.406746
 21
175.921082
  0
LINE
  8
1
 62
7
  6
DASHDOT
 10
48.906746
 20
173.830766
 11
48.906746
 21
177.043400
  0
LINE
  8
1
 62
7
  6
CONTINUOUS
 10
46.506746
 20
136.927733
 11
51.306746
 21
136.927733
  0
LINE
  8
1
 62
7
  6
CONTINUOUS
 10
51.306746
 20
136.927733
 11
51.306746
 21
136.327733
  0
LINE
  8
1
 62
7
  6
CONTINUOUS
 10
51.306746
 20
136.327733
 11
46.506746
 21
136.327733
  0
LINE
  8
1
 62
7
  6
CONTINUOUS
 10
46.506746
 20
136.327733
 11
46.506746
 21
136.927733
  0
LINE
  8
1
 62
7
  6
CONTINUOUS
 10
50.406746
 20
136.327733
 11
47.406746
 21
136.327733
  0
LINE
  8
1
 62
7
  6
CONTINUOUS
 10
47.406746
 20
136.327733
 11
47.406746
 21
136.127733
  0
LINE
  8
1
 62
7
  6
CONTINUOUS
 10
47.406746
 20
136.127733
 11
50.406746
 21
136.127733
  0
LINE
  8
1
 62
7
  6
CONTINUOUS
 10
50.406746
 20
136.127733
 11
50.406746
 21
136.327733
  0
LINE
  8
1
 62
7
  6
DASHDOT
 10
48.906746
 20
138.418049
 11
48.906746
 21
135.205415
  0
LINE
  8
1
 62
7
  6
DOT
 10
36.906746
 20
139.024408
 11
58.906746
 21
139.024408
  0
LINE
  8
1
 62
7
  6
DOT
 10
58.906746
 20
139.024408
 11
58.906746
 21
138.024408
  0
LINE
  8
1
 62
7
  6
DOT
 10
36.906746
 20
173.224408
 11
58.906746
 21
173.224408
  0
LINE
  8
1
 62
7
  6
DOT
 10
58.906746
 20
173.224408
 11
58.906746
 21
174.224408
  0
LINE
  8
1
 62
7
  6
CONTINUOUS
 10
35.906746
 20
173.224408
 11
35.906746
 21
139.024408
  0
ARC
  8
1
 62
7
  6
CONTINUOUS
 10
36.906746
 20
173.224408
 40
1.000000
 50
90.000000
 51
180.000000
  0
ARC
  8
1
 62
7
  6
CONTINUOUS
 10
36.906746
 20
139.024408
 40
1.000000
 50
180.000000
 51
-90.000000
  0
DIMENSION
  8
2
 62
134
  6
CONTINUOUS
  2
*D4
 10
61.906746
 20
130.149555
 11
54.141778
 21
130.149555
 70
     0
  1
13
 13
61.906746
 23
136.927733
 14
48.906746
 24
132.412512
 50
180.000000
  0
DIMENSION
  8
2
 62
134
  6
CONTINUOUS
  2
*D5
 10
61.906746
 20
124.452883
 11
48.906746
 21
124.452883
 70
     0
  1
26
 13
61.906746
 23
136.927733
 14
35.906746
 24
138.024408
 50
180.000000
  0
TEXT
  8
2
 62
134
  6
CONTINUOUS
 10
46.406746
 20
124.452883
 40
4.000000
 41
1.000000
  1
±0.5
  7
KANJI
 50
0.000000
 51
0.000000
  0
DIMENSION
  8
2
 62
134
  6
CONTINUOUS
  2
*D6
 10
41.099890
 20
149.102798
 11
50.625540
 21
157.670318
 70
     3
  1
φ21ｱﾅ
 13
41.099890
 23
149.102798
 14
56.713603
 24
163.146017
 15
56.713603
 25
163.146017
  0
DIMENSION
  8
2
 62
134
  6
CONTINUOUS
  2
*D7
 10
91.626401
 20
136.927733
 11
91.626401
 21
156.124408
 70
     0
  1
38.4
 13
96.824903
 23
136.927733
 14
96.824903
 24
175.324408
 50
90.000000
  0
TEXT
  8
2
 62
134
  6
CONTINUOUS
 10
91.626401
 20
155.624408
 40
4.000000
 41
1.000000
  1
±0.5
  7
KANJI
 50
90.000000
 51
0.000000
  0
DIMENSION
  8
2
 62
134
  6
CONTINUOUS
  2
*D8
 10
84.961983
 20
136.127733
 11
84.961983
 21
156.124408
 70
     0
  1
40
 13
99.324903
 23
136.127733
 14
99.324903
 24
176.124408
 50
90.000000
  0
TEXT
  8
2
 62
134
  6
CONTINUOUS
 10
84.961983
 20
153.624408
 40
4.000000
 41
1.000000
  1
±0.5
  7
KANJI
 50
90.000000
 51
0.000000
  0
LINE
  8
2
 62
134
  6
CONTINUOUS
 10
129.143516
 20
166.604293
 11
141.197454
 21
182.985285
  0
LINE
  8
2
 62
134
  6
CONTINUOUS
 10
141.197454
 20
182.985285
 11
155.692531
 21
182.985285
  0
TEXT
  8
2
 62
134
  6
CONTINUOUS
 10
141.692531
 20
183.062554
 40
4.000000
 41
0.500000
  1
ｾﾝｻﾍｯﾄﾞ
  7
KANJI
 50
0.000000
 51
0.000000
  0
LINE
  8
2
 62
134
  6
CONTINUOUS
 10
129.143516
 20
166.604293
 11
129.871562
 21
168.467073
  0
LINE
  8
2
 62
134
  6
CONTINUOUS
 10
129.143516
 20
166.604293
 11
130.705412
 21
167.853485
  0
LINE
  8
2
 62
134
  6
CONTINUOUS
 10
129.871562
 20
168.467073
 11
130.705412
 21
167.853485
  0
LINE
  8
2
 62
134
  6
CONTINUOUS
 10
129.429759
 20
166.993289
 11
129.793782
 21
167.924679
  0
LINE
  8
2
 62
134
  6
CONTINUOUS
 10
129.429759
 20
166.993289
 11
130.210707
 21
167.617885
  0
LINE
  8
2
 62
134
  6
CONTINUOUS
 10
129.793782
 20
167.924679
 11
130.210707
 21
167.617885
  0
TEXT
  8
2
 62
134
  6
CONTINUOUS
 10
116.007815
 20
177.731005
 40
4.000000
 41
1.000000
  1
2-φ6.2ｱﾅ
  7
KANJI
 50
0.000000
 51
0.000000
  0
LINE
  8
2
 62
134
  6
CONTINUOUS
 10
105.368225
 20
168.455681
 11
115.988263
 21
181.868582
  0
LINE
  8
2
 62
134
  6
CONTINUOUS
 10
115.988263
 20
181.868582
 11
129.811967
 21
181.868582
  0
TEXT
  8
2
 62
134
  6
CONTINUOUS
 10
117.811967
 20
181.958098
 40
4.000000
 41
1.000000
  1
取付ｱﾅ
  7
KANJI
 50
0.000000
 51
0.000000
  0
LINE
  8
2
 62
134
  6
CONTINUOUS
 10
105.368225
 20
168.455681
 11
106.161604
 21
170.291586
  0
LINE
  8
2
 62
134
  6
CONTINUOUS
 10
105.368225
 20
168.455681
 11
106.973264
 21
169.648932
  0
LINE
  8
2
 62
134
  6
CONTINUOUS
 10
106.161604
 20
170.291586
 11
106.973264
 21
169.648932
  0
LINE
  8
2
 62
134
  6
CONTINUOUS
 10
105.668027
 20
168.834325
 11
106.064717
 21
169.752278
  0
LINE
  8
2
 62
134
  6
CONTINUOUS
 10
105.668027
 20
168.834325
 11
106.470547
 21
169.430951
  0
LINE
  8
2
 62
134
  6
CONTINUOUS
 10
106.064717
 20
169.752278
 11
106.470547
 21
169.430951
  0
LINE
  8
4
 62
54
  6
DOT
 10
75.324903
 20
208.581492
 11
75.324903
 21
227.581492
  0
LINE
  8
4
 62
54
  6
DOT
 10
75.840577
 20
208.081492
 11
75.840577
 21
228.081492
  0
LINE
  8
4
 62
54
  6
DOT
 10
98.823941
 20
208.081492
 11
98.823941
 21
228.081492
  0
LINE
  8
4
 62
54
  6
DOT
 10
75.824903
 20
208.081492
 11
98.823941
 21
208.081492
  0
LINE
  8
4
 62
54
  6
DOT
 10
75.324903
 20
208.581492
 11
75.824903
 21
208.081492
  0
LINE
  8
4
 62
54
  6
DOT
 10
99.323969
 20
208.581492
 11
98.823941
 21
208.081492
  0
LINE
  8
4
 62
54
  6
DOT
 10
75.824903
 20
228.081492
 11
98.823941
 21
228.081492
  0
LINE
  8
4
 62
54
  6
DOT
 10
75.324903
 20
227.581492
 11
75.824903
 21
228.081492
  0
LINE
  8
4
 62
54
  6
DOT
 10
98.823941
 20
228.081492
 11
99.323969
 21
227.581492
  0
LINE
  8
4
 62
54
  6
DASHDOT
 10
103.324903
 20
200.419368
 11
103.324903
 21
233.509058
  0
LINE
  8
4
 62
54
  6
CONTINUOUS
 10
178.775974
 20
214.581492
 11
156.324903
 21
214.581492
  0
LINE
  8
4
 62
54
  6
CONTINUOUS
 10
156.324903
 20
221.581492
 11
176.342640
 21
221.581492
  0
LINE
  8
4
 62
54
  6
CONTINUOUS
 10
178.775974
 20
214.581492
 11
159.624903
 21
214.581492
  0
LINE
  8
4
 62
54
  6
CONTINUOUS
 10
159.624903
 20
221.581492
 11
176.342640
 21
221.581492
  0
LINE
  8
4
 62
54
  6
CONTINUOUS
 10
159.624903
 20
222.931492
 11
158.124903
 21
222.931492
  0
LINE
  8
4
 62
54
  6
CONTINUOUS
 10
159.624903
 20
213.231492
 11
159.624903
 21
222.931492
  0
LINE
  8
4
 62
54
  6
CONTINUOUS
 10
158.124903
 20
213.231492
 11
159.624903
 21
213.231492
  0
LINE
  8
4
 62
54
  6
CONTINUOUS
 10
158.124903
 20
224.432345
 11
158.124903
 21
211.730639
  0
LINE
  8
4
 62
54
  6
DOT
 10
146.324903
 20
211.730639
 11
146.324903
 21
224.432345
  0
LINE
  8
4
 62
54
  6
CONTINUOUS
 10
149.924948
 20
224.432345
 11
158.124903
 21
224.432345
  0
LINE
  8
4
 62
54
  6
CONTINUOUS
 10
158.124903
 20
211.730639
 11
149.924948
 21
211.730639
  0
LINE
  8
4
 62
54
  6
CONTINUOUS
 10
149.924948
 20
221.256918
 11
158.124903
 21
221.256918
  0
LINE
  8
4
 62
54
  6
CONTINUOUS
 10
149.713975
 20
214.906065
 11
158.124903
 21
214.906065
  0
LINE
  8
4
 62
54
  6
DOT
 10
149.924948
 20
224.432345
 11
144.324903
 21
224.432345
  0
LINE
  8
4
 62
54
  6
DOT
 10
149.924948
 20
221.256918
 11
144.324903
 21
221.256918
  0
LINE
  8
4
 62
54
  6
DOT
 10
149.713975
 20
214.906065
 11
144.324903
 21
214.906065
  0
LINE
  8
4
 62
54
  6
DOT
 10
149.924948
 20
211.730639
 11
144.324903
 21
211.730639
  0
LINE
  8
4
 62
54
  6
DOT
 10
99.324903
 20
230.081492
 11
99.324903
 21
206.081492
  0
LINE
  8
4
 62
54
  6
DOT
 10
99.324903
 20
206.081492
 11
144.324903
 21
206.081492
  0
LINE
  8
4
 62
54
  6
DOT
 10
144.324903
 20
206.081492
 11
144.324903
 21
230.081492
  0
LINE
  8
4
 62
54
  6
DOT
 10
144.324903
 20
230.081492
 11
99.324903
 21
230.081492
  0
LINE
  8
4
 62
54
  6
DASHDOT
 10
90.288762
 20
218.081492
 11
176.342640
 21
218.081492
  0
LINE
  8
4
 62
54
  6
CONTINUOUS
 10
178.775974
 20
152.624407
 11
156.324903
 21
152.624407
  0
LINE
  8
4
 62
54
  6
CONTINUOUS
 10
156.324903
 20
159.624407
 11
176.342640
 21
159.624407
  0
LINE
  8
4
 62
54
  6
CONTINUOUS
 10
178.775974
 20
152.624407
 11
159.624903
 21
152.624407
  0
LINE
  8
4
 62
54
  6
CONTINUOUS
 10
159.624903
 20
159.624407
 11
176.342640
 21
159.624407
  0
LINE
  8
4
 62
54
  6
CONTINUOUS
 10
159.624903
 20
160.974407
 11
158.124903
 21
160.974407
  0
LINE
  8
4
 62
54
  6
CONTINUOUS
 10
159.624903
 20
151.274407
 11
159.624903
 21
160.974407
  0
LINE
  8
4
 62
54
  6
CONTINUOUS
 10
158.124903
 20
151.274407
 11
159.624903
 21
151.274407
  0
LINE
  8
4
 62
54
  6
CONTINUOUS
 10
158.124903
 20
162.475260
 11
158.124903
 21
149.773554
  0
CIRCLE
  8
4
 62
54
  6
DASHDOT
 10
103.324903
 20
166.124408
 40
3.000000
  0
CIRCLE
  8
4
 62
54
  6
DASHDOT
 10
103.324903
 20
146.124408
 40
3.000000
  0
LINE
  8
4
 62
54
  6
CONTINUOUS
 10
144.024903
 20
141.124407
 11
144.324903
 21
141.424407
  0
LINE
  8
4
 62
54
  6
CONTINUOUS
 10
144.324903
 20
170.824407
 11
144.024903
 21
171.124407
  0
LINE
  8
4
 62
54
  6
DASHDOT
 10
100.685664
 20
146.124408
 11
105.987940
 21
146.124408
  0
LINE
  8
4
 62
54
  6
DASHDOT
 10
103.324903
 20
148.360583
 11
103.324903
 21
143.403702
  0
LINE
  8
4
 62
54
  6
DASHDOT
 10
100.475627
 20
146.124408
 11
105.987940
 21
146.124408
  0
LINE
  8
4
 62
54
  6
DASHDOT
 10
100.755677
 20
166.124408
 11
106.244653
 21
166.124408
  0
LINE
  8
4
 62
54
  6
DASHDOT
 10
103.324903
 20
168.722115
 11
103.324903
 21
163.926683
  0
LINE
  8
4
 62
54
  6
DASHDOT
 10
88.696768
 20
156.124407
 11
176.342640
 21
156.124407
  0
LINE
  8
4
 62
54
  6
DOT
 10
99.324434
 20
156.124376
 11
99.323969
 21
165.624407
  0
LINE
  8
4
 62
54
  6
DOT
 10
108.824903
 20
171.124408
 11
108.824903
 21
169.024407
  0
ARC
  8
4
 62
54
  6
DOT
 10
103.324903
 20
145.124408
 40
4.000000
 50
180.000000
 51
-90.000000
  0
LINE
  8
4
 62
54
  6
DOT
 10
108.824903
 20
141.124408
 11
103.324903
 21
141.124408
  0
ARC
  8
4
 62
54
  6
DOT
 10
103.324903
 20
167.124408
 40
4.000000
 50
90.000005
 51
180.000000
  0
LINE
  8
4
 62
54
  6
DOT
 10
108.824903
 20
171.124408
 11
103.324903
 21
171.124408
  0
LINE
  8
4
 62
54
  6
DOT
 10
99.324903
 20
167.124408
 11
99.324903
 21
145.124408
  0
CIRCLE
  8
4
 62
54
  6
DOT
 10
103.324903
 20
146.124408
 40
1.750000
  0
CIRCLE
  8
4
 62
54
  6
DOT
 10
103.324903
 20
166.124408
 40
1.750000
  0
CIRCLE
  8
4
 62
54
  6
DOT
 10
103.324903
 20
146.124408
 40
1.750000
  0
LINE
  8
4
 62
54
  6
DOT
 10
108.824903
 20
171.124407
 11
144.024903
 21
171.124407
  0
LINE
  8
4
 62
54
  6
DOT
 10
108.824903
 20
141.124407
 11
144.024903
 21
141.124407
  0
LINE
  8
4
 62
54
  6
DOT
 10
144.324903
 20
170.824407
 11
144.324903
 21
141.424407
  0
LINE
  8
4
 62
54
  6
DOT
 10
146.324903
 20
149.773554
 11
146.324903
 21
162.475260
  0
LINE
  8
4
 62
54
  6
CONTINUOUS
 10
150.047870
 20
162.475260
 11
158.124903
 21
162.475260
  0
LINE
  8
4
 62
54
  6
CONTINUOUS
 10
158.124903
 20
149.773554
 11
150.047870
 21
149.773554
  0
LINE
  8
4
 62
54
  6
CONTINUOUS
 10
150.047870
 20
159.299834
 11
158.124903
 21
159.299834
  0
LINE
  8
4
 62
54
  6
CONTINUOUS
 10
149.836897
 20
152.948981
 11
158.124903
 21
152.948981
  0
LINE
  8
4
 62
54
  6
DOT
 10
150.047870
 20
162.475260
 11
144.324903
 21
162.475260
  0
LINE
  8
4
 62
54
  6
DOT
 10
150.047870
 20
159.299834
 11
144.324903
 21
159.299834
  0
LINE
  8
4
 62
54
  6
DOT
 10
149.836897
 20
152.948981
 11
144.324903
 21
152.948981
  0
LINE
  8
4
 62
54
  6
DOT
 10
150.047870
 20
149.773554
 11
144.324903
 21
149.773554
  0
LINE
  8
4
 62
54
  6
DOT
 10
108.824903
 20
169.024407
 11
108.824903
 21
141.124407
  0
TEXT
  8
2
 62
134
  6
CONTINUOUS
 10
95.327419
 20
112.009677
 40
4.000000
 41
1.000000
  1
質量：65g
  7
KANJI
 50
0.000000
 51
0.000000
  0
ENDSEC
  0
EOF
