  0
SECTION
  2
HEADER
  9
$ACADVER
  1
AC1009
  9
$INSBASE
 10
0.000000
 20
0.000000
  9
$EXTMIN
 10
0.000000
 20
0.000000
  9
$EXTMAX
 10
105.000000
 20
148.500000
  9
$LIMMIN
 10
0.000000
 20
0.000000
  9
$LIMMAX
 10
105.000000
 20
148.500000
  9
$VIEWCTR
 10
52.500000
 20
74.250000
  9
$VIEWSIZE
 40
148.500000
  9
$PEXTMIN
 10
0.000000
 20
0.000000
 30
0.000000
  9
$PEXTMAX
 10
210.000000
 20
297.000000
 30
0.000000
  9
$SNAPMODE
 70
     0
  9
$SNAPUNIT
 10
1.000000
 20
1.000000
  9
$SNAPBASE
 10
0.000000
 20
0.000000
  9
$SNAPANG
 50
0.000000
  9
$SNAPISOPAIR
 70
     0
  9
$SNAPSTYLE
 70
     0
  9
$GRIDMODE
 70
     0
  9
$GRIDUNIT
 10
0.000000
 20
0.000000
  9
$ORTHOMODE
 70
     0
  9
$REGENMODE
 70
     1
  9
$FILLMODE
 70
     1
  9
$QTEXTMODE
 70
     0
  9
$DRAGMODE
 70
     2
  9
$LTSCALE
 40
0.125000
  9
$OSMODE
 70
     0
  9
$ATTMODE
 70
     1
  9
$TEXTSIZE
 40
2.000000
  9
$TRACEWID
 40
0.050000
  9
$TEXTSTYLE
  7
STANDARD
  9
$CLAYER
  8
0
  9
$CELTYPE
  6
BYLAYER
  9
$CECOLOR
 62
   256
  9
$DIMSCALE
 40
1.000000
  9
$DIMASZ
 40
1.000000
  9
$DIMEXO
 40
0.000000
  9
$DIMDLI
 40
0.500000
  9
$DIMRND
 40
0.000000
  9
$DIMDLE
 40
0.000000
  9
$DIMEXE
 40
0.000000
  9
$DIMTP
 40
0.000000
  9
$DIMTM
 40
0.000000
  9
$DIMTXT
 40
4.000000
  9
$DIMCEN
 40
0.000000
  9
$DIMTSZ
 40
0.000000
  9
$DIMTOL
 70
     0
  9
$DIMLIM
 70
     0
  9
$DIMTIH
 70
     1
  9
$DIMTOH
 70
     1
  9
$DIMSE1
 70
     0
  9
$DIMSE2
 70
     0
  9
$DIMTAD
 70
     0
  9
$DIMZIN
 70
     0
  9
$DIMBLK
  1

  9
$DIMASO
 70
     0
  9
$DIMSHO
 70
     0
  9
$DIMPOST
  1

  9
$DIMAPOST
  1

  9
$DIMALT
 70
     0
  9
$DIMALTD
 70
     0
  9
$DIMALTF
 40
25.400000
  9
$DIMLFAC
 40
1.000000
  9
$DIMTOFL
 70
     0
  9
$DIMTVP
 40
0.000000
  9
$DIMTIX
 70
     0
  9
$DIMSOXD
 70
     0
  9
$DIMSAH
 70
     0
  9
$DIMBLKL
  1

  9
$DIMBLKR
  1

  9
$LUNITS
 70
     2
  9
$LUPREC
 70
     2
  9
$AXISMODE
 70
     0
  9
$AXISUNIT
 10
1.000000
 20
1.000000
  9
$SKETCHINC
 40
0.000000
  9
$FILLETRAD
 40
0.000000
  9
$AUNITS
 70
     1
  9
$AUPREC
 70
     2
  9
$MENU
  1
ACAD
  9
$ELEVATION
 40
0.000000
  9
$THICKNESS
 40
0.000000
  9
$VIEWDIR
 10
0.000000
 20
0.000000
 30
1.000000
  9
$LIMCHECK
 70
     1
  9
$BLIPMODE
 70
     1
  9
$CHAMFERA
 40
0.000000
  9
$CHAMFERB
 40
0.000000
  9
$FASTZOOM
 70
     1
  9
$SKPOLY
 70
     0
  9
$TDCREATE
 40
0.000000
  9
$TDUPDATE
 40
0.000000
  9
$TDINDWG
 40
0.000000
  9
$TDUSRTIMER
 40
0.000000
  9
$USRTIMER
 70
     1
  9
$ANGBASE
 50
0.000000
  9
$ANGDIR
 70
     0
  9
$PDMODE
 70
     0
  9
$PDSIZE
 40
0.000000
  9
$PLINEWID
 40
0.000000
  9
$COORDS
 70
     2
  9
$USERI1
 70
     0
  9
$USERI2
 70
     0
  9
$USERI3
 70
     0
  9
$USERI4
 70
     0
  9
$USERI5
 70
     0
  9
$USERR1
 40
0.000000
  9
$USERR2
 40
0.000000
  9
$USERR3
 40
0.000000
  9
$USERR4
 40
0.000000
  9
$USERR5
 40
0.000000
  0
ENDSEC
  0
SECTION
  2
TABLES
  0
TABLE
  2
LTYPE
 70
     5
  0
LTYPE
  2
CONTINUOUS
 70
    64
  3
Solid line
 72
    65
 73
     0
 40
0.0
  0
LTYPE
  2
HIDDEN
 70
    64
  3
------------------------
 72
    65
 73
     2
 40
12.6
 49
8.4
 49
-4.2
  0
LTYPE
  2
DOT
 70
    64
  3
････････････････････････
 72
    65
 73
     2
 40
8.0
 49
6.0
 49
-2.0
  0
LTYPE
  2
DASHDOT
 70
    64
  3
--･--･--･--･--･--･--･--
 72
    65
 73
     4
 40
50.5
 49
30.0
 49
-9.0
 49
2.5
 49
-9.0
  0
LTYPE
  2
DIVIDE
 70
    64
  3
--･･--･･--･･--･･--･･--
 72
    65
 73
     6
 40
58.0
 49
30.0
 49
-9.0
 49
2.5
 49
-5.0
 49
2.5
 49
-9.0
  0
LTYPE
  2
ACAD_ISO06W100
 70
    64
  3
____ ... ____ ... ____
 72
    65
 73
     8
 40
37.5
 49
24.0
 49
-3.0
 49
0.5
 49
-3.0
 49
0.5
 49
-3.0
 49
0.5
 49
-3.0
  0
LTYPE
  2
ACAD_ISO14W100
 70
    64
  3
__ . . . __ . . . __ . . . 
 72
    65
 73
     8
 40
25.5
 49
12.0
 49
-3.0
 49
0.5
 49
-3.0
 49
0.5
 49
-3.0
 49
0.5
 49
-3.0
  0
ENDTAB
  0
TABLE
  2
LAYER
 70
6
  0
LAYER
  2
1
 70
64
 62
7
  6
CONTINUOUS
  0
LAYER
  2
2
 70
64
 62
134
  6
CONTINUOUS
  0
LAYER
  2
3
 70
64
 62
7
  6
CONTINUOUS
  0
LAYER
  2
5
 70
64
 62
94
  6
CONTINUOUS
  0
LAYER
  2
6
 70
64
 62
7
  6
CONTINUOUS
  0
LAYER
  2
11
 70
64
 62
251
  6
CONTINUOUS
  0
ENDTAB
  0
TABLE
  2
STYLE
 70
     2
  0
STYLE
  2
STANDARD
 70
    64
 40
0.0
 41
1.0
 50
0.0
 71
     0
 42
0.2
  3
TXT
  4

  0
STYLE
  2
KANJI
 70
    64
 40
0.0
 41
1.0
 50
0.0
 71
     0
 42
0.2
  3
TXT
  4
BIGFONT
  0
ENDTAB
  0
TABLE
  2
VIEW
 70
     0
  0
ENDTAB
  0
ENDSEC
  0
SECTION
  2
BLOCKS
  0
BLOCK
  8
2
 62
134
  6
CONTINUOUS
  2
*D1
 70
    65
 10
0.0
 20
0.0
  0
LINE
  8
2
 62
134
  6
CONTINUOUS
 10
21.454115
 20
86.669914
 11
21.454115
 21
106.669914
  0
LINE
  8
2
 62
134
  6
CONTINUOUS
 10
20.954115
 20
86.669914
 11
26.634518
 21
86.669914
  0
LINE
  8
2
 62
134
  6
CONTINUOUS
 10
20.954115
 20
106.669914
 11
26.634518
 21
106.669914
  0
LINE
  8
2
 62
134
  6
CONTINUOUS
 10
21.454115
 20
86.669914
 11
21.195296
 21
87.635840
  0
LINE
  8
2
 62
134
  6
CONTINUOUS
 10
21.454115
 20
86.669914
 11
21.712934
 21
87.635840
  0
LINE
  8
2
 62
134
  6
CONTINUOUS
 10
21.195296
 20
87.635840
 11
21.712934
 21
87.635840
  0
LINE
  8
2
 62
134
  6
CONTINUOUS
 10
21.454115
 20
86.911396
 11
21.324705
 21
87.394359
  0
LINE
  8
2
 62
134
  6
CONTINUOUS
 10
21.454115
 20
86.911396
 11
21.583524
 21
87.394359
  0
LINE
  8
2
 62
134
  6
CONTINUOUS
 10
21.324705
 20
87.394359
 11
21.583524
 21
87.394359
  0
LINE
  8
2
 62
134
  6
CONTINUOUS
 10
21.454115
 20
106.669914
 11
21.712934
 21
105.703989
  0
LINE
  8
2
 62
134
  6
CONTINUOUS
 10
21.454115
 20
106.669914
 11
21.195296
 21
105.703989
  0
LINE
  8
2
 62
134
  6
CONTINUOUS
 10
21.712934
 20
105.703989
 11
21.195296
 21
105.703989
  0
LINE
  8
2
 62
134
  6
CONTINUOUS
 10
21.454115
 20
106.428433
 11
21.583524
 21
105.945470
  0
LINE
  8
2
 62
134
  6
CONTINUOUS
 10
21.454115
 20
106.428433
 11
21.324705
 21
105.945470
  0
LINE
  8
2
 62
134
  6
CONTINUOUS
 10
21.583524
 20
105.945470
 11
21.324705
 21
105.945470
  0
TEXT
  8
2
 62
134
  6
CONTINUOUS
 10
21.454115
 20
94.669914
 40
2.000000
 41
1.000000
  1
φ20
  7
KANJI
 50
90.000000
 51
0.000000
  0
ENDBLK
  0
BLOCK
  8
2
 62
134
  6
CONTINUOUS
  2
*D2
 70
    65
 10
0.0
 20
0.0
  0
LINE
  8
2
 62
134
  6
CONTINUOUS
 10
26.634518
 20
81.543398
 11
76.634518
 21
81.543398
  0
LINE
  8
2
 62
134
  6
CONTINUOUS
 10
26.634518
 20
81.043398
 11
26.634518
 21
86.669918
  0
LINE
  8
2
 62
134
  6
CONTINUOUS
 10
76.634518
 20
81.043398
 11
76.634518
 21
88.611840
  0
LINE
  8
2
 62
134
  6
CONTINUOUS
 10
26.634518
 20
81.543398
 11
27.600444
 21
81.802217
  0
LINE
  8
2
 62
134
  6
CONTINUOUS
 10
26.634518
 20
81.543398
 11
27.600444
 21
81.284579
  0
LINE
  8
2
 62
134
  6
CONTINUOUS
 10
27.600444
 20
81.802217
 11
27.600444
 21
81.284579
  0
LINE
  8
2
 62
134
  6
CONTINUOUS
 10
26.875999
 20
81.543398
 11
27.358962
 21
81.672808
  0
LINE
  8
2
 62
134
  6
CONTINUOUS
 10
26.875999
 20
81.543398
 11
27.358962
 21
81.413989
  0
LINE
  8
2
 62
134
  6
CONTINUOUS
 10
27.358962
 20
81.672808
 11
27.358962
 21
81.413989
  0
LINE
  8
2
 62
134
  6
CONTINUOUS
 10
76.634518
 20
81.543398
 11
75.668592
 21
81.284579
  0
LINE
  8
2
 62
134
  6
CONTINUOUS
 10
76.634518
 20
81.543398
 11
75.668592
 21
81.802217
  0
LINE
  8
2
 62
134
  6
CONTINUOUS
 10
75.668592
 20
81.284579
 11
75.668592
 21
81.802217
  0
LINE
  8
2
 62
134
  6
CONTINUOUS
 10
76.393036
 20
81.543398
 11
75.910073
 21
81.413989
  0
LINE
  8
2
 62
134
  6
CONTINUOUS
 10
76.393036
 20
81.543398
 11
75.910073
 21
81.672808
  0
LINE
  8
2
 62
134
  6
CONTINUOUS
 10
75.910073
 20
81.413989
 11
75.910073
 21
81.672808
  0
TEXT
  8
2
 62
134
  6
CONTINUOUS
 10
50.365680
 20
81.543398
 40
2.000000
 41
0.500000
  1
50
  7
KANJI
 50
0.000000
 51
0.000000
  0
ENDBLK
  0
BLOCK
  8
2
 62
134
  6
CONTINUOUS
  2
*D3
 70
    65
 10
0.0
 20
0.0
  0
LINE
  8
2
 62
134
  6
CONTINUOUS
 10
76.634518
 20
81.543398
 11
79.634518
 21
81.543398
  0
LINE
  8
2
 62
134
  6
CONTINUOUS
 10
76.634518
 20
81.043398
 11
76.634518
 21
88.611840
  0
LINE
  8
2
 62
134
  6
CONTINUOUS
 10
79.634518
 20
81.043398
 11
79.634518
 21
88.169914
  0
LINE
  8
2
 62
134
  6
CONTINUOUS
 10
76.634518
 20
81.543398
 11
77.600444
 21
81.802217
  0
LINE
  8
2
 62
134
  6
CONTINUOUS
 10
76.634518
 20
81.543398
 11
77.600444
 21
81.284579
  0
LINE
  8
2
 62
134
  6
CONTINUOUS
 10
77.600444
 20
81.802217
 11
77.600444
 21
81.284579
  0
LINE
  8
2
 62
134
  6
CONTINUOUS
 10
76.875999
 20
81.543398
 11
77.358962
 21
81.672808
  0
LINE
  8
2
 62
134
  6
CONTINUOUS
 10
76.875999
 20
81.543398
 11
77.358962
 21
81.413989
  0
LINE
  8
2
 62
134
  6
CONTINUOUS
 10
77.358962
 20
81.672808
 11
77.358962
 21
81.413989
  0
LINE
  8
2
 62
134
  6
CONTINUOUS
 10
79.634518
 20
81.543398
 11
78.668592
 21
81.284579
  0
LINE
  8
2
 62
134
  6
CONTINUOUS
 10
79.634518
 20
81.543398
 11
78.668592
 21
81.802217
  0
LINE
  8
2
 62
134
  6
CONTINUOUS
 10
78.668592
 20
81.284579
 11
78.668592
 21
81.802217
  0
LINE
  8
2
 62
134
  6
CONTINUOUS
 10
79.393036
 20
81.543398
 11
78.910073
 21
81.413989
  0
LINE
  8
2
 62
134
  6
CONTINUOUS
 10
79.393036
 20
81.543398
 11
78.910073
 21
81.672808
  0
LINE
  8
2
 62
134
  6
CONTINUOUS
 10
78.910073
 20
81.413989
 11
78.910073
 21
81.672808
  0
TEXT
  8
2
 62
134
  6
CONTINUOUS
 10
77.613801
 20
81.543398
 40
2.000000
 41
0.500000
  1
3
  7
KANJI
 50
0.000000
 51
0.000000
  0
ENDBLK
  0
BLOCK
  8
2
 62
134
  6
CONTINUOUS
  2
*D4
 70
    65
 10
0.0
 20
0.0
  0
LINE
  8
2
 62
134
  6
CONTINUOUS
 10
83.947609
 20
88.669914
 11
83.947609
 21
104.669914
  0
LINE
  8
2
 62
134
  6
CONTINUOUS
 10
84.447609
 20
88.669914
 11
80.134518
 21
88.669914
  0
LINE
  8
2
 62
134
  6
CONTINUOUS
 10
84.447609
 20
104.669914
 11
80.134518
 21
104.669914
  0
LINE
  8
2
 62
134
  6
CONTINUOUS
 10
83.947609
 20
88.669914
 11
83.688790
 21
89.635840
  0
LINE
  8
2
 62
134
  6
CONTINUOUS
 10
83.947609
 20
88.669914
 11
84.206428
 21
89.635840
  0
LINE
  8
2
 62
134
  6
CONTINUOUS
 10
83.688790
 20
89.635840
 11
84.206428
 21
89.635840
  0
LINE
  8
2
 62
134
  6
CONTINUOUS
 10
83.947609
 20
88.911396
 11
83.818199
 21
89.394359
  0
LINE
  8
2
 62
134
  6
CONTINUOUS
 10
83.947609
 20
88.911396
 11
84.077018
 21
89.394359
  0
LINE
  8
2
 62
134
  6
CONTINUOUS
 10
83.818199
 20
89.394359
 11
84.077018
 21
89.394359
  0
LINE
  8
2
 62
134
  6
CONTINUOUS
 10
83.947609
 20
104.669914
 11
84.206428
 21
103.703989
  0
LINE
  8
2
 62
134
  6
CONTINUOUS
 10
83.947609
 20
104.669914
 11
83.688790
 21
103.703989
  0
LINE
  8
2
 62
134
  6
CONTINUOUS
 10
84.206428
 20
103.703989
 11
83.688790
 21
103.703989
  0
LINE
  8
2
 62
134
  6
CONTINUOUS
 10
83.947609
 20
104.428433
 11
84.077018
 21
103.945470
  0
LINE
  8
2
 62
134
  6
CONTINUOUS
 10
83.947609
 20
104.428433
 11
83.818199
 21
103.945470
  0
LINE
  8
2
 62
134
  6
CONTINUOUS
 10
84.077018
 20
103.945470
 11
83.818199
 21
103.945470
  0
TEXT
  8
2
 62
134
  6
CONTINUOUS
 10
83.947609
 20
92.669914
 40
2.000000
 41
0.500000
  1
M16P0.75
  7
KANJI
 50
90.000000
 51
0.000000
  0
ENDBLK
  0
BLOCK
  8
2
 62
134
  6
CONTINUOUS
  2
*D5
 70
    65
 10
0.0
 20
0.0
  0
LINE
  8
2
 62
134
  6
CONTINUOUS
 10
58.219174
 20
96.669914
 11
58.219174
 21
123.069914
  0
LINE
  8
2
 62
134
  6
CONTINUOUS
 10
57.719174
 20
123.069914
 11
81.034518
 21
123.069914
  0
LINE
  8
2
 62
134
  6
CONTINUOUS
 10
58.219174
 20
96.669914
 11
57.960355
 21
97.635840
  0
LINE
  8
2
 62
134
  6
CONTINUOUS
 10
58.219174
 20
96.669914
 11
58.477994
 21
97.635840
  0
LINE
  8
2
 62
134
  6
CONTINUOUS
 10
57.960355
 20
97.635840
 11
58.477994
 21
97.635840
  0
LINE
  8
2
 62
134
  6
CONTINUOUS
 10
58.219174
 20
96.911396
 11
58.089765
 21
97.394359
  0
LINE
  8
2
 62
134
  6
CONTINUOUS
 10
58.219174
 20
96.911396
 11
58.348584
 21
97.394359
  0
LINE
  8
2
 62
134
  6
CONTINUOUS
 10
58.089765
 20
97.394359
 11
58.348584
 21
97.394359
  0
LINE
  8
2
 62
134
  6
CONTINUOUS
 10
58.219174
 20
123.069914
 11
58.477994
 21
122.103989
  0
LINE
  8
2
 62
134
  6
CONTINUOUS
 10
58.219174
 20
123.069914
 11
57.960355
 21
122.103989
  0
LINE
  8
2
 62
134
  6
CONTINUOUS
 10
58.477994
 20
122.103989
 11
57.960355
 21
122.103989
  0
LINE
  8
2
 62
134
  6
CONTINUOUS
 10
58.219174
 20
122.828433
 11
58.348584
 21
122.345470
  0
LINE
  8
2
 62
134
  6
CONTINUOUS
 10
58.219174
 20
122.828433
 11
58.089765
 21
122.345470
  0
LINE
  8
2
 62
134
  6
CONTINUOUS
 10
58.348584
 20
122.345470
 11
58.089765
 21
122.345470
  0
TEXT
  8
2
 62
134
  6
CONTINUOUS
 10
58.219174
 20
110.576487
 40
2.000000
 41
0.500000
  1
27
  7
KANJI
 50
90.000000
 51
0.000000
  0
ENDBLK
  0
ENDSEC
  0
SECTION
  2
ENTITIES
  0
TEXT
  8
5
 62
94
  6
CONTINUOUS
 10
62.215971
 20
12.429830
 40
0.875000
 41
4.000000
  1
製図
  7
KANJI
 50
-90.000000
 51
0.000000
  0
TEXT
  8
5
 62
94
  6
CONTINUOUS
 10
72.132362
 20
12.347876
 40
0.875000
 41
4.000000
  1
図番
  7
KANJI
 50
-90.000000
 51
0.000000
  0
TEXT
  8
5
 62
94
  6
CONTINUOUS
 10
72.132362
 20
18.986121
 40
0.875000
 41
4.000000
  1
図　名
  7
KANJI
 50
-90.000000
 51
0.000000
  0
TEXT
  8
5
 62
94
  6
CONTINUOUS
 10
39.678720
 20
16.281651
 40
0.875000
 41
4.000000
  1
日付
  7
KANJI
 50
-90.000000
 51
0.000000
  0
TEXT
  8
5
 62
94
  6
CONTINUOUS
 10
57.216799
 20
16.363605
 40
0.875000
 41
4.000000
  1
図法
  7
KANJI
 50
-90.000000
 51
0.000000
  0
TEXT
  8
5
 62
94
  6
CONTINUOUS
 10
57.134846
 20
20.379333
 40
0.875000
 41
4.000000
  1
尺度
  7
KANJI
 50
-90.000000
 51
0.000000
  0
TEXT
  8
5
 62
94
  6
CONTINUOUS
 10
39.678720
 20
20.297379
 40
0.875000
 41
4.000000
  1
公差
  7
KANJI
 50
-90.000000
 51
0.000000
  0
TEXT
  8
5
 62
94
  6
CONTINUOUS
 10
39.678720
 20
12.347876
 40
0.875000
 41
4.000000
  1
承認
  7
KANJI
 50
-90.000000
 51
0.000000
  0
TEXT
  8
5
 62
94
  6
CONTINUOUS
 10
52.217627
 20
12.347876
 40
0.875000
 41
4.000000
  1
設計
  7
KANJI
 50
-90.000000
 51
0.000000
  0
TEXT
  8
5
 62
94
  6
CONTINUOUS
 10
48.939481
 20
5.381816
 40
2.250000
 41
1.888889
  1
ジャパンセンサー株式会社
  7
KANJI
 50
0.000000
 51
0.000000
  0
LINE
  8
5
 62
94
  6
CONTINUOUS
 10
39.234597
 20
20.604085
 11
99.234597
 21
20.604085
  0
LINE
  8
5
 62
94
  6
CONTINUOUS
 10
39.234597
 20
4.604085
 11
39.234597
 21
20.604085
  0
LINE
  8
5
 62
94
  6
CONTINUOUS
 10
99.234597
 20
8.604085
 11
39.234597
 21
8.604085
  0
LINE
  8
5
 62
94
  6
CONTINUOUS
 10
71.734597
 20
20.604085
 11
71.734597
 21
8.604085
  0
LINE
  8
5
 62
94
  6
CONTINUOUS
 10
99.234597
 20
12.604085
 11
39.234597
 21
12.604085
  0
LINE
  8
5
 62
94
  6
CONTINUOUS
 10
74.234597
 20
8.604085
 11
74.234597
 21
20.604085
  0
LINE
  8
5
 62
94
  6
CONTINUOUS
 10
59.234597
 20
20.604085
 11
59.234597
 21
12.604085
  0
LINE
  8
5
 62
94
  6
CONTINUOUS
 10
41.734597
 20
8.604085
 11
41.734597
 21
20.604085
  0
LINE
  8
5
 62
94
  6
CONTINUOUS
 10
39.234597
 20
16.604085
 11
71.734597
 21
16.604085
  0
LINE
  8
5
 62
94
  6
CONTINUOUS
 10
56.734597
 20
20.604085
 11
56.734597
 21
12.604085
  0
LINE
  8
5
 62
94
  6
CONTINUOUS
 10
51.734597
 20
8.604085
 11
51.734597
 21
12.604085
  0
LINE
  8
5
 62
94
  6
CONTINUOUS
 10
61.734597
 20
8.604085
 11
61.734597
 21
12.604085
  0
LINE
  8
5
 62
94
  6
CONTINUOUS
 10
54.234597
 20
12.604085
 11
54.234597
 21
8.604085
  0
LINE
  8
5
 62
94
  6
CONTINUOUS
 10
64.234597
 20
12.604085
 11
64.234597
 21
8.604085
  0
TEXT
  8
5
 62
94
  6
CONTINUOUS
 10
61.232528
 20
13.249366
 40
2.000000
 41
1.000000
  1
三角法
  7
KANJI
 50
0.000000
 51
0.000000
  0
LINE
  8
5
 62
94
  6
CONTINUOUS
 10
75.556448
 20
16.589321
 11
97.626822
 21
16.589321
  0
TEXT
  8
5
 62
94
  6
CONTINUOUS
 10
55.824656
 20
9.573573
 40
2.000000
 41
1.000000
  1
須藤
  7
KANJI
 50
0.000000
 51
0.000000
  0
TEXT
  8
5
 62
94
  6
CONTINUOUS
 10
62.548081
 20
17.466289
 40
2.000000
 41
1.000000
  1
２／１
  7
KANJI
 50
0.000000
 51
0.000000
  0
TEXT
  8
5
 62
94
  6
CONTINUOUS
 10
65.824656
 20
9.573573
 40
2.000000
 41
1.000000
  1
須藤
  7
KANJI
 50
0.000000
 51
0.000000
  0
LINE
  8
5
 62
94
  6
CONTINUOUS
 10
6.734597
 20
142.104085
 11
6.734597
 21
4.604085
  0
LINE
  8
5
 62
94
  6
CONTINUOUS
 10
6.734597
 20
4.604085
 11
99.234597
 21
4.604085
  0
LINE
  8
5
 62
94
  6
CONTINUOUS
 10
99.234597
 20
4.604085
 11
99.234597
 21
142.104085
  0
LINE
  8
5
 62
94
  6
CONTINUOUS
 10
99.234597
 20
142.104085
 11
6.734597
 21
142.104085
  0
TEXT
  8
5
 62
94
  6
CONTINUOUS
 10
76.811453
 20
17.600784
 40
2.000000
 41
1.000000
  1
ＴＭＰＸ－１５
  7
KANJI
 50
0.000000
 51
0.000000
  0
TEXT
  8
5
 62
94
  6
CONTINUOUS
 10
75.695594
 20
13.530056
 40
2.000000
 41
1.000000
  1
φ15ｴｱﾊﾟｰｼﾞﾌｰﾄﾞ 外形図
  7
KANJI
 50
0.000000
 51
0.000000
  0
TEXT
  8
5
 62
94
  6
CONTINUOUS
 10
74.860760
 20
9.728170
 40
2.000000
 41
1.000000
  1
００５－０６５－Ａ１２３
  7
KANJI
 50
0.000000
 51
0.000000
  0
LINE
  8
6
 62
7
  6
DASHDOT
 10
67.634518
 20
123.329181
 11
67.634518
 21
103.466295
  0
LINE
  8
6
 62
7
  6
DASHDOT
 10
62.340326
 20
118.169914
 11
83.615998
 21
118.169914
  0
ARC
  8
6
 62
7
  6
CONTINUOUS
 10
67.417220
 20
108.887073
 40
5.304476
 50
61.553795
 51
78.946170
  0
ARC
  8
6
 62
7
  6
CONTINUOUS
 10
67.634514
 20
109.966320
 40
4.203594
 50
79.032543
 51
100.972113
  0
ARC
  8
6
 62
7
  6
CONTINUOUS
 10
67.851883
 20
108.886904
 40
5.304656
 50
101.057966
 51
118.445979
  0
ARC
  8
6
 62
7
  6
CONTINUOUS
 10
70.637880
 20
112.090929
 40
2.177562
 50
42.110188
 51
65.706506
  0
ARC
  8
6
 62
7
  6
CONTINUOUS
 10
71.098616
 20
113.118282
 40
1.051632
 50
65.557952
 51
114.446393
  0
ARC
  8
6
 62
7
  6
CONTINUOUS
 10
71.559493
 20
112.090754
 40
2.177779
 50
114.297085
 51
137.888779
  0
ARC
  8
6
 62
7
  6
CONTINUOUS
 10
63.709673
 20
111.898901
 40
2.177566
 50
-65.706337
 51
-42.110130
  0
ARC
  8
6
 62
7
  6
CONTINUOUS
 10
64.170415
 20
110.871547
 40
1.051633
 50
-114.446468
 51
-65.557877
  0
ARC
  8
6
 62
7
  6
CONTINUOUS
 10
64.631291
 20
111.899076
 40
2.177780
 50
-137.888771
 51
-114.297093
  0
ARC
  8
6
 62
7
  6
CONTINUOUS
 10
67.417220
 20
115.102756
 40
5.304476
 50
-78.946170
 51
-61.553795
  0
ARC
  8
6
 62
7
  6
CONTINUOUS
 10
67.634511
 20
114.023508
 40
4.203594
 50
-100.972077
 51
-79.032507
  0
ARC
  8
6
 62
7
  6
CONTINUOUS
 10
67.851886
 20
115.102924
 40
5.304657
 50
-118.446013
 51
-101.058000
  0
ARC
  8
6
 62
7
  6
CONTINUOUS
 10
70.637880
 20
111.898900
 40
2.177562
 50
-65.706506
 51
-42.110188
  0
ARC
  8
6
 62
7
  6
CONTINUOUS
 10
71.098615
 20
110.871546
 40
1.051632
 50
-114.446327
 51
-65.557886
  0
ARC
  8
6
 62
7
  6
CONTINUOUS
 10
71.559495
 20
111.899074
 40
2.177780
 50
-137.888831
 51
-114.297137
  0
ARC
  8
6
 62
7
  6
CONTINUOUS
 10
63.709675
 20
112.090927
 40
2.177564
 50
42.110182
 51
65.706389
  0
ARC
  8
6
 62
7
  6
CONTINUOUS
 10
64.170415
 20
113.118281
 40
1.051633
 50
65.557877
 51
114.446468
  0
ARC
  8
6
 62
7
  6
CONTINUOUS
 10
64.631288
 20
112.090752
 40
2.177779
 50
114.297041
 51
137.888719
  0
LINE
  8
6
 62
7
  6
CONTINUOUS
 10
69.403916
 20
115.747265
 11
68.519217
 21
116.958589
  0
LINE
  8
6
 62
7
  6
CONTINUOUS
 10
68.519217
 20
116.958589
 11
67.634518
 21
118.169914
  0
LINE
  8
6
 62
7
  6
CONTINUOUS
 10
69.403916
 20
115.747265
 11
70.519217
 21
115.458589
  0
LINE
  8
6
 62
7
  6
CONTINUOUS
 10
70.519217
 20
115.458589
 11
71.634518
 21
115.169914
  0
ARC
  8
6
 62
7
  6
CONTINUOUS
 10
67.634518
 20
118.169914
 40
4.000000
 50
90.000003
 51
180.000000
  0
ARC
  8
6
 62
7
  6
CONTINUOUS
 10
67.634518
 20
118.169914
 40
3.000000
 50
90.000003
 51
180.000000
  0
ARC
  8
6
 62
7
  6
CONTINUOUS
 10
82.534518
 20
122.869915
 40
0.200000
 50
0.000000
 51
90.000000
  0
ARC
  8
6
 62
7
  6
CONTINUOUS
 10
82.534518
 20
113.469914
 40
0.200000
 50
-90.000000
 51
0.000000
  0
ARC
  8
6
 62
7
  6
CONTINUOUS
 10
67.665891
 20
118.138541
 40
4.000000
 50
90.000003
 51
180.000000
  0
LINE
  8
6
 62
7
  6
CONTINUOUS
 10
63.634518
 20
114.169914
 11
71.634518
 21
114.169914
  0
LINE
  8
6
 62
7
  6
CONTINUOUS
 10
67.634518
 20
122.169914
 11
78.134518
 21
122.169914
  0
LINE
  8
6
 62
7
  6
CONTINUOUS
 10
80.134518
 20
122.169914
 11
80.134518
 21
114.169914
  0
LINE
  8
6
 62
7
  6
CONTINUOUS
 10
71.634518
 20
115.169914
 11
71.634518
 21
114.169914
  0
LINE
  8
6
 62
7
  6
CONTINUOUS
 10
63.634518
 20
118.169914
 11
63.634518
 21
114.169914
  0
LINE
  8
6
 62
7
  6
CONTINUOUS
 10
72.634518
 20
121.169914
 11
72.634518
 21
115.169914
  0
LINE
  8
6
 62
7
  6
CONTINUOUS
 10
73.211868
 20
114.169914
 11
78.134518
 21
114.169914
  0
LINE
  8
6
 62
7
  6
CONTINUOUS
 10
71.634518
 20
115.169914
 11
72.634518
 21
115.169914
  0
LINE
  8
6
 62
7
  6
CONTINUOUS
 10
67.634518
 20
121.169914
 11
72.634518
 21
121.169914
  0
LINE
  8
6
 62
7
  6
CONTINUOUS
 10
72.634518
 20
115.169914
 11
73.211868
 21
114.169914
  0
LINE
  8
6
 62
7
  6
CONTINUOUS
 10
63.665891
 20
115.169914
 11
71.634518
 21
115.169914
  0
LINE
  8
6
 62
7
  6
CONTINUOUS
 10
64.634518
 20
118.169914
 11
64.634518
 21
115.747265
  0
LINE
  8
6
 62
7
  6
CONTINUOUS
 10
64.634518
 20
115.747265
 11
69.403916
 21
115.747265
  0
LINE
  8
6
 62
7
  6
CONTINUOUS
 10
73.211868
 20
122.138541
 11
73.211868
 21
114.169914
  0
LINE
  8
6
 62
7
  6
CONTINUOUS
 10
78.134518
 20
122.169914
 11
78.134518
 21
114.169914
  0
LINE
  8
6
 62
7
  6
CONTINUOUS
 10
78.134517
 20
122.169915
 11
80.134517
 21
122.065099
  0
LINE
  8
6
 62
7
  6
CONTINUOUS
 10
78.134518
 20
114.169914
 11
80.134518
 21
114.274730
  0
LINE
  8
6
 62
7
  6
CONTINUOUS
 10
80.834518
 20
121.969914
 11
80.834518
 21
114.369914
  0
LINE
  8
6
 62
7
  6
CONTINUOUS
 10
80.634518
 20
122.169914
 11
80.134518
 21
122.169914
  0
LINE
  8
6
 62
7
  6
CONTINUOUS
 10
80.634518
 20
114.169914
 11
80.134518
 21
114.169914
  0
LINE
  8
6
 62
7
  6
CONTINUOUS
 10
81.534518
 20
120.769914
 11
80.834518
 21
120.769914
  0
LINE
  8
6
 62
7
  6
CONTINUOUS
 10
81.534518
 20
115.569914
 11
80.834518
 21
115.569914
  0
LINE
  8
6
 62
7
  6
CONTINUOUS
 10
80.634519
 20
122.169914
 11
80.834519
 21
121.969914
  0
LINE
  8
6
 62
7
  6
CONTINUOUS
 10
80.834518
 20
114.369914
 11
80.634518
 21
114.169914
  0
LINE
  8
6
 62
7
  6
CONTINUOUS
 10
81.534518
 20
123.069914
 11
81.534518
 21
113.269914
  0
LINE
  8
6
 62
7
  6
CONTINUOUS
 10
82.734518
 20
122.869915
 11
82.734518
 21
113.469914
  0
LINE
  8
6
 62
7
  6
HIDDEN
 10
71.734518
 20
120.169914
 11
71.734518
 21
116.169914
  0
LINE
  8
6
 62
7
  6
CONTINUOUS
 10
82.534518
 20
123.069914
 11
81.534518
 21
123.069914
  0
LINE
  8
6
 62
7
  6
CONTINUOUS
 10
82.534518
 20
113.269914
 11
81.534518
 21
113.269914
  0
LINE
  8
6
 62
7
  6
HIDDEN
 10
71.734518
 20
116.169914
 11
82.734518
 21
116.169914
  0
LINE
  8
6
 62
7
  6
HIDDEN
 10
71.734518
 20
120.169914
 11
82.734518
 21
120.169914
  0
LINE
  8
6
 62
7
  6
CONTINUOUS
 10
80.634518
 20
122.169914
 11
80.634518
 21
114.169914
  0
LINE
  8
6
 62
7
  6
CONTINUOUS
 10
63.665891
 20
118.138541
 11
63.665891
 21
115.169914
  0
LINE
  8
6
 62
7
  6
CONTINUOUS
 10
67.665891
 20
122.138541
 11
73.211868
 21
122.138541
  0
LINE
  8
6
 62
7
  6
CONTINUOUS
 10
72.634518
 20
121.169914
 11
73.211868
 21
122.138541
  0
LINE
  8
6
 62
7
  6
CONTINUOUS
 10
68.864018
 20
106.669914
 11
68.864018
 21
104.199413
  0
LINE
  8
6
 62
7
  6
CONTINUOUS
 10
66.405018
 20
106.669914
 11
66.405018
 21
104.199413
  0
LINE
  8
6
 62
7
  6
CONTINUOUS
 10
66.134518
 20
106.025575
 11
66.134518
 21
104.469913
  0
LINE
  8
6
 62
7
  6
CONTINUOUS
 10
69.134518
 20
106.025575
 11
69.134518
 21
104.469913
  0
LINE
  8
6
 62
7
  6
CONTINUOUS
 10
66.384518
 20
106.669914
 11
66.384518
 21
106.169914
  0
LINE
  8
6
 62
7
  6
CONTINUOUS
 10
64.884518
 20
107.169914
 11
70.384518
 21
107.169914
  0
LINE
  8
6
 62
7
  6
CONTINUOUS
 10
66.434517
 20
104.169914
 11
68.834519
 21
104.169914
  0
LINE
  8
6
 62
7
  6
CONTINUOUS
 10
66.384518
 20
106.169914
 11
68.884518
 21
106.169914
  0
LINE
  8
6
 62
7
  6
CONTINUOUS
 10
64.784520
 20
108.669914
 11
64.784520
 21
107.469913
  0
LINE
  8
6
 62
7
  6
CONTINUOUS
 10
70.484516
 20
108.669914
 11
70.484516
 21
107.469913
  0
LINE
  8
6
 62
7
  6
CONTINUOUS
 10
68.884518
 20
106.669914
 11
68.884518
 21
106.169914
  0
LINE
  8
6
 62
7
  6
CONTINUOUS
 10
70.484517
 20
107.469914
 11
70.184517
 21
107.169915
  0
LINE
  8
6
 62
7
  6
CONTINUOUS
 10
64.784518
 20
107.469914
 11
65.084517
 21
107.169915
  0
LINE
  8
6
 62
7
  6
CONTINUOUS
 10
66.134519
 20
106.025575
 11
66.384519
 21
106.169913
  0
LINE
  8
6
 62
7
  6
CONTINUOUS
 10
68.884518
 20
106.169913
 11
69.134516
 21
106.025577
  0
LINE
  8
6
 62
7
  6
CONTINUOUS
 10
66.134517
 20
104.469916
 11
66.434519
 21
104.169914
  0
LINE
  8
6
 62
7
  6
CONTINUOUS
 10
69.134519
 20
104.469913
 11
68.834519
 21
104.169913
  0
LINE
  8
6
 62
7
  6
CONTINUOUS
 10
66.134518
 20
104.469913
 11
69.134518
 21
104.469913
  0
LINE
  8
6
 62
7
  6
CONTINUOUS
 10
66.134518
 20
106.025575
 11
69.134518
 21
106.025575
  0
LINE
  8
6
 62
7
  6
CONTINUOUS
 10
64.784520
 20
107.469913
 11
70.484516
 21
107.469913
  0
LINE
  8
6
 62
7
  6
CONTINUOUS
 10
64.884518
 20
106.669914
 11
70.384518
 21
106.669914
  0
LINE
  8
6
 62
7
  6
CONTINUOUS
 10
64.884518
 20
107.169914
 11
64.884518
 21
106.669914
  0
LINE
  8
6
 62
7
  6
CONTINUOUS
 10
70.384518
 20
107.169914
 11
70.384518
 21
106.669914
  0
LINE
  8
6
 62
7
  6
CONTINUOUS
 10
63.015717
 20
113.551111
 11
63.015717
 21
110.438717
  0
LINE
  8
6
 62
7
  6
CONTINUOUS
 10
72.253319
 20
113.551111
 11
72.253319
 21
110.438717
  0
LINE
  8
6
 62
7
  6
CONTINUOUS
 10
65.325116
 20
113.551111
 11
65.325116
 21
110.438717
  0
LINE
  8
6
 62
7
  6
CONTINUOUS
 10
69.943920
 20
113.551111
 11
69.943920
 21
110.438717
  0
LINE
  8
6
 62
7
  6
CONTINUOUS
 10
71.634517
 20
114.169915
 11
72.253322
 21
113.551110
  0
LINE
  8
6
 62
7
  6
CONTINUOUS
 10
63.015717
 20
110.438715
 11
64.784517
 21
108.669914
  0
LINE
  8
6
 62
7
  6
CONTINUOUS
 10
70.484518
 20
108.669914
 11
72.253321
 21
110.438716
  0
LINE
  8
6
 62
7
  6
CONTINUOUS
 10
64.784520
 20
108.669914
 11
70.484516
 21
108.669914
  0
LINE
  8
6
 62
7
  6
CONTINUOUS
 10
63.015715
 20
113.551112
 11
63.634518
 21
114.169914
  0
CIRCLE
  8
11
 62
251
  6
CONTINUOUS
 10
76.134518
 20
104.977989
 40
0.750000
  0
CIRCLE
  8
11
 62
251
  6
CONTINUOUS
 10
76.134518
 20
88.361840
 40
0.750000
  0
DIMENSION
  8
2
 62
134
  6
CONTINUOUS
  2
*D1
 10
21.454115
 20
86.669914
 11
21.454115
 21
96.669914
 70
     0
  1
φ20
 13
26.634518
 23
86.669914
 14
26.634518
 24
106.669914
 50
90.000000
  0
DIMENSION
  8
2
 62
134
  6
CONTINUOUS
  2
*D2
 10
26.634518
 20
81.543398
 11
51.365680
 21
81.543398
 70
     0
  1
50
 13
26.634518
 23
86.669918
 14
76.634518
 24
88.611840
 50
0.000000
  0
DIMENSION
  8
2
 62
134
  6
CONTINUOUS
  2
*D3
 10
76.634518
 20
81.543398
 11
78.113801
 21
81.543398
 70
     0
  1
3
 13
76.634518
 23
88.611840
 14
79.634518
 24
88.169914
 50
0.000000
  0
DIMENSION
  8
2
 62
134
  6
CONTINUOUS
  2
*D4
 10
83.947609
 20
88.669914
 11
83.947609
 21
96.669914
 70
     0
  1
M16P0.75
 13
80.134518
 23
88.669914
 14
80.134518
 24
104.669914
 50
90.000000
  0
LINE
  8
2
 62
134
  6
CONTINUOUS
 10
82.734518
 20
118.169914
 11
90.821166
 21
126.295997
  0
LINE
  8
2
 62
134
  6
CONTINUOUS
 10
90.821166
 20
126.295997
 11
75.810903
 21
126.295997
  0
TEXT
  8
2
 62
134
  6
CONTINUOUS
 10
75.810903
 20
126.166509
 40
2.000000
 41
1.000000
  1
φ4ﾁｭｰﾌﾞﾌｨﾃｨﾝｸﾞ
  7
KANJI
 50
0.000000
 51
0.000000
  0
LINE
  8
2
 62
134
  6
CONTINUOUS
 10
82.734518
 20
118.169914
 11
83.232410
 21
119.037153
  0
LINE
  8
2
 62
134
  6
CONTINUOUS
 10
82.734518
 20
118.169914
 11
83.599324
 21
118.672019
  0
LINE
  8
2
 62
134
  6
CONTINUOUS
 10
83.232410
 20
119.037153
 11
83.599324
 21
118.672019
  0
LINE
  8
2
 62
134
  6
CONTINUOUS
 10
82.904855
 20
118.341082
 11
83.153801
 21
118.774702
  0
LINE
  8
2
 62
134
  6
CONTINUOUS
 10
82.904855
 20
118.341082
 11
83.337258
 21
118.592135
  0
LINE
  8
2
 62
134
  6
CONTINUOUS
 10
83.153801
 20
118.774702
 11
83.337258
 21
118.592135
  0
TEXT
  8
2
 62
134
  6
CONTINUOUS
 10
77.155332
 20
124.298906
 40
2.000000
 41
1.000000
  1
計装ｴｱ入口
  7
KANJI
 50
0.000000
 51
0.000000
  0
DIMENSION
  8
2
 62
134
  6
CONTINUOUS
  2
*D5
 10
58.219174
 20
96.669914
 11
58.219174
 21
111.576487
 70
     0
  1
27
 13
58.219174
 23
96.669914
 14
81.034518
 24
123.069914
 50
90.000000
  0
LINE
  8
2
 62
134
  6
CONTINUOUS
 10
73.294520
 20
86.669914
 11
69.876168
 21
79.282888
  0
LINE
  8
2
 62
134
  6
CONTINUOUS
 10
69.876168
 20
79.282888
 11
66.504213
 21
79.282888
  0
TEXT
  8
2
 62
134
  6
CONTINUOUS
 10
66.504213
 20
79.323582
 40
2.000000
 41
0.500000
  1
ﾅｯﾄ
  7
KANJI
 50
0.000000
 51
0.000000
  0
LINE
  8
2
 62
134
  6
CONTINUOUS
 10
73.294520
 20
86.669914
 11
73.123754
 21
85.684603
  0
LINE
  8
2
 62
134
  6
CONTINUOUS
 10
73.294520
 20
86.669914
 11
72.653977
 21
85.901993
  0
LINE
  8
2
 62
134
  6
CONTINUOUS
 10
73.123754
 20
85.684603
 11
72.653977
 21
85.901993
  0
LINE
  8
2
 62
134
  6
CONTINUOUS
 10
73.193107
 20
86.450760
 11
73.107723
 21
85.958104
  0
LINE
  8
2
 62
134
  6
CONTINUOUS
 10
73.193107
 20
86.450760
 11
72.872835
 21
86.066799
  0
LINE
  8
2
 62
134
  6
CONTINUOUS
 10
73.107723
 20
85.958104
 11
72.872835
 21
86.066799
  0
LINE
  8
2
 62
134
  6
CONTINUOUS
 10
76.361553
 20
87.647028
 11
82.654295
 21
79.282888
  0
LINE
  8
2
 62
134
  6
CONTINUOUS
 10
82.654295
 20
79.282888
 11
87.837418
 21
79.282888
  0
TEXT
  8
2
 62
134
  6
CONTINUOUS
 10
82.837418
 20
79.293795
 40
2.000000
 41
0.500000
  1
Oﾘﾝｸﾞ
  7
KANJI
 50
0.000000
 51
0.000000
  0
LINE
  8
2
 62
134
  6
CONTINUOUS
 10
76.361553
 20
87.647028
 11
77.149089
 21
87.030760
  0
LINE
  8
2
 62
134
  6
CONTINUOUS
 10
76.361553
 20
87.647028
 11
76.735445
 21
86.719556
  0
LINE
  8
2
 62
134
  6
CONTINUOUS
 10
77.149089
 20
87.030760
 11
76.735445
 21
86.719556
  0
LINE
  8
2
 62
134
  6
CONTINUOUS
 10
76.506731
 20
87.454061
 11
76.900500
 21
87.145927
  0
LINE
  8
2
 62
134
  6
CONTINUOUS
 10
76.506731
 20
87.454061
 11
76.693678
 21
86.990325
  0
LINE
  8
2
 62
134
  6
CONTINUOUS
 10
76.900500
 20
87.145927
 11
76.693678
 21
86.990325
  0
LINE
  8
1
 62
7
  6
CONTINUOUS
 10
76.634518
 20
89.111840
 11
75.134518
 21
89.111840
  0
LINE
  8
1
 62
7
  6
CONTINUOUS
 10
71.634518
 20
86.669914
 11
27.134518
 21
86.669914
  0
LINE
  8
1
 62
7
  6
CONTINUOUS
 10
71.634518
 20
89.111841
 11
71.634518
 21
86.669914
  0
LINE
  8
1
 62
7
  6
CONTINUOUS
 10
72.634518
 20
89.111841
 11
71.634518
 21
89.111841
  0
LINE
  8
1
 62
7
  6
CONTINUOUS
 10
71.634518
 20
106.669914
 11
27.134518
 21
106.669914
  0
LINE
  8
1
 62
7
  6
CONTINUOUS
 10
26.634518
 20
87.169914
 11
27.134518
 21
86.669914
  0
LINE
  8
1
 62
7
  6
CONTINUOUS
 10
26.634518
 20
106.169914
 11
27.134518
 21
106.669914
  0
LINE
  8
1
 62
7
  6
CONTINUOUS
 10
26.634518
 20
87.169918
 11
26.634518
 21
106.169914
  0
LINE
  8
1
 62
7
  6
DASHDOT
 10
24.392879
 20
96.669914
 11
83.397037
 21
96.669914
  0
LINE
  8
1
 62
7
  6
CONTINUOUS
 10
72.634518
 20
104.227988
 11
71.634518
 21
104.227988
  0
LINE
  8
1
 62
7
  6
CONTINUOUS
 10
76.634518
 20
104.227989
 11
75.134518
 21
104.227989
  0
LINE
  8
1
 62
7
  6
CONTINUOUS
 10
76.634518
 20
88.669914
 11
79.634518
 21
88.669914
  0
LINE
  8
1
 62
7
  6
CONTINUOUS
 10
79.634518
 20
89.111840
 11
76.634518
 21
89.111840
  0
LINE
  8
1
 62
7
  6
CONTINUOUS
 10
76.634518
 20
88.669914
 11
76.634518
 21
89.111840
  0
LINE
  8
1
 62
7
  6
CONTINUOUS
 10
76.634518
 20
104.669914
 11
79.634518
 21
104.669914
  0
LINE
  8
1
 62
7
  6
CONTINUOUS
 10
79.634518
 20
104.669914
 11
79.634518
 21
88.669914
  0
LINE
  8
1
 62
7
  6
CONTINUOUS
 10
79.634518
 20
104.227989
 11
76.634518
 21
104.227989
  0
LINE
  8
1
 62
7
  6
CONTINUOUS
 10
76.634518
 20
89.111840
 11
75.634518
 21
89.111840
  0
LINE
  8
1
 62
7
  6
DASHDOT
 10
67.634518
 20
107.743938
 11
67.634518
 21
100.437992
  0
LINE
  8
1
 62
7
  6
CONTINUOUS
 10
72.634518
 20
88.669916
 11
72.634518
 21
89.111841
  0
LINE
  8
1
 62
7
  6
DOT
 10
66.334518
 20
106.669914
 11
66.334518
 21
103.169912
  0
LINE
  8
1
 62
7
  6
DOT
 10
66.134518
 20
106.669914
 11
66.134518
 21
103.169911
  0
LINE
  8
1
 62
7
  6
DOT
 10
68.940106
 20
106.669914
 11
68.940106
 21
103.169912
  0
LINE
  8
1
 62
7
  6
DOT
 10
69.134518
 20
106.669914
 11
69.134518
 21
103.169912
  0
LINE
  8
1
 62
7
  6
DOT
 10
26.634518
 20
105.169914
 11
61.634518
 21
105.169914
  0
LINE
  8
1
 62
7
  6
DOT
 10
61.634518
 20
105.169914
 11
62.789220
 21
103.169911
  0
LINE
  8
1
 62
7
  6
DOT
 10
62.789220
 20
103.169911
 11
62.789220
 21
90.169921
  0
LINE
  8
1
 62
7
  6
DOT
 10
79.634518
 20
103.169914
 11
62.789220
 21
103.169911
  0
LINE
  8
1
 62
7
  6
DOT
 10
26.634518
 20
88.169914
 11
61.634518
 21
88.169914
  0
LINE
  8
1
 62
7
  6
DOT
 10
61.634518
 20
88.169915
 11
62.789220
 21
90.169918
  0
LINE
  8
1
 62
7
  6
DOT
 10
61.634518
 20
105.169914
 11
61.634518
 21
88.169915
  0
LINE
  8
1
 62
7
  6
DOT
 10
79.634518
 20
90.169914
 11
62.789220
 21
90.169921
  0
LINE
  8
1
 62
7
  6
CONTINUOUS
 10
71.634518
 20
89.111841
 11
71.634518
 21
106.669914
  0
LINE
  8
1
 62
7
  6
CONTINUOUS
 10
72.634518
 20
89.111841
 11
72.634518
 21
104.669913
  0
LINE
  8
1
 62
7
  6
CONTINUOUS
 10
27.134518
 20
86.669914
 11
27.134518
 21
106.669914
  0
LINE
  8
1
 62
7
  6
CONTINUOUS
 10
76.634518
 20
89.111840
 11
76.634518
 21
104.669914
  0
LINE
  8
1
 62
7
  6
DOT
 10
75.134518
 20
89.111841
 11
75.134518
 21
104.669913
  0
LINE
  8
1
 62
7
  6
DOT
 10
75.134518
 20
104.227988
 11
72.429706
 21
104.227988
  0
LINE
  8
1
 62
7
  6
DOT
 10
75.134518
 20
89.111841
 11
72.429706
 21
89.111841
  0
LINE
  8
1
 62
7
  6
DOT
 10
72.634518
 20
88.669916
 11
75.134518
 21
88.669916
  0
LINE
  8
1
 62
7
  6
DOT
 10
75.134518
 20
89.111840
 11
75.134518
 21
88.669916
  0
LINE
  8
1
 62
7
  6
DOT
 10
72.634518
 20
104.669913
 11
75.134518
 21
104.669913
  0
LINE
  8
3
 62
7
  6
DASHDOT
 10
80.097533
 20
96.669914
 11
67.883054
 21
96.669914
  0
LINE
  8
3
 62
7
  6
CONTINUOUS
 10
72.634518
 20
106.669914
 11
76.634518
 21
106.669914
  0
LINE
  8
3
 62
7
  6
CONTINUOUS
 10
76.634518
 20
87.469914
 11
76.634518
 21
86.669914
  0
LINE
  8
3
 62
7
  6
CONTINUOUS
 10
72.634518
 20
86.669914
 11
76.634518
 21
86.669914
  0
LINE
  8
3
 62
7
  6
CONTINUOUS
 10
72.634518
 20
106.669914
 11
72.634518
 21
86.669914
  0
LINE
  8
3
 62
7
  6
DOT
 10
75.634518
 20
105.869914
 11
75.634518
 21
87.469914
  0
LINE
  8
3
 62
7
  6
DOT
 10
75.634518
 20
87.469914
 11
76.634518
 21
87.469914
  0
LINE
  8
3
 62
7
  6
DOT
 10
75.634518
 20
105.869914
 11
76.634518
 21
105.869914
  0
LINE
  8
3
 62
7
  6
CONTINUOUS
 10
76.634518
 20
87.469914
 11
76.634518
 21
106.669914
  0
LINE
  8
3
 62
7
  6
CONTINUOUS
 10
76.634518
 20
101.028813
 11
72.634518
 21
101.028813
  0
LINE
  8
3
 62
7
  6
CONTINUOUS
 10
76.634518
 20
92.311015
 11
72.634518
 21
92.311015
  0
LINE
  8
3
 62
7
  6
CONTINUOUS
 10
76.634518
 20
98.577793
 11
75.634518
 21
98.577793
  0
LINE
  8
3
 62
7
  6
CONTINUOUS
 10
75.634518
 20
98.577793
 11
75.634518
 21
94.762036
  0
LINE
  8
3
 62
7
  6
CONTINUOUS
 10
75.634518
 20
94.762036
 11
76.634518
 21
94.762036
  0
TEXT
  8
5
 62
94
  6
CONTINUOUS
 10
44.277904
 20
13.519931
 40
2.000000
 41
0.500000
  1
2013/05/03
  7
KANJI
 50
0.000000
 51
0.000000
  0
TEXT
  8
2
 62
134
  6
CONTINUOUS
 10
47.424194
 20
72.968548
 40
2.000000
 41
1.000000
  1
質量：35g
  7
KANJI
 50
0.000000
 51
0.000000
  0
ENDSEC
  0
EOF
