  0
SECTION
  2
HEADER
  9
$ACADVER
  1
AC1009
  9
$INSBASE
 10
0.000000
 20
0.000000
  9
$EXTMIN
 10
0.000000
 20
0.000000
  9
$EXTMAX
 10
105.000000
 20
148.500000
  9
$LIMMIN
 10
0.000000
 20
0.000000
  9
$LIMMAX
 10
105.000000
 20
148.500000
  9
$VIEWCTR
 10
52.500000
 20
74.250000
  9
$VIEWSIZE
 40
148.500000
  9
$PEXTMIN
 10
0.000000
 20
0.000000
 30
0.000000
  9
$PEXTMAX
 10
210.000000
 20
297.000000
 30
0.000000
  9
$SNAPMODE
 70
     0
  9
$SNAPUNIT
 10
1.000000
 20
1.000000
  9
$SNAPBASE
 10
0.000000
 20
0.000000
  9
$SNAPANG
 50
0.000000
  9
$SNAPISOPAIR
 70
     0
  9
$SNAPSTYLE
 70
     0
  9
$GRIDMODE
 70
     0
  9
$GRIDUNIT
 10
0.000000
 20
0.000000
  9
$ORTHOMODE
 70
     0
  9
$REGENMODE
 70
     1
  9
$FILLMODE
 70
     1
  9
$QTEXTMODE
 70
     0
  9
$DRAGMODE
 70
     2
  9
$LTSCALE
 40
0.125000
  9
$OSMODE
 70
     0
  9
$ATTMODE
 70
     1
  9
$TEXTSIZE
 40
2.000000
  9
$TRACEWID
 40
0.050000
  9
$TEXTSTYLE
  7
STANDARD
  9
$CLAYER
  8
0
  9
$CELTYPE
  6
BYLAYER
  9
$CECOLOR
 62
   256
  9
$DIMSCALE
 40
1.000000
  9
$DIMASZ
 40
1.000000
  9
$DIMEXO
 40
0.000000
  9
$DIMDLI
 40
0.500000
  9
$DIMRND
 40
0.000000
  9
$DIMDLE
 40
0.000000
  9
$DIMEXE
 40
0.000000
  9
$DIMTP
 40
0.000000
  9
$DIMTM
 40
0.000000
  9
$DIMTXT
 40
4.000000
  9
$DIMCEN
 40
0.000000
  9
$DIMTSZ
 40
0.000000
  9
$DIMTOL
 70
     0
  9
$DIMLIM
 70
     0
  9
$DIMTIH
 70
     1
  9
$DIMTOH
 70
     1
  9
$DIMSE1
 70
     0
  9
$DIMSE2
 70
     0
  9
$DIMTAD
 70
     0
  9
$DIMZIN
 70
     0
  9
$DIMBLK
  1

  9
$DIMASO
 70
     0
  9
$DIMSHO
 70
     0
  9
$DIMPOST
  1

  9
$DIMAPOST
  1

  9
$DIMALT
 70
     0
  9
$DIMALTD
 70
     0
  9
$DIMALTF
 40
25.400000
  9
$DIMLFAC
 40
1.000000
  9
$DIMTOFL
 70
     0
  9
$DIMTVP
 40
0.000000
  9
$DIMTIX
 70
     0
  9
$DIMSOXD
 70
     0
  9
$DIMSAH
 70
     0
  9
$DIMBLKL
  1

  9
$DIMBLKR
  1

  9
$LUNITS
 70
     2
  9
$LUPREC
 70
     2
  9
$AXISMODE
 70
     0
  9
$AXISUNIT
 10
1.000000
 20
1.000000
  9
$SKETCHINC
 40
0.000000
  9
$FILLETRAD
 40
0.000000
  9
$AUNITS
 70
     1
  9
$AUPREC
 70
     2
  9
$MENU
  1
ACAD
  9
$ELEVATION
 40
0.000000
  9
$THICKNESS
 40
0.000000
  9
$VIEWDIR
 10
0.000000
 20
0.000000
 30
1.000000
  9
$LIMCHECK
 70
     1
  9
$BLIPMODE
 70
     1
  9
$CHAMFERA
 40
0.000000
  9
$CHAMFERB
 40
0.000000
  9
$FASTZOOM
 70
     1
  9
$SKPOLY
 70
     0
  9
$TDCREATE
 40
0.000000
  9
$TDUPDATE
 40
0.000000
  9
$TDINDWG
 40
0.000000
  9
$TDUSRTIMER
 40
0.000000
  9
$USRTIMER
 70
     1
  9
$ANGBASE
 50
0.000000
  9
$ANGDIR
 70
     0
  9
$PDMODE
 70
     0
  9
$PDSIZE
 40
0.000000
  9
$PLINEWID
 40
0.000000
  9
$COORDS
 70
     2
  9
$USERI1
 70
     0
  9
$USERI2
 70
     0
  9
$USERI3
 70
     0
  9
$USERI4
 70
     0
  9
$USERI5
 70
     0
  9
$USERR1
 40
0.000000
  9
$USERR2
 40
0.000000
  9
$USERR3
 40
0.000000
  9
$USERR4
 40
0.000000
  9
$USERR5
 40
0.000000
  0
ENDSEC
  0
SECTION
  2
TABLES
  0
TABLE
  2
LTYPE
 70
     5
  0
LTYPE
  2
CONTINUOUS
 70
    64
  3
Solid line
 72
    65
 73
     0
 40
0.0
  0
LTYPE
  2
HIDDEN
 70
    64
  3
------------------------
 72
    65
 73
     2
 40
12.6
 49
8.4
 49
-4.2
  0
LTYPE
  2
DOT
 70
    64
  3
････････････････････････
 72
    65
 73
     2
 40
8.0
 49
6.0
 49
-2.0
  0
LTYPE
  2
DASHDOT
 70
    64
  3
--･--･--･--･--･--･--･--
 72
    65
 73
     4
 40
50.5
 49
30.0
 49
-9.0
 49
2.5
 49
-9.0
  0
LTYPE
  2
DIVIDE
 70
    64
  3
--･･--･･--･･--･･--･･--
 72
    65
 73
     6
 40
58.0
 49
30.0
 49
-9.0
 49
2.5
 49
-5.0
 49
2.5
 49
-9.0
  0
LTYPE
  2
ACAD_ISO06W100
 70
    64
  3
____ ... ____ ... ____
 72
    65
 73
     8
 40
37.5
 49
24.0
 49
-3.0
 49
0.5
 49
-3.0
 49
0.5
 49
-3.0
 49
0.5
 49
-3.0
  0
LTYPE
  2
ACAD_ISO14W100
 70
    64
  3
__ . . . __ . . . __ . . . 
 72
    65
 73
     8
 40
25.5
 49
12.0
 49
-3.0
 49
0.5
 49
-3.0
 49
0.5
 49
-3.0
 49
0.5
 49
-3.0
  0
ENDTAB
  0
TABLE
  2
LAYER
 70
4
  0
LAYER
  2
1
 70
64
 62
7
  6
CONTINUOUS
  0
LAYER
  2
2
 70
64
 62
134
  6
CONTINUOUS
  0
LAYER
  2
5
 70
64
 62
94
  6
CONTINUOUS
  0
LAYER
  2
11
 70
64
 62
251
  6
CONTINUOUS
  0
ENDTAB
  0
TABLE
  2
STYLE
 70
     2
  0
STYLE
  2
STANDARD
 70
    64
 40
0.0
 41
1.0
 50
0.0
 71
     0
 42
0.2
  3
TXT
  4

  0
STYLE
  2
KANJI
 70
    64
 40
0.0
 41
1.0
 50
0.0
 71
     0
 42
0.2
  3
TXT
  4
BIGFONT
  0
ENDTAB
  0
TABLE
  2
VIEW
 70
     0
  0
ENDTAB
  0
ENDSEC
  0
SECTION
  2
BLOCKS
  0
BLOCK
  8
2
 62
134
  6
CONTINUOUS
  2
*D1
 70
    65
 10
0.0
 20
0.0
  0
LINE
  8
2
 62
134
  6
CONTINUOUS
 10
41.994780
 20
73.036647
 11
53.993546
 21
73.036647
  0
LINE
  8
2
 62
134
  6
CONTINUOUS
 10
41.994780
 20
72.536647
 11
41.994780
 21
81.669917
  0
LINE
  8
2
 62
134
  6
CONTINUOUS
 10
53.993546
 20
72.536647
 11
53.993546
 21
83.469914
  0
LINE
  8
2
 62
134
  6
CONTINUOUS
 10
41.994780
 20
73.036647
 11
42.960706
 21
73.295466
  0
LINE
  8
2
 62
134
  6
CONTINUOUS
 10
41.994780
 20
73.036647
 11
42.960706
 21
72.777828
  0
LINE
  8
2
 62
134
  6
CONTINUOUS
 10
42.960706
 20
73.295466
 11
42.960706
 21
72.777828
  0
LINE
  8
2
 62
134
  6
CONTINUOUS
 10
42.236262
 20
73.036647
 11
42.719225
 21
73.166056
  0
LINE
  8
2
 62
134
  6
CONTINUOUS
 10
42.236262
 20
73.036647
 11
42.719225
 21
72.907237
  0
LINE
  8
2
 62
134
  6
CONTINUOUS
 10
42.719225
 20
73.166056
 11
42.719225
 21
72.907237
  0
LINE
  8
2
 62
134
  6
CONTINUOUS
 10
53.993546
 20
73.036647
 11
53.027620
 21
72.777828
  0
LINE
  8
2
 62
134
  6
CONTINUOUS
 10
53.993546
 20
73.036647
 11
53.027620
 21
73.295466
  0
LINE
  8
2
 62
134
  6
CONTINUOUS
 10
53.027620
 20
72.777828
 11
53.027620
 21
73.295466
  0
LINE
  8
2
 62
134
  6
CONTINUOUS
 10
53.752064
 20
73.036647
 11
53.269101
 21
72.907237
  0
LINE
  8
2
 62
134
  6
CONTINUOUS
 10
53.752064
 20
73.036647
 11
53.269101
 21
73.166056
  0
LINE
  8
2
 62
134
  6
CONTINUOUS
 10
53.269101
 20
72.907237
 11
53.269101
 21
73.166056
  0
TEXT
  8
2
 62
134
  6
CONTINUOUS
 10
46.639621
 20
73.036647
 40
2.000000
 41
0.500000
  1
12
  7
KANJI
 50
0.000000
 51
0.000000
  0
ENDBLK
  0
BLOCK
  8
2
 62
134
  6
CONTINUOUS
  2
*D2
 70
    65
 10
0.0
 20
0.0
  0
LINE
  8
2
 62
134
  6
CONTINUOUS
 10
58.727070
 20
83.669914
 11
58.727070
 21
109.669914
  0
LINE
  8
2
 62
134
  6
CONTINUOUS
 10
59.227070
 20
83.669914
 11
54.193546
 21
83.669914
  0
LINE
  8
2
 62
134
  6
CONTINUOUS
 10
59.227070
 20
109.669914
 11
54.193546
 21
109.669914
  0
LINE
  8
2
 62
134
  6
CONTINUOUS
 10
58.727070
 20
83.669914
 11
58.468250
 21
84.635840
  0
LINE
  8
2
 62
134
  6
CONTINUOUS
 10
58.727070
 20
83.669914
 11
58.985889
 21
84.635840
  0
LINE
  8
2
 62
134
  6
CONTINUOUS
 10
58.468250
 20
84.635840
 11
58.985889
 21
84.635840
  0
LINE
  8
2
 62
134
  6
CONTINUOUS
 10
58.727070
 20
83.911396
 11
58.597660
 21
84.394359
  0
LINE
  8
2
 62
134
  6
CONTINUOUS
 10
58.727070
 20
83.911396
 11
58.856479
 21
84.394359
  0
LINE
  8
2
 62
134
  6
CONTINUOUS
 10
58.597660
 20
84.394359
 11
58.856479
 21
84.394359
  0
LINE
  8
2
 62
134
  6
CONTINUOUS
 10
58.727070
 20
109.669914
 11
58.985889
 21
108.703989
  0
LINE
  8
2
 62
134
  6
CONTINUOUS
 10
58.727070
 20
109.669914
 11
58.468250
 21
108.703989
  0
LINE
  8
2
 62
134
  6
CONTINUOUS
 10
58.985889
 20
108.703989
 11
58.468250
 21
108.703989
  0
LINE
  8
2
 62
134
  6
CONTINUOUS
 10
58.727070
 20
109.428433
 11
58.856479
 21
108.945470
  0
LINE
  8
2
 62
134
  6
CONTINUOUS
 10
58.727070
 20
109.428433
 11
58.597660
 21
108.945470
  0
LINE
  8
2
 62
134
  6
CONTINUOUS
 10
58.856479
 20
108.945470
 11
58.597660
 21
108.945470
  0
TEXT
  8
2
 62
134
  6
CONTINUOUS
 10
58.727070
 20
92.669914
 40
2.000000
 41
0.500000
  1
M26P0.75
  7
KANJI
 50
90.000000
 51
0.000000
  0
ENDBLK
  0
BLOCK
  8
2
 62
134
  6
CONTINUOUS
  2
*D3
 70
    65
 10
0.0
 20
0.0
  0
LINE
  8
2
 62
134
  6
CONTINUOUS
 10
37.820382
 20
81.669912
 11
37.820377
 21
111.669912
  0
LINE
  8
2
 62
134
  6
CONTINUOUS
 10
37.320382
 20
81.669912
 11
41.994780
 21
81.669913
  0
LINE
  8
2
 62
134
  6
CONTINUOUS
 10
37.320377
 20
111.669912
 11
41.994780
 21
111.669913
  0
LINE
  8
2
 62
134
  6
CONTINUOUS
 10
37.820382
 20
81.669912
 11
37.561563
 21
82.635838
  0
LINE
  8
2
 62
134
  6
CONTINUOUS
 10
37.820382
 20
81.669912
 11
38.079201
 21
82.635838
  0
LINE
  8
2
 62
134
  6
CONTINUOUS
 10
37.561563
 20
82.635838
 11
38.079201
 21
82.635838
  0
LINE
  8
2
 62
134
  6
CONTINUOUS
 10
37.820382
 20
81.911394
 11
37.690973
 21
82.394357
  0
LINE
  8
2
 62
134
  6
CONTINUOUS
 10
37.820382
 20
81.911394
 11
37.949792
 21
82.394357
  0
LINE
  8
2
 62
134
  6
CONTINUOUS
 10
37.690973
 20
82.394357
 11
37.949792
 21
82.394357
  0
LINE
  8
2
 62
134
  6
CONTINUOUS
 10
37.820377
 20
111.669912
 11
38.079196
 21
110.703986
  0
LINE
  8
2
 62
134
  6
CONTINUOUS
 10
37.820377
 20
111.669912
 11
37.561558
 21
110.703986
  0
LINE
  8
2
 62
134
  6
CONTINUOUS
 10
38.079196
 20
110.703986
 11
37.561558
 21
110.703986
  0
LINE
  8
2
 62
134
  6
CONTINUOUS
 10
37.820377
 20
111.428431
 11
37.949787
 21
110.945468
  0
LINE
  8
2
 62
134
  6
CONTINUOUS
 10
37.820377
 20
111.428431
 11
37.690967
 21
110.945468
  0
LINE
  8
2
 62
134
  6
CONTINUOUS
 10
37.949787
 20
110.945468
 11
37.690967
 21
110.945468
  0
TEXT
  8
2
 62
134
  6
CONTINUOUS
 10
37.820380
 20
94.489485
 40
2.000000
 41
1.000000
  1
φ30.5
  7
KANJI
 50
90.000011
 51
0.000000
  0
ENDBLK
  0
BLOCK
  8
2
 62
134
  6
CONTINUOUS
  2
*D4
 70
    65
 10
0.0
 20
0.0
  0
LINE
  8
2
 62
134
  6
CONTINUOUS
 10
50.993546
 20
76.872545
 11
53.993546
 21
76.872545
  0
LINE
  8
2
 62
134
  6
CONTINUOUS
 10
50.993546
 20
76.372545
 11
50.993546
 21
83.611840
  0
LINE
  8
2
 62
134
  6
CONTINUOUS
 10
53.993546
 20
76.372545
 11
53.993546
 21
83.469914
  0
LINE
  8
2
 62
134
  6
CONTINUOUS
 10
50.993546
 20
76.872545
 11
51.959472
 21
77.131364
  0
LINE
  8
2
 62
134
  6
CONTINUOUS
 10
50.993546
 20
76.872545
 11
51.959472
 21
76.613726
  0
LINE
  8
2
 62
134
  6
CONTINUOUS
 10
51.959472
 20
77.131364
 11
51.959472
 21
76.613726
  0
LINE
  8
2
 62
134
  6
CONTINUOUS
 10
51.235027
 20
76.872545
 11
51.717990
 21
77.001955
  0
LINE
  8
2
 62
134
  6
CONTINUOUS
 10
51.235027
 20
76.872545
 11
51.717990
 21
76.743136
  0
LINE
  8
2
 62
134
  6
CONTINUOUS
 10
51.717990
 20
77.001955
 11
51.717990
 21
76.743136
  0
LINE
  8
2
 62
134
  6
CONTINUOUS
 10
53.993546
 20
76.872545
 11
53.027620
 21
76.613726
  0
LINE
  8
2
 62
134
  6
CONTINUOUS
 10
53.993546
 20
76.872545
 11
53.027620
 21
77.131364
  0
LINE
  8
2
 62
134
  6
CONTINUOUS
 10
53.027620
 20
76.613726
 11
53.027620
 21
77.131364
  0
LINE
  8
2
 62
134
  6
CONTINUOUS
 10
53.752064
 20
76.872545
 11
53.269101
 21
76.743136
  0
LINE
  8
2
 62
134
  6
CONTINUOUS
 10
53.752064
 20
76.872545
 11
53.269101
 21
77.001955
  0
LINE
  8
2
 62
134
  6
CONTINUOUS
 10
53.269101
 20
76.743136
 11
53.269101
 21
77.001955
  0
TEXT
  8
2
 62
134
  6
CONTINUOUS
 10
51.873054
 20
76.872545
 40
2.000000
 41
0.500000
  1
3
  7
KANJI
 50
0.000000
 51
0.000000
  0
ENDBLK
  0
ENDSEC
  0
SECTION
  2
ENTITIES
  0
TEXT
  8
5
 62
94
  6
CONTINUOUS
 10
62.215971
 20
12.429830
 40
0.875000
 41
4.000000
  1
製図
  7
KANJI
 50
-90.000000
 51
0.000000
  0
TEXT
  8
5
 62
94
  6
CONTINUOUS
 10
72.132362
 20
12.347876
 40
0.875000
 41
4.000000
  1
図番
  7
KANJI
 50
-90.000000
 51
0.000000
  0
TEXT
  8
5
 62
94
  6
CONTINUOUS
 10
72.132362
 20
18.986121
 40
0.875000
 41
4.000000
  1
図　名
  7
KANJI
 50
-90.000000
 51
0.000000
  0
TEXT
  8
5
 62
94
  6
CONTINUOUS
 10
39.678720
 20
16.281651
 40
0.875000
 41
4.000000
  1
日付
  7
KANJI
 50
-90.000000
 51
0.000000
  0
TEXT
  8
5
 62
94
  6
CONTINUOUS
 10
57.216799
 20
16.363605
 40
0.875000
 41
4.000000
  1
図法
  7
KANJI
 50
-90.000000
 51
0.000000
  0
TEXT
  8
5
 62
94
  6
CONTINUOUS
 10
57.134846
 20
20.379333
 40
0.875000
 41
4.000000
  1
尺度
  7
KANJI
 50
-90.000000
 51
0.000000
  0
TEXT
  8
5
 62
94
  6
CONTINUOUS
 10
39.678720
 20
20.297379
 40
0.875000
 41
4.000000
  1
公差
  7
KANJI
 50
-90.000000
 51
0.000000
  0
TEXT
  8
5
 62
94
  6
CONTINUOUS
 10
39.678720
 20
12.347876
 40
0.875000
 41
4.000000
  1
承認
  7
KANJI
 50
-90.000000
 51
0.000000
  0
TEXT
  8
5
 62
94
  6
CONTINUOUS
 10
52.217627
 20
12.347876
 40
0.875000
 41
4.000000
  1
設計
  7
KANJI
 50
-90.000000
 51
0.000000
  0
TEXT
  8
5
 62
94
  6
CONTINUOUS
 10
48.939481
 20
5.381816
 40
2.250000
 41
1.888889
  1
ジャパンセンサー株式会社
  7
KANJI
 50
0.000000
 51
0.000000
  0
LINE
  8
5
 62
94
  6
CONTINUOUS
 10
39.234597
 20
20.604085
 11
99.234597
 21
20.604085
  0
LINE
  8
5
 62
94
  6
CONTINUOUS
 10
39.234597
 20
4.604085
 11
39.234597
 21
20.604085
  0
LINE
  8
5
 62
94
  6
CONTINUOUS
 10
99.234597
 20
8.604085
 11
39.234597
 21
8.604085
  0
LINE
  8
5
 62
94
  6
CONTINUOUS
 10
71.734597
 20
20.604085
 11
71.734597
 21
8.604085
  0
LINE
  8
5
 62
94
  6
CONTINUOUS
 10
99.234597
 20
12.604085
 11
39.234597
 21
12.604085
  0
LINE
  8
5
 62
94
  6
CONTINUOUS
 10
74.234597
 20
8.604085
 11
74.234597
 21
20.604085
  0
LINE
  8
5
 62
94
  6
CONTINUOUS
 10
59.234597
 20
20.604085
 11
59.234597
 21
12.604085
  0
LINE
  8
5
 62
94
  6
CONTINUOUS
 10
41.734597
 20
8.604085
 11
41.734597
 21
20.604085
  0
LINE
  8
5
 62
94
  6
CONTINUOUS
 10
39.234597
 20
16.604085
 11
71.734597
 21
16.604085
  0
LINE
  8
5
 62
94
  6
CONTINUOUS
 10
56.734597
 20
20.604085
 11
56.734597
 21
12.604085
  0
LINE
  8
5
 62
94
  6
CONTINUOUS
 10
51.734597
 20
8.604085
 11
51.734597
 21
12.604085
  0
LINE
  8
5
 62
94
  6
CONTINUOUS
 10
61.734597
 20
8.604085
 11
61.734597
 21
12.604085
  0
LINE
  8
5
 62
94
  6
CONTINUOUS
 10
54.234597
 20
12.604085
 11
54.234597
 21
8.604085
  0
LINE
  8
5
 62
94
  6
CONTINUOUS
 10
64.234597
 20
12.604085
 11
64.234597
 21
8.604085
  0
TEXT
  8
5
 62
94
  6
CONTINUOUS
 10
61.232528
 20
13.249366
 40
2.000000
 41
1.000000
  1
三角法
  7
KANJI
 50
0.000000
 51
0.000000
  0
LINE
  8
5
 62
94
  6
CONTINUOUS
 10
75.556448
 20
16.589321
 11
97.626822
 21
16.589321
  0
TEXT
  8
5
 62
94
  6
CONTINUOUS
 10
55.824656
 20
9.573573
 40
2.000000
 41
1.000000
  1
須藤
  7
KANJI
 50
0.000000
 51
0.000000
  0
TEXT
  8
5
 62
94
  6
CONTINUOUS
 10
62.548081
 20
17.466289
 40
2.000000
 41
1.000000
  1
２／１
  7
KANJI
 50
0.000000
 51
0.000000
  0
TEXT
  8
5
 62
94
  6
CONTINUOUS
 10
65.824656
 20
9.573573
 40
2.000000
 41
1.000000
  1
須藤
  7
KANJI
 50
0.000000
 51
0.000000
  0
LINE
  8
5
 62
94
  6
CONTINUOUS
 10
6.734597
 20
142.104085
 11
6.734597
 21
4.604085
  0
LINE
  8
5
 62
94
  6
CONTINUOUS
 10
6.734597
 20
4.604085
 11
99.234597
 21
4.604085
  0
LINE
  8
5
 62
94
  6
CONTINUOUS
 10
99.234597
 20
4.604085
 11
99.234597
 21
142.104085
  0
LINE
  8
5
 62
94
  6
CONTINUOUS
 10
99.234597
 20
142.104085
 11
6.734597
 21
142.104085
  0
TEXT
  8
5
 62
94
  6
CONTINUOUS
 10
75.695594
 20
13.530056
 40
2.000000
 41
1.000000
  1
φ25窓材 外形図
  7
KANJI
 50
0.000000
 51
0.000000
  0
TEXT
  8
5
 62
94
  6
CONTINUOUS
 10
44.277904
 20
13.519931
 40
2.000000
 41
0.500000
  1
2013/04/20
  7
KANJI
 50
0.000000
 51
0.000000
  0
LINE
  8
1
 62
7
  6
CONTINUOUS
 10
41.994780
 20
111.169913
 11
42.494780
 21
111.669913
  0
LINE
  8
1
 62
7
  6
CONTINUOUS
 10
41.994780
 20
82.169913
 11
42.494780
 21
81.669913
  0
LINE
  8
1
 62
7
  6
CONTINUOUS
 10
41.994780
 20
82.169917
 11
41.994780
 21
111.169913
  0
LINE
  8
1
 62
7
  6
CONTINUOUS
 10
47.993546
 20
108.169913
 11
47.993546
 21
108.169916
  0
LINE
  8
1
 62
7
  6
DASHDOT
 10
39.847055
 20
96.669914
 11
56.725511
 21
96.669914
  0
LINE
  8
1
 62
7
  6
CONTINUOUS
 10
53.693546
 20
109.669914
 11
53.993546
 21
109.369914
  0
LINE
  8
1
 62
7
  6
CONTINUOUS
 10
53.993546
 20
109.369914
 11
53.993546
 21
83.969914
  0
LINE
  8
1
 62
7
  6
CONTINUOUS
 10
53.993546
 20
83.969914
 11
53.693546
 21
83.669914
  0
LINE
  8
1
 62
7
  6
DOT
 10
48.693546
 20
84.064701
 11
41.994780
 21
84.064702
  0
LINE
  8
1
 62
7
  6
DOT
 10
53.993546
 20
85.269914
 11
47.993546
 21
85.269916
  0
LINE
  8
1
 62
7
  6
DOT
 10
48.693546
 20
85.069914
 11
47.993546
 21
85.069914
  0
LINE
  8
1
 62
7
  6
DOT
 10
48.693546
 20
85.069914
 11
48.693546
 21
84.064701
  0
LINE
  8
1
 62
7
  6
DOT
 10
46.493546
 20
83.669914
 11
41.994780
 21
83.669914
  0
LINE
  8
1
 62
7
  6
DOT
 10
46.493546
 20
83.669914
 11
47.493546
 21
84.064701
  0
LINE
  8
1
 62
7
  6
DOT
 10
48.693546
 20
109.275128
 11
41.994780
 21
109.275127
  0
LINE
  8
1
 62
7
  6
DOT
 10
53.993546
 20
108.069915
 11
47.993546
 21
108.069913
  0
LINE
  8
1
 62
7
  6
DOT
 10
48.693546
 20
108.269915
 11
47.993546
 21
108.269915
  0
LINE
  8
1
 62
7
  6
DOT
 10
48.693546
 20
108.269915
 11
48.693546
 21
109.275128
  0
LINE
  8
1
 62
7
  6
DOT
 10
47.993546
 20
108.269915
 11
47.993546
 21
85.069915
  0
LINE
  8
1
 62
7
  6
DOT
 10
46.493546
 20
109.669915
 11
47.493546
 21
109.275128
  0
LINE
  8
1
 62
7
  6
CONTINUOUS
 10
42.494780
 20
111.669913
 11
42.494780
 21
81.669913
  0
LINE
  8
1
 62
7
  6
DOT
 10
47.993546
 20
109.169914
 11
45.993546
 21
109.169913
  0
LINE
  8
1
 62
7
  6
DOT
 10
47.993546
 20
84.169914
 11
47.993546
 21
109.169914
  0
LINE
  8
1
 62
7
  6
DOT
 10
45.993546
 20
109.169913
 11
45.993546
 21
84.169913
  0
LINE
  8
1
 62
7
  6
DOT
 10
47.993546
 20
84.169914
 11
45.993546
 21
84.169913
  0
LINE
  8
1
 62
7
  6
CONTINUOUS
 10
53.693546
 20
109.669914
 11
53.693546
 21
83.669914
  0
LINE
  8
2
 62
134
  6
CONTINUOUS
 10
46.934734
 20
100.804475
 11
37.018437
 21
104.615104
  0
LINE
  8
2
 62
134
  6
CONTINUOUS
 10
37.018437
 20
104.615104
 11
32.463583
 21
104.615104
  0
TEXT
  8
2
 62
134
  6
CONTINUOUS
 10
32.463583
 20
104.658407
 40
2.000000
 41
1.000000
  1
窓材
  7
KANJI
 50
0.000000
 51
0.000000
  0
LINE
  8
2
 62
134
  6
CONTINUOUS
 10
46.934734
 20
100.804475
 11
45.940250
 21
100.909363
  0
LINE
  8
2
 62
134
  6
CONTINUOUS
 10
46.934734
 20
100.804475
 11
46.125930
 21
101.392553
  0
LINE
  8
2
 62
134
  6
CONTINUOUS
 10
45.940250
 20
100.909363
 11
46.125930
 21
101.392553
  0
LINE
  8
2
 62
134
  6
CONTINUOUS
 10
46.709323
 20
100.891095
 11
46.212081
 21
100.943540
  0
LINE
  8
2
 62
134
  6
CONTINUOUS
 10
46.709323
 20
100.891095
 11
46.304921
 21
101.185135
  0
LINE
  8
2
 62
134
  6
CONTINUOUS
 10
46.212081
 20
100.943540
 11
46.304921
 21
101.185135
  0
DIMENSION
  8
2
 62
134
  6
CONTINUOUS
  2
*D1
 10
41.994780
 20
73.036647
 11
47.639621
 21
73.036647
 70
     0
  1
12
 13
41.994780
 23
81.669917
 14
53.993546
 24
83.469914
 50
0.000000
  0
DIMENSION
  8
2
 62
134
  6
CONTINUOUS
  2
*D2
 10
58.727070
 20
83.669914
 11
58.727070
 21
96.669914
 70
     0
  1
M26P0.75
 13
54.193546
 23
83.669914
 14
54.193546
 24
109.669914
 50
90.000000
  0
TEXT
  8
5
 62
94
  6
CONTINUOUS
 10
76.811453
 20
17.600784
 40
2.000000
 41
1.000000
  1
ＴＭＤＸ－２５Ｃ
  7
KANJI
 50
0.000000
 51
0.000000
  0
TEXT
  8
5
 62
94
  6
CONTINUOUS
 10
74.795305
 20
9.504378
 40
2.000000
 41
1.000000
  1
００５－０６５－Ａ１１５
  7
KANJI
 50
0.000000
 51
0.000000
  0
DIMENSION
  8
2
 62
134
  6
CONTINUOUS
  2
*D3
 10
37.820382
 20
81.669912
 11
37.820380
 21
97.489485
 70
     0
  1
φ30.5
 13
41.994780
 23
81.669913
 14
41.994780
 24
111.669913
 50
90.000011
  0
LINE
  8
1
 62
7
  6
CONTINUOUS
 10
53.993546
 20
84.111840
 11
51.493546
 21
84.111840
  0
LINE
  8
1
 62
7
  6
CONTINUOUS
 10
51.493546
 20
83.669914
 11
51.493546
 21
84.111840
  0
LINE
  8
1
 62
7
  6
CONTINUOUS
 10
53.993546
 20
109.227989
 11
51.493546
 21
109.227989
  0
LINE
  8
1
 62
7
  6
CONTINUOUS
 10
51.493546
 20
109.669914
 11
53.693546
 21
109.669914
  0
LINE
  8
1
 62
7
  6
CONTINUOUS
 10
51.493546
 20
83.669914
 11
53.693546
 21
83.669914
  0
LINE
  8
1
 62
7
  6
CONTINUOUS
 10
51.493546
 20
109.669914
 11
51.493546
 21
84.111840
  0
LINE
  8
1
 62
7
  6
CONTINUOUS
 10
50.993546
 20
111.669914
 11
42.494780
 21
111.669913
  0
LINE
  8
1
 62
7
  6
CONTINUOUS
 10
50.993546
 20
81.669914
 11
42.494780
 21
81.669913
  0
LINE
  8
1
 62
7
  6
CONTINUOUS
 10
50.993546
 20
81.669914
 11
50.993546
 21
84.111840
  0
LINE
  8
1
 62
7
  6
CONTINUOUS
 10
50.993546
 20
111.669914
 11
50.993546
 21
84.111840
  0
LINE
  8
1
 62
7
  6
CONTINUOUS
 10
42.494780
 20
97.716261
 11
50.993546
 21
97.716261
  0
LINE
  8
1
 62
7
  6
CONTINUOUS
 10
50.993546
 20
98.757511
 11
42.494780
 21
98.757511
  0
LINE
  8
1
 62
7
  6
CONTINUOUS
 10
50.993546
 20
99.788590
 11
42.494780
 21
99.788590
  0
LINE
  8
1
 62
7
  6
CONTINUOUS
 10
50.993546
 20
100.804475
 11
42.494780
 21
100.804475
  0
LINE
  8
1
 62
7
  6
CONTINUOUS
 10
50.993546
 20
101.800216
 11
42.494780
 21
101.800216
  0
LINE
  8
1
 62
7
  6
CONTINUOUS
 10
50.993546
 20
102.770964
 11
42.494780
 21
102.770964
  0
LINE
  8
1
 62
7
  6
CONTINUOUS
 10
50.993546
 20
103.711987
 11
42.494780
 21
103.711987
  0
LINE
  8
1
 62
7
  6
CONTINUOUS
 10
50.993546
 20
104.618704
 11
42.494780
 21
104.618704
  0
LINE
  8
1
 62
7
  6
CONTINUOUS
 10
50.993546
 20
105.486694
 11
42.494780
 21
105.486694
  0
LINE
  8
1
 62
7
  6
CONTINUOUS
 10
50.993546
 20
106.311729
 11
42.494780
 21
106.311729
  0
LINE
  8
1
 62
7
  6
CONTINUOUS
 10
50.993546
 20
107.089791
 11
42.816696
 21
107.089791
  0
LINE
  8
1
 62
7
  6
CONTINUOUS
 10
42.494780
 20
107.817089
 11
50.993546
 21
107.817089
  0
LINE
  8
1
 62
7
  6
CONTINUOUS
 10
42.494780
 20
108.490078
 11
50.993546
 21
108.490078
  0
LINE
  8
1
 62
7
  6
CONTINUOUS
 10
42.494780
 20
109.105480
 11
50.993546
 21
109.105480
  0
LINE
  8
1
 62
7
  6
CONTINUOUS
 10
42.494780
 20
110.151826
 11
50.993546
 21
110.151826
  0
LINE
  8
1
 62
7
  6
CONTINUOUS
 10
42.494780
 20
110.577673
 11
50.993546
 21
110.577673
  0
LINE
  8
1
 62
7
  6
CONTINUOUS
 10
50.993546
 20
110.935762
 11
42.494780
 21
110.935762
  0
LINE
  8
1
 62
7
  6
CONTINUOUS
 10
50.993546
 20
109.660297
 11
42.494780
 21
109.660297
  0
LINE
  8
1
 62
7
  6
CONTINUOUS
 10
50.993546
 20
111.224350
 11
42.494780
 21
111.224350
  0
LINE
  8
1
 62
7
  6
CONTINUOUS
 10
42.494780
 20
111.442030
 11
50.993546
 21
111.442030
  0
LINE
  8
1
 62
7
  6
CONTINUOUS
 10
50.993546
 20
111.587742
 11
42.494780
 21
111.587742
  0
LINE
  8
1
 62
7
  6
CONTINUOUS
 10
42.494780
 20
95.623567
 11
50.993546
 21
95.623567
  0
LINE
  8
1
 62
7
  6
CONTINUOUS
 10
50.993546
 20
94.582318
 11
42.494780
 21
94.582318
  0
LINE
  8
1
 62
7
  6
CONTINUOUS
 10
50.993546
 20
93.551239
 11
42.494780
 21
93.551239
  0
LINE
  8
1
 62
7
  6
CONTINUOUS
 10
50.993546
 20
92.535354
 11
42.494780
 21
92.535354
  0
LINE
  8
1
 62
7
  6
CONTINUOUS
 10
50.993546
 20
91.539612
 11
42.494780
 21
91.539612
  0
LINE
  8
1
 62
7
  6
CONTINUOUS
 10
50.993546
 20
90.568865
 11
42.494780
 21
90.568865
  0
LINE
  8
1
 62
7
  6
CONTINUOUS
 10
50.993546
 20
89.627841
 11
42.494780
 21
89.627841
  0
LINE
  8
1
 62
7
  6
CONTINUOUS
 10
50.993546
 20
88.721125
 11
42.494780
 21
88.721125
  0
LINE
  8
1
 62
7
  6
CONTINUOUS
 10
50.993546
 20
87.853135
 11
42.494780
 21
87.853135
  0
LINE
  8
1
 62
7
  6
CONTINUOUS
 10
50.993546
 20
87.028100
 11
42.494780
 21
87.028100
  0
LINE
  8
1
 62
7
  6
CONTINUOUS
 10
50.993546
 20
86.250038
 11
42.816696
 21
86.250038
  0
LINE
  8
1
 62
7
  6
CONTINUOUS
 10
42.494780
 20
85.522740
 11
50.993546
 21
85.522740
  0
LINE
  8
1
 62
7
  6
CONTINUOUS
 10
42.494780
 20
84.849751
 11
50.993546
 21
84.849751
  0
LINE
  8
1
 62
7
  6
CONTINUOUS
 10
42.494780
 20
84.234349
 11
50.993546
 21
84.234349
  0
LINE
  8
1
 62
7
  6
CONTINUOUS
 10
42.494780
 20
83.188003
 11
50.993546
 21
83.188003
  0
LINE
  8
1
 62
7
  6
CONTINUOUS
 10
42.494780
 20
82.762156
 11
50.993546
 21
82.762156
  0
LINE
  8
1
 62
7
  6
CONTINUOUS
 10
50.993546
 20
82.404067
 11
42.494780
 21
82.404067
  0
LINE
  8
1
 62
7
  6
CONTINUOUS
 10
50.993546
 20
83.679532
 11
42.494780
 21
83.679532
  0
LINE
  8
1
 62
7
  6
CONTINUOUS
 10
50.993546
 20
82.115479
 11
42.494780
 21
82.115479
  0
LINE
  8
1
 62
7
  6
CONTINUOUS
 10
42.494780
 20
81.897798
 11
50.993546
 21
81.897798
  0
LINE
  8
1
 62
7
  6
CONTINUOUS
 10
50.993546
 20
81.752086
 11
42.494780
 21
81.752086
  0
LINE
  8
1
 62
7
  6
CONTINUOUS
 10
42.494780
 20
96.669914
 11
50.993546
 21
96.669914
  0
DIMENSION
  8
2
 62
134
  6
CONTINUOUS
  2
*D4
 10
50.993546
 20
76.872545
 11
52.373054
 21
76.872545
 70
     0
  1
3
 13
50.993546
 23
83.611840
 14
53.993546
 24
83.469914
 50
0.000000
  0
LINE
  8
1
 62
7
  6
CONTINUOUS
 10
51.493546
 20
84.111840
 11
50.993546
 21
84.111840
  0
LINE
  8
1
 62
7
  6
CONTINUOUS
 10
51.493546
 20
84.111840
 11
50.993546
 21
84.111840
  0
LINE
  8
1
 62
7
  6
CONTINUOUS
 10
51.493546
 20
109.227989
 11
50.993546
 21
109.227989
  0
CIRCLE
  8
11
 62
251
  6
CONTINUOUS
 10
51.041184
 20
83.169914
 40
0.500000
  0
CIRCLE
  8
11
 62
251
  6
CONTINUOUS
 10
51.041184
 20
110.169914
 40
0.500000
  0
LINE
  8
2
 62
134
  6
CONTINUOUS
 10
51.448733
 20
82.880253
 11
58.451918
 21
79.262923
  0
LINE
  8
2
 62
134
  6
CONTINUOUS
 10
58.451918
 20
79.262923
 11
63.635041
 21
79.262923
  0
TEXT
  8
2
 62
134
  6
CONTINUOUS
 10
58.635041
 20
79.273830
 40
2.000000
 41
0.500000
  1
Oﾘﾝｸﾞ
  7
KANJI
 50
0.000000
 51
0.000000
  0
LINE
  8
2
 62
134
  6
CONTINUOUS
 10
51.448733
 20
82.880253
 11
52.425713
 21
82.666924
  0
LINE
  8
2
 62
134
  6
CONTINUOUS
 10
51.448733
 20
82.880253
 11
52.188158
 21
82.207014
  0
LINE
  8
2
 62
134
  6
CONTINUOUS
 10
52.425713
 20
82.666924
 11
52.188158
 21
82.207014
  0
LINE
  8
2
 62
134
  6
CONTINUOUS
 10
51.663284
 20
82.769432
 11
52.151774
 21
82.662767
  0
LINE
  8
2
 62
134
  6
CONTINUOUS
 10
51.663284
 20
82.769432
 11
52.032996
 21
82.432813
  0
LINE
  8
2
 62
134
  6
CONTINUOUS
 10
52.151774
 20
82.662767
 11
52.032996
 21
82.432813
  0
ENDSEC
  0
EOF
