  0
SECTION
  2
HEADER
  9
$ACADVER
  1
AC1009
  9
$INSBASE
 10
0.000000
 20
0.000000
  9
$EXTMIN
 10
0.000000
 20
0.000000
  9
$EXTMAX
 10
210.000000
 20
297.000000
  9
$LIMMIN
 10
0.000000
 20
0.000000
  9
$LIMMAX
 10
210.000000
 20
297.000000
  9
$VIEWCTR
 10
105.000000
 20
148.500000
  9
$VIEWSIZE
 40
297.000000
  9
$PEXTMIN
 10
0.000000
 20
0.000000
 30
0.000000
  9
$PEXTMAX
 10
210.000000
 20
297.000000
 30
0.000000
  9
$SNAPMODE
 70
     0
  9
$SNAPUNIT
 10
1.000000
 20
1.000000
  9
$SNAPBASE
 10
0.000000
 20
0.000000
  9
$SNAPANG
 50
0.000000
  9
$SNAPISOPAIR
 70
     0
  9
$SNAPSTYLE
 70
     0
  9
$GRIDMODE
 70
     0
  9
$GRIDUNIT
 10
0.000000
 20
0.000000
  9
$ORTHOMODE
 70
     0
  9
$REGENMODE
 70
     1
  9
$FILLMODE
 70
     1
  9
$QTEXTMODE
 70
     0
  9
$DRAGMODE
 70
     2
  9
$LTSCALE
 40
0.250000
  9
$OSMODE
 70
     0
  9
$ATTMODE
 70
     1
  9
$TEXTSIZE
 40
4.000000
  9
$TRACEWID
 40
0.050000
  9
$TEXTSTYLE
  7
STANDARD
  9
$CLAYER
  8
0
  9
$CELTYPE
  6
BYLAYER
  9
$CECOLOR
 62
   256
  9
$DIMSCALE
 40
1.000000
  9
$DIMASZ
 40
1.000000
  9
$DIMEXO
 40
0.000000
  9
$DIMDLI
 40
0.500000
  9
$DIMRND
 40
0.000000
  9
$DIMDLE
 40
0.000000
  9
$DIMEXE
 40
0.000000
  9
$DIMTP
 40
0.000000
  9
$DIMTM
 40
0.000000
  9
$DIMTXT
 40
4.000000
  9
$DIMCEN
 40
0.000000
  9
$DIMTSZ
 40
0.000000
  9
$DIMTOL
 70
     0
  9
$DIMLIM
 70
     0
  9
$DIMTIH
 70
     1
  9
$DIMTOH
 70
     1
  9
$DIMSE1
 70
     0
  9
$DIMSE2
 70
     0
  9
$DIMTAD
 70
     0
  9
$DIMZIN
 70
     0
  9
$DIMBLK
  1

  9
$DIMASO
 70
     0
  9
$DIMSHO
 70
     0
  9
$DIMPOST
  1

  9
$DIMAPOST
  1

  9
$DIMALT
 70
     0
  9
$DIMALTD
 70
     0
  9
$DIMALTF
 40
25.400000
  9
$DIMLFAC
 40
1.000000
  9
$DIMTOFL
 70
     0
  9
$DIMTVP
 40
0.000000
  9
$DIMTIX
 70
     0
  9
$DIMSOXD
 70
     0
  9
$DIMSAH
 70
     0
  9
$DIMBLKL
  1

  9
$DIMBLKR
  1

  9
$LUNITS
 70
     2
  9
$LUPREC
 70
     2
  9
$AXISMODE
 70
     0
  9
$AXISUNIT
 10
1.000000
 20
1.000000
  9
$SKETCHINC
 40
0.000000
  9
$FILLETRAD
 40
0.000000
  9
$AUNITS
 70
     1
  9
$AUPREC
 70
     2
  9
$MENU
  1
ACAD
  9
$ELEVATION
 40
0.000000
  9
$THICKNESS
 40
0.000000
  9
$VIEWDIR
 10
0.000000
 20
0.000000
 30
1.000000
  9
$LIMCHECK
 70
     1
  9
$BLIPMODE
 70
     1
  9
$CHAMFERA
 40
0.000000
  9
$CHAMFERB
 40
0.000000
  9
$FASTZOOM
 70
     1
  9
$SKPOLY
 70
     0
  9
$TDCREATE
 40
0.000000
  9
$TDUPDATE
 40
0.000000
  9
$TDINDWG
 40
0.000000
  9
$TDUSRTIMER
 40
0.000000
  9
$USRTIMER
 70
     1
  9
$ANGBASE
 50
0.000000
  9
$ANGDIR
 70
     0
  9
$PDMODE
 70
     0
  9
$PDSIZE
 40
0.000000
  9
$PLINEWID
 40
0.000000
  9
$COORDS
 70
     2
  9
$USERI1
 70
     0
  9
$USERI2
 70
     0
  9
$USERI3
 70
     0
  9
$USERI4
 70
     0
  9
$USERI5
 70
     0
  9
$USERR1
 40
0.000000
  9
$USERR2
 40
0.000000
  9
$USERR3
 40
0.000000
  9
$USERR4
 40
0.000000
  9
$USERR5
 40
0.000000
  0
ENDSEC
  0
SECTION
  2
TABLES
  0
TABLE
  2
LTYPE
 70
     5
  0
LTYPE
  2
CONTINUOUS
 70
    64
  3
Solid line
 72
    65
 73
     0
 40
0.0
  0
LTYPE
  2
HIDDEN
 70
    64
  3
------------------------
 72
    65
 73
     2
 40
12.6
 49
8.4
 49
-4.2
  0
LTYPE
  2
DOT
 70
    64
  3
････････････････････････
 72
    65
 73
     2
 40
8.0
 49
6.0
 49
-2.0
  0
LTYPE
  2
DASHDOT
 70
    64
  3
--･--･--･--･--･--･--･--
 72
    65
 73
     4
 40
50.5
 49
30.0
 49
-9.0
 49
2.5
 49
-9.0
  0
LTYPE
  2
DIVIDE
 70
    64
  3
--･･--･･--･･--･･--･･--
 72
    65
 73
     6
 40
58.0
 49
30.0
 49
-9.0
 49
2.5
 49
-5.0
 49
2.5
 49
-9.0
  0
LTYPE
  2
ACAD_ISO06W100
 70
    64
  3
____ ... ____ ... ____
 72
    65
 73
     8
 40
37.5
 49
24.0
 49
-3.0
 49
0.5
 49
-3.0
 49
0.5
 49
-3.0
 49
0.5
 49
-3.0
  0
LTYPE
  2
ACAD_ISO14W100
 70
    64
  3
__ . . . __ . . . __ . . . 
 72
    65
 73
     8
 40
25.5
 49
12.0
 49
-3.0
 49
0.5
 49
-3.0
 49
0.5
 49
-3.0
 49
0.5
 49
-3.0
  0
ENDTAB
  0
TABLE
  2
LAYER
 70
3
  0
LAYER
  2
1
 70
64
 62
7
  6
CONTINUOUS
  0
LAYER
  2
2
 70
64
 62
134
  6
CONTINUOUS
  0
LAYER
  2
5
 70
64
 62
94
  6
CONTINUOUS
  0
ENDTAB
  0
TABLE
  2
STYLE
 70
     2
  0
STYLE
  2
STANDARD
 70
    64
 40
0.0
 41
1.0
 50
0.0
 71
     0
 42
0.2
  3
TXT
  4

  0
STYLE
  2
KANJI
 70
    64
 40
0.0
 41
1.0
 50
0.0
 71
     0
 42
0.2
  3
TXT
  4
BIGFONT
  0
ENDTAB
  0
TABLE
  2
VIEW
 70
     0
  0
ENDTAB
  0
ENDSEC
  0
SECTION
  2
BLOCKS
  0
BLOCK
  8
2
 62
134
  6
CONTINUOUS
  2
*D1
 70
    65
 10
0.0
 20
0.0
  0
LINE
  8
2
 62
134
  6
CONTINUOUS
 10
125.634396
 20
113.562262
 11
125.634396
 21
152.562262
  0
LINE
  8
2
 62
134
  6
CONTINUOUS
 10
126.634396
 20
113.562262
 11
104.455386
 21
113.562262
  0
LINE
  8
2
 62
134
  6
CONTINUOUS
 10
126.634396
 20
152.562262
 11
105.275759
 21
152.562262
  0
LINE
  8
2
 62
134
  6
CONTINUOUS
 10
125.634396
 20
113.562262
 11
125.116758
 21
115.494113
  0
LINE
  8
2
 62
134
  6
CONTINUOUS
 10
125.634396
 20
113.562262
 11
126.152034
 21
115.494113
  0
LINE
  8
2
 62
134
  6
CONTINUOUS
 10
125.116758
 20
115.494113
 11
126.152034
 21
115.494113
  0
LINE
  8
2
 62
134
  6
CONTINUOUS
 10
125.634396
 20
114.045225
 11
125.375577
 21
115.011151
  0
LINE
  8
2
 62
134
  6
CONTINUOUS
 10
125.634396
 20
114.045225
 11
125.893215
 21
115.011151
  0
LINE
  8
2
 62
134
  6
CONTINUOUS
 10
125.375577
 20
115.011151
 11
125.893215
 21
115.011151
  0
LINE
  8
2
 62
134
  6
CONTINUOUS
 10
125.634396
 20
152.562262
 11
126.152034
 21
150.630410
  0
LINE
  8
2
 62
134
  6
CONTINUOUS
 10
125.634396
 20
152.562262
 11
125.116758
 21
150.630410
  0
LINE
  8
2
 62
134
  6
CONTINUOUS
 10
126.152034
 20
150.630410
 11
125.116758
 21
150.630410
  0
LINE
  8
2
 62
134
  6
CONTINUOUS
 10
125.634396
 20
152.079299
 11
125.893215
 21
151.113373
  0
LINE
  8
2
 62
134
  6
CONTINUOUS
 10
125.634396
 20
152.079299
 11
125.375577
 21
151.113373
  0
LINE
  8
2
 62
134
  6
CONTINUOUS
 10
125.893215
 20
151.113373
 11
125.375577
 21
151.113373
  0
TEXT
  8
2
 62
134
  6
CONTINUOUS
 10
125.634396
 20
129.469524
 40
4.000000
 41
0.500000
  1
39
  7
KANJI
 50
90.000000
 51
0.000000
  0
ENDBLK
  0
BLOCK
  8
2
 62
134
  6
CONTINUOUS
  2
*D2
 70
    65
 10
0.0
 20
0.0
  0
LINE
  8
2
 62
134
  6
CONTINUOUS
 10
44.407135
 20
141.031479
 11
66.907135
 21
141.031479
  0
LINE
  8
2
 62
134
  6
CONTINUOUS
 10
58.907135
 20
140.031479
 11
58.907135
 21
143.972807
  0
LINE
  8
2
 62
134
  6
CONTINUOUS
 10
52.407135
 20
141.031479
 11
50.475283
 21
140.513841
  0
LINE
  8
2
 62
134
  6
CONTINUOUS
 10
52.407135
 20
141.031479
 11
50.475283
 21
141.549117
  0
LINE
  8
2
 62
134
  6
CONTINUOUS
 10
50.475283
 20
140.513841
 11
50.475283
 21
141.549117
  0
LINE
  8
2
 62
134
  6
CONTINUOUS
 10
51.924172
 20
141.031479
 11
50.958246
 21
140.772660
  0
LINE
  8
2
 62
134
  6
CONTINUOUS
 10
51.924172
 20
141.031479
 11
50.958246
 21
141.290298
  0
LINE
  8
2
 62
134
  6
CONTINUOUS
 10
50.958246
 20
140.772660
 11
50.958246
 21
141.290298
  0
LINE
  8
2
 62
134
  6
CONTINUOUS
 10
58.907135
 20
141.031479
 11
60.838986
 21
141.549117
  0
LINE
  8
2
 62
134
  6
CONTINUOUS
 10
58.907135
 20
141.031479
 11
60.838986
 21
140.513841
  0
LINE
  8
2
 62
134
  6
CONTINUOUS
 10
60.838986
 20
141.549117
 11
60.838986
 21
140.513841
  0
LINE
  8
2
 62
134
  6
CONTINUOUS
 10
59.390098
 20
141.031479
 11
60.356024
 21
141.290298
  0
LINE
  8
2
 62
134
  6
CONTINUOUS
 10
59.390098
 20
141.031479
 11
60.356024
 21
140.772660
  0
LINE
  8
2
 62
134
  6
CONTINUOUS
 10
60.356024
 20
141.290298
 11
60.356024
 21
140.772660
  0
TEXT
  8
2
 62
134
  6
CONTINUOUS
 10
52.312254
 20
141.031479
 40
4.000000
 41
0.500000
  1
6.5
  7
KANJI
 50
0.000000
 51
0.000000
  0
ENDBLK
  0
BLOCK
  8
2
 62
134
  6
CONTINUOUS
  2
*D3
 70
    65
 10
0.0
 20
0.0
  0
LINE
  8
2
 62
134
  6
CONTINUOUS
 10
58.907135
 20
141.031479
 11
100.907135
 21
141.031479
  0
LINE
  8
2
 62
134
  6
CONTINUOUS
 10
58.907135
 20
140.031479
 11
58.907135
 21
143.972807
  0
LINE
  8
2
 62
134
  6
CONTINUOUS
 10
100.907135
 20
140.031479
 11
100.907135
 21
143.007275
  0
LINE
  8
2
 62
134
  6
CONTINUOUS
 10
58.907135
 20
141.031479
 11
60.838986
 21
141.549117
  0
LINE
  8
2
 62
134
  6
CONTINUOUS
 10
58.907135
 20
141.031479
 11
60.838986
 21
140.513841
  0
LINE
  8
2
 62
134
  6
CONTINUOUS
 10
60.838986
 20
141.549117
 11
60.838986
 21
140.513841
  0
LINE
  8
2
 62
134
  6
CONTINUOUS
 10
59.390098
 20
141.031479
 11
60.356024
 21
141.290298
  0
LINE
  8
2
 62
134
  6
CONTINUOUS
 10
59.390098
 20
141.031479
 11
60.356024
 21
140.772660
  0
LINE
  8
2
 62
134
  6
CONTINUOUS
 10
60.356024
 20
141.290298
 11
60.356024
 21
140.772660
  0
LINE
  8
2
 62
134
  6
CONTINUOUS
 10
100.907135
 20
141.031479
 11
98.975283
 21
140.513841
  0
LINE
  8
2
 62
134
  6
CONTINUOUS
 10
100.907135
 20
141.031479
 11
98.975283
 21
141.549117
  0
LINE
  8
2
 62
134
  6
CONTINUOUS
 10
98.975283
 20
140.513841
 11
98.975283
 21
141.549117
  0
LINE
  8
2
 62
134
  6
CONTINUOUS
 10
100.424172
 20
141.031479
 11
99.458246
 21
140.772660
  0
LINE
  8
2
 62
134
  6
CONTINUOUS
 10
100.424172
 20
141.031479
 11
99.458246
 21
141.290298
  0
LINE
  8
2
 62
134
  6
CONTINUOUS
 10
99.458246
 20
140.772660
 11
99.458246
 21
141.290298
  0
TEXT
  8
2
 62
134
  6
CONTINUOUS
 10
75.996819
 20
141.031479
 40
4.000000
 41
0.500000
  1
42
  7
KANJI
 50
0.000000
 51
0.000000
  0
ENDBLK
  0
BLOCK
  8
2
 62
134
  6
CONTINUOUS
  2
*D4
 70
    65
 10
0.0
 20
0.0
  0
LINE
  8
2
 62
134
  6
CONTINUOUS
 10
105.407135
 20
159.058937
 11
115.113552
 21
168.765354
  0
LINE
  8
2
 62
134
  6
CONTINUOUS
 10
105.407135
 20
159.058937
 11
106.407135
 21
160.790987
  0
LINE
  8
2
 62
134
  6
CONTINUOUS
 10
105.407135
 20
159.058937
 11
107.139186
 21
160.058937
  0
LINE
  8
2
 62
134
  6
CONTINUOUS
 10
106.407135
 20
160.790987
 11
107.139186
 21
160.058937
  0
LINE
  8
2
 62
134
  6
CONTINUOUS
 10
105.748641
 20
159.400443
 11
106.248641
 21
160.266468
  0
LINE
  8
2
 62
134
  6
CONTINUOUS
 10
105.748641
 20
159.400443
 11
106.614667
 21
159.900443
  0
LINE
  8
2
 62
134
  6
CONTINUOUS
 10
106.248641
 20
160.266468
 11
106.614667
 21
159.900443
  0
TEXT
  8
2
 62
134
  6
CONTINUOUS
 10
109.456698
 20
163.108500
 40
4.000000
 41
0.500000
  1
2-C2
  7
KANJI
 50
45.000000
 51
0.000000
  0
ENDBLK
  0
BLOCK
  8
2
 62
134
  6
CONTINUOUS
  2
*D5
 70
    65
 10
0.0
 20
0.0
  0
LINE
  8
2
 62
134
  6
CONTINUOUS
 10
34.189641
 20
116.562262
 11
34.189641
 21
149.562262
  0
LINE
  8
2
 62
134
  6
CONTINUOUS
 10
33.189641
 20
116.562262
 11
53.122528
 21
116.562262
  0
LINE
  8
2
 62
134
  6
CONTINUOUS
 10
33.189641
 20
149.562262
 11
54.520413
 21
149.562262
  0
LINE
  8
2
 62
134
  6
CONTINUOUS
 10
34.189641
 20
116.562262
 11
33.672003
 21
118.494113
  0
LINE
  8
2
 62
134
  6
CONTINUOUS
 10
34.189641
 20
116.562262
 11
34.707279
 21
118.494113
  0
LINE
  8
2
 62
134
  6
CONTINUOUS
 10
33.672003
 20
118.494113
 11
34.707279
 21
118.494113
  0
LINE
  8
2
 62
134
  6
CONTINUOUS
 10
34.189641
 20
117.045225
 11
33.930822
 21
118.011151
  0
LINE
  8
2
 62
134
  6
CONTINUOUS
 10
34.189641
 20
117.045225
 11
34.448460
 21
118.011151
  0
LINE
  8
2
 62
134
  6
CONTINUOUS
 10
33.930822
 20
118.011151
 11
34.448460
 21
118.011151
  0
LINE
  8
2
 62
134
  6
CONTINUOUS
 10
34.189641
 20
149.562262
 11
34.707279
 21
147.630410
  0
LINE
  8
2
 62
134
  6
CONTINUOUS
 10
34.189641
 20
149.562262
 11
33.672003
 21
147.630410
  0
LINE
  8
2
 62
134
  6
CONTINUOUS
 10
34.707279
 20
147.630410
 11
33.672003
 21
147.630410
  0
LINE
  8
2
 62
134
  6
CONTINUOUS
 10
34.189641
 20
149.079299
 11
34.448460
 21
148.113373
  0
LINE
  8
2
 62
134
  6
CONTINUOUS
 10
34.189641
 20
149.079299
 11
33.930822
 21
148.113373
  0
LINE
  8
2
 62
134
  6
CONTINUOUS
 10
34.448460
 20
148.113373
 11
33.930822
 21
148.113373
  0
TEXT
  8
2
 62
134
  6
CONTINUOUS
 10
34.189641
 20
130.036331
 40
4.000000
 41
0.500000
  1
33
  7
KANJI
 50
90.000000
 51
0.000000
  0
ENDBLK
  0
BLOCK
  8
2
 62
134
  6
CONTINUOUS
  2
*D6
 70
    65
 10
0.0
 20
0.0
  0
LINE
  8
2
 62
134
  6
CONTINUOUS
 10
177.174582
 20
86.383895
 11
145.174582
 21
86.383895
  0
LINE
  8
2
 62
134
  6
CONTINUOUS
 10
177.174582
 20
85.383895
 11
177.174582
 21
99.562262
  0
LINE
  8
2
 62
134
  6
CONTINUOUS
 10
145.174582
 20
85.383895
 11
145.174582
 21
99.562262
  0
LINE
  8
2
 62
134
  6
CONTINUOUS
 10
177.174582
 20
86.383895
 11
175.242731
 21
85.866257
  0
LINE
  8
2
 62
134
  6
CONTINUOUS
 10
177.174582
 20
86.383895
 11
175.242731
 21
86.901533
  0
LINE
  8
2
 62
134
  6
CONTINUOUS
 10
175.242731
 20
85.866257
 11
175.242731
 21
86.901533
  0
LINE
  8
2
 62
134
  6
CONTINUOUS
 10
176.691619
 20
86.383895
 11
175.725694
 21
86.125076
  0
LINE
  8
2
 62
134
  6
CONTINUOUS
 10
176.691619
 20
86.383895
 11
175.725694
 21
86.642714
  0
LINE
  8
2
 62
134
  6
CONTINUOUS
 10
175.725694
 20
86.125076
 11
175.725694
 21
86.642714
  0
LINE
  8
2
 62
134
  6
CONTINUOUS
 10
145.174582
 20
86.383895
 11
147.106434
 21
86.901533
  0
LINE
  8
2
 62
134
  6
CONTINUOUS
 10
145.174582
 20
86.383895
 11
147.106434
 21
85.866257
  0
LINE
  8
2
 62
134
  6
CONTINUOUS
 10
147.106434
 20
86.901533
 11
147.106434
 21
85.866257
  0
LINE
  8
2
 62
134
  6
CONTINUOUS
 10
145.657545
 20
86.383895
 11
146.623471
 21
86.642714
  0
LINE
  8
2
 62
134
  6
CONTINUOUS
 10
145.657545
 20
86.383895
 11
146.623471
 21
86.125076
  0
LINE
  8
2
 62
134
  6
CONTINUOUS
 10
146.623471
 20
86.642714
 11
146.623471
 21
86.125076
  0
TEXT
  8
2
 62
134
  6
CONTINUOUS
 10
160.716140
 20
86.383895
 40
4.000000
 41
0.500000
  1
32
  7
KANJI
 50
0.000000
 51
0.000000
  0
ENDBLK
  0
BLOCK
  8
2
 62
134
  6
CONTINUOUS
  2
*D7
 70
    65
 10
0.0
 20
0.0
  0
LINE
  8
2
 62
134
  6
CONTINUOUS
 10
136.468205
 20
100.562262
 11
136.468205
 21
159.562262
  0
LINE
  8
2
 62
134
  6
CONTINUOUS
 10
135.468205
 20
100.562262
 11
144.174582
 21
100.562262
  0
LINE
  8
2
 62
134
  6
CONTINUOUS
 10
135.468205
 20
159.562262
 11
144.174582
 21
159.562262
  0
LINE
  8
2
 62
134
  6
CONTINUOUS
 10
136.468205
 20
100.562262
 11
135.950567
 21
102.494113
  0
LINE
  8
2
 62
134
  6
CONTINUOUS
 10
136.468205
 20
100.562262
 11
136.985843
 21
102.494113
  0
LINE
  8
2
 62
134
  6
CONTINUOUS
 10
135.950567
 20
102.494113
 11
136.985843
 21
102.494113
  0
LINE
  8
2
 62
134
  6
CONTINUOUS
 10
136.468205
 20
101.045225
 11
136.209386
 21
102.011151
  0
LINE
  8
2
 62
134
  6
CONTINUOUS
 10
136.468205
 20
101.045225
 11
136.727024
 21
102.011151
  0
LINE
  8
2
 62
134
  6
CONTINUOUS
 10
136.209386
 20
102.011151
 11
136.727024
 21
102.011151
  0
LINE
  8
2
 62
134
  6
CONTINUOUS
 10
136.468205
 20
159.562262
 11
136.985843
 21
157.630410
  0
LINE
  8
2
 62
134
  6
CONTINUOUS
 10
136.468205
 20
159.562262
 11
135.950567
 21
157.630410
  0
LINE
  8
2
 62
134
  6
CONTINUOUS
 10
136.985843
 20
157.630410
 11
135.950567
 21
157.630410
  0
LINE
  8
2
 62
134
  6
CONTINUOUS
 10
136.468205
 20
159.079299
 11
136.727024
 21
158.113373
  0
LINE
  8
2
 62
134
  6
CONTINUOUS
 10
136.468205
 20
159.079299
 11
136.209386
 21
158.113373
  0
LINE
  8
2
 62
134
  6
CONTINUOUS
 10
136.727024
 20
158.113373
 11
136.209386
 21
158.113373
  0
TEXT
  8
2
 62
134
  6
CONTINUOUS
 10
136.468205
 20
131.562262
 40
4.000000
 41
0.500000
  1
59
  7
KANJI
 50
90.000000
 51
0.000000
  0
ENDBLK
  0
BLOCK
  8
2
 62
134
  6
CONTINUOUS
  2
*D8
 70
    65
 10
0.0
 20
0.0
  0
LINE
  8
2
 62
134
  6
CONTINUOUS
 10
34.189641
 20
100.562262
 11
34.189641
 21
116.562262
  0
LINE
  8
2
 62
134
  6
CONTINUOUS
 10
33.189641
 20
100.562262
 11
39.907135
 21
100.562262
  0
LINE
  8
2
 62
134
  6
CONTINUOUS
 10
33.189641
 20
116.562262
 11
53.122528
 21
116.562262
  0
LINE
  8
2
 62
134
  6
CONTINUOUS
 10
34.189641
 20
100.562262
 11
33.672003
 21
102.494113
  0
LINE
  8
2
 62
134
  6
CONTINUOUS
 10
34.189641
 20
100.562262
 11
34.707279
 21
102.494113
  0
LINE
  8
2
 62
134
  6
CONTINUOUS
 10
33.672003
 20
102.494113
 11
34.707279
 21
102.494113
  0
LINE
  8
2
 62
134
  6
CONTINUOUS
 10
34.189641
 20
101.045225
 11
33.930822
 21
102.011151
  0
LINE
  8
2
 62
134
  6
CONTINUOUS
 10
34.189641
 20
101.045225
 11
34.448460
 21
102.011151
  0
LINE
  8
2
 62
134
  6
CONTINUOUS
 10
33.930822
 20
102.011151
 11
34.448460
 21
102.011151
  0
LINE
  8
2
 62
134
  6
CONTINUOUS
 10
34.189641
 20
116.562262
 11
34.707279
 21
114.630410
  0
LINE
  8
2
 62
134
  6
CONTINUOUS
 10
34.189641
 20
116.562262
 11
33.672003
 21
114.630410
  0
LINE
  8
2
 62
134
  6
CONTINUOUS
 10
34.707279
 20
114.630410
 11
33.672003
 21
114.630410
  0
LINE
  8
2
 62
134
  6
CONTINUOUS
 10
34.189641
 20
116.079299
 11
34.448460
 21
115.113373
  0
LINE
  8
2
 62
134
  6
CONTINUOUS
 10
34.189641
 20
116.079299
 11
33.930822
 21
115.113373
  0
LINE
  8
2
 62
134
  6
CONTINUOUS
 10
34.448460
 20
115.113373
 11
33.930822
 21
115.113373
  0
TEXT
  8
2
 62
134
  6
CONTINUOUS
 10
34.189641
 20
107.553013
 40
4.000000
 41
0.500000
  1
16
  7
KANJI
 50
90.000000
 51
0.000000
  0
ENDBLK
  0
BLOCK
  8
2
 62
134
  6
CONTINUOUS
  2
*D9
 70
    65
 10
0.0
 20
0.0
  0
LINE
  8
2
 62
134
  6
CONTINUOUS
 10
125.634396
 20
100.562262
 11
125.634396
 21
113.562262
  0
LINE
  8
2
 62
134
  6
CONTINUOUS
 10
126.634396
 20
100.562262
 11
119.907135
 21
100.562262
  0
LINE
  8
2
 62
134
  6
CONTINUOUS
 10
126.634396
 20
113.562262
 11
104.455386
 21
113.562262
  0
LINE
  8
2
 62
134
  6
CONTINUOUS
 10
125.634396
 20
100.562262
 11
125.116758
 21
102.494113
  0
LINE
  8
2
 62
134
  6
CONTINUOUS
 10
125.634396
 20
100.562262
 11
126.152034
 21
102.494113
  0
LINE
  8
2
 62
134
  6
CONTINUOUS
 10
125.116758
 20
102.494113
 11
126.152034
 21
102.494113
  0
LINE
  8
2
 62
134
  6
CONTINUOUS
 10
125.634396
 20
101.045225
 11
125.375577
 21
102.011151
  0
LINE
  8
2
 62
134
  6
CONTINUOUS
 10
125.634396
 20
101.045225
 11
125.893215
 21
102.011151
  0
LINE
  8
2
 62
134
  6
CONTINUOUS
 10
125.375577
 20
102.011151
 11
125.893215
 21
102.011151
  0
LINE
  8
2
 62
134
  6
CONTINUOUS
 10
125.634396
 20
113.562262
 11
126.152034
 21
111.630410
  0
LINE
  8
2
 62
134
  6
CONTINUOUS
 10
125.634396
 20
113.562262
 11
125.116758
 21
111.630410
  0
LINE
  8
2
 62
134
  6
CONTINUOUS
 10
126.152034
 20
111.630410
 11
125.116758
 21
111.630410
  0
LINE
  8
2
 62
134
  6
CONTINUOUS
 10
125.634396
 20
113.079299
 11
125.893215
 21
112.113373
  0
LINE
  8
2
 62
134
  6
CONTINUOUS
 10
125.634396
 20
113.079299
 11
125.375577
 21
112.113373
  0
LINE
  8
2
 62
134
  6
CONTINUOUS
 10
125.893215
 20
112.113373
 11
125.375577
 21
112.113373
  0
TEXT
  8
2
 62
134
  6
CONTINUOUS
 10
125.634396
 20
106.419400
 40
4.000000
 41
0.500000
  1
13
  7
KANJI
 50
90.000000
 51
0.000000
  0
ENDBLK
  0
BLOCK
  8
2
 62
134
  6
CONTINUOUS
  2
*D10
 70
    65
 10
0.0
 20
0.0
  0
LINE
  8
2
 62
134
  6
CONTINUOUS
 10
52.907135
 20
171.145968
 11
106.907135
 21
171.145968
  0
LINE
  8
2
 62
134
  6
CONTINUOUS
 10
52.907135
 20
172.145968
 11
52.907135
 21
158.562262
  0
LINE
  8
2
 62
134
  6
CONTINUOUS
 10
106.907135
 20
172.145968
 11
106.907135
 21
158.562262
  0
LINE
  8
2
 62
134
  6
CONTINUOUS
 10
52.907135
 20
171.145968
 11
54.838986
 21
171.663606
  0
LINE
  8
2
 62
134
  6
CONTINUOUS
 10
52.907135
 20
171.145968
 11
54.838986
 21
170.628330
  0
LINE
  8
2
 62
134
  6
CONTINUOUS
 10
54.838986
 20
171.663606
 11
54.838986
 21
170.628330
  0
LINE
  8
2
 62
134
  6
CONTINUOUS
 10
53.390098
 20
171.145968
 11
54.356024
 21
171.404787
  0
LINE
  8
2
 62
134
  6
CONTINUOUS
 10
53.390098
 20
171.145968
 11
54.356024
 21
170.887149
  0
LINE
  8
2
 62
134
  6
CONTINUOUS
 10
54.356024
 20
171.404787
 11
54.356024
 21
170.887149
  0
LINE
  8
2
 62
134
  6
CONTINUOUS
 10
106.907135
 20
171.145968
 11
104.975283
 21
170.628330
  0
LINE
  8
2
 62
134
  6
CONTINUOUS
 10
106.907135
 20
171.145968
 11
104.975283
 21
171.663606
  0
LINE
  8
2
 62
134
  6
CONTINUOUS
 10
104.975283
 20
170.628330
 11
104.975283
 21
171.663606
  0
LINE
  8
2
 62
134
  6
CONTINUOUS
 10
106.424172
 20
171.145968
 11
105.458246
 21
170.887149
  0
LINE
  8
2
 62
134
  6
CONTINUOUS
 10
106.424172
 20
171.145968
 11
105.458246
 21
171.404787
  0
LINE
  8
2
 62
134
  6
CONTINUOUS
 10
105.458246
 20
170.887149
 11
105.458246
 21
171.404787
  0
TEXT
  8
2
 62
134
  6
CONTINUOUS
 10
75.577987
 20
171.145968
 40
4.000000
 41
0.500000
  1
54
  7
KANJI
 50
0.000000
 51
0.000000
  0
ENDBLK
  0
BLOCK
  8
2
 62
134
  6
CONTINUOUS
  2
*D11
 70
    65
 10
0.0
 20
0.0
  0
LINE
  8
2
 62
134
  6
CONTINUOUS
 10
69.907135
 20
194.184761
 11
89.907135
 21
194.184761
  0
LINE
  8
2
 62
134
  6
CONTINUOUS
 10
69.907135
 20
193.184761
 11
69.907135
 21
212.542919
  0
LINE
  8
2
 62
134
  6
CONTINUOUS
 10
89.907135
 20
193.184761
 11
89.907135
 21
212.542919
  0
LINE
  8
2
 62
134
  6
CONTINUOUS
 10
69.907135
 20
194.184761
 11
71.838986
 21
194.702399
  0
LINE
  8
2
 62
134
  6
CONTINUOUS
 10
69.907135
 20
194.184761
 11
71.838986
 21
193.667123
  0
LINE
  8
2
 62
134
  6
CONTINUOUS
 10
71.838986
 20
194.702399
 11
71.838986
 21
193.667123
  0
LINE
  8
2
 62
134
  6
CONTINUOUS
 10
70.390098
 20
194.184761
 11
71.356024
 21
194.443580
  0
LINE
  8
2
 62
134
  6
CONTINUOUS
 10
70.390098
 20
194.184761
 11
71.356024
 21
193.925942
  0
LINE
  8
2
 62
134
  6
CONTINUOUS
 10
71.356024
 20
194.443580
 11
71.356024
 21
193.925942
  0
LINE
  8
2
 62
134
  6
CONTINUOUS
 10
89.907135
 20
194.184761
 11
87.975283
 21
193.667123
  0
LINE
  8
2
 62
134
  6
CONTINUOUS
 10
89.907135
 20
194.184761
 11
87.975283
 21
194.702399
  0
LINE
  8
2
 62
134
  6
CONTINUOUS
 10
87.975283
 20
193.667123
 11
87.975283
 21
194.702399
  0
LINE
  8
2
 62
134
  6
CONTINUOUS
 10
89.424172
 20
194.184761
 11
88.458246
 21
193.925942
  0
LINE
  8
2
 62
134
  6
CONTINUOUS
 10
89.424172
 20
194.184761
 11
88.458246
 21
194.443580
  0
LINE
  8
2
 62
134
  6
CONTINUOUS
 10
88.458246
 20
193.925942
 11
88.458246
 21
194.443580
  0
TEXT
  8
2
 62
134
  6
CONTINUOUS
 10
76.959127
 20
194.184761
 40
4.000000
 41
0.500000
  1
20
  7
KANJI
 50
0.000000
 51
0.000000
  0
ENDBLK
  0
BLOCK
  8
2
 62
134
  6
CONTINUOUS
  2
*D12
 70
    65
 10
0.0
 20
0.0
  0
LINE
  8
2
 62
134
  6
CONTINUOUS
 10
89.907135
 20
194.184761
 11
113.907135
 21
194.184761
  0
LINE
  8
2
 62
134
  6
CONTINUOUS
 10
89.907135
 20
193.184761
 11
89.907135
 21
212.542919
  0
LINE
  8
2
 62
134
  6
CONTINUOUS
 10
113.907135
 20
193.184761
 11
113.907135
 21
212.542919
  0
LINE
  8
2
 62
134
  6
CONTINUOUS
 10
89.907135
 20
194.184761
 11
91.838986
 21
194.702399
  0
LINE
  8
2
 62
134
  6
CONTINUOUS
 10
89.907135
 20
194.184761
 11
91.838986
 21
193.667123
  0
LINE
  8
2
 62
134
  6
CONTINUOUS
 10
91.838986
 20
194.702399
 11
91.838986
 21
193.667123
  0
LINE
  8
2
 62
134
  6
CONTINUOUS
 10
90.390098
 20
194.184761
 11
91.356024
 21
194.443580
  0
LINE
  8
2
 62
134
  6
CONTINUOUS
 10
90.390098
 20
194.184761
 11
91.356024
 21
193.925942
  0
LINE
  8
2
 62
134
  6
CONTINUOUS
 10
91.356024
 20
194.443580
 11
91.356024
 21
193.925942
  0
LINE
  8
2
 62
134
  6
CONTINUOUS
 10
113.907135
 20
194.184761
 11
111.975283
 21
193.667123
  0
LINE
  8
2
 62
134
  6
CONTINUOUS
 10
113.907135
 20
194.184761
 11
111.975283
 21
194.702399
  0
LINE
  8
2
 62
134
  6
CONTINUOUS
 10
111.975283
 20
193.667123
 11
111.975283
 21
194.702399
  0
LINE
  8
2
 62
134
  6
CONTINUOUS
 10
113.424172
 20
194.184761
 11
112.458246
 21
193.925942
  0
LINE
  8
2
 62
134
  6
CONTINUOUS
 10
113.424172
 20
194.184761
 11
112.458246
 21
194.443580
  0
LINE
  8
2
 62
134
  6
CONTINUOUS
 10
112.458246
 20
193.925942
 11
112.458246
 21
194.443580
  0
TEXT
  8
2
 62
134
  6
CONTINUOUS
 10
100.432508
 20
194.184761
 40
4.000000
 41
0.500000
  1
24
  7
KANJI
 50
0.000000
 51
0.000000
  0
ENDBLK
  0
BLOCK
  8
2
 62
134
  6
CONTINUOUS
  2
*D13
 70
    65
 10
0.0
 20
0.0
  0
LINE
  8
2
 62
134
  6
CONTINUOUS
 10
130.897115
 20
204.275504
 11
130.897115
 21
220.875504
  0
LINE
  8
2
 62
134
  6
CONTINUOUS
 10
131.897115
 20
204.275504
 11
117.907135
 21
204.275504
  0
LINE
  8
2
 62
134
  6
CONTINUOUS
 10
131.897115
 20
220.875504
 11
127.062574
 21
220.875504
  0
LINE
  8
2
 62
134
  6
CONTINUOUS
 10
130.897115
 20
204.275504
 11
130.379477
 21
206.207356
  0
LINE
  8
2
 62
134
  6
CONTINUOUS
 10
130.897115
 20
204.275504
 11
131.414753
 21
206.207356
  0
LINE
  8
2
 62
134
  6
CONTINUOUS
 10
130.379477
 20
206.207356
 11
131.414753
 21
206.207356
  0
LINE
  8
2
 62
134
  6
CONTINUOUS
 10
130.897115
 20
204.758467
 11
130.638296
 21
205.724393
  0
LINE
  8
2
 62
134
  6
CONTINUOUS
 10
130.897115
 20
204.758467
 11
131.155934
 21
205.724393
  0
LINE
  8
2
 62
134
  6
CONTINUOUS
 10
130.638296
 20
205.724393
 11
131.155934
 21
205.724393
  0
LINE
  8
2
 62
134
  6
CONTINUOUS
 10
130.897115
 20
220.875504
 11
131.414753
 21
218.943652
  0
LINE
  8
2
 62
134
  6
CONTINUOUS
 10
130.897115
 20
220.875504
 11
130.379477
 21
218.943652
  0
LINE
  8
2
 62
134
  6
CONTINUOUS
 10
131.414753
 20
218.943652
 11
130.379477
 21
218.943652
  0
LINE
  8
2
 62
134
  6
CONTINUOUS
 10
130.897115
 20
220.392541
 11
131.155934
 21
219.426615
  0
LINE
  8
2
 62
134
  6
CONTINUOUS
 10
130.897115
 20
220.392541
 11
130.638296
 21
219.426615
  0
LINE
  8
2
 62
134
  6
CONTINUOUS
 10
131.155934
 20
219.426615
 11
130.638296
 21
219.426615
  0
TEXT
  8
2
 62
134
  6
CONTINUOUS
 10
130.897115
 20
210.020269
 40
4.000000
 41
0.500000
  1
16.6
  7
KANJI
 50
90.000000
 51
0.000000
  0
ENDBLK
  0
BLOCK
  8
2
 62
134
  6
CONTINUOUS
  2
*D14
 70
    65
 10
0.0
 20
0.0
  0
LINE
  8
2
 62
134
  6
CONTINUOUS
 10
40.907135
 20
194.184761
 11
45.907135
 21
194.184761
  0
LINE
  8
2
 62
134
  6
CONTINUOUS
 10
40.907135
 20
193.184761
 11
40.907135
 21
206.475504
  0
LINE
  8
2
 62
134
  6
CONTINUOUS
 10
45.907135
 20
193.184761
 11
45.907135
 21
212.542919
  0
LINE
  8
2
 62
134
  6
CONTINUOUS
 10
40.907135
 20
194.184761
 11
42.838986
 21
194.702399
  0
LINE
  8
2
 62
134
  6
CONTINUOUS
 10
40.907135
 20
194.184761
 11
42.838986
 21
193.667123
  0
LINE
  8
2
 62
134
  6
CONTINUOUS
 10
42.838986
 20
194.702399
 11
42.838986
 21
193.667123
  0
LINE
  8
2
 62
134
  6
CONTINUOUS
 10
41.390098
 20
194.184761
 11
42.356024
 21
194.443580
  0
LINE
  8
2
 62
134
  6
CONTINUOUS
 10
41.390098
 20
194.184761
 11
42.356024
 21
193.925942
  0
LINE
  8
2
 62
134
  6
CONTINUOUS
 10
42.356024
 20
194.443580
 11
42.356024
 21
193.925942
  0
LINE
  8
2
 62
134
  6
CONTINUOUS
 10
45.907135
 20
194.184761
 11
43.975283
 21
193.667123
  0
LINE
  8
2
 62
134
  6
CONTINUOUS
 10
45.907135
 20
194.184761
 11
43.975283
 21
194.702399
  0
LINE
  8
2
 62
134
  6
CONTINUOUS
 10
43.975283
 20
193.667123
 11
43.975283
 21
194.702399
  0
LINE
  8
2
 62
134
  6
CONTINUOUS
 10
45.424172
 20
194.184761
 11
44.458246
 21
193.925942
  0
LINE
  8
2
 62
134
  6
CONTINUOUS
 10
45.424172
 20
194.184761
 11
44.458246
 21
194.443580
  0
LINE
  8
2
 62
134
  6
CONTINUOUS
 10
44.458246
 20
193.925942
 11
44.458246
 21
194.443580
  0
TEXT
  8
2
 62
134
  6
CONTINUOUS
 10
42.499056
 20
194.184761
 40
4.000000
 41
0.500000
  1
5
  7
KANJI
 50
0.000000
 51
0.000000
  0
ENDBLK
  0
BLOCK
  8
2
 62
134
  6
CONTINUOUS
  2
*D15
 70
    65
 10
0.0
 20
0.0
  0
LINE
  8
2
 62
134
  6
CONTINUOUS
 10
45.907135
 20
194.184761
 11
69.907135
 21
194.184761
  0
LINE
  8
2
 62
134
  6
CONTINUOUS
 10
45.907135
 20
193.184761
 11
45.907135
 21
212.542919
  0
LINE
  8
2
 62
134
  6
CONTINUOUS
 10
69.907135
 20
193.184761
 11
69.907135
 21
212.542919
  0
LINE
  8
2
 62
134
  6
CONTINUOUS
 10
45.907135
 20
194.184761
 11
47.838986
 21
194.702399
  0
LINE
  8
2
 62
134
  6
CONTINUOUS
 10
45.907135
 20
194.184761
 11
47.838986
 21
193.667123
  0
LINE
  8
2
 62
134
  6
CONTINUOUS
 10
47.838986
 20
194.702399
 11
47.838986
 21
193.667123
  0
LINE
  8
2
 62
134
  6
CONTINUOUS
 10
46.390098
 20
194.184761
 11
47.356024
 21
194.443580
  0
LINE
  8
2
 62
134
  6
CONTINUOUS
 10
46.390098
 20
194.184761
 11
47.356024
 21
193.925942
  0
LINE
  8
2
 62
134
  6
CONTINUOUS
 10
47.356024
 20
194.443580
 11
47.356024
 21
193.925942
  0
LINE
  8
2
 62
134
  6
CONTINUOUS
 10
69.907135
 20
194.184761
 11
67.975283
 21
193.667123
  0
LINE
  8
2
 62
134
  6
CONTINUOUS
 10
69.907135
 20
194.184761
 11
67.975283
 21
194.702399
  0
LINE
  8
2
 62
134
  6
CONTINUOUS
 10
67.975283
 20
193.667123
 11
67.975283
 21
194.702399
  0
LINE
  8
2
 62
134
  6
CONTINUOUS
 10
69.424172
 20
194.184761
 11
68.458246
 21
193.925942
  0
LINE
  8
2
 62
134
  6
CONTINUOUS
 10
69.424172
 20
194.184761
 11
68.458246
 21
194.443580
  0
LINE
  8
2
 62
134
  6
CONTINUOUS
 10
68.458246
 20
193.925942
 11
68.458246
 21
194.443580
  0
TEXT
  8
2
 62
134
  6
CONTINUOUS
 10
55.105664
 20
194.184761
 40
4.000000
 41
0.500000
  1
24
  7
KANJI
 50
0.000000
 51
0.000000
  0
ENDBLK
  0
BLOCK
  8
2
 62
134
  6
CONTINUOUS
  2
*D16
 70
    65
 10
0.0
 20
0.0
  0
LINE
  8
2
 62
134
  6
CONTINUOUS
 10
41.907135
 20
205.275504
 11
31.134081
 21
194.502450
  0
LINE
  8
2
 62
134
  6
CONTINUOUS
 10
41.907135
 20
205.275504
 11
40.907135
 21
203.543453
  0
LINE
  8
2
 62
134
  6
CONTINUOUS
 10
41.907135
 20
205.275504
 11
40.175084
 21
204.275504
  0
LINE
  8
2
 62
134
  6
CONTINUOUS
 10
40.907135
 20
203.543453
 11
40.175084
 21
204.275504
  0
LINE
  8
2
 62
134
  6
CONTINUOUS
 10
41.565628
 20
204.933998
 11
41.065628
 21
204.067972
  0
LINE
  8
2
 62
134
  6
CONTINUOUS
 10
41.565628
 20
204.933998
 11
40.699603
 21
204.433998
  0
LINE
  8
2
 62
134
  6
CONTINUOUS
 10
41.065628
 20
204.067972
 11
40.699603
 21
204.433998
  0
TEXT
  8
2
 62
134
  6
CONTINUOUS
 10
31.134081
 20
194.502450
 40
4.000000
 41
0.500000
  1
4-C2
  7
KANJI
 50
45.000000
 51
0.000000
  0
ENDBLK
  0
BLOCK
  8
2
 62
134
  6
CONTINUOUS
  2
*D17
 70
    65
 10
0.0
 20
0.0
  0
LINE
  8
2
 62
134
  6
CONTINUOUS
 10
40.907135
 20
178.892321
 11
118.907135
 21
178.892321
  0
LINE
  8
2
 62
134
  6
CONTINUOUS
 10
40.907135
 20
179.892321
 11
40.907135
 21
103.562262
  0
LINE
  8
2
 62
134
  6
CONTINUOUS
 10
118.907135
 20
179.892321
 11
118.907135
 21
103.562262
  0
LINE
  8
2
 62
134
  6
CONTINUOUS
 10
40.907135
 20
178.892321
 11
42.838986
 21
179.409959
  0
LINE
  8
2
 62
134
  6
CONTINUOUS
 10
40.907135
 20
178.892321
 11
42.838986
 21
178.374683
  0
LINE
  8
2
 62
134
  6
CONTINUOUS
 10
42.838986
 20
179.409959
 11
42.838986
 21
178.374683
  0
LINE
  8
2
 62
134
  6
CONTINUOUS
 10
41.390098
 20
178.892321
 11
42.356024
 21
179.151140
  0
LINE
  8
2
 62
134
  6
CONTINUOUS
 10
41.390098
 20
178.892321
 11
42.356024
 21
178.633502
  0
LINE
  8
2
 62
134
  6
CONTINUOUS
 10
42.356024
 20
179.151140
 11
42.356024
 21
178.633502
  0
LINE
  8
2
 62
134
  6
CONTINUOUS
 10
118.907135
 20
178.892321
 11
116.975283
 21
178.374683
  0
LINE
  8
2
 62
134
  6
CONTINUOUS
 10
118.907135
 20
178.892321
 11
116.975283
 21
179.409959
  0
LINE
  8
2
 62
134
  6
CONTINUOUS
 10
116.975283
 20
178.374683
 11
116.975283
 21
179.409959
  0
LINE
  8
2
 62
134
  6
CONTINUOUS
 10
118.424172
 20
178.892321
 11
117.458246
 21
178.633502
  0
LINE
  8
2
 62
134
  6
CONTINUOUS
 10
118.424172
 20
178.892321
 11
117.458246
 21
179.151140
  0
LINE
  8
2
 62
134
  6
CONTINUOUS
 10
117.458246
 20
178.633502
 11
117.458246
 21
179.151140
  0
TEXT
  8
2
 62
134
  6
CONTINUOUS
 10
79.167760
 20
178.892321
 40
4.000000
 41
0.500000
  1
78
  7
KANJI
 50
0.000000
 51
0.000000
  0
ENDBLK
  0
BLOCK
  8
2
 62
134
  6
CONTINUOUS
  2
*D18
 70
    65
 10
0.0
 20
0.0
  0
LINE
  8
2
 62
134
  6
CONTINUOUS
 10
40.907135
 20
171.145968
 11
52.907135
 21
171.145968
  0
LINE
  8
2
 62
134
  6
CONTINUOUS
 10
40.907135
 20
172.145968
 11
40.907135
 21
103.562262
  0
LINE
  8
2
 62
134
  6
CONTINUOUS
 10
52.907135
 20
172.145968
 11
52.907135
 21
158.562262
  0
LINE
  8
2
 62
134
  6
CONTINUOUS
 10
40.907135
 20
171.145968
 11
42.838986
 21
171.663606
  0
LINE
  8
2
 62
134
  6
CONTINUOUS
 10
40.907135
 20
171.145968
 11
42.838986
 21
170.628330
  0
LINE
  8
2
 62
134
  6
CONTINUOUS
 10
42.838986
 20
171.663606
 11
42.838986
 21
170.628330
  0
LINE
  8
2
 62
134
  6
CONTINUOUS
 10
41.390098
 20
171.145968
 11
42.356024
 21
171.404787
  0
LINE
  8
2
 62
134
  6
CONTINUOUS
 10
41.390098
 20
171.145968
 11
42.356024
 21
170.887149
  0
LINE
  8
2
 62
134
  6
CONTINUOUS
 10
42.356024
 20
171.404787
 11
42.356024
 21
170.887149
  0
LINE
  8
2
 62
134
  6
CONTINUOUS
 10
52.907135
 20
171.145968
 11
50.975283
 21
170.628330
  0
LINE
  8
2
 62
134
  6
CONTINUOUS
 10
52.907135
 20
171.145968
 11
50.975283
 21
171.663606
  0
LINE
  8
2
 62
134
  6
CONTINUOUS
 10
50.975283
 20
170.628330
 11
50.975283
 21
171.663606
  0
LINE
  8
2
 62
134
  6
CONTINUOUS
 10
52.424172
 20
171.145968
 11
51.458246
 21
170.887149
  0
LINE
  8
2
 62
134
  6
CONTINUOUS
 10
52.424172
 20
171.145968
 11
51.458246
 21
171.404787
  0
LINE
  8
2
 62
134
  6
CONTINUOUS
 10
51.458246
 20
170.887149
 11
51.458246
 21
171.404787
  0
TEXT
  8
2
 62
134
  6
CONTINUOUS
 10
45.226187
 20
171.145968
 40
4.000000
 41
0.500000
  1
12
  7
KANJI
 50
0.000000
 51
0.000000
  0
ENDBLK
  0
ENDSEC
  0
SECTION
  2
ENTITIES
  0
TEXT
  8
5
 62
94
  6
CONTINUOUS
 10
122.938555
 20
25.232135
 40
1.750000
 41
4.000000
  1
製図
  7
KANJI
 50
-90.000000
 51
0.000000
  0
TEXT
  8
5
 62
94
  6
CONTINUOUS
 10
142.771336
 20
25.068228
 40
1.750000
 41
4.000000
  1
図番
  7
KANJI
 50
-90.000000
 51
0.000000
  0
TEXT
  8
5
 62
94
  6
CONTINUOUS
 10
142.771336
 20
38.344718
 40
1.750000
 41
4.000000
  1
図　名
  7
KANJI
 50
-90.000000
 51
0.000000
  0
TEXT
  8
5
 62
94
  6
CONTINUOUS
 10
77.864051
 20
32.935778
 40
1.750000
 41
4.000000
  1
日付
  7
KANJI
 50
-90.000000
 51
0.000000
  0
TEXT
  8
5
 62
94
  6
CONTINUOUS
 10
112.940210
 20
33.099685
 40
1.750000
 41
4.000000
  1
図法
  7
KANJI
 50
-90.000000
 51
0.000000
  0
TEXT
  8
5
 62
94
  6
CONTINUOUS
 10
112.776303
 20
41.131142
 40
1.750000
 41
4.000000
  1
尺度
  7
KANJI
 50
-90.000000
 51
0.000000
  0
TEXT
  8
5
 62
94
  6
CONTINUOUS
 10
77.864051
 20
40.967235
 40
1.750000
 41
4.000000
  1
公差
  7
KANJI
 50
-90.000000
 51
0.000000
  0
TEXT
  8
5
 62
94
  6
CONTINUOUS
 10
77.864051
 20
25.068228
 40
1.750000
 41
4.000000
  1
承認
  7
KANJI
 50
-90.000000
 51
0.000000
  0
TEXT
  8
5
 62
94
  6
CONTINUOUS
 10
102.941866
 20
25.068228
 40
1.750000
 41
4.000000
  1
設計
  7
KANJI
 50
-90.000000
 51
0.000000
  0
TEXT
  8
5
 62
94
  6
CONTINUOUS
 10
96.385575
 20
11.136109
 40
4.500000
 41
1.888889
  1
ジャパンセンサー株式会社
  7
KANJI
 50
0.000000
 51
0.000000
  0
LINE
  8
5
 62
94
  6
CONTINUOUS
 10
76.975806
 20
41.580645
 11
196.975806
 21
41.580645
  0
LINE
  8
5
 62
94
  6
CONTINUOUS
 10
76.975806
 20
9.580645
 11
76.975806
 21
41.580645
  0
LINE
  8
5
 62
94
  6
CONTINUOUS
 10
196.975806
 20
17.580645
 11
76.975806
 21
17.580645
  0
LINE
  8
5
 62
94
  6
CONTINUOUS
 10
141.975806
 20
41.580645
 11
141.975806
 21
17.580645
  0
LINE
  8
5
 62
94
  6
CONTINUOUS
 10
196.975806
 20
25.580645
 11
76.975806
 21
25.580645
  0
LINE
  8
5
 62
94
  6
CONTINUOUS
 10
146.975806
 20
17.580645
 11
146.975806
 21
41.580645
  0
LINE
  8
5
 62
94
  6
CONTINUOUS
 10
116.975806
 20
41.580645
 11
116.975806
 21
25.580645
  0
LINE
  8
5
 62
94
  6
CONTINUOUS
 10
81.975806
 20
17.580645
 11
81.975806
 21
41.580645
  0
LINE
  8
5
 62
94
  6
CONTINUOUS
 10
76.975806
 20
33.580645
 11
141.975806
 21
33.580645
  0
LINE
  8
5
 62
94
  6
CONTINUOUS
 10
111.975806
 20
41.580645
 11
111.975806
 21
25.580645
  0
LINE
  8
5
 62
94
  6
CONTINUOUS
 10
101.975806
 20
17.580645
 11
101.975806
 21
25.580645
  0
LINE
  8
5
 62
94
  6
CONTINUOUS
 10
121.975806
 20
17.580645
 11
121.975806
 21
25.580645
  0
LINE
  8
5
 62
94
  6
CONTINUOUS
 10
106.975806
 20
25.580645
 11
106.975806
 21
17.580645
  0
LINE
  8
5
 62
94
  6
CONTINUOUS
 10
126.975806
 20
25.580645
 11
126.975806
 21
17.580645
  0
TEXT
  8
5
 62
94
  6
CONTINUOUS
 10
120.971667
 20
26.871208
 40
4.000000
 41
1.000000
  1
三角法
  7
KANJI
 50
0.000000
 51
0.000000
  0
LINE
  8
5
 62
94
  6
CONTINUOUS
 10
149.619507
 20
33.551118
 11
193.760255
 21
33.551118
  0
TEXT
  8
5
 62
94
  6
CONTINUOUS
 10
130.155925
 20
19.519622
 40
4.000000
 41
1.000000
  1
須藤
  7
KANJI
 50
0.000000
 51
0.000000
  0
LINE
  8
5
 62
94
  6
CONTINUOUS
 10
11.975806
 20
284.580645
 11
11.975806
 21
9.580645
  0
LINE
  8
5
 62
94
  6
CONTINUOUS
 10
11.975806
 20
9.580645
 11
196.975806
 21
9.580645
  0
LINE
  8
5
 62
94
  6
CONTINUOUS
 10
196.975806
 20
9.580645
 11
196.975806
 21
284.580645
  0
LINE
  8
5
 62
94
  6
CONTINUOUS
 10
196.975806
 20
284.580645
 11
11.975806
 21
284.580645
  0
TEXT
  8
5
 62
94
  6
CONTINUOUS
 10
87.062421
 20
27.412338
 40
4.000000
 41
0.500000
  1
2014/01/24
  7
KANJI
 50
0.000000
 51
0.000000
  0
TEXT
  8
5
 62
94
  6
CONTINUOUS
 10
123.602775
 20
35.305055
 40
4.000000
 41
1.000000
  1
１／１
  7
KANJI
 50
0.000000
 51
0.000000
  0
TEXT
  8
5
 62
94
  6
CONTINUOUS
 10
147.977951
 20
19.847933
 40
4.000000
 41
1.000000
  1
００５－０６５－Ａ１０２
  7
KANJI
 50
0.000000
 51
0.000000
  0
TEXT
  8
5
 62
94
  6
CONTINUOUS
 10
152.129517
 20
35.574043
 40
4.000000
 41
1.000000
  1
ＴＭＡＸ－Ｂ
  7
KANJI
 50
0.000000
 51
0.000000
  0
TEXT
  8
5
 62
94
  6
CONTINUOUS
 10
149.897799
 20
27.432588
 40
4.000000
 41
1.000000
  1
取付金具Ｂ 外形図
  7
KANJI
 50
0.000000
 51
0.000000
  0
TEXT
  8
5
 62
94
  6
CONTINUOUS
 10
110.155925
 20
19.519622
 40
4.000000
 41
1.000000
  1
須藤
  7
KANJI
 50
0.000000
 51
0.000000
  0
LINE
  8
1
 62
7
  6
DASHDOT
 10
58.907135
 20
120.127470
 11
58.907135
 21
113.555611
  0
LINE
  8
1
 62
7
  6
DASHDOT
 10
97.912340
 20
152.562262
 11
104.275759
 21
152.562262
  0
CIRCLE
  8
1
 62
7
  6
CONTINUOUS
 10
58.907135
 20
149.562262
 40
2.000000
  0
LINE
  8
1
 62
7
  6
DASHDOT
 10
61.455386
 20
149.562262
 11
55.520413
 21
149.562262
  0
DIMENSION
  8
2
 62
134
  6
CONTINUOUS
  2
*D1
 10
125.634396
 20
113.562262
 11
125.634396
 21
131.469524
 70
     0
  1
39
 13
104.455386
 23
113.562262
 14
105.275759
 24
152.562262
 50
90.000000
  0
DIMENSION
  8
2
 62
134
  6
CONTINUOUS
  2
*D2
 10
52.407135
 20
141.031479
 11
55.312254
 21
141.031479
 70
     0
  1
6.5
 13
52.407135
 23
141.031479
 14
58.907135
 24
143.972807
 50
0.000000
  0
DIMENSION
  8
2
 62
134
  6
CONTINUOUS
  2
*D3
 10
58.907135
 20
141.031479
 11
77.996819
 21
141.031479
 70
     0
  1
42
 13
58.907135
 23
143.972807
 14
100.907135
 24
143.007275
 50
0.000000
  0
LINE
  8
1
 62
7
  6
DASHDOT
 10
58.907135
 20
153.550084
 11
58.907135
 21
121.801416
  0
DIMENSION
  8
2
 62
134
  6
CONTINUOUS
  2
*D4
 10
105.407135
 20
159.058937
 11
112.285125
 21
165.936927
 70
     4
  1
2-C2
 15
115.113552
 25
168.765354
  0
LINE
  8
2
 62
134
  6
CONTINUOUS
 10
60.021103
 20
151.223308
 11
63.515987
 21
155.145043
  0
LINE
  8
2
 62
134
  6
CONTINUOUS
 10
63.515987
 20
155.145043
 11
74.260267
 21
155.145043
  0
TEXT
  8
2
 62
134
  6
CONTINUOUS
 10
64.260267
 20
155.202485
 40
4.000000
 41
1.000000
  1
φ4ｱﾅ
  7
KANJI
 50
0.000000
 51
0.000000
  0
LINE
  8
2
 62
134
  6
CONTINUOUS
 10
60.021103
 20
151.223308
 11
60.919930
 21
153.009956
  0
LINE
  8
2
 62
134
  6
CONTINUOUS
 10
60.021103
 20
151.223308
 11
61.692834
 21
152.321177
  0
LINE
  8
2
 62
134
  6
CONTINUOUS
 10
60.919930
 20
153.009956
 11
61.692834
 21
152.321177
  0
LINE
  8
2
 62
134
  6
CONTINUOUS
 10
60.342422
 20
151.583873
 11
60.791836
 21
152.477197
  0
LINE
  8
2
 62
134
  6
CONTINUOUS
 10
60.342422
 20
151.583873
 11
61.178288
 21
152.132807
  0
LINE
  8
2
 62
134
  6
CONTINUOUS
 10
60.791836
 20
152.477197
 11
61.178288
 21
152.132807
  0
LINE
  8
1
 62
7
  6
DASHDOT
 10
52.964229
 20
116.562262
 11
65.117959
 21
116.562262
  0
DIMENSION
  8
2
 62
134
  6
CONTINUOUS
  2
*D5
 10
34.189641
 20
116.562262
 11
34.189641
 21
132.036331
 70
     0
  1
33
 13
53.122528
 23
116.562262
 14
54.520413
 24
149.562262
 50
90.000000
  0
ARC
  8
1
 62
7
  6
CONTINUOUS
 10
61.907135
 20
116.562262
 40
2.000000
 50
-90.000000
 51
92.215951
  0
ARC
  8
1
 62
7
  6
CONTINUOUS
 10
55.907135
 20
116.562262
 40
2.000000
 50
87.784049
 51
-90.000000
  0
LINE
  8
1
 62
7
  6
CONTINUOUS
 10
61.907135
 20
114.562262
 11
55.907135
 21
114.562262
  0
LINE
  8
1
 62
7
  6
CONTINUOUS
 10
55.907135
 20
118.562262
 11
61.907135
 21
118.562262
  0
ARC
  8
1
 62
7
  6
CONTINUOUS
 10
100.907135
 20
155.562262
 40
2.000000
 50
0.000000
 51
-177.784049
  0
ARC
  8
1
 62
7
  6
CONTINUOUS
 10
100.907135
 20
149.562262
 40
2.000000
 50
177.784049
 51
0.000000
  0
LINE
  8
1
 62
7
  6
CONTINUOUS
 10
102.907135
 20
155.562262
 11
102.907135
 21
149.562262
  0
LINE
  8
1
 62
7
  6
CONTINUOUS
 10
98.907135
 20
149.562262
 11
98.907135
 21
155.562262
  0
LINE
  8
2
 62
134
  6
CONTINUOUS
 10
61.907135
 20
114.562262
 11
65.745135
 21
109.056134
  0
LINE
  8
2
 62
134
  6
CONTINUOUS
 10
65.745135
 20
109.056134
 11
87.745135
 21
109.056134
  0
TEXT
  8
2
 62
134
  6
CONTINUOUS
 10
65.745135
 20
108.904471
 40
4.000000
 41
1.000000
  1
3-10×4長穴
  7
KANJI
 50
0.000000
 51
0.000000
  0
LINE
  8
2
 62
134
  6
CONTINUOUS
 10
61.907135
 20
114.562262
 11
63.436485
 21
113.273430
  0
LINE
  8
2
 62
134
  6
CONTINUOUS
 10
61.907135
 20
114.562262
 11
62.587175
 21
112.681426
  0
LINE
  8
2
 62
134
  6
CONTINUOUS
 10
63.436485
 20
113.273430
 11
62.587175
 21
112.681426
  0
LINE
  8
2
 62
134
  6
CONTINUOUS
 10
62.183309
 20
114.166053
 11
62.947984
 21
113.521637
  0
LINE
  8
2
 62
134
  6
CONTINUOUS
 10
62.183309
 20
114.166053
 11
62.523329
 21
113.225635
  0
LINE
  8
2
 62
134
  6
CONTINUOUS
 10
62.947984
 20
113.521637
 11
62.523329
 21
113.225635
  0
LINE
  8
1
 62
7
  6
DASHDOT
 10
155.000711
 20
152.562262
 11
140.222403
 21
152.562262
  0
LINE
  8
1
 62
7
  6
DASHDOT
 10
153.492720
 20
116.562262
 11
138.714412
 21
116.562262
  0
LINE
  8
1
 62
7
  6
DASHDOT
 10
161.774582
 20
99.648096
 11
161.774582
 21
105.910052
  0
LINE
  8
1
 62
7
  6
DASHDOT
 10
155.000711
 20
149.562262
 11
140.222403
 21
149.562262
  0
DIMENSION
  8
2
 62
134
  6
CONTINUOUS
  2
*D6
 10
177.174582
 20
86.383895
 11
162.716140
 21
86.383895
 70
     0
  1
32
 13
177.174582
 23
99.562262
 14
145.174582
 24
99.562262
 50
180.000000
  0
DIMENSION
  8
2
 62
134
  6
CONTINUOUS
  2
*D7
 10
136.468205
 20
100.562262
 11
136.468205
 21
133.562262
 70
     0
  1
59
 13
144.174582
 23
100.562262
 14
144.174582
 24
159.562262
 50
90.000000
  0
LINE
  8
1
 62
7
  6
DASHDOT
 10
69.907135
 20
104.428667
 11
69.907135
 21
93.608115
  0
LINE
  8
1
 62
7
  6
DASHDOT
 10
89.907135
 20
104.428667
 11
89.907135
 21
93.608115
  0
LINE
  8
1
 62
7
  6
DASHDOT
 10
113.907135
 20
104.428667
 11
113.907135
 21
93.608115
  0
LINE
  8
1
 62
7
  6
DASHDOT
 10
45.907135
 20
104.428667
 11
45.907135
 21
93.608115
  0
DIMENSION
  8
2
 62
134
  6
CONTINUOUS
  2
*D8
 10
34.189641
 20
100.562262
 11
34.189641
 21
109.553013
 70
     0
  1
16
 13
39.907135
 23
100.562262
 14
53.122528
 24
116.562262
 50
90.000000
  0
DIMENSION
  8
2
 62
134
  6
CONTINUOUS
  2
*D9
 10
125.634396
 20
100.562262
 11
125.634396
 21
108.419400
 70
     0
  1
13
 13
119.907135
 23
100.562262
 14
104.455386
 24
113.562262
 50
90.000000
  0
LINE
  8
1
 62
7
  6
CONTINUOUS
 10
40.907135
 20
100.562262
 11
118.907135
 21
100.562262
  0
LINE
  8
1
 62
7
  6
CONTINUOUS
 10
52.907135
 20
157.562262
 11
54.907135
 21
159.562262
  0
LINE
  8
1
 62
7
  6
CONTINUOUS
 10
104.907135
 20
159.562262
 11
106.907135
 21
157.562262
  0
LINE
  8
1
 62
7
  6
CONTINUOUS
 10
54.907135
 20
159.562262
 11
104.907135
 21
159.562262
  0
DIMENSION
  8
2
 62
134
  6
CONTINUOUS
  2
*D10
 10
52.907135
 20
171.145968
 11
77.577987
 21
171.145968
 70
     0
  1
54
 13
52.907135
 23
158.562262
 14
106.907135
 24
158.562262
 50
0.000000
  0
CIRCLE
  8
1
 62
7
  6
CONTINUOUS
 10
89.907135
 20
220.875504
 40
2.000000
  0
LINE
  8
1
 62
7
  6
DASHDOT
 10
89.907135
 20
213.542919
 11
89.907135
 21
228.324565
  0
CIRCLE
  8
1
 62
7
  6
CONTINUOUS
 10
69.907135
 20
220.875504
 40
2.000000
  0
LINE
  8
1
 62
7
  6
DASHDOT
 10
69.907135
 20
213.542919
 11
69.907135
 21
228.324565
  0
DIMENSION
  8
2
 62
134
  6
CONTINUOUS
  2
*D11
 10
69.907135
 20
194.184761
 11
78.959127
 21
194.184761
 70
     0
  1
20
 13
69.907135
 23
212.542919
 14
89.907135
 24
212.542919
 50
0.000000
  0
LINE
  8
2
 62
134
  6
CONTINUOUS
 10
71.178907
 20
222.419070
 11
74.673792
 21
226.340804
  0
LINE
  8
2
 62
134
  6
CONTINUOUS
 10
74.673792
 20
226.340804
 11
89.600773
 21
226.340804
  0
TEXT
  8
2
 62
134
  6
CONTINUOUS
 10
75.600773
 20
226.398247
 40
4.000000
 41
1.000000
  1
2-φ4ｱﾅ
  7
KANJI
 50
0.000000
 51
0.000000
  0
LINE
  8
2
 62
134
  6
CONTINUOUS
 10
71.178907
 20
222.419070
 11
72.077735
 21
224.205717
  0
LINE
  8
2
 62
134
  6
CONTINUOUS
 10
71.178907
 20
222.419070
 11
72.850638
 21
223.516938
  0
LINE
  8
2
 62
134
  6
CONTINUOUS
 10
72.077735
 20
224.205717
 11
72.850638
 21
223.516938
  0
LINE
  8
2
 62
134
  6
CONTINUOUS
 10
71.500227
 20
222.779634
 11
71.949641
 21
223.672958
  0
LINE
  8
2
 62
134
  6
CONTINUOUS
 10
71.500227
 20
222.779634
 11
72.336093
 21
223.328568
  0
LINE
  8
2
 62
134
  6
CONTINUOUS
 10
71.949641
 20
223.672958
 11
72.336093
 21
223.328568
  0
LINE
  8
1
 62
7
  6
DASHDOT
 10
113.907135
 20
213.542919
 11
113.907135
 21
230.063582
  0
DIMENSION
  8
2
 62
134
  6
CONTINUOUS
  2
*D12
 10
89.907135
 20
194.184761
 11
102.432508
 21
194.184761
 70
     0
  1
24
 13
89.907135
 23
212.542919
 14
113.907135
 24
212.542919
 50
0.000000
  0
DIMENSION
  8
2
 62
134
  6
CONTINUOUS
  2
*D13
 10
130.897115
 20
204.275504
 11
130.897115
 21
214.020269
 70
     0
  1
16.6
 13
117.907135
 23
204.275504
 14
127.062574
 24
220.875504
 50
90.000000
  0
ARC
  8
1
 62
7
  6
CONTINUOUS
 10
113.907135
 20
223.875504
 40
2.000000
 50
0.000000
 51
-177.784049
  0
ARC
  8
1
 62
7
  6
CONTINUOUS
 10
113.907135
 20
217.875504
 40
2.000000
 50
177.784049
 51
0.000000
  0
LINE
  8
1
 62
7
  6
CONTINUOUS
 10
115.907135
 20
223.875504
 11
115.907135
 21
217.875504
  0
LINE
  8
1
 62
7
  6
CONTINUOUS
 10
111.907135
 20
217.875504
 11
111.907135
 21
223.875504
  0
LINE
  8
2
 62
134
  6
CONTINUOUS
 10
115.907135
 20
223.375504
 11
128.355060
 21
235.025388
  0
LINE
  8
2
 62
134
  6
CONTINUOUS
 10
128.355060
 20
235.025388
 11
150.355060
 21
235.025388
  0
TEXT
  8
2
 62
134
  6
CONTINUOUS
 10
128.355060
 20
234.889636
 40
4.000000
 41
1.000000
  1
2-10×4長穴
  7
KANJI
 50
0.000000
 51
0.000000
  0
LINE
  8
2
 62
134
  6
CONTINUOUS
 10
115.907135
 20
223.375504
 11
116.963915
 21
225.073507
  0
LINE
  8
2
 62
134
  6
CONTINUOUS
 10
115.907135
 20
223.375504
 11
117.671335
 21
224.317628
  0
LINE
  8
2
 62
134
  6
CONTINUOUS
 10
116.963915
 20
225.073507
 11
117.671335
 21
224.317628
  0
LINE
  8
2
 62
134
  6
CONTINUOUS
 10
116.259757
 20
223.705520
 11
116.788148
 21
224.554522
  0
LINE
  8
2
 62
134
  6
CONTINUOUS
 10
116.259757
 20
223.705520
 11
117.141858
 21
224.176582
  0
LINE
  8
2
 62
134
  6
CONTINUOUS
 10
116.788148
 20
224.554522
 11
117.141858
 21
224.176582
  0
LINE
  8
1
 62
7
  6
DASHDOT
 10
45.907135
 20
213.542919
 11
45.907135
 21
227.455057
  0
DIMENSION
  8
2
 62
134
  6
CONTINUOUS
  2
*D14
 10
40.907135
 20
194.184761
 11
43.499056
 21
194.184761
 70
     0
  1
5
 13
40.907135
 23
206.475504
 14
45.907135
 24
212.542919
 50
0.000000
  0
DIMENSION
  8
2
 62
134
  6
CONTINUOUS
  2
*D15
 10
45.907135
 20
194.184761
 11
57.105664
 21
194.184761
 70
     0
  1
24
 13
45.907135
 23
212.542919
 14
69.907135
 24
212.542919
 50
0.000000
  0
DIMENSION
  8
2
 62
134
  6
CONTINUOUS
  2
*D16
 10
41.907135
 20
205.275504
 11
33.962508
 21
197.330877
 70
     4
  1
4-C2
 15
31.134081
 25
194.502450
  0
ARC
  8
1
 62
7
  6
CONTINUOUS
 10
45.907135
 20
223.875504
 40
2.000000
 50
0.000000
 51
-177.784049
  0
ARC
  8
1
 62
7
  6
CONTINUOUS
 10
45.907135
 20
217.875504
 40
2.000000
 50
177.784049
 51
0.000000
  0
LINE
  8
1
 62
7
  6
CONTINUOUS
 10
47.907135
 20
223.875504
 11
47.907135
 21
217.875504
  0
LINE
  8
1
 62
7
  6
CONTINUOUS
 10
43.907135
 20
217.875504
 11
43.907135
 21
223.875504
  0
LINE
  8
1
 62
7
  6
DASHDOT
 10
42.571264
 20
220.875504
 11
126.062574
 21
220.875504
  0
LINE
  8
1
 62
7
  6
CONTINUOUS
 10
42.907135
 20
236.275504
 11
40.907135
 21
234.275504
  0
LINE
  8
1
 62
7
  6
CONTINUOUS
 10
42.907135
 20
236.275504
 11
116.907135
 21
236.275504
  0
LINE
  8
1
 62
7
  6
CONTINUOUS
 10
116.907135
 20
236.275504
 11
118.907135
 21
234.275504
  0
LINE
  8
1
 62
7
  6
CONTINUOUS
 10
118.907135
 20
234.275504
 11
118.907135
 21
206.275504
  0
LINE
  8
1
 62
7
  6
CONTINUOUS
 10
118.907135
 20
206.275504
 11
116.907135
 21
204.275504
  0
LINE
  8
1
 62
7
  6
CONTINUOUS
 10
116.907135
 20
204.275504
 11
42.907135
 21
204.275504
  0
LINE
  8
1
 62
7
  6
CONTINUOUS
 10
40.907135
 20
234.275504
 11
40.907135
 21
206.275504
  0
LINE
  8
1
 62
7
  6
CONTINUOUS
 10
42.907135
 20
204.275504
 11
40.907135
 21
206.275504
  0
LINE
  8
1
 62
7
  6
DASHDOT
 10
97.912340
 20
113.562262
 11
104.275759
 21
113.562262
  0
ARC
  8
1
 62
7
  6
CONTINUOUS
 10
100.907135
 20
116.562262
 40
2.000000
 50
0.000000
 51
-177.784049
  0
ARC
  8
1
 62
7
  6
CONTINUOUS
 10
100.907135
 20
110.562262
 40
2.000000
 50
177.784049
 51
0.000000
  0
LINE
  8
1
 62
7
  6
CONTINUOUS
 10
102.907135
 20
116.562262
 11
102.907135
 21
110.562262
  0
LINE
  8
1
 62
7
  6
CONTINUOUS
 10
98.907135
 20
110.562262
 11
98.907135
 21
116.562262
  0
LINE
  8
1
 62
7
  6
DASHDOT
 10
100.907135
 20
160.668470
 11
100.907135
 21
106.514313
  0
LINE
  8
1
 62
7
  6
DASHDOT
 10
155.000711
 20
113.562262
 11
140.222403
 21
113.562262
  0
LINE
  8
1
 62
7
  6
DASHDOT
 10
58.907135
 20
198.542919
 11
58.907135
 21
213.324565
  0
LINE
  8
1
 62
7
  6
DASHDOT
 10
100.907135
 20
198.542919
 11
100.907135
 21
213.324565
  0
LINE
  8
1
 62
7
  6
CONTINUOUS
 10
52.907135
 20
206.275504
 11
106.907135
 21
206.275504
  0
LINE
  8
1
 62
7
  6
CONTINUOUS
 10
52.907135
 20
206.275504
 11
52.907135
 21
204.275504
  0
LINE
  8
1
 62
7
  6
CONTINUOUS
 10
106.907135
 20
206.275504
 11
106.907135
 21
204.275504
  0
LINE
  8
1
 62
7
  6
CONTINUOUS
 10
40.907135
 20
102.562262
 11
40.907135
 21
100.562262
  0
LINE
  8
1
 62
7
  6
CONTINUOUS
 10
118.907135
 20
102.562262
 11
118.907135
 21
100.562262
  0
DIMENSION
  8
2
 62
134
  6
CONTINUOUS
  2
*D17
 10
40.907135
 20
178.892321
 11
81.167760
 21
178.892321
 70
     0
  1
78
 13
40.907135
 23
103.562262
 14
118.907135
 24
103.562262
 50
0.000000
  0
LINE
  8
1
 62
7
  6
CONTINUOUS
 10
52.907135
 20
102.562262
 11
52.907135
 21
157.562262
  0
DIMENSION
  8
2
 62
134
  6
CONTINUOUS
  2
*D18
 10
40.907135
 20
171.145968
 11
47.226187
 21
171.145968
 70
     0
  1
12
 13
40.907135
 23
103.562262
 14
52.907135
 24
158.562262
 50
0.000000
  0
LINE
  8
1
 62
7
  6
CONTINUOUS
 10
40.907135
 20
102.562262
 11
52.907135
 21
102.562262
  0
LINE
  8
1
 62
7
  6
CONTINUOUS
 10
106.907135
 20
102.562262
 11
106.907135
 21
157.562262
  0
LINE
  8
1
 62
7
  6
CONTINUOUS
 10
106.907135
 20
102.562262
 11
118.907135
 21
102.562262
  0
LINE
  8
1
 62
7
  6
DOT
 10
52.907135
 20
102.562262
 11
106.907135
 21
102.562262
  0
LINE
  8
1
 62
7
  6
CONTINUOUS
 10
177.174582
 20
102.562262
 11
177.174582
 21
100.562262
  0
LINE
  8
1
 62
7
  6
CONTINUOUS
 10
145.174582
 20
159.562262
 11
147.174582
 21
159.562262
  0
LINE
  8
1
 62
7
  6
CONTINUOUS
 10
147.174582
 20
102.562262
 11
177.174582
 21
102.562262
  0
LINE
  8
1
 62
7
  6
CONTINUOUS
 10
147.174582
 20
159.562262
 11
147.174582
 21
102.562262
  0
LINE
  8
1
 62
7
  6
CONTINUOUS
 10
145.174582
 20
102.562262
 11
145.174582
 21
159.562262
  0
LINE
  8
1
 62
7
  6
CONTINUOUS
 10
177.174582
 20
100.562262
 11
147.174582
 21
100.562262
  0
ARC
  8
1
 62
7
  6
CONTINUOUS
 10
147.174582
 20
102.562262
 40
2.000000
 50
180.000000
 51
-90.000000
  0
TEXT
  8
2
 62
134
  6
CONTINUOUS
 10
150.516415
 20
190.336386
 40
4.000000
 41
1.000000
  1
質量：85g
  7
KANJI
 50
0.000000
 51
0.000000
  0
LINE
  8
2
 62
134
  6
CONTINUOUS
 10
151.110270
 20
197.975591
 11
161.926215
 21
197.975591
  0
TEXT
  8
2
 62
134
  6
CONTINUOUS
 10
150.525625
 20
199.144882
 40
4.000000
 41
1.000000
  1
ｔ2.0
  7
KANJI
 50
0.000000
 51
0.000000
  0
ENDSEC
  0
EOF
