  0
SECTION
  2
HEADER
  9
$ACADVER
  1
AC1027
  9
$ACADMAINTVER
 70
     8
  9
$DWGCODEPAGE
  3
ANSI_932
  9
$REQUIREDVERSIONS
160
                 0
  9
$INSBASE
 10
0.0
 20
0.0
 30
0.0
  9
$EXTMIN
 10
10.0
 20
9.999999999999865
 30
0.0
  9
$EXTMAX
 10
285.0000000000003
 20
195.0000000000005
 30
0.0
  9
$LIMMIN
 10
0.0
 20
0.0
  9
$LIMMAX
 10
297.0
 20
210.0
  9
$ORTHOMODE
 70
     0
  9
$REGENMODE
 70
     1
  9
$FILLMODE
 70
     1
  9
$QTEXTMODE
 70
     0
  9
$MIRRTEXT
 70
     1
  9
$LTSCALE
 40
0.25
  9
$ATTMODE
 70
     1
  9
$TEXTSIZE
 40
4.0
  9
$TRACEWID
 40
0.05
  9
$TEXTSTYLE
  7
Standard
  9
$CLAYER
  8
0
  9
$CELTYPE
  6
ByLayer
  9
$CECOLOR
 62
   256
  9
$CELTSCALE
 40
1.0
  9
$DISPSILH
 70
     0
  9
$DIMSCALE
 40
1.0
  9
$DIMASZ
 40
2.0
  9
$DIMEXO
 40
2.0
  9
$DIMDLI
 40
10.0
  9
$DIMRND
 40
0.0
  9
$DIMDLE
 40
0.0
  9
$DIMEXE
 40
2.0
  9
$DIMTP
 40
0.0
  9
$DIMTM
 40
0.0
  9
$DIMTXT
 40
4.0
  9
$DIMCEN
 40
0.09
  9
$DIMTSZ
 40
0.0
  9
$DIMTOL
 70
     0
  9
$DIMLIM
 70
     0
  9
$DIMTIH
 70
     0
  9
$DIMTOH
 70
     0
  9
$DIMSE1
 70
     0
  9
$DIMSE2
 70
     0
  9
$DIMTAD
 70
     3
  9
$DIMZIN
 70
     8
  9
$DIMBLK
  1

  9
$DIMASO
 70
     1
  9
$DIMSHO
 70
     1
  9
$DIMPOST
  1

  9
$DIMAPOST
  1

  9
$DIMALT
 70
     0
  9
$DIMALTD
 70
     2
  9
$DIMALTF
 40
25.4
  9
$DIMLFAC
 40
1.0
  9
$DIMTOFL
 70
     1
  9
$DIMTVP
 40
0.7
  9
$DIMTIX
 70
     0
  9
$DIMSOXD
 70
     0
  9
$DIMSAH
 70
     0
  9
$DIMBLK1
  1

  9
$DIMBLK2
  1

  9
$DIMSTYLE
  2
Standard
  9
$DIMCLRD
 70
     0
  9
$DIMCLRE
 70
     0
  9
$DIMCLRT
 70
     0
  9
$DIMTFAC
 40
0.5
  9
$DIMGAP
 40
0.09
  9
$DIMJUST
 70
     0
  9
$DIMSD1
 70
     0
  9
$DIMSD2
 70
     0
  9
$DIMTOLJ
 70
     1
  9
$DIMTZIN
 70
     8
  9
$DIMALTZ
 70
     0
  9
$DIMALTTZ
 70
     0
  9
$DIMUPT
 70
     1
  9
$DIMDEC
 70
     2
  9
$DIMTDEC
 70
     4
  9
$DIMALTU
 70
     2
  9
$DIMALTTD
 70
     2
  9
$DIMTXSTY
  7
Standard
  9
$DIMAUNIT
 70
     0
  9
$DIMADEC
 70
     0
  9
$DIMALTRND
 40
0.0
  9
$DIMAZIN
 70
     0
  9
$DIMDSEP
 70
    46
  9
$DIMATFIT
 70
     2
  9
$DIMFRAC
 70
     0
  9
$DIMLDRBLK
  1

  9
$DIMLUNIT
 70
     2
  9
$DIMLWD
 70
    -2
  9
$DIMLWE
 70
    -2
  9
$DIMTMOVE
 70
     2
  9
$DIMFXL
 40
1.0
  9
$DIMFXLON
 70
     0
  9
$DIMJOGANG
 40
0.7853981633974483
  9
$DIMTFILL
 70
     0
  9
$DIMTFILLCLR
 70
     0
  9
$DIMARCSYM
 70
     0
  9
$DIMLTYPE
  6

  9
$DIMLTEX1
  6

  9
$DIMLTEX2
  6

  9
$DIMTXTDIRECTION
 70
     0
  9
$LUNITS
 70
     2
  9
$LUPREC
 70
     4
  9
$SKETCHINC
 40
0.1
  9
$FILLETRAD
 40
0.5
  9
$AUNITS
 70
     0
  9
$AUPREC
 70
     0
  9
$MENU
  1
.
  9
$ELEVATION
 40
0.0
  9
$PELEVATION
 40
0.0
  9
$THICKNESS
 40
0.0
  9
$LIMCHECK
 70
     0
  9
$CHAMFERA
 40
0.0
  9
$CHAMFERB
 40
0.0
  9
$CHAMFERC
 40
0.0
  9
$CHAMFERD
 40
0.0
  9
$SKPOLY
 70
     0
  9
$TDCREATE
 40
2457632.080231482
  9
$TDUCREATE
 40
2457631.705231482
  9
$TDUPDATE
 40
2457631.705240718
  9
$TDUUPDATE
 40
2457631.330240718
  9
$TDINDWG
 40
0.0000000116
  9
$TDUSRTIMER
 40
0.0000000116
  9
$USRTIMER
 70
     1
  9
$ANGBASE
 50
0.0
  9
$ANGDIR
 70
     0
  9
$PDMODE
 70
     0
  9
$PDSIZE
 40
0.0
  9
$PLINEWID
 40
0.0
  9
$SPLFRAME
 70
     0
  9
$SPLINETYPE
 70
     6
  9
$SPLINESEGS
 70
     8
  9
$HANDSEED
  5
2F5
  9
$SURFTAB1
 70
     6
  9
$SURFTAB2
 70
     6
  9
$SURFTYPE
 70
     6
  9
$SURFU
 70
     6
  9
$SURFV
 70
     6
  9
$UCSBASE
  2

  9
$UCSNAME
  2

  9
$UCSORG
 10
0.0
 20
0.0
 30
0.0
  9
$UCSXDIR
 10
1.0
 20
0.0
 30
0.0
  9
$UCSYDIR
 10
0.0
 20
1.0
 30
0.0
  9
$UCSORTHOREF
  2

  9
$UCSORTHOVIEW
 70
     0
  9
$UCSORGTOP
 10
0.0
 20
0.0
 30
0.0
  9
$UCSORGBOTTOM
 10
0.0
 20
0.0
 30
0.0
  9
$UCSORGLEFT
 10
0.0
 20
0.0
 30
0.0
  9
$UCSORGRIGHT
 10
0.0
 20
0.0
 30
0.0
  9
$UCSORGFRONT
 10
0.0
 20
0.0
 30
0.0
  9
$UCSORGBACK
 10
0.0
 20
0.0
 30
0.0
  9
$PUCSBASE
  2

  9
$PUCSNAME
  2

  9
$PUCSORG
 10
0.0
 20
0.0
 30
0.0
  9
$PUCSXDIR
 10
1.0
 20
0.0
 30
0.0
  9
$PUCSYDIR
 10
0.0
 20
1.0
 30
0.0
  9
$PUCSORTHOREF
  2

  9
$PUCSORTHOVIEW
 70
     0
  9
$PUCSORGTOP
 10
0.0
 20
0.0
 30
0.0
  9
$PUCSORGBOTTOM
 10
0.0
 20
0.0
 30
0.0
  9
$PUCSORGLEFT
 10
0.0
 20
0.0
 30
0.0
  9
$PUCSORGRIGHT
 10
0.0
 20
0.0
 30
0.0
  9
$PUCSORGFRONT
 10
0.0
 20
0.0
 30
0.0
  9
$PUCSORGBACK
 10
0.0
 20
0.0
 30
0.0
  9
$USERI1
 70
     0
  9
$USERI2
 70
     0
  9
$USERI3
 70
     0
  9
$USERI4
 70
     0
  9
$USERI5
 70
     0
  9
$USERR1
 40
0.0
  9
$USERR2
 40
0.0
  9
$USERR3
 40
0.0
  9
$USERR4
 40
0.0
  9
$USERR5
 40
0.0
  9
$WORLDVIEW
 70
     1
  9
$SHADEDGE
 70
     3
  9
$SHADEDIF
 70
    70
  9
$TILEMODE
 70
     1
  9
$MAXACTVP
 70
    64
  9
$PINSBASE
 10
0.0
 20
0.0
 30
0.0
  9
$PLIMCHECK
 70
     0
  9
$PEXTMIN
 10
0.0
 20
0.0
 30
0.0
  9
$PEXTMAX
 10
297.0
 20
210.0
 30
0.0
  9
$PLIMMIN
 10
0.0
 20
0.0
  9
$PLIMMAX
 10
297.0
 20
210.0
  9
$UNITMODE
 70
     0
  9
$VISRETAIN
 70
     1
  9
$PLINEGEN
 70
     0
  9
$PSLTSCALE
 70
     1
  9
$TREEDEPTH
 70
  3020
  9
$CMLSTYLE
  2
Standard
  9
$CMLJUST
 70
     0
  9
$CMLSCALE
 40
1.0
  9
$PROXYGRAPHICS
 70
     1
  9
$MEASUREMENT
 70
     1
  9
$CELWEIGHT
370
    -1
  9
$ENDCAPS
280
     0
  9
$JOINSTYLE
280
     0
  9
$LWDISPLAY
290
     0
  9
$INSUNITS
 70
     4
  9
$HYPERLINKBASE
  1

  9
$STYLESHEET
  1

  9
$XEDIT
290
     1
  9
$CEPSNTYPE
380
     0
  9
$PSTYLEMODE
290
     1
  9
$FINGERPRINTGUID
  2
{85A0157C-9668-452E-9475-265D74441B23}
  9
$VERSIONGUID
  2
{FAEB1C32-E019-11D5-929B-00C0DF256EC4}
  9
$EXTNAMES
290
     1
  9
$PSVPSCALE
 40
0.0
  9
$OLESTARTUP
290
     0
  9
$SORTENTS
280
   127
  9
$INDEXCTL
280
     0
  9
$HIDETEXT
280
     1
  9
$XCLIPFRAME
280
     2
  9
$HALOGAP
280
     0
  9
$OBSCOLOR
 70
   257
  9
$OBSLTYPE
280
     0
  9
$INTERSECTIONDISPLAY
280
     0
  9
$INTERSECTIONCOLOR
 70
   257
  9
$DIMASSOC
280
     1
  9
$PROJECTNAME
  1

  9
$CAMERADISPLAY
290
     0
  9
$LENSLENGTH
 40
50.0
  9
$CAMERAHEIGHT
 40
0.0
  9
$STEPSPERSEC
 40
2.0
  9
$STEPSIZE
 40
6.0
  9
$3DDWFPREC
 40
2.0
  9
$PSOLWIDTH
 40
0.25
  9
$PSOLHEIGHT
 40
4.0
  9
$LOFTANG1
 40
1.570796326794897
  9
$LOFTANG2
 40
1.570796326794897
  9
$LOFTMAG1
 40
0.0
  9
$LOFTMAG2
 40
0.0
  9
$LOFTPARAM
 70
     7
  9
$LOFTNORMALS
280
     1
  9
$LATITUDE
 40
37.795
  9
$LONGITUDE
 40
-122.394
  9
$NORTHDIRECTION
 40
0.0
  9
$TIMEZONE
 70
 -8000
  9
$LIGHTGLYPHDISPLAY
280
     1
  9
$TILEMODELIGHTSYNCH
280
     1
  9
$CMATERIAL
347
44
  9
$SOLIDHIST
280
     1
  9
$SHOWHIST
280
     1
  9
$DWFFRAME
280
     2
  9
$DGNFRAME
280
     2
  9
$REALWORLDSCALE
290
     1
  9
$INTERFERECOLOR
 62
   256
  9
$CSHADOW
280
     0
  9
$SHADOWPLANELOCATION
 40
0.0
  0
ENDSEC
  0
SECTION
  2
CLASSES
  0
CLASS
  1
ACDBDICTIONARYWDFLT
  2
AcDbDictionaryWithDefault
  3
ObjectDBX Classes
 90
        0
 91
        4
280
     0
281
     0
  0
CLASS
  1
VISUALSTYLE
  2
AcDbVisualStyle
  3
ObjectDBX Classes
 90
     4095
 91
        4
280
     0
281
     0
  0
CLASS
  1
MATERIAL
  2
AcDbMaterial
  3
ObjectDBX Classes
 90
     1153
 91
        4
280
     0
281
     0
  0
CLASS
  1
SCALE
  2
AcDbScale
  3
ObjectDBX Classes
 90
     1153
 91
        4
280
     0
281
     0
  0
CLASS
  1
SUN
  2
AcDbSun
  3
SCENEOE
 90
     1153
 91
        4
280
     0
281
     0
  0
CLASS
  1
DICTIONARYVAR
  2
AcDbDictionaryVar
  3
ObjectDBX Classes
 90
        0
 91
        4
280
     0
281
     0
  0
ENDSEC
  0
SECTION
  2
TABLES
  0
TABLE
  2
VPORT
  5
8
330
0
100
AcDbSymbolTable
 70
     1
  0
VPORT
  5
29
330
8
100
AcDbSymbolTableRecord
100
AcDbViewportTableRecord
  2
*Active
 70
     0
 10
0.0
 20
0.0
 11
1.0
 21
1.0
 12
10.42990654205607
 22
4.5
 13
0.0
 23
0.0
 14
0.5
 24
0.5
 15
0.5
 25
0.5
 16
0.0
 26
0.0
 36
1.0
 17
0.0
 27
0.0
 37
0.0
 40
9.0
 41
1.972972972850329
 42
50.0
 43
0.0
 44
0.0
 50
0.0
 51
0.0
 71
     0
 72
   100
 73
     1
 74
     3
 75
     0
 76
     0
 77
     0
 78
     0
281
     0
 65
     1
110
0.0
120
0.0
130
0.0
111
1.0
121
0.0
131
0.0
112
0.0
122
1.0
132
0.0
 79
     0
146
0.0
 60
     3
 61
     5
292
     1
282
     1
141
0.0
142
0.0
 63
   250
361
69
  0
ENDTAB
  0
TABLE
  2
LTYPE
  5
5
330
0
100
AcDbSymbolTable
 70
     9
  0
LTYPE
  5
14
330
5
100
AcDbSymbolTableRecord
100
AcDbLinetypeTableRecord
  2
ByBlock
 70
     0
  3

 72
    65
 73
     0
 40
0.0
  0
LTYPE
  5
15
330
5
100
AcDbSymbolTableRecord
100
AcDbLinetypeTableRecord
  2
ByLayer
 70
     0
  3

 72
    65
 73
     0
 40
0.0
  0
LTYPE
  5
16
330
5
100
AcDbSymbolTableRecord
100
AcDbLinetypeTableRecord
  2
Continuous
 70
     0
  3
Solid line
 72
    65
 73
     0
 40
0.0
  0
LTYPE
  5
B9
330
5
100
AcDbSymbolTableRecord
100
AcDbLinetypeTableRecord
  2
DOT
 70
     0
  3
DOT
 72
    65
 73
     2
 40
4.0
 49
6.0
 74
     0
 49
-2.0
 74
     0
  0
LTYPE
  5
BA
330
5
100
AcDbSymbolTableRecord
100
AcDbLinetypeTableRecord
  2
HIDDEN
 70
     0
  3
HIDDEN
 72
    65
 73
     2
 40
4.2
 49
8.4
 74
     0
 49
-4.2
 74
     0
  0
LTYPE
  5
BB
330
5
100
AcDbSymbolTableRecord
100
AcDbLinetypeTableRecord
  2
DASHDOT
 70
     0
  3
DASHDOT
 72
    65
 73
     4
 40
14.5
 49
30.0
 74
     0
 49
-9.0
 74
     0
 49
2.5
 74
     0
 49
-9.0
 74
     0
  0
LTYPE
  5
BC
330
5
100
AcDbSymbolTableRecord
100
AcDbLinetypeTableRecord
  2
PHANTOM
 70
     0
  3
PHANTOM
 72
    65
 73
     6
 40
12.0
 49
30.0
 74
     0
 49
-9.0
 74
     0
 49
2.5
 74
     0
 49
-5.0
 74
     0
 49
2.5
 74
     0
 49
-9.0
 74
     0
  0
LTYPE
  5
BD
330
5
100
AcDbSymbolTableRecord
100
AcDbLinetypeTableRecord
  2
ACAD_ISO14W100
 70
     0
  3
ACAD_ISO14W100
 72
    65
 73
     8
 40
1.5
 49
12.0
 74
     0
 49
-3.0
 74
     0
 49
0.5
 74
     0
 49
-3.0
 74
     0
 49
0.5
 74
     0
 49
-3.0
 74
     0
 49
0.5
 74
     0
 49
-3.0
 74
     0
  0
LTYPE
  5
BE
330
5
100
AcDbSymbolTableRecord
100
AcDbLinetypeTableRecord
  2
ACAD_ISO06W100
 70
     0
  3
ACAD_ISO06W100
 72
    65
 73
     8
 40
13.5
 49
24.0
 74
     0
 49
-3.0
 74
     0
 49
0.5
 74
     0
 49
-3.0
 74
     0
 49
0.5
 74
     0
 49
-3.0
 74
     0
 49
0.5
 74
     0
 49
-3.0
 74
     0
  0
LTYPE
  5
BF
330
5
100
AcDbSymbolTableRecord
100
AcDbLinetypeTableRecord
  2
ACAD_ISO11W100
 70
     0
  3
ACAD_ISO11W100
 72
    65
 73
     6
 40
15.5
 49
12.0
 74
     0
 49
-3.0
 74
     0
 49
12.0
 74
     0
 49
-3.0
 74
     0
 49
0.5
 74
     0
 49
-3.0
 74
     0
  0
LTYPE
  5
C0
330
5
100
AcDbSymbolTableRecord
100
AcDbLinetypeTableRecord
  2
ACAD_ISO13W100
 70
     0
  3
ACAD_ISO13W100
 72
    65
 73
     8
 40
13.0
 49
12.0
 74
     0
 49
-3.0
 74
     0
 49
12.0
 74
     0
 49
-3.0
 74
     0
 49
0.5
 74
     0
 49
-3.0
 74
     0
 49
0.5
 74
     0
 49
-3.0
 74
     0
  0
ENDTAB
  0
TABLE
  2
LAYER
  5
2
330
0
100
AcDbSymbolTable
 70
    24
  0
LAYER
  5
10
330
2
100
AcDbSymbolTableRecord
100
AcDbLayerTableRecord
  2
0
 70
     0
 62
     7
  6
Continuous
370
    -3
390
F
347
46
348
0
  0
LAYER
  5
C1
330
2
100
AcDbSymbolTableRecord
100
AcDbLayerTableRecord
  2
1
 70
     0
 62
     7
  6
Continuous
370
     9
390
F
347
46
348
0
  0
LAYER
  5
C2
330
2
100
AcDbSymbolTableRecord
100
AcDbLayerTableRecord
  2
2
 70
     0
 62
   134
  6
Continuous
370
     9
390
F
347
46
348
0
  0
LAYER
  5
C3
330
2
100
AcDbSymbolTableRecord
100
AcDbLayerTableRecord
  2
3
 70
     0
 62
   214
  6
Continuous
370
     9
390
F
347
46
348
0
  0
LAYER
  5
C4
330
2
100
AcDbSymbolTableRecord
100
AcDbLayerTableRecord
  2
4
 70
     0
 62
    54
  6
Continuous
370
     9
390
F
347
46
348
0
  0
LAYER
  5
C5
330
2
100
AcDbSymbolTableRecord
100
AcDbLayerTableRecord
  2
5
 70
     0
 62
    94
  6
Continuous
370
     9
390
F
347
46
348
0
  0
LAYER
  5
C6
330
2
100
AcDbSymbolTableRecord
100
AcDbLayerTableRecord
  2
6
 70
     0
 62
    14
  6
Continuous
370
     9
390
F
347
46
348
0
  0
LAYER
  5
C7
330
2
100
AcDbSymbolTableRecord
100
AcDbLayerTableRecord
  2
7
 70
     0
 62
     4
  6
Continuous
370
     9
390
F
347
46
348
0
  0
LAYER
  5
C8
330
2
100
AcDbSymbolTableRecord
100
AcDbLayerTableRecord
  2
8
 70
     0
 62
     6
  6
Continuous
370
     9
390
F
347
46
348
0
  0
LAYER
  5
C9
330
2
100
AcDbSymbolTableRecord
100
AcDbLayerTableRecord
  2
9
 70
     0
 62
     2
  6
Continuous
370
     9
390
F
347
46
348
0
  0
LAYER
  5
CA
330
2
100
AcDbSymbolTableRecord
100
AcDbLayerTableRecord
  2
10
 70
     0
 62
     3
  6
Continuous
370
     9
390
F
347
46
348
0
  0
LAYER
  5
CB
330
2
100
AcDbSymbolTableRecord
100
AcDbLayerTableRecord
  2
11
 70
     0
 62
   251
  6
Continuous
370
     9
390
F
347
46
348
0
  0
LAYER
  5
CC
330
2
100
AcDbSymbolTableRecord
100
AcDbLayerTableRecord
  2
12
 70
     0
 62
   136
  6
Continuous
370
     9
390
F
347
46
348
0
  0
LAYER
  5
CD
330
2
100
AcDbSymbolTableRecord
100
AcDbLayerTableRecord
  2
13
 70
     0
 62
   216
  6
Continuous
370
     9
390
F
347
46
348
0
  0
LAYER
  5
CE
330
2
100
AcDbSymbolTableRecord
100
AcDbLayerTableRecord
  2
14
 70
     0
 62
    56
  6
Continuous
370
     9
390
F
347
46
348
0
  0
LAYER
  5
CF
330
2
100
AcDbSymbolTableRecord
100
AcDbLayerTableRecord
  2
15
 70
     0
 62
    96
  6
Continuous
370
     9
390
F
347
46
348
0
  0
LAYER
  5
D0
330
2
100
AcDbSymbolTableRecord
100
AcDbLayerTableRecord
  2
16
 70
     0
 62
    16
  6
Continuous
370
     9
390
F
347
46
348
0
  0
LAYER
  5
D1
330
2
100
AcDbSymbolTableRecord
100
AcDbLayerTableRecord
  2
17
 70
     0
 62
   132
  6
Continuous
370
     9
390
F
347
46
348
0
  0
LAYER
  5
D2
330
2
100
AcDbSymbolTableRecord
100
AcDbLayerTableRecord
  2
18
 70
     0
 62
   212
  6
Continuous
370
     9
390
F
347
46
348
0
  0
LAYER
  5
D3
330
2
100
AcDbSymbolTableRecord
100
AcDbLayerTableRecord
  2
19
 70
     0
 62
    52
  6
Continuous
370
     9
390
F
347
46
348
0
  0
LAYER
  5
D4
330
2
100
AcDbSymbolTableRecord
100
AcDbLayerTableRecord
  2
20
 70
     0
 62
   250
  6
Continuous
370
     9
390
F
347
46
348
0
  0
LAYER
  5
D5
330
2
100
AcDbSymbolTableRecord
100
AcDbLayerTableRecord
  2
21
 70
     0
 62
   134
  6
Continuous
370
     9
390
F
347
46
348
0
  0
LAYER
  5
D6
330
2
100
AcDbSymbolTableRecord
100
AcDbLayerTableRecord
  2
23
 70
     0
 62
    54
  6
Continuous
370
     9
390
F
347
46
348
0
  0
LAYER
  5
D7
330
2
100
AcDbSymbolTableRecord
100
AcDbLayerTableRecord
  2
128
 70
     0
 62
     7
  6
Continuous
370
     9
390
F
347
46
348
0
  0
ENDTAB
  0
TABLE
  2
STYLE
  5
3
330
0
100
AcDbSymbolTable
 70
     3
  0
STYLE
  5
11
330
3
100
AcDbSymbolTableRecord
100
AcDbTextStyleTableRecord
  2
Standard
 70
     0
 40
0.0
 41
1.0
 50
0.0
 71
     0
 42
4.0
  3
txt
  4
bigfont
  0
STYLE
  5
6C
330
3
100
AcDbSymbolTableRecord
100
AcDbTextStyleTableRecord
  2
T_STANDARD
 70
     4
 40
10.0
 41
1.0
 50
0.0
 71
     0
 42
4.0
  3
txt
  4
bigfont
1001
ACAD
1000

1071
      256
  0
STYLE
  5
115
330
3
100
AcDbSymbolTableRecord
100
AcDbTextStyleTableRecord
  2
ＭＳ 明朝
 70
     0
 40
0.0
 41
1.0
 50
0.0
 71
     0
 42
4.0
  3

  4

1001
ACAD
1000
ＭＳ 明朝
1071
      256
  0
ENDTAB
  0
TABLE
  2
VIEW
  5
6
330
0
100
AcDbSymbolTable
 70
     0
  0
ENDTAB
  0
TABLE
  2
UCS
  5
7
330
0
100
AcDbSymbolTable
 70
     0
  0
ENDTAB
  0
TABLE
  2
APPID
  5
9
330
0
100
AcDbSymbolTable
 70
     2
  0
APPID
  5
12
330
9
100
AcDbSymbolTableRecord
100
AcDbRegAppTableRecord
  2
ACAD
 70
     0
  0
APPID
  5
6B
330
9
100
AcDbSymbolTableRecord
100
AcDbRegAppTableRecord
  2
ODA
 70
     0
  0
ENDTAB
  0
TABLE
  2
DIMSTYLE
  5
A
330
0
100
AcDbSymbolTable
 70
     1
100
AcDbDimStyleTable
  0
DIMSTYLE
105
27
102
{ACAD_REACTORS
330
11F
330
128
330
132
330
156
330
161
330
16B
330
1FF
330
207
330
21B
330
225
330
22F
330
23D
330
265
330
26F
330
279
330
2A8
330
2C4
330
2CE
330
2D8
102
}
330
A
100
AcDbSymbolTableRecord
100
AcDbDimStyleTableRecord
  2
Standard
 70
     0
178
     0
340
11
  0
ENDTAB
  0
TABLE
  2
BLOCK_RECORD
  5
1
330
0
100
AcDbSymbolTable
 70
    37
  0
BLOCK_RECORD
  5
1F
330
1
100
AcDbSymbolTableRecord
100
AcDbBlockTableRecord
  2
*Model_Space
340
22
 70
     0
280
     1
281
     0
  0
BLOCK_RECORD
  5
1B
330
1
100
AcDbSymbolTableRecord
100
AcDbBlockTableRecord
  2
*Paper_Space
340
1E
 70
     0
280
     1
281
     0
  0
BLOCK_RECORD
  5
23
330
1
100
AcDbSymbolTableRecord
100
AcDbBlockTableRecord
  2
*Paper_Space0
340
26
 70
     0
280
     1
281
     0
  0
BLOCK_RECORD
  5
6D
330
1
100
AcDbSymbolTableRecord
100
AcDbBlockTableRecord
  2
_ORIGIN
340
0
 70
     0
280
     1
281
     0
  0
BLOCK_RECORD
  5
72
330
1
100
AcDbSymbolTableRecord
100
AcDbBlockTableRecord
  2
_DOTBLANK
340
0
 70
     0
280
     1
281
     0
  0
BLOCK_RECORD
  5
77
330
1
100
AcDbSymbolTableRecord
100
AcDbBlockTableRecord
  2
_DOT
340
0
 70
     0
280
     1
281
     0
  0
BLOCK_RECORD
  5
7C
330
1
100
AcDbSymbolTableRecord
100
AcDbBlockTableRecord
  2
_OPEN
340
0
 70
     0
280
     1
281
     0
  0
BLOCK_RECORD
  5
82
330
1
100
AcDbSymbolTableRecord
100
AcDbBlockTableRecord
  2
_CLOSED
340
0
 70
     0
280
     1
281
     0
  0
BLOCK_RECORD
  5
89
330
1
100
AcDbSymbolTableRecord
100
AcDbBlockTableRecord
  2
_CLOSEDBLANK
340
0
 70
     0
280
     1
281
     0
  0
BLOCK_RECORD
  5
8F
330
1
100
AcDbSymbolTableRecord
100
AcDbBlockTableRecord
  2
_ARROWFILLED
340
0
102
{BLKREFS
331
11D
331
11E
331
126
331
127
331
130
331
131
331
154
331
155
331
15F
331
160
331
169
331
16A
331
1FD
331
1FE
331
205
331
206
331
208
331
219
331
21A
331
223
331
224
331
22D
331
22E
331
23B
331
23C
331
263
331
264
331
26D
331
26E
331
277
331
278
331
27A
331
2A6
331
2A7
331
2B3
331
2C2
331
2C3
331
2CC
331
2CD
331
2D6
331
2D7
331
2D9
331
2E1
102
}
 70
     0
280
     1
281
     0
  0
BLOCK_RECORD
  5
93
330
1
100
AcDbSymbolTableRecord
100
AcDbBlockTableRecord
  2
_BOXBLANK
340
0
 70
     0
280
     1
281
     0
  0
BLOCK_RECORD
  5
9B
330
1
100
AcDbSymbolTableRecord
100
AcDbBlockTableRecord
  2
_BOXFILLED
340
0
 70
     0
280
     1
281
     0
  0
BLOCK_RECORD
  5
A0
330
1
100
AcDbSymbolTableRecord
100
AcDbBlockTableRecord
  2
_INTEGRAL
340
0
 70
     0
280
     1
281
     0
  0
BLOCK_RECORD
  5
A5
330
1
100
AcDbSymbolTableRecord
100
AcDbBlockTableRecord
  2
_OBLIQUE
340
0
 70
     0
280
     1
281
     0
  0
BLOCK_RECORD
  5
A9
330
1
100
AcDbSymbolTableRecord
100
AcDbBlockTableRecord
  2
_NONE
340
0
 70
     0
280
     1
281
     0
  0
BLOCK_RECORD
  5
AC
330
1
100
AcDbSymbolTableRecord
100
AcDbBlockTableRecord
  2
MARK_OPEN
340
0
 70
     0
280
     1
281
     0
  0
BLOCK_RECORD
  5
B1
330
1
100
AcDbSymbolTableRecord
100
AcDbBlockTableRecord
  2
MARK_ORIGIN
340
0
 70
     0
280
     1
281
     0
  0
BLOCK_RECORD
  5
B5
330
1
100
AcDbSymbolTableRecord
100
AcDbBlockTableRecord
  2
MARK_DOT
340
0
 70
     0
280
     1
281
     0
  0
BLOCK_RECORD
  5
D8
330
1
100
AcDbSymbolTableRecord
100
AcDbBlockTableRecord
  2
*G16
340
0
102
{BLKREFS
331
DF
102
}
 70
     0
280
     1
281
     0
  0
BLOCK_RECORD
  5
116
330
1
100
AcDbSymbolTableRecord
100
AcDbBlockTableRecord
  2
Dim1
340
0
 70
     0
280
     1
281
     0
  0
BLOCK_RECORD
  5
120
330
1
100
AcDbSymbolTableRecord
100
AcDbBlockTableRecord
  2
Dim2
340
0
 70
     0
280
     1
281
     0
  0
BLOCK_RECORD
  5
129
330
1
100
AcDbSymbolTableRecord
100
AcDbBlockTableRecord
  2
Dim3
340
0
 70
     0
280
     1
281
     0
  0
BLOCK_RECORD
  5
133
330
1
100
AcDbSymbolTableRecord
100
AcDbBlockTableRecord
  2
*G20
340
0
102
{BLKREFS
331
13C
102
}
 70
     0
280
     1
281
     0
  0
BLOCK_RECORD
  5
14D
330
1
100
AcDbSymbolTableRecord
100
AcDbBlockTableRecord
  2
Dim4
340
0
 70
     0
280
     1
281
     0
  0
BLOCK_RECORD
  5
158
330
1
100
AcDbSymbolTableRecord
100
AcDbBlockTableRecord
  2
Dim5
340
0
 70
     0
280
     1
281
     0
  0
BLOCK_RECORD
  5
162
330
1
100
AcDbSymbolTableRecord
100
AcDbBlockTableRecord
  2
Dim6
340
0
 70
     0
280
     1
281
     0
  0
BLOCK_RECORD
  5
1F6
330
1
100
AcDbSymbolTableRecord
100
AcDbBlockTableRecord
  2
Dim7
340
0
 70
     0
280
     1
281
     0
  0
BLOCK_RECORD
  5
200
330
1
100
AcDbSymbolTableRecord
100
AcDbBlockTableRecord
  2
Dim8
340
0
 70
     0
280
     1
281
     0
  0
BLOCK_RECORD
  5
212
330
1
100
AcDbSymbolTableRecord
100
AcDbBlockTableRecord
  2
Dim9
340
0
 70
     0
280
     1
281
     0
  0
BLOCK_RECORD
  5
21C
330
1
100
AcDbSymbolTableRecord
100
AcDbBlockTableRecord
  2
Dim10
340
0
 70
     0
280
     1
281
     0
  0
BLOCK_RECORD
  5
226
330
1
100
AcDbSymbolTableRecord
100
AcDbBlockTableRecord
  2
Dim11
340
0
 70
     0
280
     1
281
     0
  0
BLOCK_RECORD
  5
234
330
1
100
AcDbSymbolTableRecord
100
AcDbBlockTableRecord
  2
Dim12
340
0
 70
     0
280
     1
281
     0
  0
BLOCK_RECORD
  5
25C
330
1
100
AcDbSymbolTableRecord
100
AcDbBlockTableRecord
  2
Dim13
340
0
 70
     0
280
     1
281
     0
  0
BLOCK_RECORD
  5
266
330
1
100
AcDbSymbolTableRecord
100
AcDbBlockTableRecord
  2
Dim14
340
0
 70
     0
280
     1
281
     0
  0
BLOCK_RECORD
  5
270
330
1
100
AcDbSymbolTableRecord
100
AcDbBlockTableRecord
  2
Dim15
340
0
 70
     0
280
     1
281
     0
  0
BLOCK_RECORD
  5
29F
330
1
100
AcDbSymbolTableRecord
100
AcDbBlockTableRecord
  2
Dim16
340
0
 70
     0
280
     1
281
     0
  0
BLOCK_RECORD
  5
2BB
330
1
100
AcDbSymbolTableRecord
100
AcDbBlockTableRecord
  2
Dim17
340
0
 70
     0
280
     1
281
     0
  0
BLOCK_RECORD
  5
2C5
330
1
100
AcDbSymbolTableRecord
100
AcDbBlockTableRecord
  2
Dim18
340
0
 70
     0
280
     1
281
     0
  0
BLOCK_RECORD
  5
2CF
330
1
100
AcDbSymbolTableRecord
100
AcDbBlockTableRecord
  2
Dim19
340
0
 70
     0
280
     1
281
     0
  0
ENDTAB
  0
ENDSEC
  0
SECTION
  2
BLOCKS
  0
BLOCK
  5
20
330
1F
100
AcDbEntity
  8
0
100
AcDbBlockBegin
  2
*Model_Space
 70
     0
 10
0.0
 20
0.0
 30
0.0
  3
*Model_Space
  1
*Model_Space
  0
ENDBLK
  5
21
330
1F
100
AcDbEntity
  8
0
100
AcDbBlockEnd
  0
BLOCK
  5
1C
330
1B
100
AcDbEntity
 67
     1
  8
0
100
AcDbBlockBegin
  2
*Paper_Space
 70
     0
 10
0.0
 20
0.0
 30
0.0
  3
*Paper_Space
  1
*Paper_Space
  0
ENDBLK
  5
1D
330
1B
100
AcDbEntity
 67
     1
  8
0
100
AcDbBlockEnd
  0
BLOCK
  5
24
330
23
100
AcDbEntity
  8
0
100
AcDbBlockBegin
  2
*Paper_Space0
 70
     0
 10
0.0
 20
0.0
 30
0.0
  3
*Paper_Space0
  1
*Paper_Space0
  0
ENDBLK
  5
25
330
23
100
AcDbEntity
  8
0
100
AcDbBlockEnd
  0
BLOCK
  5
70
330
6D
100
AcDbEntity
  8
0
100
AcDbBlockBegin
  2
_ORIGIN
 70
     0
 10
0.0
 20
0.0
 30
0.0
  3
_ORIGIN
  1
_ORIGIN
  0
CIRCLE
  5
6E
330
6D
100
AcDbEntity
  8
0
 62
     0
100
AcDbCircle
 10
0.0
 20
0.0
 30
0.0
 40
0.5
  0
LINE
  5
6F
330
6D
100
AcDbEntity
  8
0
 62
     0
100
AcDbLine
 10
0.0
 20
0.0
 30
0.0
 11
-1.0
 21
0.0
 31
0.0
  0
ENDBLK
  5
71
330
6D
100
AcDbEntity
  8
0
100
AcDbBlockEnd
  0
BLOCK
  5
75
330
72
100
AcDbEntity
  8
0
100
AcDbBlockBegin
  2
_DOTBLANK
 70
     0
 10
0.0
 20
0.0
 30
0.0
  3
_DOTBLANK
  1
_DOTBLANK
  0
CIRCLE
  5
73
330
72
100
AcDbEntity
  8
0
 62
     0
100
AcDbCircle
 10
0.0
 20
0.0
 30
0.0
 40
0.5
  0
LINE
  5
74
330
72
100
AcDbEntity
  8
0
 62
     0
100
AcDbLine
 10
-0.5
 20
0.0
 30
0.0
 11
-1.0
 21
0.0
 31
0.0
  0
ENDBLK
  5
76
330
72
100
AcDbEntity
  8
0
100
AcDbBlockEnd
  0
BLOCK
  5
7A
330
77
100
AcDbEntity
  8
0
100
AcDbBlockBegin
  2
_DOT
 70
     0
 10
0.0
 20
0.0
 30
0.0
  3
_DOT
  1
_DOT
  0
LWPOLYLINE
  5
78
330
77
100
AcDbEntity
  8
0
 62
     0
100
AcDbPolyline
 90
        2
 70
     1
 43
0.5
 10
-0.25
 20
0.0
 42
1.0
 10
0.25
 20
0.0
 42
1.0
  0
LINE
  5
79
330
77
100
AcDbEntity
  8
0
 62
     0
100
AcDbLine
 10
-0.5
 20
0.0
 30
0.0
 11
-1.0
 21
0.0
 31
0.0
  0
ENDBLK
  5
7B
330
77
100
AcDbEntity
  8
0
100
AcDbBlockEnd
  0
BLOCK
  5
80
330
7C
100
AcDbEntity
  8
0
100
AcDbBlockBegin
  2
_OPEN
 70
     0
 10
0.0
 20
0.0
 30
0.0
  3
_OPEN
  1
_OPEN
  0
LINE
  5
7D
330
7C
100
AcDbEntity
  8
0
 62
     0
100
AcDbLine
 10
0.0
 20
0.0
 30
0.0
 11
-1.0
 21
0.1666666666666667
 31
0.0
  0
LINE
  5
7E
330
7C
100
AcDbEntity
  8
0
 62
     0
100
AcDbLine
 10
0.0
 20
0.0
 30
0.0
 11
-1.0
 21
-0.1666666666666667
 31
0.0
  0
LINE
  5
7F
330
7C
100
AcDbEntity
  8
0
 62
     0
100
AcDbLine
 10
0.0
 20
0.0
 30
0.0
 11
-1.0
 21
0.0
 31
0.0
  0
ENDBLK
  5
81
330
7C
100
AcDbEntity
  8
0
100
AcDbBlockEnd
  0
BLOCK
  5
87
330
82
100
AcDbEntity
  8
0
100
AcDbBlockBegin
  2
_CLOSED
 70
     0
 10
0.0
 20
0.0
 30
0.0
  3
_CLOSED
  1
_CLOSED
  0
LINE
  5
83
330
82
100
AcDbEntity
  8
0
 62
     0
100
AcDbLine
 10
0.0
 20
0.0
 30
0.0
 11
-1.0
 21
0.1666666666666667
 31
0.0
  0
LINE
  5
84
330
82
100
AcDbEntity
  8
0
 62
     0
100
AcDbLine
 10
0.0
 20
0.0
 30
0.0
 11
-1.0
 21
-0.1666666666666667
 31
0.0
  0
LINE
  5
85
330
82
100
AcDbEntity
  8
0
 62
     0
100
AcDbLine
 10
-1.0
 20
0.1666666666666667
 30
0.0
 11
-1.0
 21
-0.1666666666666667
 31
0.0
  0
LINE
  5
86
330
82
100
AcDbEntity
  8
0
 62
     0
100
AcDbLine
 10
0.0
 20
0.0
 30
0.0
 11
-1.0
 21
0.0
 31
0.0
  0
ENDBLK
  5
88
330
82
100
AcDbEntity
  8
0
100
AcDbBlockEnd
  0
BLOCK
  5
8D
330
89
100
AcDbEntity
  8
0
100
AcDbBlockBegin
  2
_CLOSEDBLANK
 70
     0
 10
0.0
 20
0.0
 30
0.0
  3
_CLOSEDBLANK
  1
_CLOSEDBLANK
  0
LINE
  5
8A
330
89
100
AcDbEntity
  8
0
 62
     0
100
AcDbLine
 10
0.0
 20
0.0
 30
0.0
 11
-1.0
 21
0.1666666666666667
 31
0.0
  0
LINE
  5
8B
330
89
100
AcDbEntity
  8
0
 62
     0
100
AcDbLine
 10
0.0
 20
0.0
 30
0.0
 11
-1.0
 21
-0.1666666666666667
 31
0.0
  0
LINE
  5
8C
330
89
100
AcDbEntity
  8
0
 62
     0
100
AcDbLine
 10
-1.0
 20
0.1666666666666667
 30
0.0
 11
-1.0
 21
-0.1666666666666667
 31
0.0
  0
ENDBLK
  5
8E
330
89
100
AcDbEntity
  8
0
100
AcDbBlockEnd
  0
BLOCK
  5
91
330
8F
100
AcDbEntity
  8
0
100
AcDbBlockBegin
  2
_ARROWFILLED
 70
     0
 10
0.0
 20
0.0
 30
0.0
  3
_ARROWFILLED
  1
_ARROWFILLED
  0
SOLID
  5
90
330
8F
100
AcDbEntity
  8
0
 62
     0
100
AcDbTrace
 10
0.0
 20
0.0
 30
0.0
 11
-1.0
 21
-0.1666666666666667
 31
0.0
 12
-1.0
 22
0.1666666666666667
 32
0.0
 13
0.0
 23
0.0
 33
0.0
  0
ENDBLK
  5
92
330
8F
100
AcDbEntity
  8
0
100
AcDbBlockEnd
  0
BLOCK
  5
99
330
93
100
AcDbEntity
  8
0
100
AcDbBlockBegin
  2
_BOXBLANK
 70
     0
 10
0.0
 20
0.0
 30
0.0
  3
_BOXBLANK
  1
_BOXBLANK
  0
LINE
  5
94
330
93
100
AcDbEntity
  8
0
 62
     0
100
AcDbLine
 10
-0.5
 20
-0.5
 30
0.0
 11
0.5
 21
-0.5
 31
0.0
  0
LINE
  5
95
330
93
100
AcDbEntity
  8
0
 62
     0
100
AcDbLine
 10
0.5
 20
-0.5
 30
0.0
 11
0.5
 21
0.5
 31
0.0
  0
LINE
  5
96
330
93
100
AcDbEntity
  8
0
 62
     0
100
AcDbLine
 10
0.5
 20
0.5
 30
0.0
 11
-0.5
 21
0.5
 31
0.0
  0
LINE
  5
97
330
93
100
AcDbEntity
  8
0
 62
     0
100
AcDbLine
 10
-0.5
 20
0.5
 30
0.0
 11
-0.5
 21
-0.5
 31
0.0
  0
LINE
  5
98
330
93
100
AcDbEntity
  8
0
 62
     0
100
AcDbLine
 10
-0.5
 20
0.0
 30
0.0
 11
-1.0
 21
0.0
 31
0.0
  0
ENDBLK
  5
9A
330
93
100
AcDbEntity
  8
0
100
AcDbBlockEnd
  0
BLOCK
  5
9E
330
9B
100
AcDbEntity
  8
0
100
AcDbBlockBegin
  2
_BOXFILLED
 70
     0
 10
0.0
 20
0.0
 30
0.0
  3
_BOXFILLED
  1
_BOXFILLED
  0
SOLID
  5
9C
330
9B
100
AcDbEntity
  8
0
 62
     0
100
AcDbTrace
 10
-0.5
 20
0.5
 30
0.0
 11
0.5
 21
0.5
 31
0.0
 12
-0.5
 22
-0.5
 32
0.0
 13
0.5
 23
-0.5
 33
0.0
  0
LINE
  5
9D
330
9B
100
AcDbEntity
  8
0
 62
     0
100
AcDbLine
 10
-0.5
 20
0.0
 30
0.0
 11
-1.0
 21
0.0
 31
0.0
  0
ENDBLK
  5
9F
330
9B
100
AcDbEntity
  8
0
100
AcDbBlockEnd
  0
BLOCK
  5
A3
330
A0
100
AcDbEntity
  8
0
100
AcDbBlockBegin
  2
_INTEGRAL
 70
     0
 10
0.0
 20
0.0
 30
0.0
  3
_INTEGRAL
  1
_INTEGRAL
  0
ARC
  5
A1
330
A0
100
AcDbEntity
  8
0
 62
     0
100
AcDbCircle
 10
0.444888
 20
-0.0913346
 30
0.0
 40
0.4541666
100
AcDbArc
 50
101.9999999999999
 51
167.9999999999998
  0
ARC
  5
A2
330
A0
100
AcDbEntity
  8
0
 62
     0
100
AcDbCircle
 10
-0.444888
 20
0.0913346
 30
0.0
 40
0.4541666
100
AcDbArc
 50
281.9999999999997
 51
347.9999999999997
  0
ENDBLK
  5
A4
330
A0
100
AcDbEntity
  8
0
100
AcDbBlockEnd
  0
BLOCK
  5
A7
330
A5
100
AcDbEntity
  8
0
100
AcDbBlockBegin
  2
_OBLIQUE
 70
     0
 10
0.0
 20
0.0
 30
0.0
  3
_OBLIQUE
  1
_OBLIQUE
  0
LINE
  5
A6
330
A5
100
AcDbEntity
  8
0
 62
     0
100
AcDbLine
 10
-0.5
 20
-0.5
 30
0.0
 11
0.5
 21
0.5
 31
0.0
  0
ENDBLK
  5
A8
330
A5
100
AcDbEntity
  8
0
100
AcDbBlockEnd
  0
BLOCK
  5
AA
330
A9
100
AcDbEntity
  8
0
100
AcDbBlockBegin
  2
_NONE
 70
     0
 10
0.0
 20
0.0
 30
0.0
  3
_NONE
  1
_NONE
  0
ENDBLK
  5
AB
330
A9
100
AcDbEntity
  8
0
100
AcDbBlockEnd
  0
BLOCK
  5
AF
330
AC
100
AcDbEntity
  8
0
100
AcDbBlockBegin
  2
MARK_OPEN
 70
     0
 10
0.0
 20
0.0
 30
0.0
  3
MARK_OPEN
  1
MARK_OPEN
  0
LINE
  5
AD
330
AC
100
AcDbEntity
  8
0
 62
     0
100
AcDbLine
 10
0.0
 20
0.0
 30
0.0
 11
-1.0
 21
0.1666666666666667
 31
0.0
  0
LINE
  5
AE
330
AC
100
AcDbEntity
  8
0
 62
     0
100
AcDbLine
 10
0.0
 20
0.0
 30
0.0
 11
-1.0
 21
-0.1666666666666667
 31
0.0
  0
ENDBLK
  5
B0
330
AC
100
AcDbEntity
  8
0
100
AcDbBlockEnd
  0
BLOCK
  5
B3
330
B1
100
AcDbEntity
  8
0
100
AcDbBlockBegin
  2
MARK_ORIGIN
 70
     0
 10
0.0
 20
0.0
 30
0.0
  3
MARK_ORIGIN
  1
MARK_ORIGIN
  0
CIRCLE
  5
B2
330
B1
100
AcDbEntity
  8
0
 62
     0
100
AcDbCircle
 10
0.0
 20
0.0
 30
0.0
 40
0.5
  0
ENDBLK
  5
B4
330
B1
100
AcDbEntity
  8
0
100
AcDbBlockEnd
  0
BLOCK
  5
B7
330
B5
100
AcDbEntity
  8
0
100
AcDbBlockBegin
  2
MARK_DOT
 70
     0
 10
0.0
 20
0.0
 30
0.0
  3
MARK_DOT
  1
MARK_DOT
  0
LWPOLYLINE
  5
B6
330
B5
100
AcDbEntity
  8
0
 62
     0
100
AcDbPolyline
 90
        2
 70
     1
 43
0.5
 10
-0.25
 20
0.0
 42
1.0
 10
0.25
 20
0.0
 42
1.0
  0
ENDBLK
  5
B8
330
B5
100
AcDbEntity
  8
0
100
AcDbBlockEnd
  0
BLOCK
  5
D9
330
D8
100
AcDbEntity
  8
0
100
AcDbBlockBegin
  2
*G16
 70
     1
 10
0.0
 20
0.0
 30
0.0
  3
*G16
  1
*G16
  0
LINE
  5
DB
330
D8
100
AcDbEntity
  8
5
  6
Continuous
 62
    94
370
    50
100
AcDbLine
 10
285.0000000000003
 20
195.0
 30
0.0
 11
10.00000000000028
 21
195.0000000000005
 31
0.0
  0
LINE
  5
DC
330
D8
100
AcDbEntity
  8
5
  6
Continuous
 62
    94
370
    50
100
AcDbLine
 10
10.00000000000028
 20
195.0000000000005
 30
0.0
 11
10.0
 21
10.00000000000044
 31
0.0
  0
LINE
  5
DD
330
D8
100
AcDbEntity
  8
5
  6
Continuous
 62
    94
370
    50
100
AcDbLine
 10
10.0
 20
10.00000000000044
 30
0.0
 11
285.0
 21
10.0
 31
0.0
  0
LINE
  5
DE
330
D8
100
AcDbEntity
  8
5
  6
Continuous
 62
    94
370
    50
100
AcDbLine
 10
285.0
 20
10.0
 30
0.0
 11
285.0000000000003
 21
195.0
 31
0.0
  0
ENDBLK
  5
DA
330
D8
100
AcDbEntity
  8
0
100
AcDbBlockEnd
  0
BLOCK
  5
117
330
116
100
AcDbEntity
  8
0
100
AcDbBlockBegin
  2
Dim1
 70
     0
 10
0.0
 20
0.0
 30
0.0
  3
Dim1
  1
Dim1
  0
LINE
  5
119
330
116
100
AcDbEntity
  8
2
  6
Continuous
 62
   134
370
     9
100
AcDbLine
 10
242.5980925646777
 20
146.7
 30
0.0
 11
242.5980925646777
 21
162.0
 31
0.0
  0
LINE
  5
11A
330
116
100
AcDbEntity
  8
2
  6
Continuous
 62
   134
370
     9
100
AcDbLine
 10
254.5980925646777
 20
149.1412278849442
 30
0.0
 11
254.5980925646777
 21
162.0
 31
0.0
  0
LINE
  5
11B
330
116
100
AcDbEntity
  8
2
  6
Continuous
 62
   134
370
     9
100
AcDbLine
 10
242.5980925646777
 20
160.0
 30
0.0
 11
254.5980925646777
 21
160.0
 31
0.0
  0
MTEXT
  5
11C
330
116
100
AcDbEntity
  8
2
  6
Continuous
 62
   134
370
     9
100
AcDbMText
 10
248.5980925646777
 20
160.0
 30
0.0
 40
4.0
 41
29.52380952380953
 46
4.0
 71
     8
 72
     1
  1
12
  7
ＭＳ 明朝
 73
     1
 44
1.0
1001
ACAD
1000
ACAD_MTEXT_DEFINED_HEIGHT_BEGIN
1070
    46
1040
4.0
1000
ACAD_MTEXT_DEFINED_HEIGHT_END
  0
INSERT
  5
11D
330
116
100
AcDbEntity
  8
2
  6
Continuous
 62
   134
370
     9
100
AcDbBlockReference
  2
_ARROWFILLED
 10
242.5980925646777
 20
160.0
 30
0.0
 41
2.0
 42
2.0
 43
2.0
 50
179.9999999999998
  0
INSERT
  5
11E
330
116
100
AcDbEntity
  8
2
  6
Continuous
 62
   134
370
     9
100
AcDbBlockReference
  2
_ARROWFILLED
 10
254.5980925646777
 20
160.0
 30
0.0
 41
2.0
 42
2.0
 43
2.0
 50
359.9999999999997
  0
ENDBLK
  5
118
330
116
100
AcDbEntity
  8
0
100
AcDbBlockEnd
  0
BLOCK
  5
121
330
120
100
AcDbEntity
  8
0
100
AcDbBlockBegin
  2
Dim2
 70
     0
 10
0.0
 20
0.0
 30
0.0
  3
Dim2
  1
Dim2
  0
LINE
  5
123
330
120
100
AcDbEntity
  8
2
  6
Continuous
 62
   134
370
     9
100
AcDbLine
 10
266.5980925646777
 20
146.7
 30
0.0
 11
266.5980925646777
 21
162.0000000000001
 31
0.0
  0
LINE
  5
124
330
120
100
AcDbEntity
  8
2
  6
Continuous
 62
   134
370
     9
100
AcDbLine
 10
254.5980925646777
 20
160.0
 30
0.0
 11
266.5980925646777
 21
160.0000000000001
 31
0.0
  0
MTEXT
  5
125
330
120
100
AcDbEntity
  8
2
  6
Continuous
 62
   134
370
     9
100
AcDbMText
 10
260.5980925646777
 20
160.0000000000001
 30
0.0
 40
4.0
 41
29.52380952380953
 46
4.0
 71
     8
 72
     1
  1
12
  7
ＭＳ 明朝
 73
     1
 44
1.0
1001
ACAD
1000
ACAD_MTEXT_DEFINED_HEIGHT_BEGIN
1070
    46
1040
4.0
1000
ACAD_MTEXT_DEFINED_HEIGHT_END
  0
INSERT
  5
126
330
120
100
AcDbEntity
  8
2
  6
Continuous
 62
   134
370
     9
100
AcDbBlockReference
  2
_ARROWFILLED
 10
254.5980925646777
 20
160.0
 30
0.0
 41
2.0
 42
2.0
 43
2.0
 50
179.9999999999999
  0
INSERT
  5
127
330
120
100
AcDbEntity
  8
2
  6
Continuous
 62
   134
370
     9
100
AcDbBlockReference
  2
_ARROWFILLED
 10
266.5980925646777
 20
160.0000000000001
 30
0.0
 41
2.0
 42
2.0
 43
2.0
 50
359.9999999999997
  0
ENDBLK
  5
122
330
120
100
AcDbEntity
  8
0
100
AcDbBlockEnd
  0
BLOCK
  5
12A
330
129
100
AcDbEntity
  8
0
100
AcDbBlockBegin
  2
Dim3
 70
     0
 10
0.0
 20
0.0
 30
0.0
  3
Dim3
  1
Dim3
  0
LINE
  5
12C
330
129
100
AcDbEntity
  8
2
  6
Continuous
 62
   134
370
     9
100
AcDbLine
 10
242.5980925646777
 20
146.7
 30
0.0
 11
242.5980925646777
 21
172.0
 31
0.0
  0
LINE
  5
12D
330
129
100
AcDbEntity
  8
2
  6
Continuous
 62
   134
370
     9
100
AcDbLine
 10
266.5980925646777
 20
146.7
 30
0.0
 11
266.5980925646777
 21
172.0000000000001
 31
0.0
  0
LINE
  5
12E
330
129
100
AcDbEntity
  8
2
  6
Continuous
 62
   134
370
     9
100
AcDbLine
 10
242.5980925646777
 20
170.0
 30
0.0
 11
266.5980925646777
 21
170.0000000000001
 31
0.0
  0
MTEXT
  5
12F
330
129
100
AcDbEntity
  8
2
  6
Continuous
 62
   134
370
     9
100
AcDbMText
 10
256.2603909517741
 20
170.0
 30
0.0
 40
4.0
 41
33.33333333333333
 46
4.0
 71
     8
 72
     1
  1
24
  7
ＭＳ 明朝
 73
     1
 44
1.0
1001
ACAD
1000
ACAD_MTEXT_DEFINED_HEIGHT_BEGIN
1070
    46
1040
4.0
1000
ACAD_MTEXT_DEFINED_HEIGHT_END
  0
INSERT
  5
130
330
129
100
AcDbEntity
  8
2
  6
Continuous
 62
   134
370
     9
100
AcDbBlockReference
  2
_ARROWFILLED
 10
242.5980925646777
 20
170.0
 30
0.0
 41
2.0
 42
2.0
 43
2.0
 50
179.9999999999998
  0
INSERT
  5
131
330
129
100
AcDbEntity
  8
2
  6
Continuous
 62
   134
370
     9
100
AcDbBlockReference
  2
_ARROWFILLED
 10
266.5980925646777
 20
170.0000000000001
 30
0.0
 41
2.0
 42
2.0
 43
2.0
 50
359.9999999999997
  0
ENDBLK
  5
12B
330
129
100
AcDbEntity
  8
0
100
AcDbBlockEnd
  0
BLOCK
  5
134
330
133
100
AcDbEntity
  8
0
100
AcDbBlockBegin
  2
*G20
 70
     1
 10
0.0
 20
0.0
 30
0.0
  3
*G20
  1
*G20
  0
LINE
  5
136
330
133
100
AcDbEntity
  8
1
  6
Continuous
 62
     7
370
    35
100
AcDbLine
 10
247.3560454580716
 20
124.943593539449
 30
0.0
 11
253.8401396712838
 21
121.2
 31
0.0
  0
LINE
  5
137
330
133
100
AcDbEntity
  8
1
  6
Continuous
 62
     7
370
    35
100
AcDbLine
 10
246.5980925646777
 20
133.743593539449
 30
0.0
 11
246.5980925646777
 21
126.256406460551
 31
0.0
  0
LINE
  5
138
330
133
100
AcDbEntity
  8
1
  6
Continuous
 62
     7
370
    35
100
AcDbLine
 10
253.8401396712839
 20
138.8
 30
0.0
 11
247.3560454580716
 21
135.056406460551
 31
0.0
  0
LINE
  5
139
330
133
100
AcDbEntity
  8
1
  6
Continuous
 62
     7
370
    35
100
AcDbLine
 10
261.8401396712839
 20
135.056406460551
 30
0.0
 11
255.3560454580716
 21
138.8
 31
0.0
  0
LINE
  5
13A
330
133
100
AcDbEntity
  8
1
  6
Continuous
 62
     7
370
    35
100
AcDbLine
 10
262.5980925646777
 20
126.256406460551
 30
0.0
 11
262.5980925646777
 21
133.743593539449
 31
0.0
  0
LINE
  5
13B
330
133
100
AcDbEntity
  8
1
  6
Continuous
 62
     7
370
    35
100
AcDbLine
 10
255.3560454580716
 20
121.2
 30
0.0
 11
261.8401396712839
 21
124.9435935394489
 31
0.0
  0
ENDBLK
  5
135
330
133
100
AcDbEntity
  8
0
100
AcDbBlockEnd
  0
BLOCK
  5
14E
330
14D
100
AcDbEntity
  8
0
100
AcDbBlockBegin
  2
Dim4
 70
     0
 10
0.0
 20
0.0
 30
0.0
  3
Dim4
  1
Dim4
  0
LINE
  5
150
330
14D
100
AcDbEntity
  8
2
  6
Continuous
 62
   134
370
     9
100
AcDbLine
 10
246.5980925646777
 20
124.256406460551
 30
0.0
 11
246.5980925646777
 21
97.62066605839387
 31
0.0
  0
LINE
  5
151
330
14D
100
AcDbEntity
  8
2
  6
Continuous
 62
   134
370
     9
100
AcDbLine
 10
262.5980925646777
 20
124.256406460551
 30
0.0
 11
262.5980925646777
 21
97.62066605839387
 31
0.0
  0
LINE
  5
152
330
14D
100
AcDbEntity
  8
2
  6
Continuous
 62
   134
370
     9
100
AcDbLine
 10
246.5980925646777
 20
99.62066605839387
 30
0.0
 11
262.5980925646777
 21
99.62066605839387
 31
0.0
  0
MTEXT
  5
153
330
14D
100
AcDbEntity
  8
2
  6
Continuous
 62
   134
370
     9
100
AcDbMText
 10
254.5980925646777
 20
99.62066605839387
 30
0.0
 40
4.0
 41
29.52380952380953
 46
4.0
 71
     8
 72
     1
  1
16
  7
ＭＳ 明朝
 73
     1
 44
1.0
1001
ACAD
1000
ACAD_MTEXT_DEFINED_HEIGHT_BEGIN
1070
    46
1040
4.0
1000
ACAD_MTEXT_DEFINED_HEIGHT_END
  0
INSERT
  5
154
330
14D
100
AcDbEntity
  8
2
  6
Continuous
 62
   134
370
     9
100
AcDbBlockReference
  2
_ARROWFILLED
 10
246.5980925646777
 20
99.62066605839387
 30
0.0
 41
2.0
 42
2.0
 43
2.0
 50
179.9999999999998
  0
INSERT
  5
155
330
14D
100
AcDbEntity
  8
2
  6
Continuous
 62
   134
370
     9
100
AcDbBlockReference
  2
_ARROWFILLED
 10
262.5980925646777
 20
99.62066605839387
 30
0.0
 41
2.0
 42
2.0
 43
2.0
 50
359.9999999999997
  0
ENDBLK
  5
14F
330
14D
100
AcDbEntity
  8
0
100
AcDbBlockEnd
  0
BLOCK
  5
159
330
158
100
AcDbEntity
  8
0
100
AcDbBlockBegin
  2
Dim5
 70
     0
 10
0.0
 20
0.0
 30
0.0
  3
Dim5
  1
Dim5
  0
LINE
  5
15B
330
158
100
AcDbEntity
  8
2
  6
Continuous
 62
   134
370
     9
100
AcDbLine
 10
268.2980925646777
 20
145.0
 30
0.0
 11
282.9616443327206
 21
144.9999999999999
 31
0.0
  0
LINE
  5
15C
330
158
100
AcDbEntity
  8
2
  6
Continuous
 62
   134
370
     9
100
AcDbLine
 10
268.2980925646776
 20
115.0
 30
0.0
 11
282.9616443327206
 21
114.9999999999998
 31
0.0
  0
LINE
  5
15D
330
158
100
AcDbEntity
  8
2
  6
Continuous
 62
   134
370
     9
100
AcDbLine
 10
280.9616443327206
 20
144.9999999999999
 30
0.0
 11
280.9616443327206
 21
114.9999999999999
 31
0.0
  0
MTEXT
  5
15E
330
158
100
AcDbEntity
  8
2
  6
Continuous
 62
   134
370
     9
100
AcDbMText
 10
280.9616443327207
 20
129.9999999999999
 30
0.0
 40
4.0
 41
32.38095238095238
 46
4.0
 71
     8
 72
     1
  1
30
  7
ＭＳ 明朝
 11
1.615544574432587E-15
 21
1.0
 31
0.0
 73
     1
 44
1.0
1001
ACAD
1000
ACAD_MTEXT_DEFINED_HEIGHT_BEGIN
1070
    46
1040
4.0
1000
ACAD_MTEXT_DEFINED_HEIGHT_END
  0
INSERT
  5
15F
330
158
100
AcDbEntity
  8
2
  6
Continuous
 62
   134
370
     9
100
AcDbBlockReference
  2
_ARROWFILLED
 10
280.9616443327206
 20
144.9999999999999
 30
0.0
 41
2.0
 42
2.0
 43
2.0
 50
89.99999999999991
  0
INSERT
  5
160
330
158
100
AcDbEntity
  8
2
  6
Continuous
 62
   134
370
     9
100
AcDbBlockReference
  2
_ARROWFILLED
 10
280.9616443327206
 20
114.9999999999999
 30
0.0
 41
2.0
 42
2.0
 43
2.0
 50
269.9999999999998
  0
ENDBLK
  5
15A
330
158
100
AcDbEntity
  8
0
100
AcDbBlockEnd
  0
BLOCK
  5
163
330
162
100
AcDbEntity
  8
0
100
AcDbBlockBegin
  2
Dim6
 70
     0
 10
0.0
 20
0.0
 30
0.0
  3
Dim6
  1
Dim6
  0
LINE
  5
165
330
162
100
AcDbEntity
  8
2
  6
Continuous
 62
   134
370
     9
100
AcDbLine
 10
257.4819622994344
 20
138.8
 30
0.0
 11
276.2844954857604
 21
138.8
 31
0.0
  0
LINE
  5
166
330
162
100
AcDbEntity
  8
2
  6
Continuous
 62
   134
370
     9
100
AcDbLine
 10
257.3560454580716
 20
121.2
 30
0.0
 11
276.2844954857604
 21
121.2
 31
0.0
  0
LINE
  5
167
330
162
100
AcDbEntity
  8
2
  6
Continuous
 62
   134
370
     9
100
AcDbLine
 10
274.2844954857604
 20
138.8
 30
0.0
 11
274.2844954857604
 21
121.2
 31
0.0
  0
MTEXT
  5
168
330
162
100
AcDbEntity
  8
2
  6
Continuous
 62
   134
370
     9
100
AcDbMText
 10
274.2844954857604
 20
130.0
 30
0.0
 40
4.0
 41
58.0952380952381
 46
4.0
 71
     8
 72
     1
  1
17.6
  7
ＭＳ 明朝
 11
1.615544574432587E-15
 21
1.0
 31
0.0
 73
     1
 44
1.0
1001
ACAD
1000
ACAD_MTEXT_DEFINED_HEIGHT_BEGIN
1070
    46
1040
4.0
1000
ACAD_MTEXT_DEFINED_HEIGHT_END
  0
INSERT
  5
169
330
162
100
AcDbEntity
  8
2
  6
Continuous
 62
   134
370
     9
100
AcDbBlockReference
  2
_ARROWFILLED
 10
274.2844954857604
 20
138.8
 30
0.0
 41
2.0
 42
2.0
 43
2.0
 50
89.99999999999991
  0
INSERT
  5
16A
330
162
100
AcDbEntity
  8
2
  6
Continuous
 62
   134
370
     9
100
AcDbBlockReference
  2
_ARROWFILLED
 10
274.2844954857604
 20
121.2
 30
0.0
 41
2.0
 42
2.0
 43
2.0
 50
269.9999999999998
  0
ENDBLK
  5
164
330
162
100
AcDbEntity
  8
0
100
AcDbBlockEnd
  0
BLOCK
  5
1F7
330
1F6
100
AcDbEntity
  8
0
100
AcDbBlockBegin
  2
Dim7
 70
     0
 10
0.0
 20
0.0
 30
0.0
  3
Dim7
  1
Dim7
  0
LINE
  5
1F9
330
1F6
100
AcDbEntity
  8
2
  6
Continuous
 62
   134
370
     9
100
AcDbLine
 10
131.8215180147066
 20
136.85
 30
0.0
 11
131.8215180147066
 21
153.4808467741927
 31
0.0
  0
LINE
  5
1FA
330
1F6
100
AcDbEntity
  8
2
  6
Continuous
 62
   134
370
     9
100
AcDbLine
 10
197.2873758423303
 20
143.65
 30
0.0
 11
197.2873758423303
 21
153.4808467741927
 31
0.0
  0
LINE
  5
1FB
330
1F6
100
AcDbEntity
  8
2
  6
Continuous
 62
   134
370
     9
100
AcDbLine
 10
131.8215180147066
 20
151.4808467741927
 30
0.0
 11
197.2873758423303
 21
151.4808467741927
 31
0.0
  0
MTEXT
  5
1FC
330
1F6
100
AcDbEntity
  8
2
  6
Continuous
 62
   134
370
     9
100
AcDbMText
 10
160.2736986241427
 20
151.4808467741927
 30
0.0
 40
4.0
 41
213.3333333333333
 46
4.0
 71
     8
 72
     1
  1
ｹｰﾌﾞﾙ長（標準2m）
  7
ＭＳ 明朝
 73
     1
 44
1.0
1001
ACAD
1000
ACAD_MTEXT_DEFINED_HEIGHT_BEGIN
1070
    46
1040
4.0
1000
ACAD_MTEXT_DEFINED_HEIGHT_END
  0
INSERT
  5
1FD
330
1F6
100
AcDbEntity
  8
2
  6
Continuous
 62
   134
370
     9
100
AcDbBlockReference
  2
_ARROWFILLED
 10
131.8215180147066
 20
151.4808467741927
 30
0.0
 41
2.0
 42
2.0
 43
2.0
 50
179.9999999999998
  0
INSERT
  5
1FE
330
1F6
100
AcDbEntity
  8
2
  6
Continuous
 62
   134
370
     9
100
AcDbBlockReference
  2
_ARROWFILLED
 10
197.2873758423303
 20
151.4808467741927
 30
0.0
 41
2.0
 42
2.0
 43
2.0
 50
359.9999999999997
  0
ENDBLK
  5
1F8
330
1F6
100
AcDbEntity
  8
0
100
AcDbBlockEnd
  0
BLOCK
  5
201
330
200
100
AcDbEntity
  8
0
100
AcDbBlockBegin
  2
Dim8
 70
     0
 10
0.0
 20
0.0
 30
0.0
  3
Dim8
  1
Dim8
  0
LINE
  5
203
330
200
100
AcDbEntity
  8
2
  6
Continuous
 62
   134
370
     9
100
AcDbLine
 10
177.4820912272721
 20
118.5000000000001
 30
0.0
 11
177.4820912272721
 21
142.7120276911926
 31
0.0
  0
MTEXT
  5
204
330
200
100
AcDbEntity
  8
2
  6
Continuous
 62
   134
370
     9
100
AcDbMText
 10
177.4820912272721
 20
136.7120276911926
 30
0.0
 40
4.0
 41
30.47619047619047
 46
4.0
 71
     7
 72
     1
  1
φ7
  7
ＭＳ 明朝
 11
1.615544574432587E-15
 21
1.0
 31
0.0
 73
     1
 44
1.0
1001
ACAD
1000
ACAD_MTEXT_DEFINED_HEIGHT_BEGIN
1070
    46
1040
4.0
1000
ACAD_MTEXT_DEFINED_HEIGHT_END
  0
INSERT
  5
205
330
200
100
AcDbEntity
  8
2
  6
Continuous
 62
   134
370
     9
100
AcDbBlockReference
  2
_ARROWFILLED
 10
177.4820912272721
 20
126.5000000000001
 30
0.0
 41
2.0
 42
2.0
 43
2.0
 50
89.99999999999959
  0
INSERT
  5
206
330
200
100
AcDbEntity
  8
2
  6
Continuous
 62
   134
370
     9
100
AcDbBlockReference
  2
_ARROWFILLED
 10
177.4820912272721
 20
133.4999999999999
 30
0.0
 41
2.0
 42
2.0
 43
2.0
 50
269.9999999999998
  0
ENDBLK
  5
202
330
200
100
AcDbEntity
  8
0
100
AcDbBlockEnd
  0
BLOCK
  5
213
330
212
100
AcDbEntity
  8
0
100
AcDbBlockBegin
  2
Dim9
 70
     0
 10
0.0
 20
0.0
 30
0.0
  3
Dim9
  1
Dim9
  0
LINE
  5
215
330
212
100
AcDbEntity
  8
2
  6
Continuous
 62
   134
370
     9
100
AcDbLine
 10
202.204206974432
 20
120.05
 30
0.0
 11
225.0437581353414
 21
120.05
 31
0.0
  0
LINE
  5
216
330
212
100
AcDbEntity
  8
2
  6
Continuous
 62
   134
370
     9
100
AcDbLine
 10
219.8383435651213
 20
144.5230919561239
 30
0.0
 11
225.0437581353414
 21
144.5230919561239
 31
0.0
  0
LINE
  5
217
330
212
100
AcDbEntity
  8
2
  6
Continuous
 62
   134
370
     9
100
AcDbLine
 10
224.0437581353414
 20
120.05
 30
0.0
 11
224.0437581353414
 21
144.5230919561239
 31
0.0
  0
MTEXT
  5
218
330
212
100
AcDbEntity
  8
2
  6
Continuous
 62
   134
370
     9
100
AcDbMText
 10
224.0437581353414
 20
131.0187291834108
 30
0.0
 40
4.0
 41
60.95238095238096
 46
4.0
 71
     8
 72
     1
  1
24.5
  7
ＭＳ 明朝
 11
1.615544574432587E-15
 21
1.0
 31
0.0
 73
     1
 44
1.0
1001
ACAD
1000
ACAD_MTEXT_DEFINED_HEIGHT_BEGIN
1070
    46
1040
4.0
1000
ACAD_MTEXT_DEFINED_HEIGHT_END
  0
INSERT
  5
219
330
212
100
AcDbEntity
  8
2
  6
Continuous
 62
   134
370
     9
100
AcDbBlockReference
  2
_ARROWFILLED
 10
224.0437581353414
 20
120.05
 30
0.0
 41
2.0
 42
2.0
 43
2.0
 50
269.9999999999998
  0
INSERT
  5
21A
330
212
100
AcDbEntity
  8
2
  6
Continuous
 62
   134
370
     9
100
AcDbBlockReference
  2
_ARROWFILLED
 10
224.0437581353414
 20
144.5230919561239
 30
0.0
 41
2.0
 42
2.0
 43
2.0
 50
89.99999999999991
  0
ENDBLK
  5
214
330
212
100
AcDbEntity
  8
0
100
AcDbBlockEnd
  0
BLOCK
  5
21D
330
21C
100
AcDbEntity
  8
0
100
AcDbBlockBegin
  2
Dim10
 70
     0
 10
0.0
 20
0.0
 30
0.0
  3
Dim10
  1
Dim10
  0
LINE
  5
21F
330
21C
100
AcDbEntity
  8
2
  6
Continuous
 62
   134
370
     9
100
AcDbLine
 10
197.2873758423303
 20
142.65
 30
0.0
 11
197.2873758423304
 21
152.4597645082042
 31
0.0
  0
LINE
  5
220
330
21C
100
AcDbEntity
  8
2
  6
Continuous
 62
   134
370
     9
100
AcDbLine
 10
215.2873758423302
 20
142.436961590433
 30
0.0
 11
215.2873758423303
 21
152.4597645082042
 31
0.0
  0
LINE
  5
221
330
21C
100
AcDbEntity
  8
2
  6
Continuous
 62
   134
370
     9
100
AcDbLine
 10
197.2873758423304
 20
151.4597645082042
 30
0.0
 11
215.2873758423303
 21
151.4597645082042
 31
0.0
  0
MTEXT
  5
222
330
21C
100
AcDbEntity
  8
2
  6
Continuous
 62
   134
370
     9
100
AcDbMText
 10
205.5376284339162
 20
151.4597645082042
 30
0.0
 40
4.0
 41
29.52380952380953
 46
4.0
 71
     8
 72
     1
  1
18
  7
ＭＳ 明朝
 73
     1
 44
1.0
1001
ACAD
1000
ACAD_MTEXT_DEFINED_HEIGHT_BEGIN
1070
    46
1040
4.0
1000
ACAD_MTEXT_DEFINED_HEIGHT_END
  0
INSERT
  5
223
330
21C
100
AcDbEntity
  8
2
  6
Continuous
 62
   134
370
     9
100
AcDbBlockReference
  2
_ARROWFILLED
 10
197.2873758423304
 20
151.4597645082042
 30
0.0
 41
2.0
 42
2.0
 43
2.0
 50
179.9999999999998
  0
INSERT
  5
224
330
21C
100
AcDbEntity
  8
2
  6
Continuous
 62
   134
370
     9
100
AcDbBlockReference
  2
_ARROWFILLED
 10
215.2873758423303
 20
151.4597645082042
 30
0.0
 41
2.0
 42
2.0
 43
2.0
 50
359.9999999999997
  0
ENDBLK
  5
21E
330
21C
100
AcDbEntity
  8
0
100
AcDbBlockEnd
  0
BLOCK
  5
227
330
226
100
AcDbEntity
  8
0
100
AcDbBlockBegin
  2
Dim11
 70
     0
 10
0.0
 20
0.0
 30
0.0
  3
Dim11
  1
Dim11
  0
LINE
  5
229
330
226
100
AcDbEntity
  8
2
  6
Continuous
 62
   134
370
     9
100
AcDbLine
 10
228.8452272474428
 20
144.75
 30
0.0
 11
228.8452272474428
 21
153.4597645082042
 31
0.0
  0
LINE
  5
22A
330
226
100
AcDbEntity
  8
2
  6
Continuous
 62
   134
370
     9
100
AcDbLine
 10
234.8452272474428
 20
144.75
 30
0.0
 11
234.8452272474428
 21
153.4597645082042
 31
0.0
  0
LINE
  5
22B
330
226
100
AcDbEntity
  8
2
  6
Continuous
 62
   134
370
     9
100
AcDbLine
 10
228.8452272474428
 20
151.4597645082042
 30
0.0
 11
234.8452272474428
 21
151.4597645082042
 31
0.0
  0
MTEXT
  5
22C
330
226
100
AcDbEntity
  8
2
  6
Continuous
 62
   134
370
     9
100
AcDbMText
 10
231.8452272474428
 20
151.4597645082042
 30
0.0
 40
4.0
 41
12.38095238095238
 46
4.0
 71
     8
 72
     1
  1
6
  7
ＭＳ 明朝
 73
     1
 44
1.0
1001
ACAD
1000
ACAD_MTEXT_DEFINED_HEIGHT_BEGIN
1070
    46
1040
4.0
1000
ACAD_MTEXT_DEFINED_HEIGHT_END
  0
INSERT
  5
22D
330
226
100
AcDbEntity
  8
2
  6
Continuous
 62
   134
370
     9
100
AcDbBlockReference
  2
_ARROWFILLED
 10
228.8452272474428
 20
151.4597645082042
 30
0.0
 41
2.0
 42
2.0
 43
2.0
 50
179.9999999999998
  0
INSERT
  5
22E
330
226
100
AcDbEntity
  8
2
  6
Continuous
 62
   134
370
     9
100
AcDbBlockReference
  2
_ARROWFILLED
 10
234.8452272474428
 20
151.4597645082042
 30
0.0
 41
2.0
 42
2.0
 43
2.0
 50
359.9999999999997
  0
ENDBLK
  5
228
330
226
100
AcDbEntity
  8
0
100
AcDbBlockEnd
  0
BLOCK
  5
235
330
234
100
AcDbEntity
  8
0
100
AcDbBlockBegin
  2
Dim12
 70
     0
 10
0.0
 20
0.0
 30
0.0
  3
Dim12
  1
Dim12
  0
LINE
  5
237
330
234
100
AcDbEntity
  8
2
  6
Continuous
 62
   134
370
     9
100
AcDbLine
 10
114.8215180147066
 20
146.7
 30
0.0
 11
114.8215180147066
 21
162.0
 31
0.0
  0
LINE
  5
238
330
234
100
AcDbEntity
  8
2
  6
Continuous
 62
   134
370
     9
100
AcDbLine
 10
131.8215180147066
 20
136.85
 30
0.0
 11
131.8215180147066
 21
162.0
 31
0.0
  0
LINE
  5
239
330
234
100
AcDbEntity
  8
2
  6
Continuous
 62
   134
370
     9
100
AcDbLine
 10
114.8215180147066
 20
160.0
 30
0.0
 11
131.8215180147066
 21
160.0
 31
0.0
  0
MTEXT
  5
23A
330
234
100
AcDbEntity
  8
2
  6
Continuous
 62
   134
370
     9
100
AcDbMText
 10
123.3215180147066
 20
160.0
 30
0.0
 40
4.0
 41
29.52380952380953
 46
4.0
 71
     8
 72
     1
  1
17
  7
ＭＳ 明朝
 73
     1
 44
1.0
1001
ACAD
1000
ACAD_MTEXT_DEFINED_HEIGHT_BEGIN
1070
    46
1040
4.0
1000
ACAD_MTEXT_DEFINED_HEIGHT_END
  0
INSERT
  5
23B
330
234
100
AcDbEntity
  8
2
  6
Continuous
 62
   134
370
     9
100
AcDbBlockReference
  2
_ARROWFILLED
 10
114.8215180147066
 20
160.0
 30
0.0
 41
2.0
 42
2.0
 43
2.0
 50
179.9999999999998
  0
INSERT
  5
23C
330
234
100
AcDbEntity
  8
2
  6
Continuous
 62
   134
370
     9
100
AcDbBlockReference
  2
_ARROWFILLED
 10
131.8215180147066
 20
160.0
 30
0.0
 41
2.0
 42
2.0
 43
2.0
 50
359.9999999999997
  0
ENDBLK
  5
236
330
234
100
AcDbEntity
  8
0
100
AcDbBlockEnd
  0
BLOCK
  5
25D
330
25C
100
AcDbEntity
  8
0
100
AcDbBlockBegin
  2
Dim13
 70
     0
 10
0.0
 20
0.0
 30
0.0
  3
Dim13
  1
Dim13
  0
LINE
  5
25F
330
25C
100
AcDbEntity
  8
2
  6
Continuous
 62
   134
370
     9
100
AcDbLine
 10
66.32151801470667
 20
142.7192540322579
 30
0.0
 11
66.32151801470673
 21
162.0
 31
0.0
  0
LINE
  5
260
330
25C
100
AcDbEntity
  8
2
  6
Continuous
 62
   134
370
     9
100
AcDbLine
 10
114.8215180147066
 20
146.7
 30
0.0
 11
114.8215180147066
 21
162.0
 31
0.0
  0
LINE
  5
261
330
25C
100
AcDbEntity
  8
2
  6
Continuous
 62
   134
370
     9
100
AcDbLine
 10
66.32151801470673
 20
160.0
 30
0.0
 11
114.8215180147066
 21
160.0
 31
0.0
  0
MTEXT
  5
262
330
25C
100
AcDbEntity
  8
2
  6
Continuous
 62
   134
370
     9
100
AcDbMText
 10
90.57151801470667
 20
160.0
 30
0.0
 40
4.0
 41
60.95238095238096
 46
4.0
 71
     8
 72
     1
  1
48.5
  7
ＭＳ 明朝
 73
     1
 44
1.0
1001
ACAD
1000
ACAD_MTEXT_DEFINED_HEIGHT_BEGIN
1070
    46
1040
4.0
1000
ACAD_MTEXT_DEFINED_HEIGHT_END
  0
INSERT
  5
263
330
25C
100
AcDbEntity
  8
2
  6
Continuous
 62
   134
370
     9
100
AcDbBlockReference
  2
_ARROWFILLED
 10
66.32151801470673
 20
160.0
 30
0.0
 41
2.0
 42
2.0
 43
2.0
 50
179.9999999999998
  0
INSERT
  5
264
330
25C
100
AcDbEntity
  8
2
  6
Continuous
 62
   134
370
     9
100
AcDbBlockReference
  2
_ARROWFILLED
 10
114.8215180147066
 20
160.0
 30
0.0
 41
2.0
 42
2.0
 43
2.0
 50
359.9999999999997
  0
ENDBLK
  5
25E
330
25C
100
AcDbEntity
  8
0
100
AcDbBlockEnd
  0
BLOCK
  5
267
330
266
100
AcDbEntity
  8
0
100
AcDbBlockBegin
  2
Dim14
 70
     0
 10
0.0
 20
0.0
 30
0.0
  3
Dim14
  1
Dim14
  0
LINE
  5
269
330
266
100
AcDbEntity
  8
2
  6
Continuous
 62
   134
370
     9
100
AcDbLine
 10
74.98455533245374
 20
139.9999999339475
 30
0.0
 11
90.19173423190671
 21
139.9999999339475
 31
0.0
  0
LINE
  5
26A
330
266
100
AcDbEntity
  8
2
  6
Continuous
 62
   134
370
     9
100
AcDbLine
 10
75.24126763686343
 20
119.9999999339475
 30
0.0
 11
90.19173423190671
 21
119.9999999339475
 31
0.0
  0
LINE
  5
26B
330
266
100
AcDbEntity
  8
2
  6
Continuous
 62
   134
370
     9
100
AcDbLine
 10
88.19173423190671
 20
139.9999999339475
 30
0.0
 11
88.19173423190671
 21
119.9999999339475
 31
0.0
  0
MTEXT
  5
26C
330
266
100
AcDbEntity
  8
2
  6
Continuous
 62
   134
370
     9
100
AcDbMText
 10
88.19173423190671
 20
133.5000000010889
 30
0.0
 40
4.0
 41
32.38095238095238
 46
4.0
 71
     8
 72
     1
  1
20
  7
ＭＳ 明朝
 11
1.837589179357618E-15
 21
1.0
 31
0.0
 73
     1
 44
1.0
1001
ACAD
1000
ACAD_MTEXT_DEFINED_HEIGHT_BEGIN
1070
    46
1040
4.0
1000
ACAD_MTEXT_DEFINED_HEIGHT_END
  0
INSERT
  5
26D
330
266
100
AcDbEntity
  8
2
  6
Continuous
 62
   134
370
     9
100
AcDbBlockReference
  2
_ARROWFILLED
 10
88.19173423190671
 20
139.9999999339475
 30
0.0
 41
2.0
 42
2.0
 43
2.0
 50
89.9999999999999
  0
INSERT
  5
26E
330
266
100
AcDbEntity
  8
2
  6
Continuous
 62
   134
370
     9
100
AcDbBlockReference
  2
_ARROWFILLED
 10
88.19173423190671
 20
119.9999999339475
 30
0.0
 41
2.0
 42
2.0
 43
2.0
 50
269.9999999999997
  0
ENDBLK
  5
268
330
266
100
AcDbEntity
  8
0
100
AcDbBlockEnd
  0
BLOCK
  5
271
330
270
100
AcDbEntity
  8
0
100
AcDbBlockBegin
  2
Dim15
 70
     0
 10
0.0
 20
0.0
 30
0.0
  3
Dim15
  1
Dim15
  0
LINE
  5
273
330
270
100
AcDbEntity
  8
2
  6
Continuous
 62
   134
370
     9
100
AcDbLine
 10
66.32151801470667
 20
142.9999999339475
 30
0.0
 11
66.3215180147067
 21
152.2832661290321
 31
0.0
  0
LINE
  5
274
330
270
100
AcDbEntity
  8
2
  6
Continuous
 62
   134
370
     9
100
AcDbLine
 10
70.32151801470667
 20
144.7207058372196
 30
0.0
 11
70.32151801470667
 21
152.2832661290321
 31
0.0
  0
LINE
  5
275
330
270
100
AcDbEntity
  8
2
  6
Continuous
 62
   134
370
     9
100
AcDbLine
 10
62.3215180147067
 20
150.2832661290321
 30
0.0
 11
74.32151801470667
 21
150.2832661290321
 31
0.0
  0
MTEXT
  5
276
330
270
100
AcDbEntity
  8
2
  6
Continuous
 62
   134
370
     9
100
AcDbMText
 10
68.25336966728483
 20
150.2832661290321
 30
0.0
 40
4.0
 41
14.28571428571428
 46
4.0
 71
     8
 72
     1
  1
4
  7
ＭＳ 明朝
 73
     1
 44
1.0
1001
ACAD
1000
ACAD_MTEXT_DEFINED_HEIGHT_BEGIN
1070
    46
1040
4.0
1000
ACAD_MTEXT_DEFINED_HEIGHT_END
  0
INSERT
  5
277
330
270
100
AcDbEntity
  8
2
  6
Continuous
 62
   134
370
     9
100
AcDbBlockReference
  2
_ARROWFILLED
 10
66.3215180147067
 20
150.2832661290321
 30
0.0
 41
2.0
 42
2.0
 43
2.0
 50
359.9999999999997
  0
INSERT
  5
278
330
270
100
AcDbEntity
  8
2
  6
Continuous
 62
   134
370
     9
100
AcDbBlockReference
  2
_ARROWFILLED
 10
70.32151801470667
 20
150.2832661290321
 30
0.0
 41
2.0
 42
2.0
 43
2.0
 50
179.9999999999998
  0
ENDBLK
  5
272
330
270
100
AcDbEntity
  8
0
100
AcDbBlockEnd
  0
BLOCK
  5
2A0
330
29F
100
AcDbEntity
  8
0
100
AcDbBlockBegin
  2
Dim16
 70
     0
 10
0.0
 20
0.0
 30
0.0
  3
Dim16
  1
Dim16
  0
LINE
  5
2A2
330
29F
100
AcDbEntity
  8
2
  6
Continuous
 62
   134
370
     9
100
AcDbLine
 10
68.32151801470667
 20
114.9999999339475
 30
0.0
 11
55.97524204993508
 21
114.9999999339475
 31
0.0
  0
LINE
  5
2A3
330
29F
100
AcDbEntity
  8
2
  6
Continuous
 62
   134
370
     9
100
AcDbLine
 10
63.82055639262751
 20
130.0
 30
0.0
 11
55.97524204993508
 21
130.0
 31
0.0
  0
LINE
  5
2A4
330
29F
100
AcDbEntity
  8
2
  6
Continuous
 62
   134
370
     9
100
AcDbLine
 10
57.97524204993508
 20
114.9999999339475
 30
0.0
 11
57.97524204993508
 21
130.0
 31
0.0
  0
MTEXT
  5
2A5
330
29F
100
AcDbEntity
  8
2
  6
Continuous
 62
   134
370
     9
100
AcDbMText
 10
57.97524204993508
 20
122.4999999669738
 30
0.0
 40
4.0
 41
29.52380952380953
 46
4.0
 71
     8
 72
     1
  1
15
  7
ＭＳ 明朝
 11
1.615544574432587E-15
 21
1.0
 31
0.0
 73
     1
 44
1.0
1001
ACAD
1000
ACAD_MTEXT_DEFINED_HEIGHT_BEGIN
1070
    46
1040
4.0
1000
ACAD_MTEXT_DEFINED_HEIGHT_END
  0
INSERT
  5
2A6
330
29F
100
AcDbEntity
  8
2
  6
Continuous
 62
   134
370
     9
100
AcDbBlockReference
  2
_ARROWFILLED
 10
57.97524204993508
 20
114.9999999339475
 30
0.0
 41
2.0
 42
2.0
 43
2.0
 50
269.9999999999998
  0
INSERT
  5
2A7
330
29F
100
AcDbEntity
  8
2
  6
Continuous
 62
   134
370
     9
100
AcDbBlockReference
  2
_ARROWFILLED
 10
57.97524204993508
 20
130.0
 30
0.0
 41
2.0
 42
2.0
 43
2.0
 50
89.99999999999991
  0
ENDBLK
  5
2A1
330
29F
100
AcDbEntity
  8
0
100
AcDbBlockEnd
  0
BLOCK
  5
2BC
330
2BB
100
AcDbEntity
  8
0
100
AcDbBlockBegin
  2
Dim17
 70
     0
 10
0.0
 20
0.0
 30
0.0
  3
Dim17
  1
Dim17
  0
LINE
  5
2BE
330
2BB
100
AcDbEntity
  8
2
  6
Continuous
 62
   134
370
     9
100
AcDbLine
 10
30.32151801625404
 20
141.5000315650477
 30
0.0
 11
30.32151801625412
 21
181.4682257112499
 31
0.0
  0
LINE
  5
2BF
330
2BB
100
AcDbEntity
  8
2
  6
Continuous
 62
   134
370
     9
100
AcDbLine
 10
114.8215180147066
 20
146.7
 30
0.0
 11
114.8215180147067
 21
181.4682257112499
 31
0.0
  0
LINE
  5
2C0
330
2BB
100
AcDbEntity
  8
2
  6
Continuous
 62
   134
370
     9
100
AcDbLine
 10
30.32151801625412
 20
179.4682257112499
 30
0.0
 11
114.8215180147067
 21
179.4682257112499
 31
0.0
  0
MTEXT
  5
2C1
330
2BB
100
AcDbEntity
  8
2
  6
Continuous
 62
   134
370
     9
100
AcDbMText
 10
72.5715180154804
 20
179.4682257112499
 30
0.0
 40
4.0
 41
60.95238095238096
 46
4.0
 71
     8
 72
     1
  1
84.5
  7
ＭＳ 明朝
 73
     1
 44
1.0
1001
ACAD
1000
ACAD_MTEXT_DEFINED_HEIGHT_BEGIN
1070
    46
1040
4.0
1000
ACAD_MTEXT_DEFINED_HEIGHT_END
  0
INSERT
  5
2C2
330
2BB
100
AcDbEntity
  8
2
  6
Continuous
 62
   134
370
     9
100
AcDbBlockReference
  2
_ARROWFILLED
 10
30.32151801625412
 20
179.4682257112499
 30
0.0
 41
2.0
 42
2.0
 43
2.0
 50
179.9999999999998
  0
INSERT
  5
2C3
330
2BB
100
AcDbEntity
  8
2
  6
Continuous
 62
   134
370
     9
100
AcDbBlockReference
  2
_ARROWFILLED
 10
114.8215180147067
 20
179.4682257112499
 30
0.0
 41
2.0
 42
2.0
 43
2.0
 50
359.9999999999997
  0
ENDBLK
  5
2BD
330
2BB
100
AcDbEntity
  8
0
100
AcDbBlockEnd
  0
BLOCK
  5
2C6
330
2C5
100
AcDbEntity
  8
0
100
AcDbBlockBegin
  2
Dim18
 70
     0
 10
0.0
 20
0.0
 30
0.0
  3
Dim18
  1
Dim18
  0
LINE
  5
2C8
330
2C5
100
AcDbEntity
  8
2
  6
Continuous
 62
   134
370
     9
100
AcDbLine
 10
30.32151801625404
 20
141.5000315650477
 30
0.0
 11
30.3215180162541
 21
162.0000000000001
 31
0.0
  0
LINE
  5
2C9
330
2C5
100
AcDbEntity
  8
2
  6
Continuous
 62
   134
370
     9
100
AcDbLine
 10
66.32058374859375
 20
141.5000316266501
 30
0.0
 11
66.3205837485938
 21
162.0000000000001
 31
0.0
  0
LINE
  5
2CA
330
2C5
100
AcDbEntity
  8
2
  6
Continuous
 62
   134
370
     9
100
AcDbLine
 10
30.32151801625409
 20
160.0000000000001
 30
0.0
 11
66.3205837485938
 21
160.0000000000001
 31
0.0
  0
MTEXT
  5
2CB
330
2C5
100
AcDbEntity
  8
2
  6
Continuous
 62
   134
370
     9
100
AcDbMText
 10
48.32105088242395
 20
160.0000000000001
 30
0.0
 40
4.0
 41
32.38095238095238
 46
4.0
 71
     8
 72
     1
  1
36
  7
ＭＳ 明朝
 73
     1
 44
1.0
1001
ACAD
1000
ACAD_MTEXT_DEFINED_HEIGHT_BEGIN
1070
    46
1040
4.0
1000
ACAD_MTEXT_DEFINED_HEIGHT_END
  0
INSERT
  5
2CC
330
2C5
100
AcDbEntity
  8
2
  6
Continuous
 62
   134
370
     9
100
AcDbBlockReference
  2
_ARROWFILLED
 10
30.32151801625409
 20
160.0000000000001
 30
0.0
 41
2.0
 42
2.0
 43
2.0
 50
179.9999999999998
  0
INSERT
  5
2CD
330
2C5
100
AcDbEntity
  8
2
  6
Continuous
 62
   134
370
     9
100
AcDbBlockReference
  2
_ARROWFILLED
 10
66.3205837485938
 20
160.0000000000001
 30
0.0
 41
2.0
 42
2.0
 43
2.0
 50
359.9999999999997
  0
ENDBLK
  5
2C7
330
2C5
100
AcDbEntity
  8
0
100
AcDbBlockEnd
  0
BLOCK
  5
2D0
330
2CF
100
AcDbEntity
  8
0
100
AcDbBlockBegin
  2
Dim19
 70
     0
 10
0.0
 20
0.0
 30
0.0
  3
Dim19
  1
Dim19
  0
LINE
  5
2D2
330
2CF
100
AcDbEntity
  8
2
  6
Continuous
 62
   134
370
     9
100
AcDbLine
 10
28.83719162919917
 20
120.000031575098
 30
0.0
 11
15.19173423345407
 21
120.000031575098
 31
0.0
  0
LINE
  5
2D3
330
2CF
100
AcDbEntity
  8
2
  6
Continuous
 62
   134
370
     9
100
AcDbLine
 10
28.83719162919917
 20
140.0000315650864
 30
0.0
 11
15.19173423345407
 21
140.0000315650864
 31
0.0
  0
LINE
  5
2D4
330
2CF
100
AcDbEntity
  8
2
  6
Continuous
 62
   134
370
     9
100
AcDbLine
 10
17.19173423345407
 20
120.000031575098
 30
0.0
 11
17.19173423345407
 21
140.0000315650864
 31
0.0
  0
MTEXT
  5
2D5
330
2CF
100
AcDbEntity
  8
2
  6
Continuous
 62
   134
370
     9
100
AcDbMText
 10
17.19173423345407
 20
130.0000316163787
 30
0.0
 40
4.0
 41
49.52380952380952
 46
4.0
 71
     8
 72
     1
  1
φ20
  7
ＭＳ 明朝
 11
1.393499969507555E-15
 21
1.0
 31
0.0
 73
     1
 44
1.0
1001
ACAD
1000
ACAD_MTEXT_DEFINED_HEIGHT_BEGIN
1070
    46
1040
4.0
1000
ACAD_MTEXT_DEFINED_HEIGHT_END
  0
INSERT
  5
2D6
330
2CF
100
AcDbEntity
  8
2
  6
Continuous
 62
   134
370
     9
100
AcDbBlockReference
  2
_ARROWFILLED
 10
17.19173423345407
 20
120.000031575098
 30
0.0
 41
2.0
 42
2.0
 43
2.0
 50
269.9999999999998
  0
INSERT
  5
2D7
330
2CF
100
AcDbEntity
  8
2
  6
Continuous
 62
   134
370
     9
100
AcDbBlockReference
  2
_ARROWFILLED
 10
17.19173423345407
 20
140.0000315650864
 30
0.0
 41
2.0
 42
2.0
 43
2.0
 50
89.99999999999959
  0
ENDBLK
  5
2D1
330
2CF
100
AcDbEntity
  8
0
100
AcDbBlockEnd
  0
ENDSEC
  0
SECTION
  2
ENTITIES
  0
INSERT
  5
DF
330
1F
100
AcDbEntity
  8
0
100
AcDbBlockReference
  2
*G16
 10
0.0
 20
0.0
 30
0.0
  0
MTEXT
  5
E0
330
1F
100
AcDbEntity
  8
5
  6
Continuous
 62
    94
370
     9
100
AcDbMText
 10
210.9627483443709
 20
25.65149006622502
 30
0.0
 40
3.5
 41
13.9747047047047
 46
3.5
 71
     7
 72
     1
  1
{\f@ＭＳ 明朝;製図}
  7
T_STANDARD
 11
2.832769448823990E-16
 21
-1.0
 31
0.0
 73
     1
 44
1.0
1001
ACAD
1000
ACAD_MTEXT_DEFINED_HEIGHT_BEGIN
1070
    46
1040
3.5
1000
ACAD_MTEXT_DEFINED_HEIGHT_END
  0
MTEXT
  5
E1
330
1F
100
AcDbEntity
  8
5
  6
Continuous
 62
    94
370
     9
100
AcDbMText
 10
230.7955298013246
 20
25.4875827814568
 30
0.0
 40
3.5
 41
13.8354054054054
 46
3.5
 71
     7
 72
     1
  1
{\f@ＭＳ 明朝;図番}
  7
T_STANDARD
 11
2.832769448823990E-16
 21
-1.0
 31
0.0
 73
     1
 44
1.0
1001
ACAD
1000
ACAD_MTEXT_DEFINED_HEIGHT_BEGIN
1070
    46
1040
3.5
1000
ACAD_MTEXT_DEFINED_HEIGHT_END
  0
MTEXT
  5
E2
330
1F
100
AcDbEntity
  8
5
  6
Continuous
 62
    94
370
     9
100
AcDbMText
 10
230.7955298013246
 20
38.76407284768196
 30
0.0
 40
3.5
 41
21.08394394394394
 46
3.5
 71
     7
 72
     1
  1
{\f@ＭＳ 明朝;図　名}
  7
T_STANDARD
 11
2.832769448823990E-16
 21
-1.0
 31
0.0
 73
     1
 44
1.0
1001
ACAD
1000
ACAD_MTEXT_DEFINED_HEIGHT_BEGIN
1070
    46
1040
3.5
1000
ACAD_MTEXT_DEFINED_HEIGHT_END
  0
MTEXT
  5
E3
330
1F
100
AcDbEntity
  8
5
  6
Continuous
 62
    94
370
     9
100
AcDbMText
 10
165.8882450331127
 20
33.35513245033097
 30
0.0
 40
3.5
 41
13.26825825825826
 46
3.5
 71
     7
 72
     1
  1
{\f@ＭＳ 明朝;日付}
  7
T_STANDARD
 11
2.832769448823990E-16
 21
-1.0
 31
0.0
 73
     1
 44
1.0
1001
ACAD
1000
ACAD_MTEXT_DEFINED_HEIGHT_BEGIN
1070
    46
1040
3.5
1000
ACAD_MTEXT_DEFINED_HEIGHT_END
  0
MTEXT
  5
E4
330
1F
100
AcDbEntity
  8
5
  6
Continuous
 62
    94
370
     9
100
AcDbMText
 10
200.96440397351
 20
33.51903973509918
 30
0.0
 40
3.5
 41
13.61153153153153
 46
3.5
 71
     7
 72
     1
  1
{\f@ＭＳ 明朝;図法}
  7
T_STANDARD
 11
2.832769448823990E-16
 21
-1.0
 31
0.0
 73
     1
 44
1.0
1001
ACAD
1000
ACAD_MTEXT_DEFINED_HEIGHT_BEGIN
1070
    46
1040
3.5
1000
ACAD_MTEXT_DEFINED_HEIGHT_END
  0
MTEXT
  5
E5
330
1F
100
AcDbEntity
  8
5
  6
Continuous
 62
    94
370
     9
100
AcDbMText
 10
200.8004966887418
 20
41.55049668874156
 30
0.0
 40
3.5
 41
13.38268268268268
 46
3.5
 71
     7
 72
     1
  1
{\f@ＭＳ 明朝;尺度}
  7
T_STANDARD
 11
2.832769448823990E-16
 21
-1.0
 31
0.0
 73
     1
 44
1.0
1001
ACAD
1000
ACAD_MTEXT_DEFINED_HEIGHT_BEGIN
1070
    46
1040
3.5
1000
ACAD_MTEXT_DEFINED_HEIGHT_END
  0
MTEXT
  5
E6
330
1F
100
AcDbEntity
  8
5
  6
Continuous
 62
    94
370
     9
100
AcDbMText
 10
165.8882450331126
 20
41.38658940397335
 30
0.0
 40
3.5
 41
13.52695695695696
 46
3.5
 71
     7
 72
     1
  1
{\f@ＭＳ 明朝;公差}
  7
T_STANDARD
 11
2.832769448823990E-16
 21
-1.0
 31
0.0
 73
     1
 44
1.0
1001
ACAD
1000
ACAD_MTEXT_DEFINED_HEIGHT_BEGIN
1070
    46
1040
3.5
1000
ACAD_MTEXT_DEFINED_HEIGHT_END
  0
MTEXT
  5
E7
330
1F
100
AcDbEntity
  8
5
  6
Continuous
 62
    94
370
     9
100
AcDbMText
 10
165.8882450331127
 20
25.4875827814568
 30
0.0
 40
3.5
 41
13.72595595595596
 46
3.5
 71
     7
 72
     1
  1
{\f@ＭＳ 明朝;承認}
  7
T_STANDARD
 11
2.832769448823990E-16
 21
-1.0
 31
0.0
 73
     1
 44
1.0
1001
ACAD
1000
ACAD_MTEXT_DEFINED_HEIGHT_BEGIN
1070
    46
1040
3.5
1000
ACAD_MTEXT_DEFINED_HEIGHT_END
  0
MTEXT
  5
E8
330
1F
100
AcDbEntity
  8
5
  6
Continuous
 62
    94
370
     9
100
AcDbMText
 10
190.9660596026491
 20
25.4875827814568
 30
0.0
 40
3.5
 41
13.66625625625625
 46
3.5
 71
     7
 72
     1
  1
{\f@ＭＳ 明朝;設計}
  7
T_STANDARD
 11
2.832769448823990E-16
 21
-1.0
 31
0.0
 73
     1
 44
1.0
1001
ACAD
1000
ACAD_MTEXT_DEFINED_HEIGHT_BEGIN
1070
    46
1040
3.5
1000
ACAD_MTEXT_DEFINED_HEIGHT_END
  0
MTEXT
  5
E9
330
1F
100
AcDbEntity
  8
5
  6
Continuous
 62
    94
370
     9
100
AcDbMText
 10
184.4097682119206
 20
11.5554635761588
 30
0.0
 40
4.5
 41
110.8785490961756
 46
4.5
 71
     7
 72
     1
  1
{\fＭＳ 明朝|b1;\W0.714286;\T1.888889;ジャパンセンサー株式会社}
 73
     1
 44
1.0
1001
ACAD
1000
ACAD_MTEXT_DEFINED_HEIGHT_BEGIN
1070
    46
1040
4.5
1000
ACAD_MTEXT_DEFINED_HEIGHT_END
  0
LINE
  5
EA
330
1F
100
AcDbEntity
  8
5
  6
Continuous
 62
    94
370
    35
100
AcDbLine
 10
165.0
 20
41.99999999999986
 30
0.0
 11
285.0
 21
41.99999999999986
 31
0.0
  0
LINE
  5
EB
330
1F
100
AcDbEntity
  8
5
  6
Continuous
 62
    94
370
    35
100
AcDbLine
 10
165.0
 20
9.999999999999865
 30
0.0
 11
165.0
 21
41.99999999999986
 31
0.0
  0
LINE
  5
EC
330
1F
100
AcDbEntity
  8
5
  6
Continuous
 62
    94
370
    35
100
AcDbLine
 10
285.0
 20
17.99999999999986
 30
0.0
 11
165.0
 21
17.99999999999986
 31
0.0
  0
LINE
  5
ED
330
1F
100
AcDbEntity
  8
5
  6
Continuous
 62
    94
370
    35
100
AcDbLine
 10
230.0
 20
41.99999999999986
 30
0.0
 11
230.0
 21
17.99999999999986
 31
0.0
  0
LINE
  5
EE
330
1F
100
AcDbEntity
  8
5
  6
Continuous
 62
    94
370
    35
100
AcDbLine
 10
285.0
 20
25.99999999999986
 30
0.0
 11
165.0
 21
25.99999999999986
 31
0.0
  0
LINE
  5
EF
330
1F
100
AcDbEntity
  8
5
  6
Continuous
 62
    94
370
    25
100
AcDbLine
 10
235.0
 20
17.99999999999986
 30
0.0
 11
235.0
 21
41.99999999999986
 31
0.0
  0
LINE
  5
F0
330
1F
100
AcDbEntity
  8
5
  6
Continuous
 62
    94
370
    25
100
AcDbLine
 10
205.0
 20
41.99999999999986
 30
0.0
 11
205.0
 21
25.99999999999986
 31
0.0
  0
LINE
  5
F1
330
1F
100
AcDbEntity
  8
5
  6
Continuous
 62
    94
370
    25
100
AcDbLine
 10
170.0
 20
17.99999999999986
 30
0.0
 11
170.0
 21
41.99999999999986
 31
0.0
  0
LINE
  5
F2
330
1F
100
AcDbEntity
  8
5
  6
Continuous
 62
    94
370
    35
100
AcDbLine
 10
165.0
 20
33.99999999999986
 30
0.0
 11
230.0
 21
33.99999999999986
 31
0.0
  0
LINE
  5
F3
330
1F
100
AcDbEntity
  8
5
  6
Continuous
 62
    94
370
    35
100
AcDbLine
 10
200.0
 20
41.99999999999986
 30
0.0
 11
200.0
 21
25.99999999999986
 31
0.0
  0
LINE
  5
F4
330
1F
100
AcDbEntity
  8
5
  6
Continuous
 62
    94
370
    35
100
AcDbLine
 10
190.0
 20
17.99999999999986
 30
0.0
 11
190.0
 21
25.99999999999986
 31
0.0
  0
LINE
  5
F5
330
1F
100
AcDbEntity
  8
5
  6
Continuous
 62
    94
370
    35
100
AcDbLine
 10
210.0
 20
17.99999999999986
 30
0.0
 11
210.0
 21
25.99999999999986
 31
0.0
  0
LINE
  5
F6
330
1F
100
AcDbEntity
  8
5
  6
Continuous
 62
    94
370
    25
100
AcDbLine
 10
195.0
 20
25.99999999999986
 30
0.0
 11
195.0
 21
17.99999999999986
 31
0.0
  0
LINE
  5
F7
330
1F
100
AcDbEntity
  8
5
  6
Continuous
 62
    94
370
    25
100
AcDbLine
 10
215.0
 20
25.99999999999986
 30
0.0
 11
215.0
 21
17.99999999999986
 31
0.0
  0
MTEXT
  5
F8
330
1F
100
AcDbEntity
  8
5
  6
Continuous
 62
    94
370
     9
100
AcDbMText
 10
209.9793046357617
 20
35.64983443708594
 30
0.0
 40
4.0
 41
14.12487337481481
 46
4.0
 71
     7
 72
     1
  1
{\fＭＳ 明朝;\W0.714286;１／１}
 73
     1
 44
1.0
1001
ACAD
1000
ACAD_MTEXT_DEFINED_HEIGHT_BEGIN
1070
    46
1040
4.0
1000
ACAD_MTEXT_DEFINED_HEIGHT_END
  0
MTEXT
  5
F9
330
1F
100
AcDbEntity
  8
5
  6
Continuous
 62
    94
370
     9
100
AcDbMText
 10
208.9958609271524
 20
27.29056291390713
 30
0.0
 40
4.0
 41
17.23169572436436
 46
4.0
 71
     7
 72
     1
  1
{\fＭＳ 明朝;\W0.714286;三角法}
 73
     1
 44
1.0
1001
ACAD
1000
ACAD_MTEXT_DEFINED_HEIGHT_BEGIN
1070
    46
1040
4.0
1000
ACAD_MTEXT_DEFINED_HEIGHT_END
  0
MTEXT
  5
FA
330
1F
100
AcDbEntity
  8
5
  6
Continuous
 62
    94
370
     9
100
AcDbMText
 10
196.2110927152319
 20
19.75082781456939
 30
0.0
 40
4.0
 41
11.08709152192192
 46
4.0
 71
     7
 72
     1
  1
{\fＭＳ 明朝;\W0.714286;保田}
 11
0.9999000351152358
 21
0.01413929901197605
 31
0.0
 73
     1
 44
1.0
1001
ACAD
1000
ACAD_MTEXT_DEFINED_HEIGHT_BEGIN
1070
    46
1040
4.0
1000
ACAD_MTEXT_DEFINED_HEIGHT_END
  0
MTEXT
  5
FB
330
1F
100
AcDbEntity
  8
5
  6
Continuous
 62
    94
370
     9
100
AcDbMText
 10
216.2077814569537
 20
19.9147350993376
 30
0.0
 40
4.0
 41
11.08709152192192
 46
4.0
 71
     7
 72
     1
  1
{\fＭＳ 明朝;\W0.714286;保田}
 11
0.9999980613732091
 21
-0.001969073341300012
 31
0.0
 73
     1
 44
1.0
1001
ACAD
1000
ACAD_MTEXT_DEFINED_HEIGHT_BEGIN
1070
    46
1040
4.0
1000
ACAD_MTEXT_DEFINED_HEIGHT_END
  0
LINE
  5
FC
330
1F
100
AcDbEntity
  8
1
  6
DASHDOT
 62
     7
370
     9
100
AcDbLine
 10
254.5980925646777
 20
140.0
 30
0.0
 11
254.5980925646777
 21
121.2994879645263
 31
0.0
  0
LINE
  5
FD
330
1F
100
AcDbEntity
  8
1
  6
DASHDOT
 62
     7
370
     9
100
AcDbLine
 10
247.2272226380082
 20
130.0
 30
0.0
 11
262.5735732519192
 21
130.0000000000001
 31
0.0
  0
LINE
  5
FE
330
1F
100
AcDbEntity
  8
1
  6
DASHDOT
 62
     7
370
     9
100
AcDbLine
 10
254.5980925646777
 20
112.3409478226084
 30
0.0
 11
254.5980925646777
 21
147.1412278849442
 31
0.0
  0
LINE
  5
FF
330
1F
100
AcDbEntity
  8
1
  6
DASHDOT
 62
     7
370
     9
100
AcDbLine
 10
268.014994964823
 20
130.0
 30
0.0
 11
240.1174131725149
 21
130.0
 31
0.0
  0
LINE
  5
100
330
1F
100
AcDbEntity
  8
1
  6
Continuous
 62
     7
370
    35
100
AcDbLine
 10
266.2980925646776
 20
115.0
 30
0.0
 11
266.5980925646777
 21
115.3000000000001
 31
0.0
  0
LINE
  5
101
330
1F
100
AcDbEntity
  8
1
  6
Continuous
 62
     7
370
    35
100
AcDbLine
 10
266.5980925646777
 20
144.7
 30
0.0
 11
266.5980925646777
 21
115.3000000000001
 31
0.0
  0
LINE
  5
102
330
1F
100
AcDbEntity
  8
1
  6
Continuous
 62
     7
370
    35
100
AcDbLine
 10
242.8980925646777
 20
115.0
 30
0.0
 11
266.2980925646776
 21
115.0
 31
0.0
  0
LINE
  5
103
330
1F
100
AcDbEntity
  8
1
  6
Continuous
 62
     7
370
    35
100
AcDbLine
 10
242.5980925646777
 20
115.3
 30
0.0
 11
242.8980925646777
 21
115.0
 31
0.0
  0
LINE
  5
104
330
1F
100
AcDbEntity
  8
1
  6
Continuous
 62
     7
370
    35
100
AcDbLine
 10
242.5980925646777
 20
144.7
 30
0.0
 11
242.5980925646777
 21
115.3
 31
0.0
  0
LINE
  5
105
330
1F
100
AcDbEntity
  8
1
  6
Continuous
 62
     7
370
    35
100
AcDbLine
 10
242.8980925646777
 20
145.0
 30
0.0
 11
242.5980925646777
 21
144.7
 31
0.0
  0
LINE
  5
106
330
1F
100
AcDbEntity
  8
1
  6
Continuous
 62
     7
370
    35
100
AcDbLine
 10
266.2980925646777
 20
145.0000000000001
 30
0.0
 11
242.8980925646777
 21
145.0
 31
0.0
  0
LINE
  5
107
330
1F
100
AcDbEntity
  8
1
  6
Continuous
 62
     7
370
    35
100
AcDbLine
 10
266.2980925646777
 20
145.0000000000001
 30
0.0
 11
266.5980925646777
 21
144.7
 31
0.0
  0
CIRCLE
  5
108
330
1F
100
AcDbEntity
  8
1
  6
Continuous
 62
     7
370
    35
100
AcDbCircle
 10
264.0980925646768
 20
117.4999999999998
 30
0.0
 40
2.099999999999994
  0
CIRCLE
  5
109
330
1F
100
AcDbEntity
  8
1
  6
Continuous
 62
     7
370
    35
100
AcDbCircle
 10
264.0980925646772
 20
117.5000019072
 30
0.0
 40
1.1
  0
LINE
  5
10A
330
1F
100
AcDbEntity
  8
1
  6
DASHDOT
 62
     7
370
     9
100
AcDbLine
 10
264.0980925646772
 20
119.9800904721142
 30
0.0
 11
264.0980925646772
 21
114.56003352572
 31
0.0
  0
LINE
  5
10B
330
1F
100
AcDbEntity
  8
1
  6
DASHDOT
 62
     7
370
     9
100
AcDbLine
 10
266.9278087919928
 20
117.4999999999998
 30
0.0
 11
261.5373696431202
 21
117.4999999999998
 31
0.0
  0
LINE
  5
10C
330
1F
100
AcDbEntity
  8
1
  6
DASHDOT
 62
     7
370
     9
100
AcDbLine
 10
265.9207681317283
 20
117.5000019071997
 30
0.0
 11
261.4539059512995
 21
117.5000019071997
 31
0.0
  0
LINE
  5
10D
330
1F
100
AcDbEntity
  8
1
  6
DASHDOT
 62
     7
370
     9
100
AcDbLine
 10
264.0980925646768
 20
119.2831752498951
 30
0.0
 11
264.0980925646768
 21
115.7274191674037
 31
0.0
  0
CIRCLE
  5
10E
330
1F
100
AcDbEntity
  8
1
  6
Continuous
 62
     7
370
    35
100
AcDbCircle
 10
245.0980925646782
 20
142.5000019072002
 30
0.0
 40
2.099999999999994
  0
CIRCLE
  5
10F
330
1F
100
AcDbEntity
  8
1
  6
Continuous
 62
     7
370
    35
100
AcDbCircle
 10
245.0980925646777
 20
142.5
 30
0.0
 40
1.1
  0
LINE
  5
110
330
1F
100
AcDbEntity
  8
1
  6
DASHDOT
 62
     7
370
     9
100
AcDbLine
 10
245.0980925646777
 20
140.0199114350858
 30
0.0
 11
245.0980925646777
 21
145.43996838148
 31
0.0
  0
LINE
  5
111
330
1F
100
AcDbEntity
  8
1
  6
DASHDOT
 62
     7
370
     9
100
AcDbLine
 10
242.2683763373621
 20
142.5000019072002
 30
0.0
 11
247.6588154862348
 21
142.5000019072002
 31
0.0
  0
LINE
  5
112
330
1F
100
AcDbEntity
  8
1
  6
DASHDOT
 62
     7
370
     9
100
AcDbLine
 10
243.2754169976265
 20
142.5000000000002
 30
0.0
 11
247.7422791780555
 21
142.5000000000003
 31
0.0
  0
LINE
  5
113
330
1F
100
AcDbEntity
  8
1
  6
DASHDOT
 62
     7
370
     9
100
AcDbLine
 10
245.0980925646782
 20
140.7168266573049
 30
0.0
 11
245.0980925646782
 21
144.2725827397962
 31
0.0
  0
MTEXT
  5
114
330
1F
100
AcDbEntity
  8
2
  6
Continuous
 62
   134
370
     9
100
AcDbMText
 10
238.6777111105314
 20
98.98007306271609
 30
0.0
 40
3.9999
 41
57.96007850791744
 46
3.9999
 71
     9
 72
     1
  1
{\fＭＳ 明朝;\W0.714286;XN2A-1870（オムロン）}
 73
     1
 44
1.0
1001
ACAD
1000
ACAD_MTEXT_DEFINED_HEIGHT_BEGIN
1070
    46
1040
3.9999
1000
ACAD_MTEXT_DEFINED_HEIGHT_END
  0
DIMENSION
  5
11F
330
1F
100
AcDbEntity
  8
2
  6
Continuous
 62
   134
370
     9
100
AcDbDimension
280
     0
  2
Dim1
 10
254.5980925646777
 20
160.0
 30
0.0
 11
248.5980925646777
 21
160.0
 31
0.0
 70
   160
  1
12
 71
     8
 42
-1.0
 73
     0
 74
     0
 75
     0
  3
Standard
100
AcDbAlignedDimension
 13
242.5980925646777
 23
144.7
 33
0.0
 14
254.5980925646777
 24
147.1412278849442
 34
0.0
 50
0.0000000000001357
100
AcDbRotatedDimension
1001
ACAD
1000
DSTYLE
1002
{
1070
   279
1070
     1
1070
   340
1005
115
1070
   140
1040
4.0
1070
    40
1040
1.0
1070
   147
1040
0.0
1070
    76
1070
     0
1070
    75
1070
     0
1070
   344
1005
0
1070
   343
1005
0
1070
   173
1070
     1
1070
   289
1070
     2
1070
   288
1070
     1
1070
    77
1070
     1
1070
   172
1070
     1
1070
   174
1070
     0
1070
    74
1070
     0
1070
    73
1070
     0
1070
   284
1070
     8
1070
    78
1070
     8
1070
    42
1040
2.0
1070
    44
1040
2.0
1070
    43
1040
10.0
1070
   271
1070
     2
1070
    41
1040
2.0
1002
}
  0
DIMENSION
  5
128
330
1F
100
AcDbEntity
  8
2
  6
Continuous
 62
   134
370
     9
100
AcDbDimension
280
     0
  2
Dim2
 10
266.5980925646777
 20
160.0000000000001
 30
0.0
 11
260.5980925646777
 21
160.0000000000001
 31
0.0
 70
   160
  1
12
 71
     8
 42
-1.0
 73
     0
 74
     0
 75
     0
  3
Standard
100
AcDbAlignedDimension
 13
254.5980925646777
 23
147.1412278849442
 33
0.0
 14
266.5980925646777
 24
144.7
 34
0.0
 50
0.0000000000001357
100
AcDbRotatedDimension
1001
ACAD
1000
DSTYLE
1002
{
1070
   279
1070
     1
1070
   340
1005
115
1070
   140
1040
4.0
1070
    40
1040
1.0
1070
   147
1040
0.0
1070
    76
1070
     0
1070
    75
1070
     1
1070
   344
1005
0
1070
   343
1005
0
1070
   173
1070
     1
1070
   289
1070
     2
1070
   288
1070
     1
1070
    77
1070
     1
1070
   172
1070
     1
1070
   174
1070
     0
1070
    74
1070
     0
1070
    73
1070
     0
1070
   284
1070
     8
1070
    78
1070
     8
1070
    42
1040
2.0
1070
    44
1040
2.0
1070
    43
1040
10.0
1070
   271
1070
     2
1070
    41
1040
2.0
1002
}
  0
DIMENSION
  5
132
330
1F
100
AcDbEntity
  8
2
  6
Continuous
 62
   134
370
     9
100
AcDbDimension
280
     0
  2
Dim3
 10
266.5980925646777
 20
170.0000000000001
 30
0.0
 11
256.2603909517741
 21
170.0
 31
0.0
 70
   160
  1
<>
 71
     8
 42
-1.0
 73
     0
 74
     0
 75
     0
  3
Standard
100
AcDbAlignedDimension
 13
242.5980925646777
 23
144.7
 33
0.0
 14
266.5980925646777
 24
144.7
 34
0.0
 50
0.0000000000001357
100
AcDbRotatedDimension
1001
ACAD
1000
DSTYLE
1002
{
1070
   279
1070
     1
1070
   340
1005
115
1070
   140
1040
4.0
1070
    40
1040
1.0
1070
   147
1040
0.0
1070
    76
1070
     0
1070
    75
1070
     0
1070
   344
1005
0
1070
   343
1005
0
1070
   173
1070
     1
1070
   289
1070
     2
1070
   288
1070
     1
1070
    77
1070
     1
1070
   172
1070
     1
1070
   174
1070
     0
1070
    74
1070
     0
1070
    73
1070
     0
1070
   284
1070
     8
1070
    78
1070
     8
1070
    42
1040
2.0
1070
    44
1040
2.0
1070
    43
1040
10.0
1070
   271
1070
     2
1070
    41
1040
2.0
1002
}
  0
INSERT
  5
13C
330
1F
100
AcDbEntity
  8
0
100
AcDbBlockReference
  2
*G20
 10
0.0
 20
0.0
 30
0.0
  0
LINE
  5
13D
330
1F
100
AcDbEntity
  8
1
  6
Continuous
 62
     7
370
    35
100
AcDbLine
 10
261.8401396712839
 20
124.9435935394489
 30
0.0
 11
262.5980925646777
 21
126.256406460551
 31
0.0
  0
LINE
  5
13E
330
1F
100
AcDbEntity
  8
1
  6
Continuous
 62
     7
370
    35
100
AcDbLine
 10
262.5980925646777
 20
133.743593539449
 30
0.0
 11
261.8401396712839
 21
135.056406460551
 31
0.0
  0
LINE
  5
13F
330
1F
100
AcDbEntity
  8
1
  6
Continuous
 62
     7
370
    35
100
AcDbLine
 10
247.3560454580716
 20
135.056406460551
 30
0.0
 11
246.5980925646777
 21
133.743593539449
 31
0.0
  0
LINE
  5
140
330
1F
100
AcDbEntity
  8
1
  6
Continuous
 62
     7
370
    35
100
AcDbLine
 10
246.5980925646777
 20
126.256406460551
 30
0.0
 11
247.3560454580716
 21
124.943593539449
 31
0.0
  0
LINE
  5
141
330
1F
100
AcDbEntity
  8
1
  6
Continuous
 62
     7
370
    35
100
AcDbLine
 10
247.3560454580716
 20
135.0564064605511
 30
0.0
 11
246.5980925646777
 21
133.743593539449
 31
0.0
  0
LINE
  5
142
330
1F
100
AcDbEntity
  8
1
  6
Continuous
 62
     7
370
    35
100
AcDbLine
 10
246.5980925646777
 20
126.2564064605511
 30
0.0
 11
247.3560454580716
 21
124.943593539449
 31
0.0
  0
LINE
  5
143
330
1F
100
AcDbEntity
  8
1
  6
Continuous
 62
     7
370
    35
100
AcDbLine
 10
261.8401396712839
 20
124.9435935394489
 30
0.0
 11
262.5980925646777
 21
126.256406460551
 31
0.0
  0
LINE
  5
144
330
1F
100
AcDbEntity
  8
1
  6
Continuous
 62
     7
370
    35
100
AcDbLine
 10
262.5980925646778
 20
133.7435935394489
 30
0.0
 11
261.8401396712839
 21
135.056406460551
 31
0.0
  0
LINE
  5
145
330
1F
100
AcDbEntity
  8
1
  6
Continuous
 62
     7
370
    35
100
AcDbLine
 10
262.5980925646778
 20
133.7435935394489
 30
0.0
 11
261.8401396712839
 21
135.056406460551
 31
0.0
  0
LINE
  5
146
330
1F
100
AcDbEntity
  8
1
  6
Continuous
 62
     7
370
    35
100
AcDbLine
 10
262.5980925646778
 20
133.7435935394489
 30
0.0
 11
261.8401396712839
 21
135.056406460551
 31
0.0
  0
LINE
  5
147
330
1F
100
AcDbEntity
  8
1
  6
Continuous
 62
     7
370
    35
100
AcDbLine
 10
253.8401396712838
 20
121.2
 30
0.0
 11
255.3560454580716
 21
121.2
 31
0.0
  0
LINE
  5
148
330
1F
100
AcDbEntity
  8
1
  6
Continuous
 62
     7
370
    35
100
AcDbLine
 10
261.8401396712838
 20
124.9435935394489
 30
0.0
 11
262.5980925646777
 21
126.256406460551
 31
0.0
  0
LINE
  5
149
330
1F
100
AcDbEntity
  8
1
  6
Continuous
 62
     7
370
    35
100
AcDbLine
 10
253.8401396712838
 20
121.2
 30
0.0
 11
255.3560454580716
 21
121.2
 31
0.0
  0
LINE
  5
14A
330
1F
100
AcDbEntity
  8
1
  6
Continuous
 62
     7
370
    35
100
AcDbLine
 10
253.8401396712839
 20
138.8
 30
0.0
 11
255.3560454580716
 21
138.8
 31
0.0
  0
CIRCLE
  5
14B
330
1F
100
AcDbEntity
  8
1
  6
Continuous
 62
     7
370
    35
100
AcDbCircle
 10
254.5980925646777
 20
130.0
 30
0.0
 40
3.5
  0
CIRCLE
  5
14C
330
1F
100
AcDbEntity
  8
1
  6
Continuous
 62
     7
370
    35
100
AcDbCircle
 10
254.5980925646777
 20
130.0
 30
0.0
 40
8.0
  0
DIMENSION
  5
156
330
1F
100
AcDbEntity
  8
2
  6
Continuous
 62
   134
370
     9
100
AcDbDimension
280
     0
  2
Dim4
 10
262.5980925646777
 20
99.62066605839387
 30
0.0
 11
254.5980925646777
 21
99.62066605839387
 31
0.0
 70
   160
  1
<>
 71
     8
 42
-1.0
 73
     0
 74
     0
 75
     0
  3
Standard
100
AcDbAlignedDimension
 13
246.5980925646777
 23
126.256406460551
 33
0.0
 14
262.5980925646777
 24
126.256406460551
 34
0.0
100
AcDbRotatedDimension
1001
ACAD
1000
DSTYLE
1002
{
1070
   279
1070
     1
1070
   340
1005
115
1070
   140
1040
4.0
1070
    40
1040
1.0
1070
   147
1040
0.0
1070
    76
1070
     0
1070
    75
1070
     0
1070
   344
1005
0
1070
   343
1005
0
1070
   173
1070
     1
1070
   289
1070
     2
1070
   288
1070
     1
1070
    77
1070
     1
1070
   172
1070
     1
1070
   174
1070
     0
1070
    74
1070
     0
1070
    73
1070
     0
1070
   284
1070
     8
1070
    78
1070
     8
1070
    42
1040
2.0
1070
    44
1040
2.0
1070
    43
1040
10.0
1070
   271
1070
     2
1070
    41
1040
2.0
1002
}
  0
MTEXT
  5
157
330
1F
100
AcDbEntity
  8
2
  6
Continuous
 62
   134
370
     9
100
AcDbMText
 10
238.3553471407846
 20
103.8242580048869
 30
0.0
 40
3.9999
 41
61.64756108115099
 46
3.9999
 71
     9
 72
     1
  1
{\fＭＳ 明朝;\W0.714286;e-CON コネクタ　8ピン}
 73
     1
 44
1.0
1001
ACAD
1000
ACAD_MTEXT_DEFINED_HEIGHT_BEGIN
1070
    46
1040
3.9999
1000
ACAD_MTEXT_DEFINED_HEIGHT_END
  0
DIMENSION
  5
161
330
1F
100
AcDbEntity
  8
2
  6
Continuous
 62
   134
370
     9
100
AcDbDimension
280
     0
  2
Dim5
 10
280.9616443327206
 20
114.9999999999999
 30
0.0
 11
280.9616443327207
 21
129.9999999999999
 31
0.0
 70
   160
  1
<>
 71
     8
 42
-1.0
 73
     0
 74
     0
 75
     0
 53
89.99999999999991
  3
Standard
100
AcDbAlignedDimension
 13
266.2980925646777
 23
145.0000000000001
 33
0.0
 14
266.2980925646776
 24
115.0
 34
0.0
 50
-89.99999999999991
100
AcDbRotatedDimension
1001
ACAD
1000
DSTYLE
1002
{
1070
   279
1070
     1
1070
   340
1005
115
1070
   140
1040
4.0
1070
    40
1040
1.0
1070
   147
1040
0.0
1070
    76
1070
     0
1070
    75
1070
     0
1070
   344
1005
0
1070
   343
1005
0
1070
   173
1070
     1
1070
   289
1070
     2
1070
   288
1070
     1
1070
    77
1070
     1
1070
   172
1070
     1
1070
   174
1070
     0
1070
    74
1070
     0
1070
    73
1070
     0
1070
   284
1070
     8
1070
    78
1070
     8
1070
    42
1040
2.0
1070
    44
1040
2.0
1070
    43
1040
10.0
1070
   271
1070
     2
1070
    41
1040
2.0
1002
}
  0
DIMENSION
  5
16B
330
1F
100
AcDbEntity
  8
2
  6
Continuous
 62
   134
370
     9
100
AcDbDimension
280
     0
  2
Dim6
 10
274.2844954857604
 20
121.2
 30
0.0
 11
274.2844954857604
 21
130.0
 31
0.0
 70
   160
  1
<>
 71
     8
 42
-1.0
 73
     0
 74
     0
 75
     0
 53
89.99999999999991
  3
Standard
100
AcDbAlignedDimension
 13
255.4819622994344
 23
138.8
 33
0.0
 14
255.3560454580716
 24
121.2
 34
0.0
 50
-89.99999999999991
100
AcDbRotatedDimension
1001
ACAD
1000
DSTYLE
1002
{
1070
   279
1070
     1
1070
   340
1005
115
1070
   140
1040
4.0
1070
    40
1040
1.0
1070
   147
1040
0.0
1070
    76
1070
     0
1070
    75
1070
     0
1070
   344
1005
0
1070
   343
1005
0
1070
   173
1070
     1
1070
   289
1070
     2
1070
   288
1070
     1
1070
    77
1070
     1
1070
   172
1070
     1
1070
   174
1070
     0
1070
    74
1070
     0
1070
    73
1070
     0
1070
   284
1070
     8
1070
    78
1070
     8
1070
    42
1040
2.0
1070
    44
1040
2.0
1070
    43
1040
10.0
1070
   271
1070
     2
1070
    41
1040
2.0
1002
}
  0
MTEXT
  5
16C
330
1F
100
AcDbEntity
  8
5
  6
Continuous
 62
    94
370
     9
100
AcDbMText
 10
239.646523178808
 20
27.42694687484767
 30
0.0
 40
4.0
 41
33.35062109085085
 46
4.0
 71
     7
 72
     1
  1
{\fＭＳ 明朝;\W0.714286;ＨＸ－Ｃ２ｂ}
 73
     1
 44
1.0
1001
ACAD
1000
ACAD_MTEXT_DEFINED_HEIGHT_BEGIN
1070
    46
1040
4.0
1000
ACAD_MTEXT_DEFINED_HEIGHT_END
  0
LINE
  5
16D
330
1F
100
AcDbEntity
  8
1
  6
Continuous
 62
     7
370
    35
100
AcDbLine
 10
232.0452272474428
 20
123.37
 30
0.0
 11
231.6452272474428
 21
123.37
 31
0.0
  0
LINE
  5
16E
330
1F
100
AcDbEntity
  8
1
  6
Continuous
 62
     7
370
    35
100
AcDbLine
 10
232.0452272474428
 20
122.63
 30
0.0
 11
232.0452272474428
 21
123.37
 31
0.0
  0
LINE
  5
16F
330
1F
100
AcDbEntity
  8
1
  6
Continuous
 62
     7
370
    35
100
AcDbLine
 10
231.6452272474428
 20
122.63
 30
0.0
 11
232.0452272474428
 21
122.63
 31
0.0
  0
LINE
  5
170
330
1F
100
AcDbEntity
  8
1
  6
Continuous
 62
     7
370
    35
100
AcDbLine
 10
231.6452272474428
 20
123.37
 30
0.0
 11
231.6452272474428
 21
122.63
 31
0.0
  0
LINE
  5
171
330
1F
100
AcDbEntity
  8
1
  6
Continuous
 62
     7
370
    35
100
AcDbLine
 10
232.0452272474428
 20
125.37
 30
0.0
 11
231.6452272474428
 21
125.37
 31
0.0
  0
LINE
  5
172
330
1F
100
AcDbEntity
  8
1
  6
Continuous
 62
     7
370
    35
100
AcDbLine
 10
232.0452272474428
 20
124.63
 30
0.0
 11
232.0452272474428
 21
125.37
 31
0.0
  0
LINE
  5
173
330
1F
100
AcDbEntity
  8
1
  6
Continuous
 62
     7
370
    35
100
AcDbLine
 10
231.6452272474428
 20
124.63
 30
0.0
 11
232.0452272474428
 21
124.63
 31
0.0
  0
LINE
  5
174
330
1F
100
AcDbEntity
  8
1
  6
Continuous
 62
     7
370
    35
100
AcDbLine
 10
231.6452272474428
 20
125.37
 30
0.0
 11
231.6452272474428
 21
124.63
 31
0.0
  0
LINE
  5
175
330
1F
100
AcDbEntity
  8
1
  6
Continuous
 62
     7
370
    35
100
AcDbLine
 10
232.0452272474428
 20
127.37
 30
0.0
 11
231.6452272474428
 21
127.37
 31
0.0
  0
LINE
  5
176
330
1F
100
AcDbEntity
  8
1
  6
Continuous
 62
     7
370
    35
100
AcDbLine
 10
232.0452272474428
 20
126.63
 30
0.0
 11
232.0452272474428
 21
127.37
 31
0.0
  0
LINE
  5
177
330
1F
100
AcDbEntity
  8
1
  6
Continuous
 62
     7
370
    35
100
AcDbLine
 10
231.6452272474428
 20
126.63
 30
0.0
 11
232.0452272474428
 21
126.63
 31
0.0
  0
LINE
  5
178
330
1F
100
AcDbEntity
  8
1
  6
Continuous
 62
     7
370
    35
100
AcDbLine
 10
231.6452272474428
 20
127.37
 30
0.0
 11
231.6452272474428
 21
126.63
 31
0.0
  0
LINE
  5
179
330
1F
100
AcDbEntity
  8
1
  6
Continuous
 62
     7
370
    35
100
AcDbLine
 10
232.0452272474428
 20
129.37
 30
0.0
 11
231.6452272474428
 21
129.37
 31
0.0
  0
LINE
  5
17A
330
1F
100
AcDbEntity
  8
1
  6
Continuous
 62
     7
370
    35
100
AcDbLine
 10
232.0452272474428
 20
128.63
 30
0.0
 11
232.0452272474428
 21
129.37
 31
0.0
  0
LINE
  5
17B
330
1F
100
AcDbEntity
  8
1
  6
Continuous
 62
     7
370
    35
100
AcDbLine
 10
231.6452272474428
 20
128.63
 30
0.0
 11
232.0452272474428
 21
128.63
 31
0.0
  0
LINE
  5
17C
330
1F
100
AcDbEntity
  8
1
  6
Continuous
 62
     7
370
    35
100
AcDbLine
 10
231.6452272474428
 20
129.37
 30
0.0
 11
231.6452272474428
 21
128.63
 31
0.0
  0
LINE
  5
17D
330
1F
100
AcDbEntity
  8
1
  6
Continuous
 62
     7
370
    35
100
AcDbLine
 10
232.0452272474428
 20
131.37
 30
0.0
 11
231.6452272474428
 21
131.37
 31
0.0
  0
LINE
  5
17E
330
1F
100
AcDbEntity
  8
1
  6
Continuous
 62
     7
370
    35
100
AcDbLine
 10
232.0452272474428
 20
130.63
 30
0.0
 11
232.0452272474428
 21
131.37
 31
0.0
  0
LINE
  5
17F
330
1F
100
AcDbEntity
  8
1
  6
Continuous
 62
     7
370
    35
100
AcDbLine
 10
231.6452272474428
 20
130.63
 30
0.0
 11
232.0452272474428
 21
130.63
 31
0.0
  0
LINE
  5
180
330
1F
100
AcDbEntity
  8
1
  6
Continuous
 62
     7
370
    35
100
AcDbLine
 10
231.6452272474428
 20
131.37
 30
0.0
 11
231.6452272474428
 21
130.63
 31
0.0
  0
LINE
  5
181
330
1F
100
AcDbEntity
  8
1
  6
Continuous
 62
     7
370
    35
100
AcDbLine
 10
232.0452272474428
 20
133.37
 30
0.0
 11
231.6452272474428
 21
133.37
 31
0.0
  0
LINE
  5
182
330
1F
100
AcDbEntity
  8
1
  6
Continuous
 62
     7
370
    35
100
AcDbLine
 10
232.0452272474428
 20
132.63
 30
0.0
 11
232.0452272474428
 21
133.37
 31
0.0
  0
LINE
  5
183
330
1F
100
AcDbEntity
  8
1
  6
Continuous
 62
     7
370
    35
100
AcDbLine
 10
231.6452272474428
 20
132.63
 30
0.0
 11
232.0452272474428
 21
132.63
 31
0.0
  0
LINE
  5
184
330
1F
100
AcDbEntity
  8
1
  6
Continuous
 62
     7
370
    35
100
AcDbLine
 10
231.6452272474428
 20
133.37
 30
0.0
 11
231.6452272474428
 21
132.63
 31
0.0
  0
LINE
  5
185
330
1F
100
AcDbEntity
  8
1
  6
Continuous
 62
     7
370
    35
100
AcDbLine
 10
232.0452272474428
 20
135.37
 30
0.0
 11
231.6452272474428
 21
135.37
 31
0.0
  0
LINE
  5
186
330
1F
100
AcDbEntity
  8
1
  6
Continuous
 62
     7
370
    35
100
AcDbLine
 10
232.0452272474428
 20
134.63
 30
0.0
 11
232.0452272474428
 21
135.37
 31
0.0
  0
LINE
  5
187
330
1F
100
AcDbEntity
  8
1
  6
Continuous
 62
     7
370
    35
100
AcDbLine
 10
231.6452272474428
 20
134.63
 30
0.0
 11
232.0452272474428
 21
134.63
 31
0.0
  0
LINE
  5
188
330
1F
100
AcDbEntity
  8
1
  6
Continuous
 62
     7
370
    35
100
AcDbLine
 10
231.6452272474428
 20
135.37
 30
0.0
 11
231.6452272474428
 21
134.63
 31
0.0
  0
LINE
  5
189
330
1F
100
AcDbEntity
  8
1
  6
Continuous
 62
     7
370
    35
100
AcDbLine
 10
232.0452272474428
 20
137.37
 30
0.0
 11
231.6452272474428
 21
137.37
 31
0.0
  0
LINE
  5
18A
330
1F
100
AcDbEntity
  8
1
  6
Continuous
 62
     7
370
    35
100
AcDbLine
 10
232.0452272474428
 20
136.63
 30
0.0
 11
232.0452272474428
 21
137.37
 31
0.0
  0
LINE
  5
18B
330
1F
100
AcDbEntity
  8
1
  6
Continuous
 62
     7
370
    35
100
AcDbLine
 10
231.6452272474428
 20
136.63
 30
0.0
 11
232.0452272474428
 21
136.63
 31
0.0
  0
LINE
  5
18C
330
1F
100
AcDbEntity
  8
1
  6
Continuous
 62
     7
370
    35
100
AcDbLine
 10
231.6452272474428
 20
137.37
 30
0.0
 11
231.6452272474428
 21
136.63
 31
0.0
  0
LINE
  5
18D
330
1F
100
AcDbEntity
  8
1
  6
Continuous
 62
     7
370
    35
100
AcDbLine
 10
230.1452272474428
 20
138.6
 30
0.0
 11
233.5452272474429
 21
138.6
 31
0.0
  0
LINE
  5
18E
330
1F
100
AcDbEntity
  8
1
  6
Continuous
 62
     7
370
    35
100
AcDbLine
 10
230.1452272474428
 20
121.4
 30
0.0
 11
230.1452272474428
 21
138.6
 31
0.0
  0
LINE
  5
18F
330
1F
100
AcDbEntity
  8
1
  6
Continuous
 62
     7
370
    35
100
AcDbLine
 10
233.5452272474428
 20
121.4
 30
0.0
 11
230.1452272474428
 21
121.4
 31
0.0
  0
LINE
  5
190
330
1F
100
AcDbEntity
  8
1
  6
Continuous
 62
     7
370
    35
100
AcDbLine
 10
233.5452272474429
 20
138.6
 30
0.0
 11
233.5452272474428
 21
121.4
 31
0.0
  0
LINE
  5
191
330
1F
100
AcDbEntity
  8
1
  6
Continuous
 62
     7
370
    35
100
AcDbLine
 10
233.5452272474429
 20
144.5230919561239
 30
0.0
 11
230.1452272474428
 21
144.5230919561239
 31
0.0
  0
LINE
  5
192
330
1F
100
AcDbEntity
  8
1
  6
Continuous
 62
     7
370
    35
100
AcDbLine
 10
233.5452272474429
 20
140.55
 30
0.0
 11
233.5452272474429
 21
144.5230919561239
 31
0.0
  0
LINE
  5
193
330
1F
100
AcDbEntity
  8
1
  6
Continuous
 62
     7
370
    35
100
AcDbLine
 10
230.1452272474428
 20
140.55
 30
0.0
 11
230.1452272474428
 21
144.5230919561239
 31
0.0
  0
LINE
  5
194
330
1F
100
AcDbEntity
  8
1
  6
DASHDOT
 62
     7
370
     9
100
AcDbLine
 10
230.7479674699336
 20
123.0
 30
0.0
 11
232.9375971861905
 21
123.0
 31
0.0
  0
LINE
  5
195
330
1F
100
AcDbEntity
  8
1
  6
DASHDOT
 62
     7
370
     9
100
AcDbLine
 10
230.7479674699336
 20
125.0
 30
0.0
 11
232.9375971861905
 21
125.0
 31
0.0
  0
LINE
  5
196
330
1F
100
AcDbEntity
  8
1
  6
DASHDOT
 62
     7
370
     9
100
AcDbLine
 10
230.7479674699336
 20
127.0
 30
0.0
 11
232.9375971861905
 21
127.0
 31
0.0
  0
LINE
  5
197
330
1F
100
AcDbEntity
  8
1
  6
DASHDOT
 62
     7
370
     9
100
AcDbLine
 10
230.7479674699336
 20
129.0
 30
0.0
 11
232.9375971861905
 21
129.0
 31
0.0
  0
LINE
  5
198
330
1F
100
AcDbEntity
  8
1
  6
DASHDOT
 62
     7
370
     9
100
AcDbLine
 10
230.7479674699336
 20
131.0
 30
0.0
 11
232.9375971861905
 21
131.0
 31
0.0
  0
LINE
  5
199
330
1F
100
AcDbEntity
  8
1
  6
DASHDOT
 62
     7
370
     9
100
AcDbLine
 10
230.7479674699336
 20
133.0
 30
0.0
 11
232.9375971861905
 21
133.0
 31
0.0
  0
LINE
  5
19A
330
1F
100
AcDbEntity
  8
1
  6
DASHDOT
 62
     7
370
     9
100
AcDbLine
 10
230.7479674699336
 20
135.0
 30
0.0
 11
232.9375971861905
 21
135.0
 31
0.0
  0
LINE
  5
19B
330
1F
100
AcDbEntity
  8
1
  6
DASHDOT
 62
     7
370
     9
100
AcDbLine
 10
230.7479674699336
 20
137.0
 30
0.0
 11
232.9375971861905
 21
137.0
 31
0.0
  0
LINE
  5
19C
330
1F
100
AcDbEntity
  8
1
  6
Continuous
 62
     7
370
    35
100
AcDbLine
 10
234.8452272474428
 20
120.05
 30
0.0
 11
234.8452272474428
 21
142.75
 31
0.0
  0
LINE
  5
19D
330
1F
100
AcDbEntity
  8
1
  6
Continuous
 62
     7
370
    35
100
AcDbLine
 10
228.8452272474428
 20
142.75
 30
0.0
 11
228.8452272474428
 21
120.05
 31
0.0
  0
LINE
  5
19E
330
1F
100
AcDbEntity
  8
1
  6
Continuous
 62
     7
370
    35
100
AcDbLine
 10
233.5452272474429
 20
142.75
 30
0.0
 11
234.8452272474429
 21
142.75
 31
0.0
  0
LINE
  5
19F
330
1F
100
AcDbEntity
  8
1
  6
Continuous
 62
     7
370
    35
100
AcDbLine
 10
230.1452272474428
 20
142.75
 30
0.0
 11
228.8452272474428
 21
142.75
 31
0.0
  0
LINE
  5
1A0
330
1F
100
AcDbEntity
  8
1
  6
Continuous
 62
     7
370
    35
100
AcDbLine
 10
234.8452272474428
 20
140.55
 30
0.0
 11
233.5452272474429
 21
140.55
 31
0.0
  0
LINE
  5
1A1
330
1F
100
AcDbEntity
  8
1
  6
Continuous
 62
     7
370
    35
100
AcDbLine
 10
228.8452272474428
 20
140.55
 30
0.0
 11
230.1452272474428
 21
140.55
 31
0.0
  0
LINE
  5
1A2
330
1F
100
AcDbEntity
  8
1
  6
Continuous
 62
     7
370
    35
100
AcDbLine
 10
209.7873758423303
 20
121.25
 30
0.0
 11
209.7873758423303
 21
138.75
 31
0.0
  0
LINE
  5
1A3
330
1F
100
AcDbEntity
  8
1
  6
Continuous
 62
     7
370
    35
100
AcDbLine
 10
206.2873758423303
 20
138.75
 30
0.0
 11
209.7873758423303
 21
138.75
 31
0.0
  0
LINE
  5
1A4
330
1F
100
AcDbEntity
  8
1
  6
Continuous
 62
     7
370
    35
100
AcDbLine
 10
206.2873758423303
 20
138.75
 30
0.0
 11
206.2873758423303
 21
140.55
 31
0.0
  0
LINE
  5
1A5
330
1F
100
AcDbEntity
  8
1
  6
Continuous
 62
     7
370
    35
100
AcDbLine
 10
206.2873758423303
 20
121.25
 30
0.0
 11
209.7873758423303
 21
121.25
 31
0.0
  0
LINE
  5
1A6
330
1F
100
AcDbEntity
  8
1
  6
Continuous
 62
     7
370
    35
100
AcDbLine
 10
206.2873758423303
 20
120.25
 30
0.0
 11
206.2873758423303
 21
121.25
 31
0.0
  0
LINE
  5
1A7
330
1F
100
AcDbEntity
  8
1
  6
Continuous
 62
     7
370
    35
100
AcDbLine
 10
201.300804470984
 20
142.05
 30
0.0
 11
200.7031232316891
 21
142.05
 31
0.0
  0
LINE
  5
1A8
330
1F
100
AcDbEntity
  8
1
  6
Continuous
 62
     7
370
    35
100
AcDbLine
 10
202.000804470984
 20
142.75
 30
0.0
 11
203.9873758423304
 21
142.75
 31
0.0
  0
LINE
  5
1A9
330
1F
100
AcDbEntity
  8
1
  6
Continuous
 62
     7
370
    35
100
AcDbLine
 10
200.900804470984
 20
141.65
 30
0.0
 11
197.2873758423303
 21
141.65
 31
0.0
  0
SPLINE
  5
1AA
330
1F
100
AcDbEntity
  8
1
  6
Continuous
 62
     7
370
    35
100
AcDbSpline
210
0.0
220
0.0
230
1.0
 70
    12
 71
     3
 72
    26
 73
    22
 74
     0
 42
0.000000001
 43
0.0000001
 40
0.0
 40
0.0
 40
0.0
 40
0.0
 40
1.0
 40
1.0
 40
1.0
 40
2.0
 40
2.0
 40
2.0
 40
3.0
 40
3.0
 40
3.0
 40
4.0
 40
4.0
 40
4.0
 40
5.0
 40
5.0
 40
5.0
 40
6.0
 40
6.0
 40
6.0
 40
7.0
 40
7.0
 40
7.0
 40
7.0
 10
197.2873758423303
 20
141.65
 30
0.0
 41
1.0
 10
197.3439439911277
 20
141.9530163050377
 30
0.0
 41
1.0
 10
197.400512139925
 20
142.2560326100754
 30
0.0
 41
1.0
 10
197.4917594347448
 20
142.5499689730295
 30
0.0
 41
1.0
 10
197.5840966956829
 20
142.8474164611867
 30
0.0
 41
1.0
 10
197.7119465487832
 20
143.1355657884301
 30
0.0
 41
1.0
 10
197.8722728766114
 20
143.4028439289375
 30
0.0
 41
1.0
 10
198.2326726359644
 20
144.0036621402946
 30
0.0
 41
1.0
 10
198.6273676215433
 20
144.3463050282646
 30
0.0
 41
1.0
 10
198.8534000103935
 20
144.4581204424519
 30
0.0
 41
1.0
 10
198.9871391913396
 20
144.524279553483
 30
0.0
 41
1.0
 10
199.0793080673163
 20
144.5213309256233
 30
0.0
 41
1.0
 10
199.1164913722195
 20
144.5210071317687
 30
0.0
 41
1.0
 10
199.1687948413103
 20
144.5205516708593
 30
0.0
 41
1.0
 10
199.3639997367269
 20
144.536568977895
 30
0.0
 41
1.0
 10
199.6463911735214
 20
144.220896274936
 30
0.0
 41
1.0
 10
199.8966542598597
 20
143.9411384118364
 30
0.0
 41
1.0
 10
200.1059901564287
 20
143.6569359181119
 30
0.0
 41
1.0
 10
200.2642723587658
 20
143.3431826299221
 30
0.0
 41
1.0
 10
200.4656471443791
 20
142.9440095061481
 30
0.0
 41
1.0
 10
200.5843851880341
 20
142.4970047530741
 30
0.0
 41
1.0
 10
200.7031232316891
 20
142.05
 30
0.0
 41
1.0
  0
LINE
  5
1AB
330
1F
100
AcDbEntity
  8
1
  6
Continuous
 62
     7
370
    35
100
AcDbLine
 10
197.2873758423303
 20
141.65
 30
0.0
 11
197.2873758423303
 21
120.55
 31
0.0
  0
LINE
  5
1AC
330
1F
100
AcDbEntity
  8
1
  6
Continuous
 62
     7
370
    35
100
AcDbLine
 10
200.900804470984
 20
141.65
 30
0.0
 11
202.000804470984
 21
142.75
 31
0.0
  0
LINE
  5
1AD
330
1F
100
AcDbEntity
  8
1
  6
Continuous
 62
     7
370
    35
100
AcDbLine
 10
214.7873758423302
 20
141.936961590433
 30
0.0
 11
204.4873758423308
 21
142.05
 31
0.0
  0
LINE
  5
1AE
330
1F
100
AcDbEntity
  8
1
  6
Continuous
 62
     7
370
    35
100
AcDbLine
 10
215.2873758423302
 20
141.436961590433
 30
0.0
 11
215.2873758423302
 21
120.75
 31
0.0
  0
ARC
  5
1AF
330
1F
100
AcDbEntity
  8
1
  6
Continuous
 62
     7
370
    35
100
AcDbCircle
 10
214.7873758423302
 20
141.436961590433
 30
0.0
 40
0.5
100
AcDbArc
 50
0.0
 51
89.99999999999991
  0
LINE
  5
1B0
330
1F
100
AcDbEntity
  8
1
  6
Continuous
 62
     7
370
    35
100
AcDbLine
 10
204.4873758423304
 20
142.25
 30
0.0
 11
204.4873758423304
 21
140.55
 31
0.0
  0
ARC
  5
1B1
330
1F
100
AcDbEntity
  8
1
  6
Continuous
 62
     7
370
    35
100
AcDbCircle
 10
203.9873758423304
 20
142.25
 30
0.0
 40
0.5
100
AcDbArc
 50
0.0
 51
89.99999999999991
  0
LINE
  5
1B2
330
1F
100
AcDbEntity
  8
1
  6
Continuous
 62
     7
370
    35
100
AcDbLine
 10
204.4873758423304
 20
140.55
 30
0.0
 11
215.2873758423302
 21
140.55
 31
0.0
  0
ARC
  5
1B3
330
1F
100
AcDbEntity
  8
1
  6
Continuous
 62
     7
370
    35
100
AcDbCircle
 10
214.7873758423302
 20
120.75
 30
0.0
 40
0.5
100
AcDbArc
 50
269.9999999999998
 51
0.0
  0
LINE
  5
1B4
330
1F
100
AcDbEntity
  8
1
  6
Continuous
 62
     7
370
    35
100
AcDbLine
 10
201.204206974432
 20
120.25
 30
0.0
 11
214.7873758423302
 21
120.25
 31
0.0
  0
LINE
  5
1B5
330
1F
100
AcDbEntity
  8
1
  6
Continuous
 62
     7
370
    35
100
AcDbLine
 10
201.204206974432
 20
120.05
 30
0.0
 11
201.204206974432
 21
120.25
 31
0.0
  0
LINE
  5
1B6
330
1F
100
AcDbEntity
  8
1
  6
Continuous
 62
     7
370
    35
100
AcDbLine
 10
201.2873758423303
 20
137.85
 30
0.0
 11
201.2873758423303
 21
121.85
 31
0.0
  0
LINE
  5
1B7
330
1F
100
AcDbEntity
  8
1
  6
Continuous
 62
     7
370
    35
100
AcDbLine
 10
201.2873758423303
 20
137.85
 30
0.0
 11
199.7873758423303
 21
137.85
 31
0.0
  0
LINE
  5
1B8
330
1F
100
AcDbEntity
  8
1
  6
Continuous
 62
     7
370
    35
100
AcDbLine
 10
199.7873758423303
 20
137.85
 30
0.0
 11
199.7873758423303
 21
121.85
 31
0.0
  0
LINE
  5
1B9
330
1F
100
AcDbEntity
  8
1
  6
Continuous
 62
     7
370
    35
100
AcDbLine
 10
199.7873758423303
 20
121.85
 30
0.0
 11
201.2873758423303
 21
121.85
 31
0.0
  0
LINE
  5
1BA
330
1F
100
AcDbEntity
  8
1
  6
Continuous
 62
     7
370
    35
100
AcDbLine
 10
190.6018735040791
 20
128.5725041975323
 30
0.0
 11
194.0756593098891
 21
127.6
 31
0.0
  0
LINE
  5
1BB
330
1F
100
AcDbEntity
  8
1
  6
Continuous
 62
     7
370
    35
100
AcDbLine
 10
190.6507351902177
 20
127.3554163531748
 30
0.0
 11
194.0511674550753
 21
126.4
 31
0.0
  0
LINE
  5
1BC
330
1F
100
AcDbEntity
  8
1
  6
Continuous
 62
     7
370
    35
100
AcDbLine
 10
187.7415297615827
 20
128.7732238210617
 30
0.0
 11
194.0756593098891
 21
125.6
 31
0.0
  0
LINE
  5
1BD
330
1F
100
AcDbEntity
  8
1
  6
Continuous
 62
     7
370
    35
100
AcDbLine
 10
190.3372386100758
 20
126.2673143605297
 30
0.0
 11
194.0511674550753
 21
124.4
 31
0.0
  0
LINE
  5
1BE
330
1F
100
AcDbEntity
  8
1
  6
Continuous
 62
     7
370
    35
100
AcDbLine
 10
197.2873758423303
 20
125.6
 30
0.0
 11
194.0756593098891
 21
125.6
 31
0.0
  0
LINE
  5
1BF
330
1F
100
AcDbEntity
  8
1
  6
Continuous
 62
     7
370
    35
100
AcDbLine
 10
197.2873758423303
 20
124.4
 30
0.0
 11
194.0511674550753
 21
124.4
 31
0.0
  0
LINE
  5
1C0
330
1F
100
AcDbEntity
  8
1
  6
Continuous
 62
     7
370
    35
100
AcDbLine
 10
197.2873758423303
 20
127.6
 30
0.0
 11
194.0756593098891
 21
127.6
 31
0.0
  0
LINE
  5
1C1
330
1F
100
AcDbEntity
  8
1
  6
Continuous
 62
     7
370
    35
100
AcDbLine
 10
197.2873758423303
 20
126.4
 30
0.0
 11
194.0511674550753
 21
126.4
 31
0.0
  0
LINE
  5
1C2
330
1F
100
AcDbEntity
  8
1
  6
Continuous
 62
     7
370
    35
100
AcDbLine
 10
187.2888577230298
 20
130.0
 30
0.0
 11
194.0756593098891
 21
129.6
 31
0.0
  0
LINE
  5
1C3
330
1F
100
AcDbEntity
  8
1
  6
Continuous
 62
     7
370
    35
100
AcDbLine
 10
187.2888577230298
 20
128.8
 30
0.0
 11
194.0511674550753
 21
128.4
 31
0.0
  0
LINE
  5
1C4
330
1F
100
AcDbEntity
  8
1
  6
Continuous
 62
     7
370
    35
100
AcDbLine
 10
187.2888577230298
 20
128.8
 30
0.0
 11
185.8212054436498
 21
128.8
 31
0.0
  0
LINE
  5
1C5
330
1F
100
AcDbEntity
  8
1
  6
Continuous
 62
     7
370
    35
100
AcDbLine
 10
197.2873758423303
 20
129.6
 30
0.0
 11
194.0756593098891
 21
129.6
 31
0.0
  0
LINE
  5
1C6
330
1F
100
AcDbEntity
  8
1
  6
Continuous
 62
     7
370
    35
100
AcDbLine
 10
197.2873758423303
 20
128.4
 30
0.0
 11
194.0511674550753
 21
128.4
 31
0.0
  0
LINE
  5
1C7
330
1F
100
AcDbEntity
  8
1
  6
Continuous
 62
     7
370
    35
100
AcDbLine
 10
190.6018735040791
 20
131.4274958024677
 30
0.0
 11
194.0756593098891
 21
132.4
 31
0.0
  0
LINE
  5
1C8
330
1F
100
AcDbEntity
  8
1
  6
Continuous
 62
     7
370
    35
100
AcDbLine
 10
190.6507351902177
 20
132.6445836468252
 30
0.0
 11
194.0511674550753
 21
133.6
 31
0.0
  0
LINE
  5
1C9
330
1F
100
AcDbEntity
  8
1
  6
Continuous
 62
     7
370
    35
100
AcDbLine
 10
187.7415297615827
 20
131.2267761789383
 30
0.0
 11
194.0756593098891
 21
134.4
 31
0.0
  0
LINE
  5
1CA
330
1F
100
AcDbEntity
  8
1
  6
Continuous
 62
     7
370
    35
100
AcDbLine
 10
190.3372386100758
 20
133.7326856394703
 30
0.0
 11
194.0511674550753
 21
135.6
 31
0.0
  0
LINE
  5
1CB
330
1F
100
AcDbEntity
  8
1
  6
Continuous
 62
     7
370
    35
100
AcDbLine
 10
197.2873758423303
 20
134.4
 30
0.0
 11
194.0756593098891
 21
134.4
 31
0.0
  0
LINE
  5
1CC
330
1F
100
AcDbEntity
  8
1
  6
Continuous
 62
     7
370
    35
100
AcDbLine
 10
197.2873758423303
 20
135.6
 30
0.0
 11
194.0511674550753
 21
135.6
 31
0.0
  0
LINE
  5
1CD
330
1F
100
AcDbEntity
  8
1
  6
Continuous
 62
     7
370
    35
100
AcDbLine
 10
197.2873758423303
 20
132.4
 30
0.0
 11
194.0756593098891
 21
132.4
 31
0.0
  0
LINE
  5
1CE
330
1F
100
AcDbEntity
  8
1
  6
Continuous
 62
     7
370
    35
100
AcDbLine
 10
197.2873758423303
 20
133.6
 30
0.0
 11
194.0511674550753
 21
133.6
 31
0.0
  0
LINE
  5
1CF
330
1F
100
AcDbEntity
  8
1
  6
Continuous
 62
     7
370
    35
100
AcDbLine
 10
187.2888577230298
 20
130.0
 30
0.0
 11
194.0756593098891
 21
130.4
 31
0.0
  0
LINE
  5
1D0
330
1F
100
AcDbEntity
  8
1
  6
Continuous
 62
     7
370
    35
100
AcDbLine
 10
187.2888577230298
 20
131.2
 30
0.0
 11
194.0511674550753
 21
131.6
 31
0.0
  0
LINE
  5
1D1
330
1F
100
AcDbEntity
  8
1
  6
Continuous
 62
     7
370
    35
100
AcDbLine
 10
187.2888577230298
 20
131.2
 30
0.0
 11
185.8212054436498
 21
131.2
 31
0.0
  0
LINE
  5
1D2
330
1F
100
AcDbEntity
  8
1
  6
Continuous
 62
     7
370
    35
100
AcDbLine
 10
197.2873758423303
 20
130.4
 30
0.0
 11
194.0756593098891
 21
130.4
 31
0.0
  0
LINE
  5
1D3
330
1F
100
AcDbEntity
  8
1
  6
Continuous
 62
     7
370
    35
100
AcDbLine
 10
197.2873758423303
 20
131.6
 30
0.0
 11
194.0511674550753
 21
131.6
 31
0.0
  0
LINE
  5
1D4
330
1F
100
AcDbEntity
  8
1
  6
Continuous
 62
     7
370
    35
100
AcDbLine
 10
187.2888577230298
 20
128.4
 30
0.0
 11
194.0756593098891
 21
123.6
 31
0.0
  0
LINE
  5
1D5
330
1F
100
AcDbEntity
  8
1
  6
Continuous
 62
     7
370
    35
100
AcDbLine
 10
187.2888577230298
 20
127.2
 30
0.0
 11
194.0511674550753
 21
122.4
 31
0.0
  0
LINE
  5
1D6
330
1F
100
AcDbEntity
  8
1
  6
Continuous
 62
     7
370
    35
100
AcDbLine
 10
187.2888577230298
 20
128.4
 30
0.0
 11
185.8212054436498
 21
128.4
 31
0.0
  0
LINE
  5
1D7
330
1F
100
AcDbEntity
  8
1
  6
Continuous
 62
     7
370
    35
100
AcDbLine
 10
187.2888577230298
 20
127.2
 30
0.0
 11
185.8212054436498
 21
127.2
 31
0.0
  0
LINE
  5
1D8
330
1F
100
AcDbEntity
  8
1
  6
Continuous
 62
     7
370
    35
100
AcDbLine
 10
197.2873758423303
 20
123.6
 30
0.0
 11
194.0756593098891
 21
123.6
 31
0.0
  0
LINE
  5
1D9
330
1F
100
AcDbEntity
  8
1
  6
Continuous
 62
     7
370
    35
100
AcDbLine
 10
197.2873758423303
 20
122.4
 30
0.0
 11
194.0511674550753
 21
122.4
 31
0.0
  0
LINE
  5
1DA
330
1F
100
AcDbEntity
  8
1
  6
Continuous
 62
     7
370
    35
100
AcDbLine
 10
187.2888577230298
 20
131.6
 30
0.0
 11
194.0756593098891
 21
136.4
 31
0.0
  0
LINE
  5
1DB
330
1F
100
AcDbEntity
  8
1
  6
Continuous
 62
     7
370
    35
100
AcDbLine
 10
187.2888577230298
 20
132.8
 30
0.0
 11
194.0511674550753
 21
137.6
 31
0.0
  0
LINE
  5
1DC
330
1F
100
AcDbEntity
  8
1
  6
Continuous
 62
     7
370
    35
100
AcDbLine
 10
187.2888577230298
 20
131.6
 30
0.0
 11
185.8212054436498
 21
131.6
 31
0.0
  0
LINE
  5
1DD
330
1F
100
AcDbEntity
  8
1
  6
Continuous
 62
     7
370
    35
100
AcDbLine
 10
187.2888577230298
 20
132.8
 30
0.0
 11
185.8212054436498
 21
132.8
 31
0.0
  0
LINE
  5
1DE
330
1F
100
AcDbEntity
  8
1
  6
Continuous
 62
     7
370
    35
100
AcDbLine
 10
197.2873758423303
 20
136.4
 30
0.0
 11
194.0756593098891
 21
136.4
 31
0.0
  0
LINE
  5
1DF
330
1F
100
AcDbEntity
  8
1
  6
Continuous
 62
     7
370
    35
100
AcDbLine
 10
197.2873758423303
 20
137.6
 30
0.0
 11
194.0511674550753
 21
137.6
 31
0.0
  0
LINE
  5
1E0
330
1F
100
AcDbEntity
  8
1
  6
Continuous
 62
     7
370
    35
100
AcDbLine
 10
185.8212054436498
 20
133.5
 30
0.0
 11
185.8212054436498
 21
126.5
 31
0.0
  0
LINE
  5
1E1
330
1F
100
AcDbEntity
  8
1
  6
DASHDOT
 62
     7
370
     9
100
AcDbLine
 10
226.197280940479
 20
130.0
 30
0.0
 11
237.1918625271128
 21
130.0
 31
0.0
  0
LINE
  5
1E2
330
1F
100
AcDbEntity
  8
1
  6
Continuous
 62
     7
370
    35
100
AcDbLine
 10
228.8452272474428
 20
120.05
 30
0.0
 11
234.8452272474428
 21
120.05
 31
0.0
  0
LINE
  5
1E3
330
1F
100
AcDbEntity
  8
1
  6
DASHDOT
 62
     7
370
     9
100
AcDbLine
 10
231.8452272474428
 20
149.2308454943681
 30
0.0
 11
231.8452272474429
 21
116.2035844818729
 31
0.0
  0
LINE
  5
1E4
330
1F
100
AcDbEntity
  8
1
  6
Continuous
 62
     7
370
    35
100
AcDbLine
 10
187.2888577230298
 20
130.0
 30
0.0
 11
185.8212054436498
 21
130.0
 31
0.0
  0
LINE
  5
1E5
330
1F
100
AcDbEntity
  8
1
  6
DASHDOT
 62
     7
370
     9
100
AcDbLine
 10
195.981637979615
 20
125.0
 30
0.0
 11
216.1363668843039
 21
125.0
 31
0.0
  0
LINE
  5
1E6
330
1F
100
AcDbEntity
  8
1
  6
DASHDOT
 62
     7
370
     9
100
AcDbLine
 10
195.981637979615
 20
127.0
 30
0.0
 11
216.1363668843039
 21
127.0
 31
0.0
  0
LINE
  5
1E7
330
1F
100
AcDbEntity
  8
1
  6
DASHDOT
 62
     7
370
     9
100
AcDbLine
 10
195.981637979615
 20
129.0
 30
0.0
 11
216.1363668843039
 21
129.0
 31
0.0
  0
LINE
  5
1E8
330
1F
100
AcDbEntity
  8
1
  6
DASHDOT
 62
     7
370
     9
100
AcDbLine
 10
195.981637979615
 20
131.0
 30
0.0
 11
216.1363668843039
 21
131.0
 31
0.0
  0
LINE
  5
1E9
330
1F
100
AcDbEntity
  8
1
  6
DASHDOT
 62
     7
370
     9
100
AcDbLine
 10
195.981637979615
 20
133.0
 30
0.0
 11
216.1363668843039
 21
133.0
 31
0.0
  0
LINE
  5
1EA
330
1F
100
AcDbEntity
  8
1
  6
DASHDOT
 62
     7
370
     9
100
AcDbLine
 10
195.981637979615
 20
135.0
 30
0.0
 11
216.1363668843039
 21
135.0
 31
0.0
  0
LINE
  5
1EB
330
1F
100
AcDbEntity
  8
1
  6
DASHDOT
 62
     7
370
     9
100
AcDbLine
 10
196.0373801253694
 20
123.0
 30
0.0
 11
216.1788753761408
 21
123.0
 31
0.0
  0
LINE
  5
1EC
330
1F
100
AcDbEntity
  8
1
  6
DASHDOT
 62
     7
370
     9
100
AcDbLine
 10
195.981637979615
 20
137.0
 30
0.0
 11
216.1363668843039
 21
137.0
 31
0.0
  0
ARC
  5
1ED
330
1F
100
AcDbEntity
  8
1
  6
Continuous
 62
     7
370
    35
100
AcDbCircle
 10
197.7873758423303
 20
120.55
 30
0.0
 40
0.5
100
AcDbArc
 50
179.9999999999998
 51
269.9999999999998
  0
LINE
  5
1EE
330
1F
100
AcDbEntity
  8
1
  6
Continuous
 62
     7
370
    35
100
AcDbLine
 10
201.204206974432
 20
120.05
 30
0.0
 11
197.7873758423303
 21
120.05
 31
0.0
  0
LINE
  5
1EF
330
1F
100
AcDbEntity
  8
1
  6
Continuous
 62
     7
370
    35
100
AcDbLine
 10
154.2725888574491
 20
133.4999999999999
 30
0.0
 11
131.8215180147066
 21
133.4999999999999
 31
0.0
  0
LINE
  5
1F0
330
1F
100
AcDbEntity
  8
1
  6
Continuous
 62
     7
370
    35
100
AcDbLine
 10
131.8215180147066
 20
126.5
 30
0.0
 11
151.8392555241157
 21
126.5
 31
0.0
  0
LINE
  5
1F1
330
1F
100
AcDbEntity
  8
1
  6
Continuous
 62
     7
370
    35
100
AcDbLine
 10
185.8212054436498
 20
126.5
 30
0.0
 11
153.9563003160762
 21
126.5000000000002
 31
0.0
  0
LINE
  5
1F2
330
1F
100
AcDbEntity
  8
1
  6
Continuous
 62
     7
370
    35
100
AcDbLine
 10
156.3896336494094
 20
133.5
 30
0.0
 11
185.8212054436498
 21
133.5
 31
0.0
  0
LINE
  5
1F3
330
1F
100
AcDbEntity
  8
1
  6
DASHDOT
 62
     7
370
     9
100
AcDbLine
 10
155.1729669827428
 20
130.0
 30
0.0
 11
219.1337913604574
 21
130.0
 31
0.0
  0
LINE
  5
1F4
330
1F
100
AcDbEntity
  8
1
  6
Continuous
 62
     7
370
     9
100
AcDbLine
 10
157.2008899997292
 20
136.0837690509593
 30
0.0
 11
153.2490730547365
 21
124.2283182159812
 31
0.0
  0
LINE
  5
1F5
330
1F
100
AcDbEntity
  8
1
  6
Continuous
 62
     7
370
     9
100
AcDbLine
 10
155.0838452077689
 20
136.0837690509593
 30
0.0
 11
151.1320282627761
 21
124.2283182159812
 31
0.0
  0
DIMENSION
  5
1FF
330
1F
100
AcDbEntity
  8
2
  6
Continuous
 62
   134
370
     9
100
AcDbDimension
280
     0
  2
Dim7
 10
197.2873758423303
 20
151.4808467741927
 30
0.0
 11
160.2736986241427
 21
151.4808467741927
 31
0.0
 70
   160
  1
ｹｰﾌﾞﾙ長（標準2m）
 71
     8
 42
-1.0
 73
     0
 74
     0
 75
     0
  3
Standard
100
AcDbAlignedDimension
 13
131.8215180147066
 23
134.85
 33
0.0
 14
197.2873758423303
 24
141.65
 34
0.0
100
AcDbRotatedDimension
1001
ACAD
1000
DSTYLE
1002
{
1070
   279
1070
     1
1070
   340
1005
115
1070
   140
1040
4.0
1070
    40
1040
1.0
1070
   147
1040
0.0
1070
    76
1070
     0
1070
    75
1070
     0
1070
   344
1005
0
1070
   343
1005
0
1070
   173
1070
     1
1070
   289
1070
     2
1070
   288
1070
     1
1070
    77
1070
     1
1070
   172
1070
     1
1070
   174
1070
     0
1070
    74
1070
     0
1070
    73
1070
     0
1070
   284
1070
     8
1070
    78
1070
     8
1070
    42
1040
2.0
1070
    44
1040
2.0
1070
    43
1040
10.0
1070
   271
1070
     2
1070
    41
1040
2.0
1002
}
  0
DIMENSION
  5
207
330
1F
100
AcDbEntity
  8
2
  6
Continuous
 62
   134
370
     9
100
AcDbDimension
280
     0
  2
Dim8
 10
177.4820912272721
 20
133.4999999999999
 30
0.0
 11
177.4820912272721
 21
139.7120276911926
 31
0.0
 70
   160
  1
φ<>
 71
     8
 42
-1.0
 73
     0
 74
     0
 75
     0
  3
Standard
100
AcDbAlignedDimension
 13
177.4820912272721
 23
126.5000000000001
 33
0.0
 14
177.482091227272
 24
133.4999999999999
 34
0.0
 50
89.99999999999991
100
AcDbRotatedDimension
1001
ACAD
1000
DSTYLE
1002
{
1070
   279
1070
     1
1070
   340
1005
115
1070
   140
1040
4.0
1070
    40
1040
1.0
1070
   147
1040
0.0
1070
    76
1070
     1
1070
    75
1070
     1
1070
   344
1005
0
1070
   343
1005
0
1070
   173
1070
     1
1070
   289
1070
     2
1070
   288
1070
     1
1070
    77
1070
     1
1070
   172
1070
     1
1070
   174
1070
     0
1070
    74
1070
     0
1070
    73
1070
     0
1070
   284
1070
     8
1070
    78
1070
     8
1070
    42
1040
1.0
1070
    44
1040
1.0
1070
    43
1040
10.0
1070
   271
1070
     2
1070
    41
1040
2.0
1002
}
  0
INSERT
  5
208
330
1F
100
AcDbEntity
  8
2
  6
Continuous
 62
   134
370
     9
100
AcDbBlockReference
  2
_ARROWFILLED
 10
138.68470189778
 20
126.3499999999999
 30
0.0
 41
2.0
 42
2.0
 43
2.0
 50
124.1343677099192
  0
POLYLINE
  5
209
330
1F
100
AcDbEntity
  8
2
  6
Continuous
 62
   134
370
     9
100
AcDb2dPolyline
 66
     1
 10
0.0
 20
0.0
 30
0.0
  0
VERTEX
  5
20A
330
209
100
AcDbEntity
  8
2
  6
Continuous
 62
   134
370
     9
100
AcDbVertex
100
AcDb2dVertex
 10
138.68470189778
 20
126.3499999999999
 30
0.0
  0
VERTEX
  5
20B
330
209
100
AcDbEntity
  8
2
  6
Continuous
 62
   134
370
     9
100
AcDbVertex
100
AcDb2dVertex
 10
145.9914774321919
 20
115.5718692851796
 30
0.0
  0
VERTEX
  5
20C
330
209
100
AcDbEntity
  8
2
  6
Continuous
 62
   134
370
     9
100
AcDbVertex
100
AcDb2dVertex
 10
169.4738856368122
 20
115.5718692851796
 30
0.0
  0
SEQEND
  5
20D
330
209
100
AcDbEntity
  8
2
  6
Continuous
 62
   134
370
     9
  0
MTEXT
  5
20E
330
1F
100
AcDbEntity
  8
2
  6
Continuous
 62
   134
370
     9
100
AcDbMText
 10
147.4738856368122
 20
115.5718692851796
 30
0.0
 40
4.0
 41
33.61053825473473
 46
4.0
 71
     7
 72
     1
  1
{\fＭＳ 明朝|i1;\W0.714286;　接続ｹｰﾌﾞﾙ}
 73
     1
 44
1.0
1001
ACAD
1000
ACAD_MTEXT_DEFINED_HEIGHT_BEGIN
1070
    46
1040
4.0
1000
ACAD_MTEXT_DEFINED_HEIGHT_END
  0
LINE
  5
20F
330
1F
100
AcDbEntity
  8
2
  6
Continuous
 62
   134
370
     9
100
AcDbLine
 10
199.1986852713871
 20
144.5230919561239
 30
0.0
 11
218.8383435651213
 21
144.5230919561239
 31
0.0
  0
MTEXT
  5
210
330
1F
100
AcDbEntity
  8
2
  6
Continuous
 62
   134
370
     9
100
AcDbMText
 10
216.5794765878266
 20
135.3672494165392
 30
0.0
 40
4.0
 41
1.693522770930931
 46
4.0
 71
     7
 72
     1
  1
{\fＭＳ 明朝;\W0.714286;1}
 73
     1
 44
1.0
1001
ACAD
1000
ACAD_MTEXT_DEFINED_HEIGHT_BEGIN
1070
    46
1040
4.0
1000
ACAD_MTEXT_DEFINED_HEIGHT_END
  0
MTEXT
  5
211
330
1F
100
AcDbEntity
  8
2
  6
Continuous
 62
   134
370
     9
100
AcDbMText
 10
216.6304843183724
 20
120.9651112672472
 30
0.0
 40
4.0
 41
2.363621709069069
 46
4.0
 71
     7
 72
     1
  1
{\fＭＳ 明朝;\W0.714286;8}
 73
     1
 44
1.0
1001
ACAD
1000
ACAD_MTEXT_DEFINED_HEIGHT_BEGIN
1070
    46
1040
4.0
1000
ACAD_MTEXT_DEFINED_HEIGHT_END
  0
DIMENSION
  5
21B
330
1F
100
AcDbEntity
  8
2
  6
Continuous
 62
   134
370
     9
100
AcDbDimension
280
     0
  2
Dim9
 10
224.0437581353414
 20
144.5230919561239
 30
0.0
 11
224.0437581353414
 21
131.0187291834108
 31
0.0
 70
   160
  1
<>
 71
     8
 42
-1.0
 73
     0
 74
     0
 75
     0
  3
Standard
100
AcDbAlignedDimension
 13
201.204206974432
 23
120.05
 33
0.0
 14
218.8383435651213
 24
144.5230919561239
 34
0.0
 50
89.99999999999991
100
AcDbRotatedDimension
1001
ACAD
1000
DSTYLE
1002
{
1070
   279
1070
     1
1070
   340
1005
115
1070
   140
1040
4.0
1070
    40
1040
1.0
1070
   147
1040
0.0
1070
    76
1070
     0
1070
    75
1070
     0
1070
   344
1005
0
1070
   343
1005
0
1070
   173
1070
     1
1070
   289
1070
     2
1070
   288
1070
     1
1070
    77
1070
     1
1070
   172
1070
     1
1070
   174
1070
     0
1070
    74
1070
     0
1070
    73
1070
     0
1070
   284
1070
     8
1070
    78
1070
     8
1070
    42
1040
1.0
1070
    44
1040
1.0
1070
    43
1040
10.0
1070
   271
1070
     2
1070
    41
1040
2.0
1002
}
  0
DIMENSION
  5
225
330
1F
100
AcDbEntity
  8
2
  6
Continuous
 62
   134
370
     9
100
AcDbDimension
280
     0
  2
Dim10
 10
215.2873758423303
 20
151.4597645082042
 30
0.0
 11
205.5376284339162
 21
151.4597645082042
 31
0.0
 70
   160
  1
<>
 71
     8
 42
-1.0
 73
     0
 74
     0
 75
     0
  3
Standard
100
AcDbAlignedDimension
 13
197.2873758423303
 23
141.65
 33
0.0
 14
215.2873758423302
 24
141.436961590433
 34
0.0
100
AcDbRotatedDimension
1001
ACAD
1000
DSTYLE
1002
{
1070
   279
1070
     1
1070
   340
1005
115
1070
   140
1040
4.0
1070
    40
1040
1.0
1070
   147
1040
0.0
1070
    76
1070
     0
1070
    75
1070
     0
1070
   344
1005
0
1070
   343
1005
0
1070
   173
1070
     1
1070
   289
1070
     2
1070
   288
1070
     1
1070
    77
1070
     1
1070
   172
1070
     1
1070
   174
1070
     0
1070
    74
1070
     0
1070
    73
1070
     0
1070
   284
1070
     8
1070
    78
1070
     8
1070
    42
1040
1.0
1070
    44
1040
1.0
1070
    43
1040
10.0
1070
   271
1070
     2
1070
    41
1040
2.0
1002
}
  0
DIMENSION
  5
22F
330
1F
100
AcDbEntity
  8
2
  6
Continuous
 62
   134
370
     9
100
AcDbDimension
280
     0
  2
Dim11
 10
234.8452272474428
 20
151.4597645082042
 30
0.0
 11
231.8452272474428
 21
151.4597645082042
 31
0.0
 70
   160
  1
<>
 71
     8
 42
-1.0
 73
     0
 74
     0
 75
     0
  3
Standard
100
AcDbAlignedDimension
 13
228.8452272474428
 23
142.75
 33
0.0
 14
234.8452272474428
 24
142.75
 34
0.0
100
AcDbRotatedDimension
1001
ACAD
1000
DSTYLE
1002
{
1070
   279
1070
     1
1070
   340
1005
115
1070
   140
1040
4.0
1070
    40
1040
1.0
1070
   147
1040
0.0
1070
    76
1070
     0
1070
    75
1070
     0
1070
   344
1005
0
1070
   343
1005
0
1070
   173
1070
     1
1070
   289
1070
     2
1070
   288
1070
     1
1070
    77
1070
     1
1070
   172
1070
     1
1070
   174
1070
     0
1070
    74
1070
     0
1070
    73
1070
     0
1070
   284
1070
     8
1070
    78
1070
     8
1070
    42
1040
2.0
1070
    44
1040
2.0
1070
    43
1040
10.0
1070
   271
1070
     2
1070
    41
1040
2.0
1002
}
  0
LINE
  5
230
330
1F
100
AcDbEntity
  8
1
  6
Continuous
 62
     7
370
    35
100
AcDbLine
 10
114.8215180147066
 20
136.3508529610858
 30
0.0
 11
114.8215180147066
 21
123.649147038914
 31
0.0
  0
LINE
  5
231
330
1F
100
AcDbEntity
  8
1
  6
Continuous
 62
     7
370
    35
100
AcDbLine
 10
114.5215180147066
 20
145.0
 30
0.0
 11
114.8215180147066
 21
144.7
 31
0.0
  0
LINE
  5
232
330
1F
100
AcDbEntity
  8
1
  6
Continuous
 62
     7
370
    35
100
AcDbLine
 10
114.8215180147066
 20
115.3
 30
0.0
 11
114.8215180147066
 21
144.7
 31
0.0
  0
LINE
  5
233
330
1F
100
AcDbEntity
  8
1
  6
Continuous
 62
     7
370
    35
100
AcDbLine
 10
114.8215180147066
 20
115.3
 30
0.0
 11
114.5215180147066
 21
115.0
 31
0.0
  0
DIMENSION
  5
23D
330
1F
100
AcDbEntity
  8
2
  6
Continuous
 62
   134
370
     9
100
AcDbDimension
280
     0
  2
Dim12
 10
131.8215180147066
 20
160.0
 30
0.0
 11
123.3215180147066
 21
160.0
 31
0.0
 70
   160
  1
<>
 71
     8
 42
-1.0
 73
     0
 74
     0
 75
     0
  3
Standard
100
AcDbAlignedDimension
 13
114.8215180147066
 23
144.7
 33
0.0
 14
131.8215180147066
 24
134.85
 34
0.0
100
AcDbRotatedDimension
1001
ACAD
1000
DSTYLE
1002
{
1070
   279
1070
     1
1070
   340
1005
115
1070
   140
1040
4.0
1070
    40
1040
1.0
1070
   147
1040
0.0
1070
    76
1070
     0
1070
    75
1070
     0
1070
   344
1005
0
1070
   343
1005
0
1070
   173
1070
     1
1070
   289
1070
     2
1070
   288
1070
     1
1070
    77
1070
     1
1070
   172
1070
     1
1070
   174
1070
     0
1070
    74
1070
     0
1070
    73
1070
     0
1070
   284
1070
     8
1070
    78
1070
     8
1070
    42
1040
2.0
1070
    44
1040
2.0
1070
    43
1040
10.0
1070
   271
1070
     2
1070
    41
1040
2.0
1002
}
  0
LINE
  5
23E
330
1F
100
AcDbEntity
  8
1
  6
DASHDOT
 62
     7
370
     9
100
AcDbLine
 10
93.16539327926478
 20
130.0
 30
0.0
 11
135.2607093063538
 21
130.0
 31
0.0
  0
LINE
  5
23F
330
1F
100
AcDbEntity
  8
1
  6
DASHDOT
 62
     7
370
     9
100
AcDbLine
 10
71.90780615773735
 20
130.0
 30
0.0
 11
117.2242242423641
 21
130.0
 31
0.0
  0
CIRCLE
  5
240
330
1F
100
AcDbEntity
  8
1
  6
DASHDOT
 62
     7
370
    35
100
AcDbCircle
 10
70.32151801470667
 20
119.9999999339475
 30
0.0
 40
3.0
  0
CIRCLE
  5
241
330
1F
100
AcDbEntity
  8
1
  6
DASHDOT
 62
     7
370
    35
100
AcDbCircle
 10
70.32151801470667
 20
139.9999999339475
 30
0.0
 40
3.0
  0
LINE
  5
242
330
1F
100
AcDbEntity
  8
1
  6
Continuous
 62
     7
370
    35
100
AcDbLine
 10
75.82151801470661
 20
145.0
 30
0.0
 11
75.82151801470661
 21
115.0
 31
0.0
  0
LINE
  5
243
330
1F
100
AcDbEntity
  8
1
  6
Continuous
 62
     7
370
    35
100
AcDbLine
 10
75.82151801470661
 20
145.0
 30
0.0
 11
114.5215180147066
 21
145.0
 31
0.0
  0
LINE
  5
244
330
1F
100
AcDbEntity
  8
1
  6
Continuous
 62
     7
370
    35
100
AcDbLine
 10
75.82151801470661
 20
115.0
 30
0.0
 11
114.5215180147066
 21
115.0
 31
0.0
  0
CIRCLE
  5
245
330
1F
100
AcDbEntity
  8
1
  6
Continuous
 62
     7
370
    35
100
AcDbCircle
 10
70.32151801470667
 20
139.9999999339475
 30
0.0
 40
1.75
  0
CIRCLE
  5
246
330
1F
100
AcDbEntity
  8
1
  6
Continuous
 62
     7
370
    35
100
AcDbCircle
 10
70.32151801470667
 20
119.9999999339475
 30
0.0
 40
1.75
  0
CIRCLE
  5
247
330
1F
100
AcDbEntity
  8
1
  6
Continuous
 62
     7
370
    35
100
AcDbCircle
 10
70.32151801470667
 20
139.9999999339475
 30
0.0
 40
1.75
  0
LINE
  5
248
330
1F
100
AcDbEntity
  8
1
  6
Continuous
 62
     7
370
    35
100
AcDbLine
 10
66.32151801470667
 20
118.9999999339475
 30
0.0
 11
66.32151801470667
 21
140.9999999339475
 31
0.0
  0
LINE
  5
249
330
1F
100
AcDbEntity
  8
1
  6
Continuous
 62
     7
370
    35
100
AcDbLine
 10
75.82151801470661
 20
114.9999999339475
 30
0.0
 11
70.32151763494619
 21
114.9999999339475
 31
0.0
  0
ARC
  5
24A
330
1F
100
AcDbEntity
  8
1
  6
Continuous
 62
     7
370
    35
100
AcDbCircle
 10
70.32151801470667
 20
118.9999999339475
 30
0.0
 40
4.0
100
AcDbArc
 50
179.9999999999998
 51
269.9999945603315
  0
LINE
  5
24B
330
1F
100
AcDbEntity
  8
1
  6
Continuous
 62
     7
370
    35
100
AcDbLine
 10
75.82151801470661
 20
144.9999999339475
 30
0.0
 11
70.32151801470667
 21
144.9999999339475
 31
0.0
  0
ARC
  5
24C
330
1F
100
AcDbEntity
  8
1
  6
Continuous
 62
     7
370
    35
100
AcDbCircle
 10
70.32151801470667
 20
140.9999999339475
 30
0.0
 40
4.0
100
AcDbArc
 50
89.99999999999991
 51
179.9999999999998
  0
LINE
  5
24D
330
1F
100
AcDbEntity
  8
1
  6
DASHDOT
 62
     7
370
     9
100
AcDbLine
 10
67.682279372283
 20
139.9999999339475
 30
0.0
 11
72.98455533245374
 21
139.9999999339475
 31
0.0
  0
LINE
  5
24E
330
1F
100
AcDbEntity
  8
1
  6
DASHDOT
 62
     7
370
     9
100
AcDbLine
 10
70.32151801470667
 20
137.763824613891
 30
0.0
 11
70.32151801470667
 21
142.7207058372196
 31
0.0
  0
LINE
  5
24F
330
1F
100
AcDbEntity
  8
1
  6
DASHDOT
 62
     7
370
     9
100
AcDbLine
 10
67.47224203231144
 20
139.9999999339475
 30
0.0
 11
72.98455533245374
 21
139.9999999339475
 31
0.0
  0
LINE
  5
250
330
1F
100
AcDbEntity
  8
1
  6
DASHDOT
 62
     7
370
     9
100
AcDbLine
 10
67.7522918189402
 20
119.9999999339475
 30
0.0
 11
73.24126763686343
 21
119.9999999339475
 31
0.0
  0
LINE
  5
251
330
1F
100
AcDbEntity
  8
1
  6
DASHDOT
 62
     7
370
     9
100
AcDbLine
 10
70.32151801470667
 20
117.4022921285871
 30
0.0
 11
70.32151801470667
 21
122.197723973777
 31
0.0
  0
LINE
  5
252
330
1F
100
AcDbEntity
  8
1
  6
Continuous
 62
     7
370
    35
100
AcDbLine
 10
75.82151801470661
 20
143.4013421918885
 30
0.0
 11
75.82151801470661
 21
144.9999999339475
 31
0.0
  0
LINE
  5
253
330
1F
100
AcDbEntity
  8
1
  6
Continuous
 62
     7
370
    35
100
AcDbLine
 10
75.82151801470661
 20
114.9999999339475
 30
0.0
 11
75.82151801470661
 21
117.0999999519445
 31
0.0
  0
LINE
  5
254
330
1F
100
AcDbEntity
  8
1
  6
Continuous
 62
     7
370
    35
100
AcDbLine
 10
75.82151801470661
 20
117.0999999519449
 30
0.0
 11
75.82151801470661
 21
140.5000007596036
 31
0.0
  0
LINE
  5
255
330
1F
100
AcDbEntity
  8
1
  6
Continuous
 62
     7
370
    35
100
AcDbLine
 10
75.82151801470661
 20
143.4013421918885
 30
0.0
 11
75.82151801470661
 21
117.0999999519447
 31
0.0
  0
LINE
  5
256
330
1F
100
AcDbEntity
  8
1
  6
Continuous
 62
     7
370
    35
100
AcDbLine
 10
75.82076160413868
 20
133.1999999814367
 30
0.0
 11
75.82076160413868
 21
133.5000000010889
 31
0.0
  0
LINE
  5
257
330
1F
100
AcDbEntity
  8
1
  6
Continuous
 62
     7
370
    35
100
AcDbLine
 10
75.82076160413868
 20
126.7999999919703
 30
0.0
 11
75.82076160413868
 21
126.4999999723185
 31
0.0
  0
LINE
  5
258
330
1F
100
AcDbEntity
  8
1
  6
Continuous
 62
     7
370
    35
100
AcDbLine
 10
75.82076160413868
 20
126.7999999919703
 30
0.0
 11
75.82076160413868
 21
130.0
 31
0.0
  0
LINE
  5
259
330
1F
100
AcDbEntity
  8
1
  6
Continuous
 62
     7
370
    35
100
AcDbLine
 10
66.32069316472547
 20
136.4999999536747
 30
0.0
 11
66.32058374704638
 21
138.5000000152771
 31
0.0
  0
LINE
  5
25A
330
1F
100
AcDbEntity
  8
1
  6
Continuous
 62
     7
370
    35
100
AcDbLine
 10
66.32104877390793
 20
130.0000316113729
 30
0.0
 11
66.32058374704701
 21
121.5000000137806
 31
0.0
  0
MTEXT
  5
25B
330
1F
100
AcDbEntity
  8
2
  6
Continuous
 62
   134
370
     9
100
AcDbMText
 10
91.55463745771306
 20
100.0
 30
0.0
 40
4.0
 41
62.6684649358158
 46
4.0
 71
     1
 72
     1
  1
{\fＭＳ 明朝|i1;\W0.714286;2-φ3.5ザグリφ6深さ3}
 73
     1
 44
1.0
1001
ACAD
1000
ACAD_MTEXT_DEFINED_HEIGHT_BEGIN
1070
    46
1040
4.0
1000
ACAD_MTEXT_DEFINED_HEIGHT_END
  0
DIMENSION
  5
265
330
1F
100
AcDbEntity
  8
2
  6
Continuous
 62
   134
370
     9
100
AcDbDimension
280
     0
  2
Dim13
 10
114.8215180147066
 20
160.0
 30
0.0
 11
90.57151801470667
 21
160.0
 31
0.0
 70
   160
  1
<>
 71
     8
 42
-1.0
 73
     0
 74
     0
 75
     0
  3
Standard
100
AcDbAlignedDimension
 13
66.32151801470667
 23
140.7192540322579
 33
0.0
 14
114.8215180147066
 24
144.7
 34
0.0
100
AcDbRotatedDimension
1001
ACAD
1000
DSTYLE
1002
{
1070
   279
1070
     1
1070
   340
1005
115
1070
   140
1040
4.0
1070
    40
1040
1.0
1070
   147
1040
0.0
1070
    76
1070
     0
1070
    75
1070
     0
1070
   344
1005
0
1070
   343
1005
0
1070
   173
1070
     1
1070
   289
1070
     2
1070
   288
1070
     1
1070
    77
1070
     1
1070
   172
1070
     1
1070
   174
1070
     0
1070
    74
1070
     0
1070
    73
1070
     0
1070
   284
1070
     8
1070
    78
1070
     8
1070
    42
1040
2.0
1070
    44
1040
2.0
1070
    43
1040
10.0
1070
   271
1070
     2
1070
    41
1040
2.0
1002
}
  0
DIMENSION
  5
26F
330
1F
100
AcDbEntity
  8
2
  6
Continuous
 62
   134
370
     9
100
AcDbDimension
280
     0
  2
Dim14
 10
88.19173423190671
 20
119.9999999339475
 30
0.0
 11
88.19173423190671
 21
133.5000000010889
 31
0.0
 70
   160
  1
<>
 71
     8
 42
-1.0
 73
     0
 74
     0
 75
     0
 53
89.9999999999999
  3
Standard
100
AcDbAlignedDimension
 13
72.98455533245374
 23
139.9999999339475
 33
0.0
 14
73.24126763686343
 24
119.9999999339475
 34
0.0
 50
-89.99999999999991
100
AcDbRotatedDimension
1001
ACAD
1000
DSTYLE
1002
{
1070
   279
1070
     1
1070
   340
1005
115
1070
   140
1040
4.0
1070
    40
1040
1.0
1070
   147
1040
0.0
1070
    76
1070
     0
1070
    75
1070
     0
1070
   344
1005
0
1070
   343
1005
0
1070
   173
1070
     1
1070
   289
1070
     2
1070
   288
1070
     1
1070
    77
1070
     1
1070
   172
1070
     1
1070
   174
1070
     0
1070
    74
1070
     0
1070
    73
1070
     0
1070
   284
1070
     8
1070
    78
1070
     8
1070
    42
1040
2.0
1070
    44
1040
2.0
1070
    43
1040
10.0
1070
   271
1070
     2
1070
    41
1040
2.0
1002
}
  0
DIMENSION
  5
279
330
1F
100
AcDbEntity
  8
2
  6
Continuous
 62
   134
370
     9
100
AcDbDimension
280
     0
  2
Dim15
 10
70.32151801470667
 20
150.2832661290321
 30
0.0
 11
68.25336966728483
 21
150.2832661290321
 31
0.0
 70
   160
  1
<>
 71
     8
 42
-1.0
 73
     0
 74
     0
 75
     0
  3
Standard
100
AcDbAlignedDimension
 13
66.32151801470667
 23
140.9999999339475
 33
0.0
 14
70.32151801470667
 24
142.7207058372196
 34
0.0
100
AcDbRotatedDimension
1001
ACAD
1000
DSTYLE
1002
{
1070
   279
1070
     1
1070
   340
1005
115
1070
   140
1040
4.0
1070
    40
1040
1.0
1070
   147
1040
0.0
1070
    76
1070
     0
1070
    75
1070
     0
1070
   344
1005
0
1070
   343
1005
0
1070
   173
1070
     1
1070
   289
1070
     2
1070
   288
1070
     1
1070
    77
1070
     1
1070
   172
1070
     1
1070
   174
1070
     0
1070
    74
1070
     0
1070
    73
1070
     0
1070
   284
1070
     8
1070
    78
1070
     8
1070
    42
1040
2.0
1070
    44
1040
2.0
1070
    43
1040
10.0
1070
   271
1070
     2
1070
    41
1040
2.0
1002
}
  0
INSERT
  5
27A
330
1F
100
AcDbEntity
  8
2
  6
Continuous
 62
   134
370
     9
100
AcDbBlockReference
  2
_ARROWFILLED
 10
72.48280585541943
 20
117.9194147110866
 30
0.0
 41
2.0
 42
2.0
 43
2.0
 50
133.6124118047243
  0
POLYLINE
  5
27B
330
1F
100
AcDbEntity
  8
2
  6
Continuous
 62
   134
370
     9
100
AcDb2dPolyline
 66
     1
 10
0.0
 20
0.0
 30
0.0
  0
VERTEX
  5
27C
330
27B
100
AcDbEntity
  8
2
  6
Continuous
 62
   134
370
     9
100
AcDbVertex
100
AcDb2dVertex
 10
72.48280585541943
 20
117.9194147110866
 30
0.0
  0
VERTEX
  5
27D
330
27B
100
AcDbEntity
  8
2
  6
Continuous
 62
   134
370
     9
100
AcDbVertex
100
AcDb2dVertex
 10
89.55463745771306
 20
100.0
 30
0.0
  0
VERTEX
  5
27E
330
27B
100
AcDbEntity
  8
2
  6
Continuous
 62
   134
370
     9
100
AcDbVertex
100
AcDb2dVertex
 10
107.5546374577131
 20
100.0
 30
0.0
  0
SEQEND
  5
27F
330
27B
100
AcDbEntity
  8
2
  6
Continuous
 62
   134
370
     9
  0
MTEXT
  5
280
330
1F
100
AcDbEntity
  8
2
  6
Continuous
 62
   134
370
     9
100
AcDbMText
 10
91.55463745771306
 20
100.0
 30
0.0
 40
4.0
 41
24.59060042682682
 46
4.0
 71
     7
 72
     1
  1
{\fＭＳ 明朝|i1;\W0.714286;　取付穴}
 73
     1
 44
1.0
1001
ACAD
1000
ACAD_MTEXT_DEFINED_HEIGHT_BEGIN
1070
    46
1040
4.0
1000
ACAD_MTEXT_DEFINED_HEIGHT_END
  0
LINE
  5
281
330
1F
100
AcDbEntity
  8
1
  6
Continuous
 62
     7
370
    35
100
AcDbLine
 10
131.8215180147066
 20
134.85
 30
0.0
 11
131.8215180147066
 21
125.15
 31
0.0
  0
LINE
  5
282
330
1F
100
AcDbEntity
  8
1
  6
Continuous
 62
     7
370
    35
100
AcDbLine
 10
117.8215180147067
 20
136.3508529610858
 30
0.0
 11
117.8215180147067
 21
123.649147038914
 31
0.0
  0
LINE
  5
283
330
1F
100
AcDbEntity
  8
1
  6
Continuous
 62
     7
370
    35
100
AcDbLine
 10
117.8215180147067
 20
138.8
 30
0.0
 11
117.8215180147067
 21
121.2
 31
0.0
  0
LINE
  5
284
330
1F
100
AcDbEntity
  8
1
  6
Continuous
 62
     7
370
    35
100
AcDbLine
 10
122.8215180147067
 20
138.8
 30
0.0
 11
122.8215180147067
 21
121.2
 31
0.0
  0
LINE
  5
285
330
1F
100
AcDbEntity
  8
1
  6
Continuous
 62
     7
370
    35
100
AcDbLine
 10
125.8215180147067
 20
121.2
 30
0.0
 11
125.8215180147067
 21
138.8
 31
0.0
  0
LINE
  5
286
330
1F
100
AcDbEntity
  8
1
  6
Continuous
 62
     7
370
    35
100
AcDbLine
 10
117.8215180147067
 20
136.0
 30
0.0
 11
119.8215180147067
 21
136.0
 31
0.0
  0
LINE
  5
287
330
1F
100
AcDbEntity
  8
1
  6
Continuous
 62
     7
370
    35
100
AcDbLine
 10
117.8215180147067
 20
124.0
 30
0.0
 11
119.8215180147066
 21
124.0
 31
0.0
  0
LINE
  5
288
330
1F
100
AcDbEntity
  8
1
  6
Continuous
 62
     7
370
    35
100
AcDbLine
 10
117.8215180147067
 20
138.8
 30
0.0
 11
114.8215180147066
 21
138.8
 31
0.0
  0
LINE
  5
289
330
1F
100
AcDbEntity
  8
1
  6
Continuous
 62
     7
370
    35
100
AcDbLine
 10
114.8215180147066
 20
121.2
 30
0.0
 11
117.8215180147067
 21
121.2
 31
0.0
  0
LINE
  5
28A
330
1F
100
AcDbEntity
  8
1
  6
Continuous
 62
     7
370
    35
100
AcDbLine
 10
122.8215180147067
 20
135.056406460551
 30
0.0
 11
125.8215180147067
 21
135.056406460551
 31
0.0
  0
LINE
  5
28B
330
1F
100
AcDbEntity
  8
1
  6
Continuous
 62
     7
370
    35
100
AcDbLine
 10
122.8215180147067
 20
133.7435935394491
 30
0.0
 11
125.8215180147067
 21
133.7435935394491
 31
0.0
  0
LINE
  5
28C
330
1F
100
AcDbEntity
  8
1
  6
Continuous
 62
     7
370
    35
100
AcDbLine
 10
122.8215180147067
 20
126.256406460551
 30
0.0
 11
125.8215180147067
 21
126.256406460551
 31
0.0
  0
LINE
  5
28D
330
1F
100
AcDbEntity
  8
1
  6
Continuous
 62
     7
370
    35
100
AcDbLine
 10
122.8215180147067
 20
124.943593539449
 30
0.0
 11
125.8215180147067
 21
124.943593539449
 31
0.0
  0
LINE
  5
28E
330
1F
100
AcDbEntity
  8
1
  6
Continuous
 62
     7
370
    35
100
AcDbLine
 10
114.8215180147066
 20
135.056406460551
 30
0.0
 11
117.8215180147067
 21
135.056406460551
 31
0.0
  0
LINE
  5
28F
330
1F
100
AcDbEntity
  8
1
  6
Continuous
 62
     7
370
    35
100
AcDbLine
 10
114.8215180147066
 20
133.7435935394491
 30
0.0
 11
117.8215180147067
 21
133.7435935394491
 31
0.0
  0
LINE
  5
290
330
1F
100
AcDbEntity
  8
1
  6
Continuous
 62
     7
370
    35
100
AcDbLine
 10
114.8215180147066
 20
126.256406460551
 30
0.0
 11
117.8215180147067
 21
126.256406460551
 31
0.0
  0
LINE
  5
291
330
1F
100
AcDbEntity
  8
1
  6
Continuous
 62
     7
370
    35
100
AcDbLine
 10
114.8215180147066
 20
124.943593539449
 30
0.0
 11
117.8215180147067
 21
124.943593539449
 31
0.0
  0
LINE
  5
292
330
1F
100
AcDbEntity
  8
1
  6
Continuous
 62
     7
370
    35
100
AcDbLine
 10
122.8215180147067
 20
138.8
 30
0.0
 11
125.8215180147067
 21
138.8
 31
0.0
  0
LINE
  5
293
330
1F
100
AcDbEntity
  8
1
  6
Continuous
 62
     7
370
    35
100
AcDbLine
 10
122.8215180147067
 20
121.2
 30
0.0
 11
125.8215180147067
 21
121.2
 31
0.0
  0
LINE
  5
294
330
1F
100
AcDbEntity
  8
1
  6
Continuous
 62
     7
370
    35
100
AcDbLine
 10
119.8215180147067
 20
138.0000000000001
 30
0.0
 11
119.8215180147067
 21
122.0000000000002
 31
0.0
  0
LINE
  5
295
330
1F
100
AcDbEntity
  8
1
  6
Continuous
 62
     7
370
    35
100
AcDbLine
 10
129.8215180147067
 20
138.0000000000001
 30
0.0
 11
125.8215180147067
 21
138.0000000000001
 31
0.0
  0
LINE
  5
296
330
1F
100
AcDbEntity
  8
1
  6
Continuous
 62
     7
370
    35
100
AcDbLine
 10
122.8215180147067
 20
138.0000000000001
 30
0.0
 11
119.8215180147067
 21
138.0000000000001
 31
0.0
  0
LINE
  5
297
330
1F
100
AcDbEntity
  8
1
  6
Continuous
 62
     7
370
    35
100
AcDbLine
 10
119.8215180147067
 20
122.0000000000002
 30
0.0
 11
122.8215180147067
 21
122.0000000000002
 31
0.0
  0
LINE
  5
298
330
1F
100
AcDbEntity
  8
1
  6
Continuous
 62
     7
370
    35
100
AcDbLine
 10
125.8215180147067
 20
122.0000000000002
 30
0.0
 11
129.8215180147066
 21
122.0000000000002
 31
0.0
  0
ARC
  5
299
330
1F
100
AcDbEntity
  8
1
  6
Continuous
 62
     7
370
    35
100
AcDbCircle
 10
129.8215180147066
 20
124.0000000000002
 30
0.0
 40
2.0
100
AcDbArc
 50
269.9999999999998
 51
0.0
  0
LINE
  5
29A
330
1F
100
AcDbEntity
  8
1
  6
Continuous
 62
     7
370
    35
100
AcDbLine
 10
131.8215180147067
 20
124.0000000000002
 30
0.0
 11
131.8215180147067
 21
136.0000000000001
 31
0.0
  0
ARC
  5
29B
330
1F
100
AcDbEntity
  8
1
  6
Continuous
 62
     7
370
    35
100
AcDbCircle
 10
129.8215180147067
 20
136.0000000000001
 30
0.0
 40
2.0
100
AcDbArc
 50
0.0
 51
89.99999999999991
  0
LINE
  5
29C
330
1F
100
AcDbEntity
  8
1
  6
Continuous
 62
     7
370
    35
100
AcDbLine
 10
65.82055639417482
 20
140.0000316243415
 30
0.0
 11
66.32058374859375
 21
139.5000316266501
 31
0.0
  0
LINE
  5
29D
330
1F
100
AcDbEntity
  8
1
  6
Continuous
 62
     7
370
    35
100
AcDbLine
 10
66.32058374859437
 20
120.5000316351652
 30
0.0
 11
65.82055639417487
 21
120.0000316343532
 31
0.0
  0
LINE
  5
29E
330
1F
100
AcDbEntity
  8
1
  6
Continuous
 62
     7
370
    35
100
AcDbLine
 10
65.82055639417487
 20
120.0000316343532
 30
0.0
 11
65.82055639417487
 21
140.0000316243415
 31
0.0
  0
DIMENSION
  5
2A8
330
1F
100
AcDbEntity
  8
2
  6
Continuous
 62
   134
370
     9
100
AcDbDimension
280
     0
  2
Dim16
 10
57.97524204993508
 20
130.0
 30
0.0
 11
57.97524204993508
 21
122.4999999669738
 31
0.0
 70
   160
  1
<>
 71
     8
 42
-1.0
 73
     0
 74
     0
 75
     0
  3
Standard
100
AcDbAlignedDimension
 13
70.32151801470667
 23
114.9999999339475
 33
0.0
 14
65.82055639262751
 24
130.0
 34
0.0
 50
89.99999999999991
100
AcDbRotatedDimension
1001
ACAD
1000
DSTYLE
1002
{
1070
   279
1070
     1
1070
   340
1005
115
1070
   140
1040
4.0
1070
    40
1040
1.0
1070
   147
1040
0.0
1070
    76
1070
     0
1070
    75
1070
     0
1070
   344
1005
0
1070
   343
1005
0
1070
   173
1070
     1
1070
   289
1070
     2
1070
   288
1070
     1
1070
    77
1070
     1
1070
   172
1070
     1
1070
   174
1070
     0
1070
    74
1070
     0
1070
    73
1070
     0
1070
   284
1070
     8
1070
    78
1070
     8
1070
    42
1040
2.0
1070
    44
1040
2.0
1070
    43
1040
10.0
1070
   271
1070
     2
1070
    41
1040
2.0
1002
}
  0
LINE
  5
2A9
330
1F
100
AcDbEntity
  8
1
  6
DOT
 62
     7
370
    35
100
AcDbLine
 10
37.61950008576972
 20
122.5000316113729
 30
0.0
 11
38.2155524939881
 21
122.5000316113729
 31
0.0
  0
LINE
  5
2AA
330
1F
100
AcDbEntity
  8
1
  6
DOT
 62
     7
370
    35
100
AcDbLine
 10
37.61950008576977
 20
137.5000316113729
 30
0.0
 11
38.21555249398816
 21
137.5000316113729
 31
0.0
  0
ARC
  5
2AB
330
1F
100
AcDbEntity
  8
1
  6
DOT
 62
     7
370
    35
100
AcDbCircle
 10
15.41752628987896
 20
130.0000316113729
 30
0.0
 40
24.0
100
AcDbArc
 50
341.7900428771967
 51
18.20995712280288
  0
ARC
  5
2AC
330
1F
100
AcDbEntity
  8
1
  6
DOT
 62
     7
370
    35
100
AcDbCircle
 10
60.41752628987891
 20
130.0000316113729
 30
0.0
 40
24.0
100
AcDbArc
 50
161.7900390624999
 51
198.2099609374995
  0
LINE
  5
2AD
330
1F
100
AcDbEntity
  8
1
  6
Continuous
 62
     7
370
    35
100
AcDbLine
 10
30.32151801625403
 20
139.5000315650476
 30
0.0
 11
30.82151801625403
 21
140.0000315650476
 31
0.0
  0
LINE
  5
2AE
330
1F
100
AcDbEntity
  8
1
  6
Continuous
 62
     7
370
    35
100
AcDbLine
 10
30.82151801625403
 20
140.0000315650476
 30
0.0
 11
65.82055639417482
 21
140.0000316243415
 31
0.0
  0
LINE
  5
2AF
330
1F
100
AcDbEntity
  8
1
  6
Continuous
 62
     7
370
    35
100
AcDbLine
 10
30.32151801625403
 20
120.5000315750593
 30
0.0
 11
30.82151801625403
 21
120.0000315750593
 31
0.0
  0
LINE
  5
2B0
330
1F
100
AcDbEntity
  8
1
  6
Continuous
 62
     7
370
    35
100
AcDbLine
 10
30.82151801625403
 20
120.0000315750593
 30
0.0
 11
65.82055639417487
 21
120.0000316343532
 31
0.0
  0
LINE
  5
2B1
330
1F
100
AcDbEntity
  8
1
  6
Continuous
 62
     7
370
    35
100
AcDbLine
 10
30.83719162919917
 20
120.0000315751082
 30
0.0
 11
30.83719162919917
 21
140.0000315650476
 31
0.0
  0
LINE
  5
2B2
330
1F
100
AcDbEntity
  8
1
  6
Continuous
 62
     7
370
    35
100
AcDbLine
 10
30.32151801625403
 20
120.5000315750593
 30
0.0
 11
30.32151801625403
 21
139.5000315650476
 31
0.0
  0
INSERT
  5
2B3
330
1F
100
AcDbEntity
  8
2
  6
Continuous
 62
   134
370
     9
100
AcDbBlockReference
  2
_ARROWFILLED
 10
38.21555252023495
 20
122.5000316113729
 30
0.0
 41
2.0
 42
2.0
 43
2.0
 50
120.1479102128546
  0
POLYLINE
  5
2B4
330
1F
100
AcDbEntity
  8
2
  6
Continuous
 62
   134
370
     9
100
AcDb2dPolyline
 66
     1
 10
0.0
 20
0.0
 30
0.0
  0
VERTEX
  5
2B5
330
2B4
100
AcDbEntity
  8
2
  6
Continuous
 62
   134
370
     9
100
AcDbVertex
100
AcDb2dVertex
 10
38.21555252023495
 20
122.5000316113729
 30
0.0
  0
VERTEX
  5
2B6
330
2B4
100
AcDbEntity
  8
2
  6
Continuous
 62
   134
370
     9
100
AcDbVertex
100
AcDb2dVertex
 10
53.67284046995974
 20
95.88612658620278
 30
0.0
  0
VERTEX
  5
2B7
330
2B4
100
AcDbEntity
  8
2
  6
Continuous
 62
   134
370
     9
100
AcDbVertex
100
AcDb2dVertex
 10
67.67284046995971
 20
95.88612658620278
 30
0.0
  0
SEQEND
  5
2B8
330
2B4
100
AcDbEntity
  8
2
  6
Continuous
 62
   134
370
     9
  0
MTEXT
  5
2B9
330
1F
100
AcDbEntity
  8
2
  6
Continuous
 62
   134
370
     9
100
AcDbMText
 10
59.67284046995971
 20
95.88612658620278
 30
0.0
 40
4.0
 41
11.32670265737738
 46
4.0
 71
     7
 72
     1
  1
{\fＭＳ 明朝|i1;\W0.714286;ﾚﾝｽﾞ}
 73
     1
 44
1.0
1001
ACAD
1000
ACAD_MTEXT_DEFINED_HEIGHT_BEGIN
1070
    46
1040
4.0
1000
ACAD_MTEXT_DEFINED_HEIGHT_END
  0
LINE
  5
2BA
330
1F
100
AcDbEntity
  8
1
  6
DASHDOT
 62
     7
370
     9
100
AcDbLine
 10
25.0571777592294
 20
130.0
 30
0.0
 11
153.0559221907824
 21
130.0
 31
0.0
  0
DIMENSION
  5
2C4
330
1F
100
AcDbEntity
  8
2
  6
Continuous
 62
   134
370
     9
100
AcDbDimension
280
     0
  2
Dim17
 10
114.8215180147067
 20
179.4682257112499
 30
0.0
 11
72.5715180154804
 21
179.4682257112499
 31
0.0
 70
   160
  1
<>
 71
     8
 42
-1.0
 73
     0
 74
     0
 75
     0
  3
Standard
100
AcDbAlignedDimension
 13
30.32151801625403
 23
139.5000315650477
 33
0.0
 14
114.8215180147066
 24
144.7
 34
0.0
100
AcDbRotatedDimension
1001
ACAD
1000
DSTYLE
1002
{
1070
   279
1070
     1
1070
   340
1005
115
1070
   140
1040
4.0
1070
    40
1040
1.0
1070
   147
1040
0.0
1070
    76
1070
     0
1070
    75
1070
     0
1070
   344
1005
0
1070
   343
1005
0
1070
   173
1070
     1
1070
   289
1070
     2
1070
   288
1070
     1
1070
    77
1070
     1
1070
   172
1070
     1
1070
   174
1070
     0
1070
    74
1070
     0
1070
    73
1070
     0
1070
   284
1070
     8
1070
    78
1070
     8
1070
    42
1040
2.0
1070
    44
1040
2.0
1070
    43
1040
10.0
1070
   271
1070
     2
1070
    41
1040
2.0
1002
}
  0
DIMENSION
  5
2CE
330
1F
100
AcDbEntity
  8
2
  6
Continuous
 62
   134
370
     9
100
AcDbDimension
280
     0
  2
Dim18
 10
66.3205837485938
 20
160.0000000000001
 30
0.0
 11
48.32105088242395
 21
160.0000000000001
 31
0.0
 70
   160
  1
<>
 71
     8
 42
-1.0
 73
     0
 74
     0
 75
     0
  3
Standard
100
AcDbAlignedDimension
 13
30.32151801625403
 23
139.5000315650477
 33
0.0
 14
66.32058374859375
 24
139.5000316266501
 34
0.0
100
AcDbRotatedDimension
1001
ACAD
1000
DSTYLE
1002
{
1070
   279
1070
     1
1070
   340
1005
115
1070
   140
1040
4.0
1070
    40
1040
1.0
1070
   147
1040
0.0
1070
    76
1070
     0
1070
    75
1070
     0
1070
   344
1005
0
1070
   343
1005
0
1070
   173
1070
     1
1070
   289
1070
     2
1070
   288
1070
     1
1070
    77
1070
     1
1070
   172
1070
     1
1070
   174
1070
     0
1070
    74
1070
     0
1070
    73
1070
     0
1070
   284
1070
     8
1070
    78
1070
     8
1070
    42
1040
2.0
1070
    44
1040
2.0
1070
    43
1040
10.0
1070
   271
1070
     2
1070
    41
1040
2.0
1002
}
  0
DIMENSION
  5
2D8
330
1F
100
AcDbEntity
  8
2
  6
Continuous
 62
   134
370
     9
100
AcDbDimension
280
     0
  2
Dim19
 10
17.19173423345407
 20
140.0000315650864
 30
0.0
 11
17.19173423345407
 21
130.0000316163787
 31
0.0
 70
   160
  1
φ<>
 71
     8
 42
-1.0
 73
     0
 74
     0
 75
     0
  3
Standard
100
AcDbAlignedDimension
 13
30.83719162919917
 23
120.000031575098
 33
0.0
 14
30.83719162919917
 24
140.0000315650864
 34
0.0
 50
89.99999999999991
100
AcDbRotatedDimension
1001
ACAD
1000
DSTYLE
1002
{
1070
   279
1070
     1
1070
   340
1005
115
1070
   140
1040
4.0
1070
    40
1040
1.0
1070
   147
1040
0.0
1070
    76
1070
     0
1070
    75
1070
     0
1070
   344
1005
0
1070
   343
1005
0
1070
   173
1070
     1
1070
   289
1070
     2
1070
   288
1070
     1
1070
    77
1070
     1
1070
   172
1070
     1
1070
   174
1070
     0
1070
    74
1070
     0
1070
    73
1070
     0
1070
   284
1070
     8
1070
    78
1070
     8
1070
    42
1040
2.0
1070
    44
1040
2.0
1070
    43
1040
10.0
1070
   271
1070
     2
1070
    41
1040
2.0
1002
}
  0
INSERT
  5
2D9
330
1F
100
AcDbEntity
  8
2
  6
Continuous
 62
   134
370
     9
100
AcDbBlockReference
  2
_ARROWFILLED
 10
199.8418542387412
 20
120.05
 30
0.0
 41
2.0
 42
2.0
 43
2.0
 50
117.4046026711167
  0
POLYLINE
  5
2DA
330
1F
100
AcDbEntity
  8
2
  6
Continuous
 62
   134
370
     9
100
AcDb2dPolyline
 66
     1
 10
0.0
 20
0.0
 30
0.0
  0
VERTEX
  5
2DB
330
2DA
100
AcDbEntity
  8
2
  6
Continuous
 62
   134
370
     9
100
AcDbVertex
100
AcDb2dVertex
 10
199.8418542387412
 20
120.05
 30
0.0
  0
VERTEX
  5
2DC
330
2DA
100
AcDbEntity
  8
2
  6
Continuous
 62
   134
370
     9
100
AcDbVertex
100
AcDb2dVertex
 10
205.0523037326658
 20
110.0
 30
0.0
  0
VERTEX
  5
2DD
330
2DA
100
AcDbEntity
  8
2
  6
Continuous
 62
   134
370
     9
100
AcDbVertex
100
AcDb2dVertex
 10
225.3905093778273
 20
110.0
 30
0.0
  0
SEQEND
  5
2DE
330
2DA
100
AcDbEntity
  8
2
  6
Continuous
 62
   134
370
     9
  0
MTEXT
  5
2DF
330
1F
100
AcDbEntity
  8
2
  6
Continuous
 62
   134
370
     9
100
AcDbMText
 10
205.3905093778273
 20
110.0
 30
0.0
 40
4.0
 41
30.50777711087087
 46
4.0
 71
     7
 72
     1
  1
{\fＭＳ 明朝|i1;\W0.714286;　出力ｺﾈｸﾀ}
 73
     1
 44
1.0
1001
ACAD
1000
ACAD_MTEXT_DEFINED_HEIGHT_BEGIN
1070
    46
1040
4.0
1000
ACAD_MTEXT_DEFINED_HEIGHT_END
  0
MTEXT
  5
2E0
330
1F
100
AcDbEntity
  8
2
  6
Continuous
 62
   134
370
     9
100
AcDbMText
 10
10.77964193401306
 20
179.4682257112499
 30
0.0
 40
4.0
 41
24.26164276628629
 46
4.0
 71
     7
 72
     1
  1
{\fＭＳ 明朝|i1;\W0.714286;測定距離}
 73
     1
 44
1.0
1001
ACAD
1000
ACAD_MTEXT_DEFINED_HEIGHT_BEGIN
1070
    46
1040
4.0
1000
ACAD_MTEXT_DEFINED_HEIGHT_END
  0
INSERT
  5
2E1
330
1F
100
AcDbEntity
  8
2
  6
Continuous
 62
   134
370
     9
100
AcDbBlockReference
  2
_ARROWFILLED
 10
30.32151801625412
 20
179.4682257112499
 30
0.0
 41
2.0
 42
2.0
 43
2.0
 50
359.9999999999997
  0
POLYLINE
  5
2E2
330
1F
100
AcDbEntity
  8
2
  6
Continuous
 62
   134
370
     9
100
AcDb2dPolyline
 66
     1
 10
0.0
 20
0.0
 30
0.0
  0
VERTEX
  5
2E3
330
2E2
100
AcDbEntity
  8
2
  6
Continuous
 62
   134
370
     9
100
AcDbVertex
100
AcDb2dVertex
 10
30.32151801625412
 20
179.4682257112499
 30
0.0
  0
VERTEX
  5
2E4
330
2E2
100
AcDbEntity
  8
2
  6
Continuous
 62
   134
370
     9
100
AcDbVertex
100
AcDb2dVertex
 10
10.4328752232316
 20
179.4682257112499
 30
0.0
  0
SEQEND
  5
2E5
330
2E2
100
AcDbEntity
  8
2
  6
Continuous
 62
   134
370
     9
  0
MTEXT
  5
2E6
330
1F
100
AcDbEntity
  8
5
  6
Continuous
 62
    94
370
     9
100
AcDbMText
 10
172.7723509933776
 20
27.78228476821177
 30
0.0
 40
4.0
 41
26.21102149541542
 46
4.0
 71
     7
 72
     1
  1
{\fＭＳ 明朝;\W0.714286;2015/1/14}
 73
     1
 44
1.0
1001
ACAD
1000
ACAD_MTEXT_DEFINED_HEIGHT_BEGIN
1070
    46
1040
4.0
1000
ACAD_MTEXT_DEFINED_HEIGHT_END
  0
MTEXT
  5
2E7
330
1F
100
AcDbEntity
  8
5
  6
Continuous
 62
    94
370
     9
100
AcDbMText
 10
235.6909381008332
 20
20.40645695364224
 30
0.0
 40
4.0
 41
68.18764346266266
 46
4.0
 71
     7
 72
     1
  1
{\fＭＳ 明朝;\W0.714286;００５－０６５－Ａ０１６}
 73
     1
 44
1.0
1001
ACAD
1000
ACAD_MTEXT_DEFINED_HEIGHT_BEGIN
1070
    46
1040
4.0
1000
ACAD_MTEXT_DEFINED_HEIGHT_END
  0
LINE
  5
2E8
330
1F
100
AcDbEntity
  8
10
  6
Continuous
 62
     3
370
     9
100
AcDbLine
 10
19.02522660639682
 20
59.35060116652225
 30
0.0
 11
86.52453784395011
 21
59.35060116652225
 31
0.0
  0
MTEXT
  5
2E9
330
1F
100
AcDbEntity
  8
10
  6
Continuous
 62
     3
370
     9
100
AcDbMText
 10
35.31009842770985
 20
60.08144978361725
 30
0.0
 40
3.9999
 41
23.42444876917516
 46
3.9999
 71
     9
 72
     1
  1
{\fＭＳ 明朝;\W0.714286;該当機種}
 73
     1
 44
1.0
1001
ACAD
1000
ACAD_MTEXT_DEFINED_HEIGHT_BEGIN
1070
    46
1040
3.9999
1000
ACAD_MTEXT_DEFINED_HEIGHT_END
  0
MTEXT
  5
2EA
330
1F
100
AcDbEntity
  8
10
  6
Continuous
 62
     3
370
     9
100
AcDbMText
 10
21.2935823347112
 20
54.67211747687398
 30
0.0
 40
3.9999
 41
61.85467739308371
 46
3.9999
 71
     7
 72
     1
  1
{\fＭＳ 明朝;\W0.714286;TMHX-CLE1350-0500B009}
 73
     1
 44
1.0
1001
ACAD
1000
ACAD_MTEXT_DEFINED_HEIGHT_BEGIN
1070
    46
1040
3.9999
1000
ACAD_MTEXT_DEFINED_HEIGHT_END
  0
LINE
  5
2EB
330
1F
100
AcDbEntity
  8
10
  6
Continuous
 62
     3
370
     9
100
AcDbLine
 10
19.02522660639682
 20
59.35060116652225
 30
0.0
 11
19.02522660639683
 21
54.68405116652225
 31
0.0
  0
LINE
  5
2EC
330
1F
100
AcDbEntity
  8
10
  6
Continuous
 62
     3
370
     9
100
AcDbLine
 10
19.02522660639683
 20
54.68405116652225
 30
0.0
 11
86.52453784395013
 21
54.68405116652225
 31
0.0
  0
LINE
  5
2ED
330
1F
100
AcDbEntity
  8
10
  6
Continuous
 62
     3
370
     9
100
AcDbLine
 10
86.52453784395011
 20
59.35060116652225
 30
0.0
 11
86.52453784395013
 21
54.68405116652225
 31
0.0
  0
MTEXT
  5
2EE
330
1F
100
AcDbEntity
  8
5
  6
Continuous
 62
    94
370
     9
100
AcDbMText
 10
239.646523178808
 20
34.9388081887174
 30
0.0
 40
4.0
 41
46.20433708604603
 46
4.0
 71
     7
 72
     1
  1
{\fＭＳ 明朝;\W0.714286;ＴＭＨＸ　外形図}
 73
     1
 44
1.0
1001
ACAD
1000
ACAD_MTEXT_DEFINED_HEIGHT_BEGIN
1070
    46
1040
4.0
1000
ACAD_MTEXT_DEFINED_HEIGHT_END
  0
VIEWPORT
  5
6A
330
1B
100
AcDbEntity
 67
     1
  8
0
100
AcDbViewport
 10
148.5
 20
105.0
 30
0.0
 40
297.0
 41
210.0
 68
     1
 69
     1
 12
148.5
 22
105.0
 13
0.0
 23
0.0
 14
0.5
 24
0.5
 15
0.5
 25
0.5
 16
0.0
 26
0.0
 36
1.0
 17
0.0
 27
0.0
 37
0.0
 42
50.0
 43
0.0
 44
0.0
 45
9.0
 50
0.0
 51
0.0
 72
   100
 90
   557152
  1

281
     0
 71
     1
 74
     0
110
0.0
120
0.0
130
0.0
111
1.0
121
0.0
131
0.0
112
0.0
122
1.0
132
0.0
 79
     0
146
0.0
170
     0
 61
     5
292
     1
282
     1
141
0.0
142
0.0
 63
   256
  0
ENDSEC
  0
SECTION
  2
OBJECTS
  0
DICTIONARY
  5
C
330
0
100
AcDbDictionary
281
     1
  3
ACAD_DETAILVIEWSTYLE
350
2F3
  3
ACAD_GROUP
350
D
  3
ACAD_LAYOUT
350
1A
  3
ACAD_MATERIAL
350
43
  3
ACAD_MLEADERSTYLE
350
2F2
  3
ACAD_MLINESTYLE
350
17
  3
ACAD_PLOTSETTINGS
350
19
  3
ACAD_PLOTSTYLENAME
350
E
  3
ACAD_SCALELIST
350
47
  3
ACAD_SECTIONVIEWSTYLE
350
2F4
  3
ACAD_TABLESTYLE
350
2F1
  3
ACAD_VISUALSTYLE
350
2A
  3
AcDbVariableDictionary
350
2EF
  0
SUN
  5
69
330
29
100
AcDbSun
 90
        1
290
     0
 63
     7
421
 16777215
 40
1.0
291
     1
 91
  2455826
 92
 54000000
292
     0
 70
     2
 71
   256
280
     1
  0
DICTIONARY
  5
2F3
102
{ACAD_REACTORS
330
C
102
}
330
C
100
AcDbDictionary
281
     1
  0
DICTIONARY
  5
D
102
{ACAD_REACTORS
330
C
102
}
330
C
100
AcDbDictionary
281
     1
  0
DICTIONARY
  5
1A
102
{ACAD_REACTORS
330
C
102
}
330
C
100
AcDbDictionary
281
     1
  3
Layout1
350
1E
  3
Layout2
350
26
  3
Model
350
22
  0
DICTIONARY
  5
43
102
{ACAD_REACTORS
330
C
102
}
330
C
100
AcDbDictionary
281
     1
  3
ByBlock
350
45
  3
ByLayer
350
44
  3
Global
350
46
  0
DICTIONARY
  5
2F2
102
{ACAD_REACTORS
330
C
102
}
330
C
100
AcDbDictionary
281
     1
  0
DICTIONARY
  5
17
102
{ACAD_REACTORS
330
C
102
}
330
C
100
AcDbDictionary
281
     1
  3
Standard
350
18
  0
DICTIONARY
  5
19
102
{ACAD_REACTORS
330
C
102
}
330
C
100
AcDbDictionary
281
     1
  0
ACDBDICTIONARYWDFLT
  5
E
102
{ACAD_REACTORS
330
C
102
}
330
C
100
AcDbDictionary
281
     1
  3
Normal
350
F
100
AcDbDictionaryWithDefault
340
F
  0
DICTIONARY
  5
47
102
{ACAD_REACTORS
330
C
102
}
330
C
100
AcDbDictionary
281
     1
  3
A0
350
48
  3
A1
350
49
  3
A2
350
4A
  3
A3
350
4B
  3
A4
350
4C
  3
A5
350
4D
  3
A6
350
4E
  3
A7
350
4F
  3
A8
350
50
  3
A9
350
51
  3
B0
350
52
  3
B1
350
53
  3
B2
350
54
  3
B3
350
55
  3
B4
350
56
  3
B5
350
57
  3
B6
350
58
  3
B7
350
59
  3
B8
350
5A
  3
B9
350
5B
  3
C0
350
5C
  3
C1
350
5D
  3
C2
350
5E
  3
C3
350
5F
  3
C4
350
60
  3
C5
350
61
  3
C6
350
62
  3
C7
350
63
  3
C8
350
64
  3
C9
350
65
  3
D0
350
66
  3
D1
350
67
  3
D2
350
68
  0
DICTIONARY
  5
2F4
102
{ACAD_REACTORS
330
C
102
}
330
C
100
AcDbDictionary
281
     1
  0
DICTIONARY
  5
2F1
102
{ACAD_REACTORS
330
C
102
}
330
C
100
AcDbDictionary
281
     1
  0
DICTIONARY
  5
2A
102
{ACAD_REACTORS
330
C
102
}
330
C
100
AcDbDictionary
281
     1
  3
2dWireframe
350
2F
  3
Basic
350
32
  3
Brighten
350
36
  3
ColorChange
350
3A
  3
Conceptual
350
34
  3
Dim
350
35
  3
EdgeColorOff
350
3D
  3
Facepattern
350
39
  3
Flat
350
2B
  3
FlatWithEdges
350
2C
  3
Gouraud
350
2D
  3
GouraudWithEdges
350
2E
  3
Hidden
350
31
  3
JitterOff
350
3B
  3
Linepattern
350
38
  3
OverhangOff
350
3C
  3
Realistic
350
33
  3
Shaded
350
42
  3
Shaded with edges
350
41
  3
Shades of Gray
350
3E
  3
Sketchy
350
3F
  3
Thicken
350
37
  3
Wireframe
350
30
  3
X-Ray
350
40
  0
DICTIONARY
  5
2EF
102
{ACAD_REACTORS
330
C
102
}
330
C
100
AcDbDictionary
281
     1
  3
CANNOSCALE
350
2F0
  0
LAYOUT
  5
1E
102
{ACAD_REACTORS
330
1A
102
}
330
1A
100
AcDbPlotSettings
  1

  2
none_device
  4

  6

 40
0.0
 41
0.0
 42
0.0
 43
0.0
 44
0.0
 45
0.0
 46
0.0
 47
0.0
 48
0.0
 49
0.0
140
0.0
141
0.0
142
1.0
143
1.0
 70
   688
 72
     0
 73
     0
 74
     5
  7

 75
    16
 76
     0
 77
     2
 78
   300
147
1.0
148
0.0
149
0.0
100
AcDbLayout
  1
Layout1
 70
     1
 71
     1
 10
0.0
 20
0.0
 11
297.0
 21
210.0
 12
0.0
 22
0.0
 32
0.0
 14
0.0
 24
0.0
 34
0.0
 15
297.0
 25
210.0
 35
0.0
146
0.0
 13
0.0
 23
0.0
 33
0.0
 16
1.0
 26
0.0
 36
0.0
 17
0.0
 27
1.0
 37
0.0
 76
     0
330
1B
331
6A
  0
LAYOUT
  5
26
102
{ACAD_REACTORS
330
1A
102
}
330
1A
100
AcDbPlotSettings
  1

  2
none_device
  4

  6

 40
0.0
 41
0.0
 42
0.0
 43
0.0
 44
0.0
 45
0.0
 46
0.0
 47
0.0
 48
0.0
 49
0.0
140
0.0
141
0.0
142
1.0
143
1.0
 70
   688
 72
     0
 73
     0
 74
     5
  7

 75
    16
 76
     0
 77
     2
 78
   300
147
1.0
148
0.0
149
0.0
100
AcDbLayout
  1
Layout2
 70
     1
 71
     2
 10
0.0
 20
0.0
 11
0.0
 21
0.0
 12
0.0
 22
0.0
 32
0.0
 14
0.0
 24
0.0
 34
0.0
 15
0.0
 25
0.0
 35
0.0
146
0.0
 13
0.0
 23
0.0
 33
0.0
 16
1.0
 26
0.0
 36
0.0
 17
0.0
 27
1.0
 37
0.0
 76
     0
330
23
  0
LAYOUT
  5
22
102
{ACAD_REACTORS
330
1A
102
}
330
1A
100
AcDbPlotSettings
  1

  2
none_device
  4
Letter_(8.50_x_11.00_Inches)
  6

 40
6.35
 41
6.35
 42
6.35000508
 43
6.35000508
 44
215.9
 45
279.4
 46
0.0
 47
0.0
 48
0.0
 49
0.0
140
0.0
141
0.0
142
1.0
143
1.0
 70
  1712
 72
     0
 73
     0
 74
     0
  7

 75
     0
 76
     0
 77
     2
 78
   300
147
1.0
148
0.0
149
0.0
100
AcDbLayout
  1
Model
 70
     1
 71
     0
 10
0.0
 20
0.0
 11
297.0
 21
210.0
 12
0.0
 22
0.0
 32
0.0
 14
10.0
 24
9.999999999999865
 34
0.0
 15
285.0000000000003
 25
195.0000000000005
 35
0.0
146
0.0
 13
0.0
 23
0.0
 33
0.0
 16
1.0
 26
0.0
 36
0.0
 17
0.0
 27
1.0
 37
0.0
 76
     0
330
1F
331
29
  0
MATERIAL
  5
45
102
{ACAD_REACTORS
330
43
102
}
330
43
100
AcDbMaterial
  1
ByBlock
 72
     1
 94
      127
  0
MATERIAL
  5
44
102
{ACAD_REACTORS
330
43
102
}
330
43
100
AcDbMaterial
  1
ByLayer
 72
     1
 94
      127
  0
MATERIAL
  5
46
102
{ACAD_REACTORS
330
43
102
}
330
43
100
AcDbMaterial
  1
Global
 72
     1
 94
      127
  0
MLINESTYLE
  5
18
102
{ACAD_REACTORS
330
17
102
}
330
17
100
AcDbMlineStyle
  2
Standard
 70
     0
  3

 62
   256
 51
90.0
 52
90.0
 71
     2
 49
0.5
 62
   256
  6
BYLAYER
 49
-0.5
 62
   256
  6
BYLAYER
  0
ACDBPLACEHOLDER
  5
F
102
{ACAD_REACTORS
330
E
102
}
330
E
  0
SCALE
  5
48
102
{ACAD_REACTORS
330
47
102
}
330
47
100
AcDbScale
 70
     0
300
1:1
140
1.0
141
1.0
290
     1
  0
SCALE
  5
49
102
{ACAD_REACTORS
330
47
102
}
330
47
100
AcDbScale
 70
     0
300
1:2
140
1.0
141
2.0
290
     0
  0
SCALE
  5
4A
102
{ACAD_REACTORS
330
47
102
}
330
47
100
AcDbScale
 70
     0
300
1:4
140
1.0
141
4.0
290
     0
  0
SCALE
  5
4B
102
{ACAD_REACTORS
330
47
102
}
330
47
100
AcDbScale
 70
     0
300
1:5
140
1.0
141
5.0
290
     0
  0
SCALE
  5
4C
102
{ACAD_REACTORS
330
47
102
}
330
47
100
AcDbScale
 70
     0
300
1:8
140
1.0
141
8.0
290
     0
  0
SCALE
  5
4D
102
{ACAD_REACTORS
330
47
102
}
330
47
100
AcDbScale
 70
     0
300
1:10
140
1.0
141
10.0
290
     0
  0
SCALE
  5
4E
102
{ACAD_REACTORS
330
47
102
}
330
47
100
AcDbScale
 70
     0
300
1:16
140
1.0
141
16.0
290
     0
  0
SCALE
  5
4F
102
{ACAD_REACTORS
330
47
102
}
330
47
100
AcDbScale
 70
     0
300
1:20
140
1.0
141
20.0
290
     0
  0
SCALE
  5
50
102
{ACAD_REACTORS
330
47
102
}
330
47
100
AcDbScale
 70
     0
300
1:30
140
1.0
141
30.0
290
     0
  0
SCALE
  5
51
102
{ACAD_REACTORS
330
47
102
}
330
47
100
AcDbScale
 70
     0
300
1:40
140
1.0
141
40.0
290
     0
  0
SCALE
  5
52
102
{ACAD_REACTORS
330
47
102
}
330
47
100
AcDbScale
 70
     0
300
1:50
140
1.0
141
50.0
290
     0
  0
SCALE
  5
53
102
{ACAD_REACTORS
330
47
102
}
330
47
100
AcDbScale
 70
     0
300
1:100
140
1.0
141
100.0
290
     0
  0
SCALE
  5
54
102
{ACAD_REACTORS
330
47
102
}
330
47
100
AcDbScale
 70
     0
300
2:1
140
2.0
141
1.0
290
     0
  0
SCALE
  5
55
102
{ACAD_REACTORS
330
47
102
}
330
47
100
AcDbScale
 70
     0
300
4:1
140
4.0
141
1.0
290
     0
  0
SCALE
  5
56
102
{ACAD_REACTORS
330
47
102
}
330
47
100
AcDbScale
 70
     0
300
8:1
140
8.0
141
1.0
290
     0
  0
SCALE
  5
57
102
{ACAD_REACTORS
330
47
102
}
330
47
100
AcDbScale
 70
     0
300
10:1
140
10.0
141
1.0
290
     0
  0
SCALE
  5
58
102
{ACAD_REACTORS
330
47
102
}
330
47
100
AcDbScale
 70
     0
300
100:1
140
100.0
141
1.0
290
     0
  0
SCALE
  5
59
102
{ACAD_REACTORS
330
47
102
}
330
47
100
AcDbScale
 70
     0
300
1/128" = 1'-0"
140
0.0078125
141
12.0
290
     0
  0
SCALE
  5
5A
102
{ACAD_REACTORS
330
47
102
}
330
47
100
AcDbScale
 70
     0
300
1/64" = 1'-0"
140
0.015625
141
12.0
290
     0
  0
SCALE
  5
5B
102
{ACAD_REACTORS
330
47
102
}
330
47
100
AcDbScale
 70
     0
300
1/32" = 1'-0"
140
0.03125
141
12.0
290
     0
  0
SCALE
  5
5C
102
{ACAD_REACTORS
330
47
102
}
330
47
100
AcDbScale
 70
     0
300
1/16" = 1'-0"
140
0.0625
141
12.0
290
     0
  0
SCALE
  5
5D
102
{ACAD_REACTORS
330
47
102
}
330
47
100
AcDbScale
 70
     0
300
3/32" = 1'-0"
140
0.09375
141
12.0
290
     0
  0
SCALE
  5
5E
102
{ACAD_REACTORS
330
47
102
}
330
47
100
AcDbScale
 70
     0
300
1/8" = 1'-0"
140
0.125
141
12.0
290
     0
  0
SCALE
  5
5F
102
{ACAD_REACTORS
330
47
102
}
330
47
100
AcDbScale
 70
     0
300
3/16" = 1'-0"
140
0.1875
141
12.0
290
     0
  0
SCALE
  5
60
102
{ACAD_REACTORS
330
47
102
}
330
47
100
AcDbScale
 70
     0
300
1/4" = 1'-0"
140
0.25
141
12.0
290
     0
  0
SCALE
  5
61
102
{ACAD_REACTORS
330
47
102
}
330
47
100
AcDbScale
 70
     0
300
3/8" = 1'-0"
140
0.375
141
12.0
290
     0
  0
SCALE
  5
62
102
{ACAD_REACTORS
330
47
102
}
330
47
100
AcDbScale
 70
     0
300
1/2" = 1'-0"
140
0.5
141
12.0
290
     0
  0
SCALE
  5
63
102
{ACAD_REACTORS
330
47
102
}
330
47
100
AcDbScale
 70
     0
300
3/4" = 1'-0"
140
0.75
141
12.0
290
     0
  0
SCALE
  5
64
102
{ACAD_REACTORS
330
47
102
}
330
47
100
AcDbScale
 70
     0
300
1" = 1'-0"
140
1.0
141
12.0
290
     0
  0
SCALE
  5
65
102
{ACAD_REACTORS
330
47
102
}
330
47
100
AcDbScale
 70
     0
300
1-1/2" = 1'-0"
140
1.5
141
12.0
290
     0
  0
SCALE
  5
66
102
{ACAD_REACTORS
330
47
102
}
330
47
100
AcDbScale
 70
     0
300
3" = 1'-0"
140
3.0
141
12.0
290
     0
  0
SCALE
  5
67
102
{ACAD_REACTORS
330
47
102
}
330
47
100
AcDbScale
 70
     0
300
6" = 1'-0"
140
6.0
141
12.0
290
     0
  0
SCALE
  5
68
102
{ACAD_REACTORS
330
47
102
}
330
47
100
AcDbScale
 70
     0
300
1'-0" = 1'-0"
140
12.0
141
12.0
290
     0
  0
VISUALSTYLE
  5
2F
102
{ACAD_REACTORS
330
2A
102
}
330
2A
100
AcDbVisualStyle
  2
2dWireframe
 70
     4
177
     3
291
     0
 70
    58
 90
        0
176
     1
 90
        2
176
     1
 90
        0
176
     1
 90
        0
176
     1
 40
0.6
176
     1
 40
30.0
176
     1
 62
     7
420
 16777215
176
     1
 90
        1
176
     1
 90
        4
176
     1
 62
     7
176
     1
 62
   257
176
     1
 90
        1
176
     1
 90
        1
176
     1
 40
1.0
176
     1
 90
        0
176
     1
 62
   257
176
     1
 40
1.0
176
     1
 90
        1
176
     1
 90
        6
176
     1
 90
        2
176
     1
 62
     7
176
     1
 90
        5
176
     1
 90
        0
176
     1
 90
        0
176
     1
290
     0
176
     1
 90
        1
176
     1
 40
0.0
176
     1
 90
        0
176
     1
290
     1
176
     1
290
     1
176
     1
290
     0
176
     1
290
     0
176
     1
290
     0
176
     1
290
     0
176
     1
290
     0
176
     1
290
     0
176
     1
290
     0
176
     1
 90
       50
176
     1
 40
0.0
176
     1
 40
1.0
176
     1
 90
        0
176
     1
 62
    18
420
        0
176
     1
 90
       50
176
     1
 90
        3
176
     1
 62
     5
420
      255
176
     1
290
     0
176
     1
 90
       50
176
     1
 90
       50
176
     1
 90
       50
176
     1
290
     0
176
     1
 90
       50
176
     1
 62
   256
176
     0
 40
1.0
176
     0
 90
        2
176
     1
  1
strokes_ogs.tif
176
     1
290
     0
176
     1
 40
1.0
176
     1
 40
1.0
176
     1
  0
VISUALSTYLE
  5
32
102
{ACAD_REACTORS
330
2A
102
}
330
2A
100
AcDbVisualStyle
  2
Basic
 70
     7
177
     3
291
     1
 70
    58
 90
        1
176
     1
 90
        0
176
     1
 90
        1
176
     1
 90
        0
176
     1
 40
0.6
176
     1
 40
30.0
176
     1
 62
     7
420
 16777215
176
     1
 90
        0
176
     1
 90
        4
176
     1
 62
     7
176
     1
 62
   257
176
     1
 90
        1
176
     1
 90
        1
176
     1
 40
1.0
176
     1
 90
        8
176
     1
 62
     7
176
     1
 40
1.0
176
     1
 90
        1
176
     1
 90
        6
176
     1
 90
        2
176
     1
 62
     7
176
     1
 90
        5
176
     1
 90
        0
176
     1
 90
        0
176
     1
290
     0
176
     1
 90
        1
176
     1
 40
0.0
176
     1
 90
        0
176
     1
290
     0
176
     1
290
     1
176
     1
290
     1
176
     1
290
     0
176
     1
290
     0
176
     1
290
     0
176
     1
290
     0
176
     1
290
     0
176
     1
290
     0
176
     1
 90
       50
176
     1
 40
0.0
176
     1
 40
1.0
176
     1
 90
        0
176
     1
 62
    18
420
        0
176
     1
 90
       50
176
     1
 90
        3
176
     1
 62
     5
420
      255
176
     1
290
     0
176
     1
 90
       50
176
     1
 90
       50
176
     1
 90
       50
176
     1
290
     0
176
     1
 90
       50
176
     1
 62
   256
176
     0
 40
1.0
176
     0
 90
        2
176
     1
  1
strokes_ogs.tif
176
     1
290
     0
176
     1
 40
1.0
176
     1
 40
1.0
176
     1
  0
VISUALSTYLE
  5
36
102
{ACAD_REACTORS
330
2A
102
}
330
2A
100
AcDbVisualStyle
  2
Brighten
 70
    12
177
     3
291
     1
 70
    58
 90
        2
176
     1
 90
        2
176
     1
 90
        0
176
     1
 90
        0
176
     1
 40
0.6
176
     1
 40
30.0
176
     1
 62
     7
420
 16777215
176
     1
 90
        1
176
     1
 90
        4
176
     1
 62
     7
176
     1
 62
   257
176
     1
 90
        1
176
     1
 90
        1
176
     1
 40
1.0
176
     1
 90
        8
176
     1
 62
     7
176
     1
 40
1.0
176
     1
 90
        1
176
     1
 90
        6
176
     1
 90
        2
176
     1
 62
     7
176
     1
 90
        5
176
     1
 90
        0
176
     1
 90
        0
176
     1
290
     0
176
     1
 90
        1
176
     1
 40
50.0
176
     1
 90
        0
176
     1
290
     0
176
     1
290
     1
176
     1
290
     1
176
     1
290
     0
176
     1
290
     0
176
     1
290
     0
176
     1
290
     0
176
     1
290
     0
176
     1
290
     0
176
     1
 90
       50
176
     1
 40
0.0
176
     1
 40
1.0
176
     1
 90
        0
176
     1
 62
    18
420
        0
176
     1
 90
       50
176
     1
 90
        3
176
     1
 62
     5
420
      255
176
     1
290
     0
176
     1
 90
       50
176
     1
 90
       50
176
     1
 90
       50
176
     1
290
     0
176
     1
 90
       50
176
     1
 62
   256
176
     0
 40
1.0
176
     0
 90
        2
176
     1
  1
strokes_ogs.tif
176
     1
290
     0
176
     1
 40
1.0
176
     1
 40
1.0
176
     1
  0
VISUALSTYLE
  5
3A
102
{ACAD_REACTORS
330
2A
102
}
330
2A
100
AcDbVisualStyle
  2
ColorChange
 70
    16
177
     3
291
     1
 70
    58
 90
        2
176
     1
 90
        2
176
     1
 90
        3
176
     1
 90
        0
176
     1
 40
0.6
176
     1
 40
30.0
176
     1
 62
     8
420
  8421504
176
     1
 90
        1
176
     1
 90
        4
176
     1
 62
     7
176
     1
 62
   257
176
     1
 90
        1
176
     1
 90
        1
176
     1
 40
1.0
176
     1
 90
        8
176
     1
 62
     8
420
  8421504
176
     1
 40
1.0
176
     1
 90
        1
176
     1
 90
        6
176
     1
 90
        2
176
     1
 62
     7
176
     1
 90
        5
176
     1
 90
        0
176
     1
 90
        0
176
     1
290
     0
176
     1
 90
        1
176
     1
 40
0.0
176
     1
 90
        0
176
     1
290
     0
176
     1
290
     1
176
     1
290
     1
176
     1
290
     0
176
     1
290
     0
176
     1
290
     0
176
     1
290
     0
176
     1
290
     0
176
     1
290
     0
176
     1
 90
       50
176
     1
 40
0.0
176
     1
 40
1.0
176
     1
 90
        0
176
     1
 62
    18
420
        0
176
     1
 90
       50
176
     1
 90
        3
176
     1
 62
     5
420
      255
176
     1
290
     0
176
     1
 90
       50
176
     1
 90
       50
176
     1
 90
       50
176
     1
290
     0
176
     1
 90
       50
176
     1
 62
   256
176
     0
 40
1.0
176
     0
 90
        2
176
     1
  1
strokes_ogs.tif
176
     1
290
     0
176
     1
 40
1.0
176
     1
 40
1.0
176
     1
  0
VISUALSTYLE
  5
34
102
{ACAD_REACTORS
330
2A
102
}
330
2A
100
AcDbVisualStyle
  2
Conceptual
 70
     9
177
     3
291
     0
 70
    58
 90
        3
176
     1
 90
        2
176
     1
 90
        0
176
     1
 90
        0
176
     1
 40
0.6
176
     1
 40
30.0
176
     1
 62
     7
420
 16777215
176
     1
 90
        2
176
     1
 90
        2
176
     1
 62
     7
176
     1
 62
   257
176
     1
 90
        1
176
     1
 90
        1
176
     1
 40
179.0
176
     1
 90
        8
176
     1
 62
     7
176
     1
 40
1.0
176
     1
 90
        1
176
     1
 90
        6
176
     1
 90
        2
176
     1
 62
     7
176
     1
 90
        3
176
     1
 90
        0
176
     1
 90
        0
176
     1
290
     0
176
     1
 90
        1
176
     1
 40
0.0
176
     1
 90
        0
176
     1
290
     0
176
     1
290
     1
176
     1
290
     1
176
     1
290
     0
176
     1
290
     0
176
     1
290
     0
176
     1
290
     0
176
     1
290
     0
176
     1
290
     0
176
     1
 90
       50
176
     1
 40
0.0
176
     1
 40
1.0
176
     1
 90
        0
176
     1
 62
    18
420
        0
176
     1
 90
       50
176
     1
 90
        3
176
     1
 62
     5
420
      255
176
     1
290
     0
176
     1
 90
       50
176
     1
 90
       50
176
     1
 90
       50
176
     1
290
     0
176
     1
 90
       50
176
     1
 62
   256
176
     0
 40
1.0
176
     0
 90
        2
176
     1
  1
strokes_ogs.tif
176
     1
290
     0
176
     1
 40
1.0
176
     1
 40
1.0
176
     1
  0
VISUALSTYLE
  5
35
102
{ACAD_REACTORS
330
2A
102
}
330
2A
100
AcDbVisualStyle
  2
Dim
 70
    11
177
     3
291
     1
 70
    58
 90
        2
176
     1
 90
        2
176
     1
 90
        0
176
     1
 90
        0
176
     1
 40
0.6
176
     1
 40
30.0
176
     1
 62
     7
420
 16777215
176
     1
 90
        1
176
     1
 90
        4
176
     1
 62
     7
176
     1
 62
   257
176
     1
 90
        1
176
     1
 90
        1
176
     1
 40
1.0
176
     1
 90
        8
176
     1
 62
     7
176
     1
 40
1.0
176
     1
 90
        1
176
     1
 90
        6
176
     1
 90
        2
176
     1
 62
     7
176
     1
 90
        5
176
     1
 90
        0
176
     1
 90
        0
176
     1
290
     0
176
     1
 90
        1
176
     1
 40
-50.0
176
     1
 90
        0
176
     1
290
     0
176
     1
290
     1
176
     1
290
     1
176
     1
290
     0
176
     1
290
     0
176
     1
290
     0
176
     1
290
     0
176
     1
290
     0
176
     1
290
     0
176
     1
 90
       50
176
     1
 40
0.0
176
     1
 40
1.0
176
     1
 90
        0
176
     1
 62
    18
420
        0
176
     1
 90
       50
176
     1
 90
        3
176
     1
 62
     5
420
      255
176
     1
290
     0
176
     1
 90
       50
176
     1
 90
       50
176
     1
 90
       50
176
     1
290
     0
176
     1
 90
       50
176
     1
 62
   256
176
     0
 40
1.0
176
     0
 90
        2
176
     1
  1
strokes_ogs.tif
176
     1
290
     0
176
     1
 40
1.0
176
     1
 40
1.0
176
     1
  0
VISUALSTYLE
  5
3D
102
{ACAD_REACTORS
330
2A
102
}
330
2A
100
AcDbVisualStyle
  2
EdgeColorOff
 70
    22
177
     3
291
     1
 70
    58
 90
        2
176
     0
 90
        2
176
     0
 90
        0
176
     0
 90
        0
176
     0
 40
0.6
176
     0
 40
30.0
176
     0
 62
     7
420
 16777215
176
     0
 90
        1
176
     0
 90
        4
176
     0
 62
     7
176
     0
 62
   257
176
     0
 90
        1
176
     0
 90
        1
176
     0
 40
1.0
176
     0
 90
        8
176
     2
 62
     7
176
     0
 40
1.0
176
     0
 90
        1
176
     0
 90
        6
176
     0
 90
        2
176
     0
 62
     7
176
     0
 90
        5
176
     0
 90
        0
176
     0
 90
        0
176
     0
290
     0
176
     0
 90
        1
176
     0
 40
0.0
176
     0
 90
        0
176
     0
290
     0
176
     0
290
     1
176
     0
290
     1
176
     0
290
     0
176
     0
290
     0
176
     0
290
     0
176
     0
290
     0
176
     0
290
     0
176
     0
290
     0
176
     0
 90
       50
176
     0
 40
0.0
176
     0
 40
1.0
176
     0
 90
        0
176
     0
 62
    18
420
        0
176
     0
 90
       50
176
     0
 90
        3
176
     0
 62
     5
420
      255
176
     0
290
     0
176
     0
 90
       50
176
     0
 90
       50
176
     0
 90
       50
176
     0
290
     0
176
     0
 90
       50
176
     0
 62
   256
176
     0
 40
1.0
176
     0
 90
        2
176
     0
  1
strokes_ogs.tif
176
     0
290
     0
176
     0
 40
1.0
176
     0
 40
1.0
176
     0
  0
VISUALSTYLE
  5
39
102
{ACAD_REACTORS
330
2A
102
}
330
2A
100
AcDbVisualStyle
  2
Facepattern
 70
    15
177
     3
291
     1
 70
    58
 90
        2
176
     1
 90
        2
176
     1
 90
        0
176
     1
 90
        0
176
     1
 40
0.6
176
     1
 40
30.0
176
     1
 62
     7
420
 16777215
176
     1
 90
        1
176
     1
 90
        4
176
     1
 62
     7
176
     1
 62
   257
176
     1
 90
        1
176
     1
 90
        1
176
     1
 40
1.0
176
     1
 90
        8
176
     1
 62
     7
176
     1
 40
1.0
176
     1
 90
        1
176
     1
 90
        6
176
     1
 90
        2
176
     1
 62
     7
176
     1
 90
        5
176
     1
 90
        0
176
     1
 90
        0
176
     1
290
     0
176
     1
 90
        1
176
     1
 40
0.0
176
     1
 90
        0
176
     1
290
     0
176
     1
290
     1
176
     1
290
     1
176
     1
290
     0
176
     1
290
     0
176
     1
290
     0
176
     1
290
     0
176
     1
290
     0
176
     1
290
     0
176
     1
 90
       50
176
     1
 40
0.0
176
     1
 40
1.0
176
     1
 90
        0
176
     1
 62
    18
420
        0
176
     1
 90
       50
176
     1
 90
        3
176
     1
 62
     5
420
      255
176
     1
290
     0
176
     1
 90
       50
176
     1
 90
       50
176
     1
 90
       50
176
     1
290
     0
176
     1
 90
       50
176
     1
 62
   256
176
     0
 40
1.0
176
     0
 90
        2
176
     1
  1
strokes_ogs.tif
176
     1
290
     0
176
     1
 40
1.0
176
     1
 40
1.0
176
     1
  0
VISUALSTYLE
  5
2B
102
{ACAD_REACTORS
330
2A
102
}
330
2A
100
AcDbVisualStyle
  2
Flat
 70
     0
177
     3
291
     1
 70
    58
 90
        2
176
     1
 90
        1
176
     1
 90
        1
176
     1
 90
        2
176
     1
 40
0.6
176
     1
 40
30.0
176
     1
 62
     7
420
 16777215
176
     1
 90
        0
176
     1
 90
        0
176
     1
 62
     7
176
     1
 62
   257
176
     1
 90
        1
176
     1
 90
        1
176
     1
 40
1.0
176
     1
 90
        8
176
     1
 62
     7
176
     1
 40
1.0
176
     1
 90
        1
176
     1
 90
        6
176
     1
 90
        2
176
     1
 62
     7
176
     1
 90
        5
176
     1
 90
        0
176
     1
 90
        0
176
     1
290
     0
176
     1
 90
       13
176
     1
 40
0.0
176
     1
 90
        0
176
     1
290
     0
176
     1
290
     1
176
     1
290
     1
176
     1
290
     0
176
     1
290
     0
176
     1
290
     0
176
     1
290
     0
176
     1
290
     0
176
     1
290
     0
176
     1
 90
       50
176
     1
 40
0.0
176
     1
 40
1.0
176
     1
 90
        0
176
     1
 62
    18
420
        0
176
     1
 90
       50
176
     1
 90
        3
176
     1
 62
     5
420
      255
176
     1
290
     0
176
     1
 90
       50
176
     1
 90
       50
176
     1
 90
       50
176
     1
290
     0
176
     1
 90
       50
176
     1
 62
   256
176
     0
 40
1.0
176
     0
 90
        2
176
     1
  1
strokes_ogs.tif
176
     1
290
     0
176
     1
 40
1.0
176
     1
 40
1.0
176
     1
  0
VISUALSTYLE
  5
2C
102
{ACAD_REACTORS
330
2A
102
}
330
2A
100
AcDbVisualStyle
  2
FlatWithEdges
 70
     1
177
     3
291
     1
 70
    58
 90
        2
176
     1
 90
        1
176
     1
 90
        1
176
     1
 90
        2
176
     1
 40
0.6
176
     1
 40
30.0
176
     1
 62
     7
420
 16777215
176
     1
 90
        1
176
     1
 90
        0
176
     1
 62
     7
176
     1
 62
   257
176
     1
 90
        1
176
     1
 90
        1
176
     1
 40
1.0
176
     1
 90
        0
176
     1
 62
   257
176
     1
 40
1.0
176
     1
 90
        1
176
     1
 90
        6
176
     1
 90
        2
176
     1
 62
     7
176
     1
 90
        5
176
     1
 90
        0
176
     1
 90
        0
176
     1
290
     0
176
     1
 90
       13
176
     1
 40
0.0
176
     1
 90
        0
176
     1
290
     0
176
     1
290
     1
176
     1
290
     1
176
     1
290
     0
176
     1
290
     0
176
     1
290
     0
176
     1
290
     0
176
     1
290
     0
176
     1
290
     0
176
     1
 90
       50
176
     1
 40
0.0
176
     1
 40
1.0
176
     1
 90
        0
176
     1
 62
    18
420
        0
176
     1
 90
       50
176
     1
 90
        3
176
     1
 62
     5
420
      255
176
     1
290
     0
176
     1
 90
       50
176
     1
 90
       50
176
     1
 90
       50
176
     1
290
     0
176
     1
 90
       50
176
     1
 62
   256
176
     0
 40
1.0
176
     0
 90
        2
176
     1
  1
strokes_ogs.tif
176
     1
290
     0
176
     1
 40
1.0
176
     1
 40
1.0
176
     1
  0
VISUALSTYLE
  5
2D
102
{ACAD_REACTORS
330
2A
102
}
330
2A
100
AcDbVisualStyle
  2
Gouraud
 70
     2
177
     3
291
     1
 70
    58
 90
        2
176
     1
 90
        2
176
     1
 90
        1
176
     1
 90
        2
176
     1
 40
0.6
176
     1
 40
30.0
176
     1
 62
     7
420
 16777215
176
     1
 90
        0
176
     1
 90
        0
176
     1
 62
     7
176
     1
 62
   257
176
     1
 90
        1
176
     1
 90
        1
176
     1
 40
1.0
176
     1
 90
        0
176
     1
 62
     7
176
     1
 40
1.0
176
     1
 90
        1
176
     1
 90
        6
176
     1
 90
        2
176
     1
 62
     7
176
     1
 90
        5
176
     1
 90
        0
176
     1
 90
        0
176
     1
290
     0
176
     1
 90
       13
176
     1
 40
0.0
176
     1
 90
        0
176
     1
290
     0
176
     1
290
     1
176
     1
290
     1
176
     1
290
     0
176
     1
290
     0
176
     1
290
     0
176
     1
290
     0
176
     1
290
     0
176
     1
290
     0
176
     1
 90
       50
176
     1
 40
0.0
176
     1
 40
1.0
176
     1
 90
        0
176
     1
 62
    18
420
        0
176
     1
 90
       50
176
     1
 90
        3
176
     1
 62
     5
420
      255
176
     1
290
     0
176
     1
 90
       50
176
     1
 90
       50
176
     1
 90
       50
176
     1
290
     0
176
     1
 90
       50
176
     1
 62
   256
176
     0
 40
1.0
176
     0
 90
        2
176
     1
  1
strokes_ogs.tif
176
     1
290
     0
176
     1
 40
1.0
176
     1
 40
1.0
176
     1
  0
VISUALSTYLE
  5
2E
102
{ACAD_REACTORS
330
2A
102
}
330
2A
100
AcDbVisualStyle
  2
GouraudWithEdges
 70
     3
177
     3
291
     1
 70
    58
 90
        2
176
     1
 90
        2
176
     1
 90
        1
176
     1
 90
        2
176
     1
 40
0.6
176
     1
 40
30.0
176
     1
 62
     7
420
 16777215
176
     1
 90
        1
176
     1
 90
        0
176
     1
 62
     7
176
     1
 62
   257
176
     1
 90
        1
176
     1
 90
        1
176
     1
 40
1.0
176
     1
 90
        0
176
     1
 62
   257
176
     1
 40
1.0
176
     1
 90
        1
176
     1
 90
        6
176
     1
 90
        2
176
     1
 62
     7
176
     1
 90
        5
176
     1
 90
        0
176
     1
 90
        0
176
     1
290
     0
176
     1
 90
       13
176
     1
 40
0.0
176
     1
 90
        0
176
     1
290
     0
176
     1
290
     1
176
     1
290
     1
176
     1
290
     0
176
     1
290
     0
176
     1
290
     0
176
     1
290
     0
176
     1
290
     0
176
     1
290
     0
176
     1
 90
       50
176
     1
 40
0.0
176
     1
 40
1.0
176
     1
 90
        0
176
     1
 62
    18
420
        0
176
     1
 90
       50
176
     1
 90
        3
176
     1
 62
     5
420
      255
176
     1
290
     0
176
     1
 90
       50
176
     1
 90
       50
176
     1
 90
       50
176
     1
290
     0
176
     1
 90
       50
176
     1
 62
   256
176
     0
 40
1.0
176
     0
 90
        2
176
     1
  1
strokes_ogs.tif
176
     1
290
     0
176
     1
 40
1.0
176
     1
 40
1.0
176
     1
  0
VISUALSTYLE
  5
31
102
{ACAD_REACTORS
330
2A
102
}
330
2A
100
AcDbVisualStyle
  2
Hidden
 70
     6
177
     3
291
     0
 70
    58
 90
        1
176
     1
 90
        2
176
     1
 90
        2
176
     1
 90
        0
176
     1
 40
0.6
176
     1
 40
30.0
176
     1
 62
     7
420
 16777215
176
     1
 90
        2
176
     1
 90
        2
176
     1
 62
     7
176
     1
 62
   257
176
     1
 90
        2
176
     1
 90
        1
176
     1
 40
40.0
176
     1
 90
        0
176
     1
 62
   257
176
     1
 40
1.0
176
     1
 90
        1
176
     1
 90
        6
176
     1
 90
        2
176
     1
 62
     7
176
     1
 90
        3
176
     1
 90
        0
176
     1
 90
        0
176
     1
290
     0
176
     1
 90
        1
176
     1
 40
0.0
176
     1
 90
        0
176
     1
290
     0
176
     1
290
     1
176
     1
290
     1
176
     1
290
     0
176
     1
290
     0
176
     1
290
     0
176
     1
290
     0
176
     1
290
     0
176
     1
290
     0
176
     1
 90
       50
176
     1
 40
0.0
176
     1
 40
1.0
176
     1
 90
        0
176
     1
 62
    18
420
        0
176
     1
 90
       50
176
     1
 90
        3
176
     1
 62
     5
420
      255
176
     1
290
     0
176
     1
 90
       50
176
     1
 90
       50
176
     1
 90
       50
176
     1
290
     0
176
     1
 90
       50
176
     1
 62
   256
176
     0
 40
1.0
176
     0
 90
        2
176
     1
  1
strokes_ogs.tif
176
     1
290
     0
176
     1
 40
1.0
176
     1
 40
1.0
176
     1
  0
VISUALSTYLE
  5
3B
102
{ACAD_REACTORS
330
2A
102
}
330
2A
100
AcDbVisualStyle
  2
JitterOff
 70
    20
177
     3
291
     1
 70
    58
 90
        2
176
     0
 90
        2
176
     0
 90
        0
176
     0
 90
        0
176
     0
 40
0.6
176
     0
 40
30.0
176
     0
 62
     7
420
 16777215
176
     0
 90
        1
176
     0
 90
        4
176
     0
 62
     7
176
     0
 62
   257
176
     0
 90
        1
176
     0
 90
        1
176
     0
 40
1.0
176
     0
 90
       10
176
     2
 62
     7
176
     0
 40
1.0
176
     0
 90
        1
176
     0
 90
        6
176
     0
 90
        2
176
     0
 62
     7
176
     0
 90
        5
176
     0
 90
        0
176
     0
 90
        0
176
     0
290
     0
176
     0
 90
        1
176
     0
 40
0.0
176
     0
 90
        0
176
     0
290
     0
176
     0
290
     1
176
     0
290
     1
176
     0
290
     0
176
     0
290
     0
176
     0
290
     0
176
     0
290
     0
176
     0
290
     0
176
     0
290
     0
176
     0
 90
       50
176
     0
 40
0.0
176
     0
 40
1.0
176
     0
 90
        0
176
     0
 62
    18
420
        0
176
     0
 90
       50
176
     0
 90
        3
176
     0
 62
     5
420
      255
176
     0
290
     0
176
     0
 90
       50
176
     0
 90
       50
176
     0
 90
       50
176
     0
290
     0
176
     0
 90
       50
176
     0
 62
   256
176
     0
 40
1.0
176
     0
 90
        2
176
     0
  1
strokes_ogs.tif
176
     0
290
     0
176
     0
 40
1.0
176
     0
 40
1.0
176
     0
  0
VISUALSTYLE
  5
38
102
{ACAD_REACTORS
330
2A
102
}
330
2A
100
AcDbVisualStyle
  2
Linepattern
 70
    14
177
     3
291
     1
 70
    58
 90
        2
176
     1
 90
        2
176
     1
 90
        0
176
     1
 90
        0
176
     1
 40
0.6
176
     1
 40
30.0
176
     1
 62
     7
420
 16777215
176
     1
 90
        1
176
     1
 90
        4
176
     1
 62
     7
176
     1
 62
   257
176
     1
 90
        7
176
     1
 90
        7
176
     1
 40
1.0
176
     1
 90
        8
176
     1
 62
     7
176
     1
 40
1.0
176
     1
 90
        1
176
     1
 90
        6
176
     1
 90
        2
176
     1
 62
     7
176
     1
 90
        5
176
     1
 90
        0
176
     1
 90
        0
176
     1
290
     0
176
     1
 90
        1
176
     1
 40
0.0
176
     1
 90
        0
176
     1
290
     0
176
     1
290
     1
176
     1
290
     1
176
     1
290
     0
176
     1
290
     0
176
     1
290
     0
176
     1
290
     0
176
     1
290
     0
176
     1
290
     0
176
     1
 90
       50
176
     1
 40
0.0
176
     1
 40
1.0
176
     1
 90
        0
176
     1
 62
    18
420
        0
176
     1
 90
       50
176
     1
 90
        3
176
     1
 62
     5
420
      255
176
     1
290
     0
176
     1
 90
       50
176
     1
 90
       50
176
     1
 90
       50
176
     1
290
     0
176
     1
 90
       50
176
     1
 62
   256
176
     0
 40
1.0
176
     0
 90
        2
176
     1
  1
strokes_ogs.tif
176
     1
290
     0
176
     1
 40
1.0
176
     1
 40
1.0
176
     1
  0
VISUALSTYLE
  5
3C
102
{ACAD_REACTORS
330
2A
102
}
330
2A
100
AcDbVisualStyle
  2
OverhangOff
 70
    21
177
     3
291
     1
 70
    58
 90
        2
176
     0
 90
        2
176
     0
 90
        0
176
     0
 90
        0
176
     0
 40
0.6
176
     0
 40
30.0
176
     0
 62
     7
420
 16777215
176
     0
 90
        1
176
     0
 90
        4
176
     0
 62
     7
176
     0
 62
   257
176
     0
 90
        1
176
     0
 90
        1
176
     0
 40
1.0
176
     0
 90
        9
176
     2
 62
     7
176
     0
 40
1.0
176
     0
 90
        1
176
     0
 90
        6
176
     0
 90
        2
176
     0
 62
     7
176
     0
 90
        5
176
     0
 90
        0
176
     0
 90
        0
176
     0
290
     0
176
     0
 90
        1
176
     0
 40
0.0
176
     0
 90
        0
176
     0
290
     0
176
     0
290
     1
176
     0
290
     1
176
     0
290
     0
176
     0
290
     0
176
     0
290
     0
176
     0
290
     0
176
     0
290
     0
176
     0
290
     0
176
     0
 90
       50
176
     0
 40
0.0
176
     0
 40
1.0
176
     0
 90
        0
176
     0
 62
    18
420
        0
176
     0
 90
       50
176
     0
 90
        3
176
     0
 62
     5
420
      255
176
     0
290
     0
176
     0
 90
       50
176
     0
 90
       50
176
     0
 90
       50
176
     0
290
     0
176
     0
 90
       50
176
     0
 62
   256
176
     0
 40
1.0
176
     0
 90
        2
176
     0
  1
strokes_ogs.tif
176
     0
290
     0
176
     0
 40
1.0
176
     0
 40
1.0
176
     0
  0
VISUALSTYLE
  5
33
102
{ACAD_REACTORS
330
2A
102
}
330
2A
100
AcDbVisualStyle
  2
Realistic
 70
     8
177
     3
291
     0
 70
    58
 90
        2
176
     1
 90
        3
176
     1
 90
        0
176
     1
 90
        2
176
     1
 40
0.6
176
     1
 40
30.0
176
     1
 62
     7
420
 16777215
176
     1
 90
        0
176
     1
 90
        0
176
     1
 62
     7
176
     1
 62
   257
176
     1
 90
        1
176
     1
 90
        1
176
     1
 40
1.0
176
     1
 90
        8
176
     1
 62
   257
176
     1
 40
1.0
176
     1
 90
        1
176
     1
 90
        6
176
     1
 90
        2
176
     1
 62
     7
176
     1
 90
        3
176
     1
 90
        0
176
     1
 90
        0
176
     1
290
     0
176
     1
 90
       13
176
     1
 40
0.0
176
     1
 90
        0
176
     1
290
     0
176
     1
290
     1
176
     1
290
     1
176
     1
290
     0
176
     1
290
     0
176
     1
290
     0
176
     1
290
     0
176
     1
290
     0
176
     1
290
     0
176
     1
 90
       50
176
     1
 40
0.0
176
     1
 40
1.0
176
     1
 90
        0
176
     1
 62
    18
420
        0
176
     1
 90
       50
176
     1
 90
        3
176
     1
 62
     5
420
      255
176
     1
290
     0
176
     1
 90
       50
176
     1
 90
       50
176
     1
 90
       50
176
     1
290
     0
176
     1
 90
       50
176
     1
 62
   256
176
     0
 40
1.0
176
     0
 90
        2
176
     1
  1
strokes_ogs.tif
176
     1
290
     0
176
     1
 40
1.0
176
     1
 40
1.0
176
     1
  0
VISUALSTYLE
  5
42
102
{ACAD_REACTORS
330
2A
102
}
330
2A
100
AcDbVisualStyle
  2
Shaded
 70
    27
177
     3
291
     0
 70
    58
 90
        2
176
     1
 90
        2
176
     1
 90
        1
176
     1
 90
        2
176
     1
 40
0.6
176
     1
 40
30.0
176
     1
 62
     7
420
 16777215
176
     1
 90
        0
176
     1
 90
        4
176
     1
 62
     7
176
     1
 62
   257
176
     1
 90
        1
176
     1
 90
        1
176
     1
 40
1.0
176
     1
 90
        8
176
     1
 62
   257
176
     1
 40
1.0
176
     1
 90
        1
176
     1
 90
        6
176
     1
 90
        2
176
     1
 62
     8
420
  7895160
176
     1
 90
        3
176
     1
 90
        0
176
     1
 90
        0
176
     1
290
     0
176
     1
 90
        5
176
     1
 40
0.0
176
     1
 90
        0
176
     1
290
     0
176
     1
290
     1
176
     1
290
     1
176
     1
290
     0
176
     1
290
     0
176
     1
290
     0
176
     1
290
     0
176
     1
290
     0
176
     1
290
     0
176
     1
 90
       50
176
     1
 40
0.0
176
     1
 40
1.0
176
     1
 90
        0
176
     1
 62
    18
420
        0
176
     1
 90
       50
176
     1
 90
        3
176
     1
 62
     5
420
      255
176
     1
290
     0
176
     1
 90
       50
176
     1
 90
       50
176
     1
 90
       50
176
     1
290
     0
176
     1
 90
       50
176
     1
 62
   256
176
     0
 40
1.0
176
     0
 90
        2
176
     1
  1
strokes_ogs.tif
176
     1
290
     0
176
     1
 40
1.0
176
     1
 40
1.0
176
     1
  0
VISUALSTYLE
  5
41
102
{ACAD_REACTORS
330
2A
102
}
330
2A
100
AcDbVisualStyle
  2
Shaded with edges
 70
    26
177
     3
291
     0
 70
    58
 90
        2
176
     1
 90
        2
176
     1
 90
        1
176
     1
 90
        2
176
     1
 40
0.6
176
     1
 40
30.0
176
     1
 62
     7
420
 16777215
176
     1
 90
        1
176
     1
 90
       10
176
     1
 62
     7
176
     1
 62
   257
176
     1
 90
        2
176
     1
 90
        1
176
     1
 40
1.0
176
     1
 90
        8
176
     1
 62
   257
176
     1
 40
1.0
176
     1
 90
        1
176
     1
 90
        6
176
     1
 90
        2
176
     1
 62
     7
176
     1
 90
        3
176
     1
 90
        0
176
     1
 90
        0
176
     1
290
     0
176
     1
 90
        5
176
     1
 40
0.0
176
     1
 90
        0
176
     1
290
     0
176
     1
290
     1
176
     1
290
     1
176
     1
290
     0
176
     1
290
     0
176
     1
290
     0
176
     1
290
     0
176
     1
290
     0
176
     1
290
     0
176
     1
 90
       50
176
     1
 40
0.0
176
     1
 40
1.0
176
     1
 90
        0
176
     1
 62
    18
420
        0
176
     1
 90
       50
176
     1
 90
        3
176
     1
 62
     5
420
      255
176
     1
290
     0
176
     1
 90
       50
176
     1
 90
       50
176
     1
 90
       50
176
     1
290
     0
176
     1
 90
       50
176
     1
 62
   256
176
     0
 40
1.0
176
     0
 90
        2
176
     1
  1
strokes_ogs.tif
176
     1
290
     0
176
     1
 40
1.0
176
     1
 40
1.0
176
     1
  0
VISUALSTYLE
  5
3E
102
{ACAD_REACTORS
330
2A
102
}
330
2A
100
AcDbVisualStyle
  2
Shades of Gray
 70
    23
177
     3
291
     0
 70
    58
 90
        2
176
     1
 90
        2
176
     1
 90
        3
176
     1
 90
        0
176
     1
 40
0.6
176
     1
 40
30.0
176
     1
 62
     7
420
 16777215
176
     1
 90
        2
176
     1
 90
        2
176
     1
 62
     7
176
     1
 62
     7
176
     1
 90
        1
176
     1
 90
        1
176
     1
 40
40.0
176
     1
 90
        8
176
     1
 62
     7
176
     1
 40
1.0
176
     1
 90
        1
176
     1
 90
        6
176
     1
 90
        2
176
     1
 62
     7
176
     1
 90
        3
176
     1
 90
        0
176
     1
 90
        0
176
     1
290
     0
176
     1
 90
        1
176
     1
 40
0.0
176
     1
 90
        0
176
     1
290
     0
176
     1
290
     1
176
     1
290
     1
176
     1
290
     0
176
     1
290
     0
176
     1
290
     0
176
     1
290
     0
176
     1
290
     0
176
     1
290
     0
176
     1
 90
       50
176
     1
 40
0.0
176
     1
 40
1.0
176
     1
 90
        0
176
     1
 62
    18
420
        0
176
     1
 90
       50
176
     1
 90
        3
176
     1
 62
     5
420
      255
176
     1
290
     0
176
     1
 90
       50
176
     1
 90
       50
176
     1
 90
       50
176
     1
290
     0
176
     1
 90
       50
176
     1
 62
   256
176
     0
 40
1.0
176
     0
 90
        2
176
     1
  1
strokes_ogs.tif
176
     1
290
     0
176
     1
 40
1.0
176
     1
 40
1.0
176
     1
  0
VISUALSTYLE
  5
3F
102
{ACAD_REACTORS
330
2A
102
}
330
2A
100
AcDbVisualStyle
  2
Sketchy
 70
    24
177
     3
291
     0
 70
    58
 90
        1
176
     1
 90
        2
176
     1
 90
        2
176
     1
 90
        0
176
     1
 40
0.6
176
     1
 40
30.0
176
     1
 62
     7
420
 16777215
176
     1
 90
        2
176
     1
 90
        2
176
     1
 62
     7
176
     1
 62
     7
176
     1
 90
        1
176
     1
 90
        1
176
     1
 40
40.0
176
     1
 90
       11
176
     1
 62
     7
176
     1
 40
1.0
176
     1
 90
        1
176
     1
 90
        6
176
     1
 90
        2
176
     1
 62
     7
176
     1
 90
        6
176
     1
 90
        0
176
     1
 90
        0
176
     1
290
     0
176
     1
 90
        1
176
     1
 40
0.0
176
     1
 90
        0
176
     1
290
     0
176
     1
290
     1
176
     1
290
     1
176
     1
290
     0
176
     1
290
     0
176
     1
290
     0
176
     1
290
     0
176
     1
290
     0
176
     1
290
     0
176
     1
 90
       50
176
     1
 40
0.0
176
     1
 40
1.0
176
     1
 90
        0
176
     1
 62
    18
420
        0
176
     1
 90
       50
176
     1
 90
        3
176
     1
 62
     5
420
      255
176
     1
290
     0
176
     1
 90
       50
176
     1
 90
       50
176
     1
 90
       50
176
     1
290
     0
176
     1
 90
       50
176
     1
 62
   256
176
     0
 40
1.0
176
     0
 90
        2
176
     1
  1
strokes_ogs.tif
176
     1
290
     0
176
     1
 40
1.0
176
     1
 40
1.0
176
     1
  0
VISUALSTYLE
  5
37
102
{ACAD_REACTORS
330
2A
102
}
330
2A
100
AcDbVisualStyle
  2
Thicken
 70
    13
177
     3
291
     1
 70
    58
 90
        2
176
     1
 90
        2
176
     1
 90
        0
176
     1
 90
        0
176
     1
 40
0.6
176
     1
 40
30.0
176
     1
 62
     7
420
 16777215
176
     1
 90
        1
176
     1
 90
        4
176
     1
 62
     7
176
     1
 62
   257
176
     1
 90
        1
176
     1
 90
        1
176
     1
 40
1.0
176
     1
 90
       12
176
     1
 62
     7
176
     1
 40
1.0
176
     1
 90
        1
176
     1
 90
        6
176
     1
 90
        2
176
     1
 62
     7
176
     1
 90
        5
176
     1
 90
        0
176
     1
 90
        0
176
     1
290
     0
176
     1
 90
        1
176
     1
 40
0.0
176
     1
 90
        0
176
     1
290
     0
176
     1
290
     1
176
     1
290
     1
176
     1
290
     0
176
     1
290
     0
176
     1
290
     0
176
     1
290
     0
176
     1
290
     0
176
     1
290
     0
176
     1
 90
       50
176
     1
 40
0.0
176
     1
 40
1.0
176
     1
 90
        0
176
     1
 62
    18
420
        0
176
     1
 90
       50
176
     1
 90
        3
176
     1
 62
     5
420
      255
176
     1
290
     0
176
     1
 90
       50
176
     1
 90
       50
176
     1
 90
       50
176
     1
290
     0
176
     1
 90
       50
176
     1
 62
   256
176
     0
 40
1.0
176
     0
 90
        2
176
     1
  1
strokes_ogs.tif
176
     1
290
     0
176
     1
 40
1.0
176
     1
 40
1.0
176
     1
  0
VISUALSTYLE
  5
30
102
{ACAD_REACTORS
330
2A
102
}
330
2A
100
AcDbVisualStyle
  2
Wireframe
 70
     5
177
     3
291
     0
 70
    58
 90
        0
176
     1
 90
        2
176
     1
 90
        0
176
     1
 90
        0
176
     1
 40
0.6
176
     1
 40
30.0
176
     1
 62
     7
420
 16777215
176
     1
 90
        1
176
     1
 90
        4
176
     1
 62
     7
176
     1
 62
   257
176
     1
 90
        1
176
     1
 90
        1
176
     1
 40
1.0
176
     1
 90
        0
176
     1
 62
   257
176
     1
 40
1.0
176
     1
 90
        1
176
     1
 90
        6
176
     1
 90
        2
176
     1
 62
     7
176
     1
 90
        3
176
     1
 90
        0
176
     1
 90
        0
176
     1
290
     0
176
     1
 90
        1
176
     1
 40
0.0
176
     1
 90
        0
176
     1
290
     0
176
     1
290
     1
176
     1
290
     1
176
     1
290
     0
176
     1
290
     0
176
     1
290
     0
176
     1
290
     0
176
     1
290
     0
176
     1
290
     0
176
     1
 90
       50
176
     1
 40
0.0
176
     1
 40
1.0
176
     1
 90
        0
176
     1
 62
    18
420
        0
176
     1
 90
       50
176
     1
 90
        3
176
     1
 62
     5
420
      255
176
     1
290
     0
176
     1
 90
       50
176
     1
 90
       50
176
     1
 90
       50
176
     1
290
     0
176
     1
 90
       50
176
     1
 62
   256
176
     0
 40
1.0
176
     0
 90
        2
176
     1
  1
strokes_ogs.tif
176
     1
290
     0
176
     1
 40
1.0
176
     1
 40
1.0
176
     1
  0
VISUALSTYLE
  5
40
102
{ACAD_REACTORS
330
2A
102
}
330
2A
100
AcDbVisualStyle
  2
X-Ray
 70
    25
177
     3
291
     0
 70
    58
 90
        2
176
     1
 90
        2
176
     1
 90
        1
176
     1
 90
        1
176
     1
 40
0.5
176
     1
 40
30.0
176
     1
 62
     7
420
 16777215
176
     1
 90
        1
176
     1
 90
        0
176
     1
 62
     7
176
     1
 62
   257
176
     1
 90
        1
176
     1
 90
        1
176
     1
 40
1.0
176
     1
 90
        8
176
     1
 62
     7
176
     1
 40
1.0
176
     1
 90
        1
176
     1
 90
        6
176
     1
 90
        2
176
     1
 62
     7
176
     1
 90
        3
176
     1
 90
        0
176
     1
 90
        0
176
     1
290
     0
176
     1
 90
       13
176
     1
 40
0.0
176
     1
 90
        0
176
     1
290
     0
176
     1
290
     1
176
     1
290
     1
176
     1
290
     0
176
     1
290
     0
176
     1
290
     0
176
     1
290
     0
176
     1
290
     0
176
     1
290
     0
176
     1
 90
       50
176
     1
 40
0.0
176
     1
 40
1.0
176
     1
 90
        0
176
     1
 62
    18
420
        0
176
     1
 90
       50
176
     1
 90
        3
176
     1
 62
     5
420
      255
176
     1
290
     0
176
     1
 90
       50
176
     1
 90
       50
176
     1
 90
       50
176
     1
290
     0
176
     1
 90
       50
176
     1
 62
   256
176
     0
 40
1.0
176
     0
 90
        2
176
     1
  1
strokes_ogs.tif
176
     1
290
     0
176
     1
 40
1.0
176
     1
 40
1.0
176
     1
  0
DICTIONARYVAR
  5
2F0
102
{ACAD_REACTORS
330
2EF
102
}
330
2EF
100
DictionaryVariables
280
     0
  1
1:1
  0
ENDSEC
  0
EOF
