  0
SECTION
  2
HEADER
  9
$ACADVER
  1
AC1009
  9
$INSBASE
 10
0.000000
 20
0.000000
  9
$EXTMIN
 10
0.000000
 20
0.000000
  9
$EXTMAX
 10
594.000000
 20
420.000000
  9
$LIMMIN
 10
0.000000
 20
0.000000
  9
$LIMMAX
 10
594.000000
 20
420.000000
  9
$VIEWCTR
 10
297.000000
 20
210.000000
  9
$VIEWSIZE
 40
420.000000
  9
$PEXTMIN
 10
0.000000
 20
0.000000
 30
0.000000
  9
$PEXTMAX
 10
297.000000
 20
210.000000
 30
0.000000
  9
$SNAPMODE
 70
     0
  9
$SNAPUNIT
 10
1.000000
 20
1.000000
  9
$SNAPBASE
 10
0.000000
 20
0.000000
  9
$SNAPANG
 50
0.000000
  9
$SNAPISOPAIR
 70
     0
  9
$SNAPSTYLE
 70
     0
  9
$GRIDMODE
 70
     0
  9
$GRIDUNIT
 10
0.000000
 20
0.000000
  9
$ORTHOMODE
 70
     0
  9
$REGENMODE
 70
     1
  9
$FILLMODE
 70
     1
  9
$QTEXTMODE
 70
     0
  9
$DRAGMODE
 70
     2
  9
$LTSCALE
 40
0.500000
  9
$OSMODE
 70
     0
  9
$ATTMODE
 70
     1
  9
$TEXTSIZE
 40
8.000000
  9
$TRACEWID
 40
0.050000
  9
$TEXTSTYLE
  7
STANDARD
  9
$CLAYER
  8
0
  9
$CELTYPE
  6
BYLAYER
  9
$CECOLOR
 62
   256
  9
$DIMSCALE
 40
1.000000
  9
$DIMASZ
 40
1.000000
  9
$DIMEXO
 40
0.000000
  9
$DIMDLI
 40
0.500000
  9
$DIMRND
 40
0.000000
  9
$DIMDLE
 40
0.000000
  9
$DIMEXE
 40
0.000000
  9
$DIMTP
 40
0.000000
  9
$DIMTM
 40
0.000000
  9
$DIMTXT
 40
4.000000
  9
$DIMCEN
 40
0.000000
  9
$DIMTSZ
 40
0.000000
  9
$DIMTOL
 70
     0
  9
$DIMLIM
 70
     0
  9
$DIMTIH
 70
     1
  9
$DIMTOH
 70
     1
  9
$DIMSE1
 70
     0
  9
$DIMSE2
 70
     0
  9
$DIMTAD
 70
     0
  9
$DIMZIN
 70
     0
  9
$DIMBLK
  1

  9
$DIMASO
 70
     0
  9
$DIMSHO
 70
     0
  9
$DIMPOST
  1

  9
$DIMAPOST
  1

  9
$DIMALT
 70
     0
  9
$DIMALTD
 70
     0
  9
$DIMALTF
 40
25.400000
  9
$DIMLFAC
 40
1.000000
  9
$DIMTOFL
 70
     0
  9
$DIMTVP
 40
0.000000
  9
$DIMTIX
 70
     0
  9
$DIMSOXD
 70
     0
  9
$DIMSAH
 70
     0
  9
$DIMBLKL
  1

  9
$DIMBLKR
  1

  9
$LUNITS
 70
     2
  9
$LUPREC
 70
     2
  9
$AXISMODE
 70
     0
  9
$AXISUNIT
 10
1.000000
 20
1.000000
  9
$SKETCHINC
 40
0.000000
  9
$FILLETRAD
 40
0.000000
  9
$AUNITS
 70
     1
  9
$AUPREC
 70
     2
  9
$MENU
  1
ACAD
  9
$ELEVATION
 40
0.000000
  9
$THICKNESS
 40
0.000000
  9
$VIEWDIR
 10
0.000000
 20
0.000000
 30
1.000000
  9
$LIMCHECK
 70
     1
  9
$BLIPMODE
 70
     1
  9
$CHAMFERA
 40
0.000000
  9
$CHAMFERB
 40
0.000000
  9
$FASTZOOM
 70
     1
  9
$SKPOLY
 70
     0
  9
$TDCREATE
 40
0.000000
  9
$TDUPDATE
 40
0.000000
  9
$TDINDWG
 40
0.000000
  9
$TDUSRTIMER
 40
0.000000
  9
$USRTIMER
 70
     1
  9
$ANGBASE
 50
0.000000
  9
$ANGDIR
 70
     0
  9
$PDMODE
 70
     0
  9
$PDSIZE
 40
0.000000
  9
$PLINEWID
 40
0.000000
  9
$COORDS
 70
     2
  9
$USERI1
 70
     0
  9
$USERI2
 70
     0
  9
$USERI3
 70
     0
  9
$USERI4
 70
     0
  9
$USERI5
 70
     0
  9
$USERR1
 40
0.000000
  9
$USERR2
 40
0.000000
  9
$USERR3
 40
0.000000
  9
$USERR4
 40
0.000000
  9
$USERR5
 40
0.000000
  0
ENDSEC
  0
SECTION
  2
TABLES
  0
TABLE
  2
LTYPE
 70
     5
  0
LTYPE
  2
CONTINUOUS
 70
    64
  3
Solid line
 72
    65
 73
     0
 40
0.0
  0
LTYPE
  2
HIDDEN
 70
    64
  3
------------------------
 72
    65
 73
     2
 40
12.6
 49
8.4
 49
-4.2
  0
LTYPE
  2
DOT
 70
    64
  3
････････････････････････
 72
    65
 73
     2
 40
8.0
 49
6.0
 49
-2.0
  0
LTYPE
  2
DASHDOT
 70
    64
  3
--･--･--･--･--･--･--･--
 72
    65
 73
     4
 40
50.5
 49
30.0
 49
-9.0
 49
2.5
 49
-9.0
  0
LTYPE
  2
DIVIDE
 70
    64
  3
--･･--･･--･･--･･--･･--
 72
    65
 73
     6
 40
58.0
 49
30.0
 49
-9.0
 49
2.5
 49
-5.0
 49
2.5
 49
-9.0
  0
LTYPE
  2
ACAD_ISO06W100
 70
    64
  3
____ ... ____ ... ____
 72
    65
 73
     8
 40
37.5
 49
24.0
 49
-3.0
 49
0.5
 49
-3.0
 49
0.5
 49
-3.0
 49
0.5
 49
-3.0
  0
LTYPE
  2
ACAD_ISO14W100
 70
    64
  3
__ . . . __ . . . __ . . . 
 72
    65
 73
     8
 40
25.5
 49
12.0
 49
-3.0
 49
0.5
 49
-3.0
 49
0.5
 49
-3.0
 49
0.5
 49
-3.0
  0
ENDTAB
  0
TABLE
  2
LAYER
 70
5
  0
LAYER
  2
1
 70
64
 62
7
  6
CONTINUOUS
  0
LAYER
  2
2
 70
64
 62
134
  6
CONTINUOUS
  0
LAYER
  2
3
 70
64
 62
214
  6
CONTINUOUS
  0
LAYER
  2
5
 70
64
 62
94
  6
CONTINUOUS
  0
LAYER
  2
6
 70
64
 62
14
  6
CONTINUOUS
  0
ENDTAB
  0
TABLE
  2
STYLE
 70
     2
  0
STYLE
  2
STANDARD
 70
    64
 40
0.0
 41
1.0
 50
0.0
 71
     0
 42
0.2
  3
TXT
  4

  0
STYLE
  2
KANJI
 70
    64
 40
0.0
 41
1.0
 50
0.0
 71
     0
 42
0.2
  3
TXT
  4
BIGFONT
  0
ENDTAB
  0
TABLE
  2
VIEW
 70
     0
  0
ENDTAB
  0
ENDSEC
  0
SECTION
  2
BLOCKS
  0
BLOCK
  8
2
 62
134
  6
CONTINUOUS
  2
*D1
 70
    65
 10
0.0
 20
0.0
  0
LINE
  8
2
 62
134
  6
CONTINUOUS
 10
201.627933
 20
250.769271
 11
251.627933
 21
250.769271
  0
LINE
  8
2
 62
134
  6
CONTINUOUS
 10
201.627933
 20
252.769271
 11
201.627933
 21
245.904881
  0
LINE
  8
2
 62
134
  6
CONTINUOUS
 10
251.627933
 20
252.769271
 11
251.627933
 21
204.689971
  0
LINE
  8
2
 62
134
  6
CONTINUOUS
 10
201.627933
 20
250.769271
 11
205.491636
 21
251.804547
  0
LINE
  8
2
 62
134
  6
CONTINUOUS
 10
201.627933
 20
250.769271
 11
205.491636
 21
249.733995
  0
LINE
  8
2
 62
134
  6
CONTINUOUS
 10
205.491636
 20
251.804547
 11
205.491636
 21
249.733995
  0
LINE
  8
2
 62
134
  6
CONTINUOUS
 10
202.593859
 20
250.769271
 11
204.525710
 21
251.286909
  0
LINE
  8
2
 62
134
  6
CONTINUOUS
 10
202.593859
 20
250.769271
 11
204.525710
 21
250.251633
  0
LINE
  8
2
 62
134
  6
CONTINUOUS
 10
204.525710
 20
251.286909
 11
204.525710
 21
250.251633
  0
LINE
  8
2
 62
134
  6
CONTINUOUS
 10
251.627933
 20
250.769271
 11
247.764230
 21
249.733995
  0
LINE
  8
2
 62
134
  6
CONTINUOUS
 10
251.627933
 20
250.769271
 11
247.764230
 21
251.804547
  0
LINE
  8
2
 62
134
  6
CONTINUOUS
 10
247.764230
 20
249.733995
 11
247.764230
 21
251.804547
  0
LINE
  8
2
 62
134
  6
CONTINUOUS
 10
250.662007
 20
250.769271
 11
248.730155
 21
250.251633
  0
LINE
  8
2
 62
134
  6
CONTINUOUS
 10
250.662007
 20
250.769271
 11
248.730155
 21
251.286909
  0
LINE
  8
2
 62
134
  6
CONTINUOUS
 10
248.730155
 20
250.251633
 11
248.730155
 21
251.286909
  0
TEXT
  8
2
 62
134
  6
CONTINUOUS
 10
221.778387
 20
250.769271
 40
8.000000
 41
0.500000
  1
50
  7
KANJI
 50
0.000000
 51
0.000000
  0
ENDBLK
  0
BLOCK
  8
2
 62
134
  6
CONTINUOUS
  2
*D2
 70
    65
 10
0.0
 20
0.0
  0
LINE
  8
2
 62
134
  6
CONTINUOUS
 10
550.948247
 20
95.961947
 11
550.948247
 21
181.961947
  0
LINE
  8
2
 62
134
  6
CONTINUOUS
 10
554.948247
 20
95.961947
 11
526.725601
 21
95.961947
  0
LINE
  8
2
 62
134
  6
CONTINUOUS
 10
554.948247
 20
181.961947
 11
532.722212
 21
181.961947
  0
LINE
  8
2
 62
134
  6
CONTINUOUS
 10
550.948247
 20
95.961947
 11
549.912971
 21
99.825650
  0
LINE
  8
2
 62
134
  6
CONTINUOUS
 10
550.948247
 20
95.961947
 11
551.983523
 21
99.825650
  0
LINE
  8
2
 62
134
  6
CONTINUOUS
 10
549.912971
 20
99.825650
 11
551.983523
 21
99.825650
  0
LINE
  8
2
 62
134
  6
CONTINUOUS
 10
550.948247
 20
96.927873
 11
550.430609
 21
98.859724
  0
LINE
  8
2
 62
134
  6
CONTINUOUS
 10
550.948247
 20
96.927873
 11
551.465885
 21
98.859724
  0
LINE
  8
2
 62
134
  6
CONTINUOUS
 10
550.430609
 20
98.859724
 11
551.465885
 21
98.859724
  0
LINE
  8
2
 62
134
  6
CONTINUOUS
 10
550.948247
 20
181.961947
 11
551.983523
 21
178.098243
  0
LINE
  8
2
 62
134
  6
CONTINUOUS
 10
550.948247
 20
181.961947
 11
549.912971
 21
178.098243
  0
LINE
  8
2
 62
134
  6
CONTINUOUS
 10
551.983523
 20
178.098243
 11
549.912971
 21
178.098243
  0
LINE
  8
2
 62
134
  6
CONTINUOUS
 10
550.948247
 20
180.996021
 11
551.465885
 21
179.064169
  0
LINE
  8
2
 62
134
  6
CONTINUOUS
 10
550.948247
 20
180.996021
 11
550.430609
 21
179.064169
  0
LINE
  8
2
 62
134
  6
CONTINUOUS
 10
551.465885
 20
179.064169
 11
550.430609
 21
179.064169
  0
TEXT
  8
2
 62
134
  6
CONTINUOUS
 10
550.948247
 20
139.315892
 40
8.000000
 41
0.500000
  1
86
  7
KANJI
 50
90.000000
 51
30.000000
  0
ENDBLK
  0
BLOCK
  8
2
 62
134
  6
CONTINUOUS
  2
*D3
 70
    65
 10
0.0
 20
0.0
  0
LINE
  8
2
 62
134
  6
CONTINUOUS
 10
505.256022
 20
73.553842
 11
540.195180
 21
73.553842
  0
LINE
  8
2
 62
134
  6
CONTINUOUS
 10
505.256022
 20
69.553842
 11
505.256022
 21
105.410600
  0
LINE
  8
2
 62
134
  6
CONTINUOUS
 10
540.195180
 20
69.553842
 11
540.195180
 21
106.245916
  0
LINE
  8
2
 62
134
  6
CONTINUOUS
 10
505.256022
 20
73.553842
 11
509.119726
 21
74.589118
  0
LINE
  8
2
 62
134
  6
CONTINUOUS
 10
505.256022
 20
73.553842
 11
509.119726
 21
72.518566
  0
LINE
  8
2
 62
134
  6
CONTINUOUS
 10
509.119726
 20
74.589118
 11
509.119726
 21
72.518566
  0
LINE
  8
2
 62
134
  6
CONTINUOUS
 10
506.221948
 20
73.553842
 11
508.153800
 21
74.071480
  0
LINE
  8
2
 62
134
  6
CONTINUOUS
 10
506.221948
 20
73.553842
 11
508.153800
 21
73.036204
  0
LINE
  8
2
 62
134
  6
CONTINUOUS
 10
508.153800
 20
74.071480
 11
508.153800
 21
73.036204
  0
LINE
  8
2
 62
134
  6
CONTINUOUS
 10
540.195180
 20
73.553842
 11
536.331477
 21
72.518566
  0
LINE
  8
2
 62
134
  6
CONTINUOUS
 10
540.195180
 20
73.553842
 11
536.331477
 21
74.589118
  0
LINE
  8
2
 62
134
  6
CONTINUOUS
 10
536.331477
 20
72.518566
 11
536.331477
 21
74.589118
  0
LINE
  8
2
 62
134
  6
CONTINUOUS
 10
539.229254
 20
73.553842
 11
537.297403
 21
73.036204
  0
LINE
  8
2
 62
134
  6
CONTINUOUS
 10
539.229254
 20
73.553842
 11
537.297403
 21
74.071480
  0
LINE
  8
2
 62
134
  6
CONTINUOUS
 10
537.297403
 20
73.036204
 11
537.297403
 21
74.071480
  0
TEXT
  8
2
 62
134
  6
CONTINUOUS
 10
514.949132
 20
73.553842
 40
8.000000
 41
1.000000
  1
φ35
  7
KANJI
 50
0.000000
 51
30.000000
  0
ENDBLK
  0
BLOCK
  8
2
 62
134
  6
CONTINUOUS
  2
*D4
 70
    65
 10
0.0
 20
0.0
  0
LINE
  8
2
 62
134
  6
CONTINUOUS
 10
490.721639
 20
250.174125
 11
544.725224
 21
250.174125
  0
LINE
  8
2
 62
134
  6
CONTINUOUS
 10
516.725238
 20
254.174125
 11
516.725238
 21
239.374377
  0
LINE
  8
2
 62
134
  6
CONTINUOUS
 10
528.725224
 20
254.174125
 11
528.725224
 21
236.235045
  0
LINE
  8
2
 62
134
  6
CONTINUOUS
 10
516.725238
 20
250.174125
 11
512.861534
 21
249.138849
  0
LINE
  8
2
 62
134
  6
CONTINUOUS
 10
516.725238
 20
250.174125
 11
512.861534
 21
251.209402
  0
LINE
  8
2
 62
134
  6
CONTINUOUS
 10
512.861534
 20
249.138849
 11
512.861534
 21
251.209402
  0
LINE
  8
2
 62
134
  6
CONTINUOUS
 10
515.759312
 20
250.174125
 11
513.827460
 21
249.656487
  0
LINE
  8
2
 62
134
  6
CONTINUOUS
 10
515.759312
 20
250.174125
 11
513.827460
 21
250.691764
  0
LINE
  8
2
 62
134
  6
CONTINUOUS
 10
513.827460
 20
249.656487
 11
513.827460
 21
250.691764
  0
LINE
  8
2
 62
134
  6
CONTINUOUS
 10
528.725224
 20
250.174125
 11
532.588927
 21
251.209402
  0
LINE
  8
2
 62
134
  6
CONTINUOUS
 10
528.725224
 20
250.174125
 11
532.588927
 21
249.138849
  0
LINE
  8
2
 62
134
  6
CONTINUOUS
 10
532.588927
 20
251.209402
 11
532.588927
 21
249.138849
  0
LINE
  8
2
 62
134
  6
CONTINUOUS
 10
529.691149
 20
250.174125
 11
531.623001
 21
250.691764
  0
LINE
  8
2
 62
134
  6
CONTINUOUS
 10
529.691149
 20
250.174125
 11
531.623001
 21
249.656487
  0
LINE
  8
2
 62
134
  6
CONTINUOUS
 10
531.623001
 20
250.691764
 11
531.623001
 21
249.656487
  0
TEXT
  8
2
 62
134
  6
CONTINUOUS
 10
492.721639
 20
250.174125
 40
8.000000
 41
1.000000
  1
φ12
  7
KANJI
 50
0.000000
 51
30.000000
  0
ENDBLK
  0
BLOCK
  8
2
 62
134
  6
CONTINUOUS
  2
*D5
 70
    65
 10
0.0
 20
0.0
  0
LINE
  8
2
 62
134
  6
CONTINUOUS
 10
46.679254
 20
56.250638
 11
138.679254
 21
56.250638
  0
LINE
  8
2
 62
134
  6
CONTINUOUS
 10
46.679254
 20
52.250638
 11
46.679254
 21
65.404881
  0
LINE
  8
2
 62
134
  6
CONTINUOUS
 10
138.679254
 20
52.250638
 11
138.679254
 21
65.404881
  0
LINE
  8
2
 62
134
  6
CONTINUOUS
 10
46.679254
 20
56.250638
 11
50.542957
 21
57.285914
  0
LINE
  8
2
 62
134
  6
CONTINUOUS
 10
46.679254
 20
56.250638
 11
50.542957
 21
55.215362
  0
LINE
  8
2
 62
134
  6
CONTINUOUS
 10
50.542957
 20
57.285914
 11
50.542957
 21
55.215362
  0
LINE
  8
2
 62
134
  6
CONTINUOUS
 10
47.645180
 20
56.250638
 11
49.577031
 21
56.768276
  0
LINE
  8
2
 62
134
  6
CONTINUOUS
 10
47.645180
 20
56.250638
 11
49.577031
 21
55.733000
  0
LINE
  8
2
 62
134
  6
CONTINUOUS
 10
49.577031
 20
56.768276
 11
49.577031
 21
55.733000
  0
LINE
  8
2
 62
134
  6
CONTINUOUS
 10
138.679254
 20
56.250638
 11
134.815551
 21
55.215362
  0
LINE
  8
2
 62
134
  6
CONTINUOUS
 10
138.679254
 20
56.250638
 11
134.815551
 21
57.285914
  0
LINE
  8
2
 62
134
  6
CONTINUOUS
 10
134.815551
 20
55.215362
 11
134.815551
 21
57.285914
  0
LINE
  8
2
 62
134
  6
CONTINUOUS
 10
137.713328
 20
56.250638
 11
135.781477
 21
55.733000
  0
LINE
  8
2
 62
134
  6
CONTINUOUS
 10
137.713328
 20
56.250638
 11
135.781477
 21
56.768276
  0
LINE
  8
2
 62
134
  6
CONTINUOUS
 10
135.781477
 20
55.733000
 11
135.781477
 21
56.768276
  0
TEXT
  8
2
 62
134
  6
CONTINUOUS
 10
88.679254
 20
56.250638
 40
8.000000
 41
0.500000
  1
92
  7
KANJI
 50
0.000000
 51
30.000000
  0
ENDBLK
  0
BLOCK
  8
2
 62
134
  6
CONTINUOUS
  2
*D6
 70
    65
 10
0.0
 20
0.0
  0
LINE
  8
2
 62
134
  6
CONTINUOUS
 10
35.679254
 20
45.447654
 11
149.679254
 21
45.447654
  0
LINE
  8
2
 62
134
  6
CONTINUOUS
 10
35.679254
 20
43.447654
 11
35.679254
 21
75.404881
  0
LINE
  8
2
 62
134
  6
CONTINUOUS
 10
149.679254
 20
43.447654
 11
149.679254
 21
75.404881
  0
LINE
  8
2
 62
134
  6
CONTINUOUS
 10
35.679254
 20
45.447654
 11
39.542957
 21
46.482930
  0
LINE
  8
2
 62
134
  6
CONTINUOUS
 10
35.679254
 20
45.447654
 11
39.542957
 21
44.412378
  0
LINE
  8
2
 62
134
  6
CONTINUOUS
 10
39.542957
 20
46.482930
 11
39.542957
 21
44.412378
  0
LINE
  8
2
 62
134
  6
CONTINUOUS
 10
36.645180
 20
45.447654
 11
38.577031
 21
45.965292
  0
LINE
  8
2
 62
134
  6
CONTINUOUS
 10
36.645180
 20
45.447654
 11
38.577031
 21
44.930016
  0
LINE
  8
2
 62
134
  6
CONTINUOUS
 10
38.577031
 20
45.965292
 11
38.577031
 21
44.930016
  0
LINE
  8
2
 62
134
  6
CONTINUOUS
 10
149.679254
 20
45.447654
 11
145.815551
 21
44.412378
  0
LINE
  8
2
 62
134
  6
CONTINUOUS
 10
149.679254
 20
45.447654
 11
145.815551
 21
46.482930
  0
LINE
  8
2
 62
134
  6
CONTINUOUS
 10
145.815551
 20
44.412378
 11
145.815551
 21
46.482930
  0
LINE
  8
2
 62
134
  6
CONTINUOUS
 10
148.713328
 20
45.447654
 11
146.781477
 21
44.930016
  0
LINE
  8
2
 62
134
  6
CONTINUOUS
 10
148.713328
 20
45.447654
 11
146.781477
 21
45.965292
  0
LINE
  8
2
 62
134
  6
CONTINUOUS
 10
146.781477
 20
44.930016
 11
146.781477
 21
45.965292
  0
TEXT
  8
2
 62
134
  6
CONTINUOUS
 10
87.700629
 20
45.447654
 40
8.000000
 41
0.500000
  1
114
  7
KANJI
 50
0.000000
 51
0.000000
  0
ENDBLK
  0
BLOCK
  8
2
 62
134
  6
CONTINUOUS
  2
*D7
 70
    65
 10
0.0
 20
0.0
  0
LINE
  8
2
 62
134
  6
CONTINUOUS
 10
201.627933
 20
59.026409
 11
244.627933
 21
59.026409
  0
LINE
  8
2
 62
134
  6
CONTINUOUS
 10
217.627933
 20
55.026409
 11
217.627933
 21
82.298214
  0
LINE
  8
2
 62
134
  6
CONTINUOUS
 10
228.627933
 20
55.026409
 11
228.627933
 21
75.895268
  0
LINE
  8
2
 62
134
  6
CONTINUOUS
 10
217.627933
 20
59.026409
 11
213.764230
 21
57.991133
  0
LINE
  8
2
 62
134
  6
CONTINUOUS
 10
217.627933
 20
59.026409
 11
213.764230
 21
60.061685
  0
LINE
  8
2
 62
134
  6
CONTINUOUS
 10
213.764230
 20
57.991133
 11
213.764230
 21
60.061685
  0
LINE
  8
2
 62
134
  6
CONTINUOUS
 10
216.662007
 20
59.026409
 11
214.730155
 21
58.508771
  0
LINE
  8
2
 62
134
  6
CONTINUOUS
 10
216.662007
 20
59.026409
 11
214.730155
 21
59.544047
  0
LINE
  8
2
 62
134
  6
CONTINUOUS
 10
214.730155
 20
58.508771
 11
214.730155
 21
59.544047
  0
LINE
  8
2
 62
134
  6
CONTINUOUS
 10
228.627933
 20
59.026409
 11
232.491636
 21
60.061685
  0
LINE
  8
2
 62
134
  6
CONTINUOUS
 10
228.627933
 20
59.026409
 11
232.491636
 21
57.991133
  0
LINE
  8
2
 62
134
  6
CONTINUOUS
 10
232.491636
 20
60.061685
 11
232.491636
 21
57.991133
  0
LINE
  8
2
 62
134
  6
CONTINUOUS
 10
229.593859
 20
59.026409
 11
231.525710
 21
59.544047
  0
LINE
  8
2
 62
134
  6
CONTINUOUS
 10
229.593859
 20
59.026409
 11
231.525710
 21
58.508771
  0
LINE
  8
2
 62
134
  6
CONTINUOUS
 10
231.525710
 20
59.544047
 11
231.525710
 21
58.508771
  0
TEXT
  8
2
 62
134
  6
CONTINUOUS
 10
218.330707
 20
59.026409
 40
8.000000
 41
0.500000
  1
11
  7
KANJI
 50
0.000000
 51
30.000000
  0
ENDBLK
  0
BLOCK
  8
2
 62
134
  6
CONTINUOUS
  2
*D8
 70
    65
 10
0.0
 20
0.0
  0
LINE
  8
2
 62
134
  6
CONTINUOUS
 10
217.627933
 20
47.169102
 11
270.627933
 21
47.169102
  0
LINE
  8
2
 62
134
  6
CONTINUOUS
 10
217.627933
 20
43.169102
 11
217.627933
 21
78.503876
  0
LINE
  8
2
 62
134
  6
CONTINUOUS
 10
270.627933
 20
43.169102
 11
270.627933
 21
50.994925
  0
LINE
  8
2
 62
134
  6
CONTINUOUS
 10
217.627933
 20
47.169102
 11
221.491636
 21
48.204379
  0
LINE
  8
2
 62
134
  6
CONTINUOUS
 10
217.627933
 20
47.169102
 11
221.491636
 21
46.133826
  0
LINE
  8
2
 62
134
  6
CONTINUOUS
 10
221.491636
 20
48.204379
 11
221.491636
 21
46.133826
  0
LINE
  8
2
 62
134
  6
CONTINUOUS
 10
218.593859
 20
47.169102
 11
220.525710
 21
47.686740
  0
LINE
  8
2
 62
134
  6
CONTINUOUS
 10
218.593859
 20
47.169102
 11
220.525710
 21
46.651464
  0
LINE
  8
2
 62
134
  6
CONTINUOUS
 10
220.525710
 20
47.686740
 11
220.525710
 21
46.651464
  0
LINE
  8
2
 62
134
  6
CONTINUOUS
 10
270.627933
 20
47.169102
 11
266.764230
 21
46.133826
  0
LINE
  8
2
 62
134
  6
CONTINUOUS
 10
270.627933
 20
47.169102
 11
266.764230
 21
48.204379
  0
LINE
  8
2
 62
134
  6
CONTINUOUS
 10
266.764230
 20
46.133826
 11
266.764230
 21
48.204379
  0
LINE
  8
2
 62
134
  6
CONTINUOUS
 10
269.662007
 20
47.169102
 11
267.730155
 21
46.651464
  0
LINE
  8
2
 62
134
  6
CONTINUOUS
 10
269.662007
 20
47.169102
 11
267.730155
 21
47.686740
  0
LINE
  8
2
 62
134
  6
CONTINUOUS
 10
267.730155
 20
46.651464
 11
267.730155
 21
47.686740
  0
TEXT
  8
2
 62
134
  6
CONTINUOUS
 10
234.962420
 20
47.169102
 40
8.000000
 41
0.500000
  1
53
  7
KANJI
 50
0.000000
 51
30.000000
  0
ENDBLK
  0
BLOCK
  8
2
 62
134
  6
CONTINUOUS
  2
*D9
 70
    65
 10
0.0
 20
0.0
  0
LINE
  8
2
 62
134
  6
CONTINUOUS
 10
201.627933
 20
47.169102
 11
217.627933
 21
47.169102
  0
LINE
  8
2
 62
134
  6
CONTINUOUS
 10
201.627933
 20
45.169102
 11
201.627933
 21
112.904881
  0
LINE
  8
2
 62
134
  6
CONTINUOUS
 10
217.627933
 20
45.169102
 11
217.627933
 21
75.404881
  0
LINE
  8
2
 62
134
  6
CONTINUOUS
 10
201.627933
 20
47.169102
 11
205.491636
 21
48.204379
  0
LINE
  8
2
 62
134
  6
CONTINUOUS
 10
201.627933
 20
47.169102
 11
205.491636
 21
46.133826
  0
LINE
  8
2
 62
134
  6
CONTINUOUS
 10
205.491636
 20
48.204379
 11
205.491636
 21
46.133826
  0
LINE
  8
2
 62
134
  6
CONTINUOUS
 10
202.593859
 20
47.169102
 11
204.525710
 21
47.686740
  0
LINE
  8
2
 62
134
  6
CONTINUOUS
 10
202.593859
 20
47.169102
 11
204.525710
 21
46.651464
  0
LINE
  8
2
 62
134
  6
CONTINUOUS
 10
204.525710
 20
47.686740
 11
204.525710
 21
46.651464
  0
LINE
  8
2
 62
134
  6
CONTINUOUS
 10
217.627933
 20
47.169102
 11
213.764230
 21
46.133826
  0
LINE
  8
2
 62
134
  6
CONTINUOUS
 10
217.627933
 20
47.169102
 11
213.764230
 21
48.204379
  0
LINE
  8
2
 62
134
  6
CONTINUOUS
 10
213.764230
 20
46.133826
 11
213.764230
 21
48.204379
  0
LINE
  8
2
 62
134
  6
CONTINUOUS
 10
216.662007
 20
47.169102
 11
214.730155
 21
46.651464
  0
LINE
  8
2
 62
134
  6
CONTINUOUS
 10
216.662007
 20
47.169102
 11
214.730155
 21
47.686740
  0
LINE
  8
2
 62
134
  6
CONTINUOUS
 10
214.730155
 20
46.651464
 11
214.730155
 21
47.686740
  0
TEXT
  8
2
 62
134
  6
CONTINUOUS
 10
205.524816
 20
47.169102
 40
8.000000
 41
0.500000
  1
16
  7
KANJI
 50
0.000000
 51
0.000000
  0
ENDBLK
  0
BLOCK
  8
2
 62
134
  6
CONTINUOUS
  2
*D10
 70
    65
 10
0.0
 20
0.0
  0
LINE
  8
2
 62
134
  6
CONTINUOUS
 10
270.627933
 20
47.169102
 11
339.627933
 21
47.169102
  0
LINE
  8
2
 62
134
  6
CONTINUOUS
 10
270.627933
 20
43.169102
 11
270.627933
 21
64.749400
  0
LINE
  8
2
 62
134
  6
CONTINUOUS
 10
339.627933
 20
43.169102
 11
339.627933
 21
75.420976
  0
LINE
  8
2
 62
134
  6
CONTINUOUS
 10
270.627933
 20
47.169102
 11
274.491636
 21
48.204379
  0
LINE
  8
2
 62
134
  6
CONTINUOUS
 10
270.627933
 20
47.169102
 11
274.491636
 21
46.133826
  0
LINE
  8
2
 62
134
  6
CONTINUOUS
 10
274.491636
 20
48.204379
 11
274.491636
 21
46.133826
  0
LINE
  8
2
 62
134
  6
CONTINUOUS
 10
271.593859
 20
47.169102
 11
273.525710
 21
47.686740
  0
LINE
  8
2
 62
134
  6
CONTINUOUS
 10
271.593859
 20
47.169102
 11
273.525710
 21
46.651464
  0
LINE
  8
2
 62
134
  6
CONTINUOUS
 10
273.525710
 20
47.686740
 11
273.525710
 21
46.651464
  0
LINE
  8
2
 62
134
  6
CONTINUOUS
 10
339.627933
 20
47.169102
 11
335.764230
 21
46.133826
  0
LINE
  8
2
 62
134
  6
CONTINUOUS
 10
339.627933
 20
47.169102
 11
335.764230
 21
48.204379
  0
LINE
  8
2
 62
134
  6
CONTINUOUS
 10
335.764230
 20
46.133826
 11
335.764230
 21
48.204379
  0
LINE
  8
2
 62
134
  6
CONTINUOUS
 10
338.662007
 20
47.169102
 11
336.730155
 21
46.651464
  0
LINE
  8
2
 62
134
  6
CONTINUOUS
 10
338.662007
 20
47.169102
 11
336.730155
 21
47.686740
  0
LINE
  8
2
 62
134
  6
CONTINUOUS
 10
336.730155
 20
46.651464
 11
336.730155
 21
47.686740
  0
TEXT
  8
2
 62
134
  6
CONTINUOUS
 10
299.908975
 20
47.169102
 40
8.000000
 41
0.500000
  1
69
  7
KANJI
 50
0.000000
 51
30.000000
  0
ENDBLK
  0
BLOCK
  8
2
 62
134
  6
CONTINUOUS
  2
*D11
 70
    65
 10
0.0
 20
0.0
  0
LINE
  8
2
 62
134
  6
CONTINUOUS
 10
197.261972
 20
53.404881
 11
197.261972
 21
93.404881
  0
LINE
  8
2
 62
134
  6
CONTINUOUS
 10
193.261972
 20
69.404881
 11
221.977470
 21
69.404881
  0
LINE
  8
2
 62
134
  6
CONTINUOUS
 10
193.261972
 20
77.404881
 11
221.845140
 21
77.404881
  0
LINE
  8
2
 62
134
  6
CONTINUOUS
 10
197.261972
 20
69.404881
 11
198.297249
 21
65.541178
  0
LINE
  8
2
 62
134
  6
CONTINUOUS
 10
197.261972
 20
69.404881
 11
196.226696
 21
65.541178
  0
LINE
  8
2
 62
134
  6
CONTINUOUS
 10
198.297249
 20
65.541178
 11
196.226696
 21
65.541178
  0
LINE
  8
2
 62
134
  6
CONTINUOUS
 10
197.261972
 20
68.438955
 11
197.779611
 21
66.507104
  0
LINE
  8
2
 62
134
  6
CONTINUOUS
 10
197.261972
 20
68.438955
 11
196.744334
 21
66.507104
  0
LINE
  8
2
 62
134
  6
CONTINUOUS
 10
197.779611
 20
66.507104
 11
196.744334
 21
66.507104
  0
LINE
  8
2
 62
134
  6
CONTINUOUS
 10
197.261972
 20
77.404881
 11
196.226696
 21
81.268584
  0
LINE
  8
2
 62
134
  6
CONTINUOUS
 10
197.261972
 20
77.404881
 11
198.297249
 21
81.268584
  0
LINE
  8
2
 62
134
  6
CONTINUOUS
 10
196.226696
 20
81.268584
 11
198.297249
 21
81.268584
  0
LINE
  8
2
 62
134
  6
CONTINUOUS
 10
197.261972
 20
78.370807
 11
196.744334
 21
80.302659
  0
LINE
  8
2
 62
134
  6
CONTINUOUS
 10
197.261972
 20
78.370807
 11
197.779611
 21
80.302659
  0
LINE
  8
2
 62
134
  6
CONTINUOUS
 10
196.744334
 20
80.302659
 11
197.779611
 21
80.302659
  0
TEXT
  8
2
 62
134
  6
CONTINUOUS
 10
197.261972
 20
71.680531
 40
8.000000
 41
0.500000
  1
8
  7
KANJI
 50
90.000000
 51
30.000000
  0
ENDBLK
  0
BLOCK
  8
2
 62
134
  6
CONTINUOUS
  2
*D12
 70
    65
 10
0.0
 20
0.0
  0
LINE
  8
2
 62
134
  6
CONTINUOUS
 10
228.627933
 20
59.026409
 11
328.627933
 21
59.026409
  0
LINE
  8
2
 62
134
  6
CONTINUOUS
 10
228.627933
 20
55.026409
 11
228.627933
 21
65.404881
  0
LINE
  8
2
 62
134
  6
CONTINUOUS
 10
328.627933
 20
55.026409
 11
328.627933
 21
65.404881
  0
LINE
  8
2
 62
134
  6
CONTINUOUS
 10
228.627933
 20
59.026409
 11
232.491636
 21
60.061685
  0
LINE
  8
2
 62
134
  6
CONTINUOUS
 10
228.627933
 20
59.026409
 11
232.491636
 21
57.991133
  0
LINE
  8
2
 62
134
  6
CONTINUOUS
 10
232.491636
 20
60.061685
 11
232.491636
 21
57.991133
  0
LINE
  8
2
 62
134
  6
CONTINUOUS
 10
229.593859
 20
59.026409
 11
231.525710
 21
59.544047
  0
LINE
  8
2
 62
134
  6
CONTINUOUS
 10
229.593859
 20
59.026409
 11
231.525710
 21
58.508771
  0
LINE
  8
2
 62
134
  6
CONTINUOUS
 10
231.525710
 20
59.544047
 11
231.525710
 21
58.508771
  0
LINE
  8
2
 62
134
  6
CONTINUOUS
 10
328.627933
 20
59.026409
 11
324.764230
 21
57.991133
  0
LINE
  8
2
 62
134
  6
CONTINUOUS
 10
328.627933
 20
59.026409
 11
324.764230
 21
60.061685
  0
LINE
  8
2
 62
134
  6
CONTINUOUS
 10
324.764230
 20
57.991133
 11
324.764230
 21
60.061685
  0
LINE
  8
2
 62
134
  6
CONTINUOUS
 10
327.662007
 20
59.026409
 11
325.730155
 21
58.508771
  0
LINE
  8
2
 62
134
  6
CONTINUOUS
 10
327.662007
 20
59.026409
 11
325.730155
 21
59.544047
  0
LINE
  8
2
 62
134
  6
CONTINUOUS
 10
325.730155
 20
58.508771
 11
325.730155
 21
59.544047
  0
TEXT
  8
2
 62
134
  6
CONTINUOUS
 10
244.857374
 20
59.026409
 40
8.000000
 41
0.500000
  1
100
  7
KANJI
 50
0.000000
 51
30.000000
  0
ENDBLK
  0
BLOCK
  8
2
 62
134
  6
CONTINUOUS
  2
*D13
 70
    65
 10
0.0
 20
0.0
  0
LINE
  8
2
 62
134
  6
CONTINUOUS
 10
48.197667
 20
226.800961
 11
137.160841
 21
132.008802
  0
LINE
  8
2
 62
134
  6
CONTINUOUS
 10
48.197667
 20
226.800961
 11
51.596616
 21
224.692136
  0
LINE
  8
2
 62
134
  6
CONTINUOUS
 10
48.197667
 20
226.800961
 11
50.086830
 21
223.275190
  0
LINE
  8
2
 62
134
  6
CONTINUOUS
 10
51.596616
 20
224.692136
 11
50.086830
 21
223.275190
  0
LINE
  8
2
 62
134
  6
CONTINUOUS
 10
48.858681
 20
226.096637
 11
50.558155
 21
225.042224
  0
LINE
  8
2
 62
134
  6
CONTINUOUS
 10
48.858681
 20
226.096637
 11
49.803262
 21
224.333751
  0
LINE
  8
2
 62
134
  6
CONTINUOUS
 10
50.558155
 20
225.042224
 11
49.803262
 21
224.333751
  0
LINE
  8
2
 62
134
  6
CONTINUOUS
 10
137.160841
 20
132.008802
 11
133.761892
 21
134.117627
  0
LINE
  8
2
 62
134
  6
CONTINUOUS
 10
137.160841
 20
132.008802
 11
135.271678
 21
135.534573
  0
LINE
  8
2
 62
134
  6
CONTINUOUS
 10
133.761892
 20
134.117627
 11
135.271678
 21
135.534573
  0
LINE
  8
2
 62
134
  6
CONTINUOUS
 10
136.499827
 20
132.713126
 11
134.800353
 21
133.767539
  0
LINE
  8
2
 62
134
  6
CONTINUOUS
 10
136.499827
 20
132.713126
 11
135.555246
 21
134.476012
  0
LINE
  8
2
 62
134
  6
CONTINUOUS
 10
134.800353
 20
133.767539
 11
135.555246
 21
134.476012
  0
TEXT
  8
2
 62
134
  6
CONTINUOUS
 10
56.489867
 20
217.965445
 40
8.000000
 41
1.000000
  1
φ130
  7
KANJI
 50
-46.816896
 51
0.000000
  0
ENDBLK
  0
BLOCK
  8
2
 62
134
  6
CONTINUOUS
  2
*D14
 70
    65
 10
0.0
 20
0.0
  0
LINE
  8
2
 62
134
  6
CONTINUOUS
 10
338.627933
 20
268.305246
 11
499.761296
 21
268.305246
  0
LINE
  8
2
 62
134
  6
CONTINUOUS
 10
338.627933
 20
266.305246
 11
338.627933
 21
284.717093
  0
LINE
  8
2
 62
134
  6
CONTINUOUS
 10
499.761296
 20
266.305246
 11
499.761296
 21
284.617093
  0
LINE
  8
2
 62
134
  6
CONTINUOUS
 10
338.627933
 20
268.305246
 11
342.491636
 21
269.340522
  0
LINE
  8
2
 62
134
  6
CONTINUOUS
 10
338.627933
 20
268.305246
 11
342.491636
 21
267.269970
  0
LINE
  8
2
 62
134
  6
CONTINUOUS
 10
342.491636
 20
269.340522
 11
342.491636
 21
267.269970
  0
LINE
  8
2
 62
134
  6
CONTINUOUS
 10
339.593859
 20
268.305246
 11
341.525710
 21
268.822884
  0
LINE
  8
2
 62
134
  6
CONTINUOUS
 10
339.593859
 20
268.305246
 11
341.525710
 21
267.787608
  0
LINE
  8
2
 62
134
  6
CONTINUOUS
 10
341.525710
 20
268.822884
 11
341.525710
 21
267.787608
  0
LINE
  8
2
 62
134
  6
CONTINUOUS
 10
499.761296
 20
268.305246
 11
495.897592
 21
267.269970
  0
LINE
  8
2
 62
134
  6
CONTINUOUS
 10
499.761296
 20
268.305246
 11
495.897592
 21
269.340522
  0
LINE
  8
2
 62
134
  6
CONTINUOUS
 10
495.897592
 20
267.269970
 11
495.897592
 21
269.340522
  0
LINE
  8
2
 62
134
  6
CONTINUOUS
 10
498.795370
 20
268.305246
 11
496.863518
 21
267.787608
  0
LINE
  8
2
 62
134
  6
CONTINUOUS
 10
498.795370
 20
268.305246
 11
496.863518
 21
268.822884
  0
LINE
  8
2
 62
134
  6
CONTINUOUS
 10
496.863518
 20
267.787608
 11
496.863518
 21
268.822884
  0
TEXT
  8
2
 62
134
  6
CONTINUOUS
 10
397.483903
 20
268.305246
 40
8.000000
 41
1.000000
  1
ケーブル長
  7
KANJI
 50
0.000000
 51
0.000000
  0
ENDBLK
  0
BLOCK
  8
2
 62
134
  6
CONTINUOUS
  2
*D15
 70
    65
 10
0.0
 20
0.0
  0
LINE
  8
2
 62
134
  6
CONTINUOUS
 10
186.440218
 20
69.404881
 11
186.440218
 21
179.404881
  0
LINE
  8
2
 62
134
  6
CONTINUOUS
 10
184.440218
 20
69.404881
 11
219.627933
 21
69.404881
  0
LINE
  8
2
 62
134
  6
CONTINUOUS
 10
184.440218
 20
179.404881
 11
197.700421
 21
179.404881
  0
LINE
  8
2
 62
134
  6
CONTINUOUS
 10
186.440218
 20
69.404881
 11
185.404942
 21
73.268584
  0
LINE
  8
2
 62
134
  6
CONTINUOUS
 10
186.440218
 20
69.404881
 11
187.475495
 21
73.268584
  0
LINE
  8
2
 62
134
  6
CONTINUOUS
 10
185.404942
 20
73.268584
 11
187.475495
 21
73.268584
  0
LINE
  8
2
 62
134
  6
CONTINUOUS
 10
186.440218
 20
70.370807
 11
185.922580
 21
72.302659
  0
LINE
  8
2
 62
134
  6
CONTINUOUS
 10
186.440218
 20
70.370807
 11
186.957857
 21
72.302659
  0
LINE
  8
2
 62
134
  6
CONTINUOUS
 10
185.922580
 20
72.302659
 11
186.957857
 21
72.302659
  0
LINE
  8
2
 62
134
  6
CONTINUOUS
 10
186.440218
 20
179.404881
 11
187.475495
 21
175.541178
  0
LINE
  8
2
 62
134
  6
CONTINUOUS
 10
186.440218
 20
179.404881
 11
185.404942
 21
175.541178
  0
LINE
  8
2
 62
134
  6
CONTINUOUS
 10
187.475495
 20
175.541178
 11
185.404942
 21
175.541178
  0
LINE
  8
2
 62
134
  6
CONTINUOUS
 10
186.440218
 20
178.438955
 11
186.957857
 21
176.507104
  0
LINE
  8
2
 62
134
  6
CONTINUOUS
 10
186.440218
 20
178.438955
 11
185.922580
 21
176.507104
  0
LINE
  8
2
 62
134
  6
CONTINUOUS
 10
186.957857
 20
176.507104
 11
185.922580
 21
176.507104
  0
TEXT
  8
2
 62
134
  6
CONTINUOUS
 10
186.440218
 20
111.711828
 40
8.000000
 41
0.500000
  1
110
  7
KANJI
 50
90.000000
 51
0.000000
  0
ENDBLK
  0
BLOCK
  8
2
 62
134
  6
CONTINUOUS
  2
*D16
 70
    65
 10
0.0
 20
0.0
  0
LINE
  8
2
 62
134
  6
CONTINUOUS
 10
339.627933
 20
47.169102
 11
369.627933
 21
47.169102
  0
LINE
  8
2
 62
134
  6
CONTINUOUS
 10
339.627933
 20
43.169102
 11
339.627933
 21
82.561415
  0
LINE
  8
2
 62
134
  6
CONTINUOUS
 10
369.627933
 20
43.169102
 11
369.627933
 21
139.654881
  0
LINE
  8
2
 62
134
  6
CONTINUOUS
 10
339.627933
 20
47.169102
 11
343.491636
 21
48.204379
  0
LINE
  8
2
 62
134
  6
CONTINUOUS
 10
339.627933
 20
47.169102
 11
343.491636
 21
46.133826
  0
LINE
  8
2
 62
134
  6
CONTINUOUS
 10
343.491636
 20
48.204379
 11
343.491636
 21
46.133826
  0
LINE
  8
2
 62
134
  6
CONTINUOUS
 10
340.593859
 20
47.169102
 11
342.525710
 21
47.686740
  0
LINE
  8
2
 62
134
  6
CONTINUOUS
 10
340.593859
 20
47.169102
 11
342.525710
 21
46.651464
  0
LINE
  8
2
 62
134
  6
CONTINUOUS
 10
342.525710
 20
47.686740
 11
342.525710
 21
46.651464
  0
LINE
  8
2
 62
134
  6
CONTINUOUS
 10
369.627933
 20
47.169102
 11
365.764230
 21
46.133826
  0
LINE
  8
2
 62
134
  6
CONTINUOUS
 10
369.627933
 20
47.169102
 11
365.764230
 21
48.204379
  0
LINE
  8
2
 62
134
  6
CONTINUOUS
 10
365.764230
 20
46.133826
 11
365.764230
 21
48.204379
  0
LINE
  8
2
 62
134
  6
CONTINUOUS
 10
368.662007
 20
47.169102
 11
366.730155
 21
46.651464
  0
LINE
  8
2
 62
134
  6
CONTINUOUS
 10
368.662007
 20
47.169102
 11
366.730155
 21
47.686740
  0
LINE
  8
2
 62
134
  6
CONTINUOUS
 10
366.730155
 20
46.651464
 11
366.730155
 21
47.686740
  0
TEXT
  8
2
 62
134
  6
CONTINUOUS
 10
350.781127
 20
47.169102
 40
8.000000
 41
0.500000
  1
30
  7
KANJI
 50
0.000000
 51
30.000000
  0
ENDBLK
  0
BLOCK
  8
2
 62
134
  6
CONTINUOUS
  2
*D17
 70
    65
 10
0.0
 20
0.0
  0
LINE
  8
2
 62
134
  6
CONTINUOUS
 10
177.765479
 20
164.404881
 11
177.765479
 21
194.404881
  0
LINE
  8
2
 62
134
  6
CONTINUOUS
 10
175.765479
 20
164.404881
 11
211.627933
 21
164.404881
  0
LINE
  8
2
 62
134
  6
CONTINUOUS
 10
175.765479
 20
194.404881
 11
211.627933
 21
194.404881
  0
LINE
  8
2
 62
134
  6
CONTINUOUS
 10
177.765479
 20
164.404881
 11
176.730203
 21
168.268584
  0
LINE
  8
2
 62
134
  6
CONTINUOUS
 10
177.765479
 20
164.404881
 11
178.800755
 21
168.268584
  0
LINE
  8
2
 62
134
  6
CONTINUOUS
 10
176.730203
 20
168.268584
 11
178.800755
 21
168.268584
  0
LINE
  8
2
 62
134
  6
CONTINUOUS
 10
177.765479
 20
165.370807
 11
177.247841
 21
167.302659
  0
LINE
  8
2
 62
134
  6
CONTINUOUS
 10
177.765479
 20
165.370807
 11
178.283117
 21
167.302659
  0
LINE
  8
2
 62
134
  6
CONTINUOUS
 10
177.247841
 20
167.302659
 11
178.283117
 21
167.302659
  0
LINE
  8
2
 62
134
  6
CONTINUOUS
 10
177.765479
 20
194.404881
 11
178.800755
 21
190.541178
  0
LINE
  8
2
 62
134
  6
CONTINUOUS
 10
177.765479
 20
194.404881
 11
176.730203
 21
190.541178
  0
LINE
  8
2
 62
134
  6
CONTINUOUS
 10
178.800755
 20
190.541178
 11
176.730203
 21
190.541178
  0
LINE
  8
2
 62
134
  6
CONTINUOUS
 10
177.765479
 20
193.438955
 11
178.283117
 21
191.507104
  0
LINE
  8
2
 62
134
  6
CONTINUOUS
 10
177.765479
 20
193.438955
 11
177.247841
 21
191.507104
  0
LINE
  8
2
 62
134
  6
CONTINUOUS
 10
178.283117
 20
191.507104
 11
177.247841
 21
191.507104
  0
TEXT
  8
2
 62
134
  6
CONTINUOUS
 10
177.765479
 20
164.585806
 40
8.000000
 41
1.000000
  1
φ30
  7
KANJI
 50
90.000000
 51
0.000000
  0
ENDBLK
  0
BLOCK
  8
2
 62
134
  6
CONTINUOUS
  2
*D18
 70
    65
 10
0.0
 20
0.0
  0
LINE
  8
2
 62
134
  6
CONTINUOUS
 10
201.627933
 20
36.218948
 11
369.627933
 21
36.218948
  0
LINE
  8
2
 62
134
  6
CONTINUOUS
 10
201.627933
 20
32.218948
 11
201.627933
 21
115.181228
  0
LINE
  8
2
 62
134
  6
CONTINUOUS
 10
369.627933
 20
32.218948
 11
369.627933
 21
138.753492
  0
LINE
  8
2
 62
134
  6
CONTINUOUS
 10
201.627933
 20
36.218948
 11
205.491636
 21
37.254225
  0
LINE
  8
2
 62
134
  6
CONTINUOUS
 10
201.627933
 20
36.218948
 11
205.491636
 21
35.183672
  0
LINE
  8
2
 62
134
  6
CONTINUOUS
 10
205.491636
 20
37.254225
 11
205.491636
 21
35.183672
  0
LINE
  8
2
 62
134
  6
CONTINUOUS
 10
202.593859
 20
36.218948
 11
204.525710
 21
36.736586
  0
LINE
  8
2
 62
134
  6
CONTINUOUS
 10
202.593859
 20
36.218948
 11
204.525710
 21
35.701310
  0
LINE
  8
2
 62
134
  6
CONTINUOUS
 10
204.525710
 20
36.736586
 11
204.525710
 21
35.701310
  0
LINE
  8
2
 62
134
  6
CONTINUOUS
 10
369.627933
 20
36.218948
 11
365.764230
 21
35.183672
  0
LINE
  8
2
 62
134
  6
CONTINUOUS
 10
369.627933
 20
36.218948
 11
365.764230
 21
37.254225
  0
LINE
  8
2
 62
134
  6
CONTINUOUS
 10
365.764230
 20
35.183672
 11
365.764230
 21
37.254225
  0
LINE
  8
2
 62
134
  6
CONTINUOUS
 10
368.662007
 20
36.218948
 11
366.730155
 21
35.701310
  0
LINE
  8
2
 62
134
  6
CONTINUOUS
 10
368.662007
 20
36.218948
 11
366.730155
 21
36.736586
  0
LINE
  8
2
 62
134
  6
CONTINUOUS
 10
366.730155
 20
35.701310
 11
366.730155
 21
36.736586
  0
TEXT
  8
2
 62
134
  6
CONTINUOUS
 10
236.950205
 20
36.218948
 40
8.000000
 41
0.500000
  1
168
  7
KANJI
 50
0.000000
 51
30.000000
  0
ENDBLK
  0
BLOCK
  8
2
 62
134
  6
CONTINUOUS
  2
*D19
 70
    65
 10
0.0
 20
0.0
  0
LINE
  8
2
 62
134
  6
CONTINUOUS
 10
168.382006
 20
69.404881
 11
168.382006
 21
244.404881
  0
LINE
  8
2
 62
134
  6
CONTINUOUS
 10
166.382006
 20
69.404881
 11
219.627933
 21
69.404881
  0
LINE
  8
2
 62
134
  6
CONTINUOUS
 10
166.382006
 20
244.404881
 11
200.127933
 21
244.404881
  0
LINE
  8
2
 62
134
  6
CONTINUOUS
 10
168.382006
 20
69.404881
 11
167.346730
 21
73.268584
  0
LINE
  8
2
 62
134
  6
CONTINUOUS
 10
168.382006
 20
69.404881
 11
169.417282
 21
73.268584
  0
LINE
  8
2
 62
134
  6
CONTINUOUS
 10
167.346730
 20
73.268584
 11
169.417282
 21
73.268584
  0
LINE
  8
2
 62
134
  6
CONTINUOUS
 10
168.382006
 20
70.370807
 11
167.864368
 21
72.302659
  0
LINE
  8
2
 62
134
  6
CONTINUOUS
 10
168.382006
 20
70.370807
 11
168.899644
 21
72.302659
  0
LINE
  8
2
 62
134
  6
CONTINUOUS
 10
167.864368
 20
72.302659
 11
168.899644
 21
72.302659
  0
LINE
  8
2
 62
134
  6
CONTINUOUS
 10
168.382006
 20
244.404881
 11
169.417282
 21
240.541178
  0
LINE
  8
2
 62
134
  6
CONTINUOUS
 10
168.382006
 20
244.404881
 11
167.346730
 21
240.541178
  0
LINE
  8
2
 62
134
  6
CONTINUOUS
 10
169.417282
 20
240.541178
 11
167.346730
 21
240.541178
  0
LINE
  8
2
 62
134
  6
CONTINUOUS
 10
168.382006
 20
243.438955
 11
168.899644
 21
241.507104
  0
LINE
  8
2
 62
134
  6
CONTINUOUS
 10
168.382006
 20
243.438955
 11
167.864368
 21
241.507104
  0
LINE
  8
2
 62
134
  6
CONTINUOUS
 10
168.899644
 20
241.507104
 11
167.864368
 21
241.507104
  0
TEXT
  8
2
 62
134
  6
CONTINUOUS
 10
168.382006
 20
141.510355
 40
8.000000
 41
0.500000
  1
175
  7
KANJI
 50
90.000000
 51
0.000000
  0
ENDBLK
  0
BLOCK
  8
2
 62
134
  6
CONTINUOUS
  2
*D20
 70
    65
 10
0.0
 20
0.0
  0
LINE
  8
2
 62
134
  6
CONTINUOUS
 10
403.679632
 20
275.717093
 11
403.679632
 21
322.897842
  0
LINE
  8
2
 62
134
  6
CONTINUOUS
 10
403.679632
 20
291.717093
 11
404.714908
 21
287.853390
  0
LINE
  8
2
 62
134
  6
CONTINUOUS
 10
403.679632
 20
291.717093
 11
402.644356
 21
287.853390
  0
LINE
  8
2
 62
134
  6
CONTINUOUS
 10
404.714908
 20
287.853390
 11
402.644356
 21
287.853390
  0
LINE
  8
2
 62
134
  6
CONTINUOUS
 10
403.679632
 20
290.751167
 11
404.197270
 21
288.819316
  0
LINE
  8
2
 62
134
  6
CONTINUOUS
 10
403.679632
 20
290.751167
 11
403.161994
 21
288.819316
  0
LINE
  8
2
 62
134
  6
CONTINUOUS
 10
404.197270
 20
288.819316
 11
403.161994
 21
288.819316
  0
LINE
  8
2
 62
134
  6
CONTINUOUS
 10
403.679632
 20
301.717093
 11
402.644356
 21
305.580796
  0
LINE
  8
2
 62
134
  6
CONTINUOUS
 10
403.679632
 20
301.717093
 11
404.714908
 21
305.580796
  0
LINE
  8
2
 62
134
  6
CONTINUOUS
 10
402.644356
 20
305.580796
 11
404.714908
 21
305.580796
  0
LINE
  8
2
 62
134
  6
CONTINUOUS
 10
403.679632
 20
302.683019
 11
403.161994
 21
304.614870
  0
LINE
  8
2
 62
134
  6
CONTINUOUS
 10
403.679632
 20
302.683019
 11
404.197270
 21
304.614870
  0
LINE
  8
2
 62
134
  6
CONTINUOUS
 10
403.161994
 20
304.614870
 11
404.197270
 21
304.614870
  0
TEXT
  8
2
 62
134
  6
CONTINUOUS
 10
403.679632
 20
306.897842
 40
8.000000
 41
1.000000
  1
φ13
  7
KANJI
 50
90.000000
 51
0.000000
  0
ENDBLK
  0
BLOCK
  8
2
 62
134
  6
CONTINUOUS
  2
*D21
 70
    65
 10
0.0
 20
0.0
  0
LINE
  8
2
 62
134
  6
CONTINUOUS
 10
475.857574
 20
264.717093
 11
475.857574
 21
329.817535
  0
LINE
  8
2
 62
134
  6
CONTINUOUS
 10
475.857574
 20
280.717093
 11
476.892850
 21
276.853390
  0
LINE
  8
2
 62
134
  6
CONTINUOUS
 10
475.857574
 20
280.717093
 11
474.822298
 21
276.853390
  0
LINE
  8
2
 62
134
  6
CONTINUOUS
 10
476.892850
 20
276.853390
 11
474.822298
 21
276.853390
  0
LINE
  8
2
 62
134
  6
CONTINUOUS
 10
475.857574
 20
279.751167
 11
476.375212
 21
277.819316
  0
LINE
  8
2
 62
134
  6
CONTINUOUS
 10
475.857574
 20
279.751167
 11
475.339936
 21
277.819316
  0
LINE
  8
2
 62
134
  6
CONTINUOUS
 10
476.375212
 20
277.819316
 11
475.339936
 21
277.819316
  0
LINE
  8
2
 62
134
  6
CONTINUOUS
 10
475.857574
 20
312.717093
 11
474.822298
 21
316.580796
  0
LINE
  8
2
 62
134
  6
CONTINUOUS
 10
475.857574
 20
312.717093
 11
476.892850
 21
316.580796
  0
LINE
  8
2
 62
134
  6
CONTINUOUS
 10
474.822298
 20
316.580796
 11
476.892850
 21
316.580796
  0
LINE
  8
2
 62
134
  6
CONTINUOUS
 10
475.857574
 20
313.683019
 11
475.339936
 21
315.614870
  0
LINE
  8
2
 62
134
  6
CONTINUOUS
 10
475.857574
 20
313.683019
 11
476.375212
 21
315.614870
  0
LINE
  8
2
 62
134
  6
CONTINUOUS
 10
475.339936
 20
315.614870
 11
476.375212
 21
315.614870
  0
TEXT
  8
2
 62
134
  6
CONTINUOUS
 10
475.857574
 20
313.817535
 40
8.000000
 41
1.000000
  1
φ32
  7
KANJI
 50
90.000000
 51
0.000000
  0
ENDBLK
  0
BLOCK
  8
2
 62
134
  6
CONTINUOUS
  2
*D22
 70
    65
 10
0.0
 20
0.0
  0
LINE
  8
2
 62
134
  6
CONTINUOUS
 10
564.477913
 20
95.961947
 11
564.477913
 21
309.961947
  0
LINE
  8
2
 62
134
  6
CONTINUOUS
 10
568.477913
 20
95.961947
 11
526.725601
 21
95.961947
  0
LINE
  8
2
 62
134
  6
CONTINUOUS
 10
568.477913
 20
309.961947
 11
529.609853
 21
309.961947
  0
LINE
  8
2
 62
134
  6
CONTINUOUS
 10
564.477913
 20
95.961947
 11
563.442637
 21
99.825650
  0
LINE
  8
2
 62
134
  6
CONTINUOUS
 10
564.477913
 20
95.961947
 11
565.513189
 21
99.825650
  0
LINE
  8
2
 62
134
  6
CONTINUOUS
 10
563.442637
 20
99.825650
 11
565.513189
 21
99.825650
  0
LINE
  8
2
 62
134
  6
CONTINUOUS
 10
564.477913
 20
96.927873
 11
563.960275
 21
98.859724
  0
LINE
  8
2
 62
134
  6
CONTINUOUS
 10
564.477913
 20
96.927873
 11
564.995551
 21
98.859724
  0
LINE
  8
2
 62
134
  6
CONTINUOUS
 10
563.960275
 20
98.859724
 11
564.995551
 21
98.859724
  0
LINE
  8
2
 62
134
  6
CONTINUOUS
 10
564.477913
 20
309.961947
 11
565.513189
 21
306.098243
  0
LINE
  8
2
 62
134
  6
CONTINUOUS
 10
564.477913
 20
309.961947
 11
563.442637
 21
306.098243
  0
LINE
  8
2
 62
134
  6
CONTINUOUS
 10
565.513189
 20
306.098243
 11
563.442637
 21
306.098243
  0
LINE
  8
2
 62
134
  6
CONTINUOUS
 10
564.477913
 20
308.996021
 11
564.995551
 21
307.064169
  0
LINE
  8
2
 62
134
  6
CONTINUOUS
 10
564.477913
 20
308.996021
 11
563.960275
 21
307.064169
  0
LINE
  8
2
 62
134
  6
CONTINUOUS
 10
564.995551
 20
307.064169
 11
563.960275
 21
307.064169
  0
TEXT
  8
2
 62
134
  6
CONTINUOUS
 10
564.477913
 20
194.149598
 40
8.000000
 41
0.500000
  1
214
  7
KANJI
 50
90.000000
 51
30.000000
  0
ENDBLK
  0
BLOCK
  8
2
 62
134
  6
CONTINUOUS
  2
*D23
 70
    65
 10
0.0
 20
0.0
  0
LINE
  8
2
 62
134
  6
CONTINUOUS
 10
498.635779
 20
318.934240
 11
543.723847
 21
318.934240
  0
LINE
  8
2
 62
134
  6
CONTINUOUS
 10
517.723847
 20
322.934240
 11
517.723847
 21
313.961947
  0
LINE
  8
2
 62
134
  6
CONTINUOUS
 10
527.723847
 20
322.934240
 11
527.723847
 21
313.961947
  0
LINE
  8
2
 62
134
  6
CONTINUOUS
 10
517.723847
 20
318.934240
 11
513.860144
 21
317.898964
  0
LINE
  8
2
 62
134
  6
CONTINUOUS
 10
517.723847
 20
318.934240
 11
513.860144
 21
319.969516
  0
LINE
  8
2
 62
134
  6
CONTINUOUS
 10
513.860144
 20
317.898964
 11
513.860144
 21
319.969516
  0
LINE
  8
2
 62
134
  6
CONTINUOUS
 10
516.757922
 20
318.934240
 11
514.826070
 21
318.416602
  0
LINE
  8
2
 62
134
  6
CONTINUOUS
 10
516.757922
 20
318.934240
 11
514.826070
 21
319.451878
  0
LINE
  8
2
 62
134
  6
CONTINUOUS
 10
514.826070
 20
318.416602
 11
514.826070
 21
319.451878
  0
LINE
  8
2
 62
134
  6
CONTINUOUS
 10
527.723847
 20
318.934240
 11
531.587551
 21
319.969516
  0
LINE
  8
2
 62
134
  6
CONTINUOUS
 10
527.723847
 20
318.934240
 11
531.587551
 21
317.898964
  0
LINE
  8
2
 62
134
  6
CONTINUOUS
 10
531.587551
 20
319.969516
 11
531.587551
 21
317.898964
  0
LINE
  8
2
 62
134
  6
CONTINUOUS
 10
528.689773
 20
318.934240
 11
530.621625
 21
319.451878
  0
LINE
  8
2
 62
134
  6
CONTINUOUS
 10
528.689773
 20
318.934240
 11
530.621625
 21
318.416602
  0
LINE
  8
2
 62
134
  6
CONTINUOUS
 10
530.621625
 20
319.451878
 11
530.621625
 21
318.416602
  0
TEXT
  8
2
 62
134
  6
CONTINUOUS
 10
500.635779
 20
318.934240
 40
8.000000
 41
0.500000
  1
M10
  7
KANJI
 50
0.000000
 51
30.000000
  0
ENDBLK
  0
BLOCK
  8
2
 62
134
  6
CONTINUOUS
  2
*D24
 70
    65
 10
0.0
 20
0.0
  0
LINE
  8
2
 62
134
  6
CONTINUOUS
 10
550.951031
 20
287.961947
 11
550.951031
 21
309.961947
  0
LINE
  8
2
 62
134
  6
CONTINUOUS
 10
554.951031
 20
287.961947
 11
530.911847
 21
287.961947
  0
LINE
  8
2
 62
134
  6
CONTINUOUS
 10
554.951031
 20
309.961947
 11
530.911847
 21
309.961947
  0
LINE
  8
2
 62
134
  6
CONTINUOUS
 10
550.951031
 20
287.961947
 11
549.915755
 21
291.825650
  0
LINE
  8
2
 62
134
  6
CONTINUOUS
 10
550.951031
 20
287.961947
 11
551.986307
 21
291.825650
  0
LINE
  8
2
 62
134
  6
CONTINUOUS
 10
549.915755
 20
291.825650
 11
551.986307
 21
291.825650
  0
LINE
  8
2
 62
134
  6
CONTINUOUS
 10
550.951031
 20
288.927873
 11
550.433393
 21
290.859724
  0
LINE
  8
2
 62
134
  6
CONTINUOUS
 10
550.951031
 20
288.927873
 11
551.468669
 21
290.859724
  0
LINE
  8
2
 62
134
  6
CONTINUOUS
 10
550.433393
 20
290.859724
 11
551.468669
 21
290.859724
  0
LINE
  8
2
 62
134
  6
CONTINUOUS
 10
550.951031
 20
309.961947
 11
551.986307
 21
306.098243
  0
LINE
  8
2
 62
134
  6
CONTINUOUS
 10
550.951031
 20
309.961947
 11
549.915755
 21
306.098243
  0
LINE
  8
2
 62
134
  6
CONTINUOUS
 10
551.986307
 20
306.098243
 11
549.915755
 21
306.098243
  0
LINE
  8
2
 62
134
  6
CONTINUOUS
 10
550.951031
 20
308.996021
 11
551.468669
 21
307.064169
  0
LINE
  8
2
 62
134
  6
CONTINUOUS
 10
550.951031
 20
308.996021
 11
550.433393
 21
307.064169
  0
LINE
  8
2
 62
134
  6
CONTINUOUS
 10
551.468669
 20
307.064169
 11
550.433393
 21
307.064169
  0
TEXT
  8
2
 62
134
  6
CONTINUOUS
 10
550.951031
 20
294.978328
 40
8.000000
 41
0.500000
  1
22
  7
KANJI
 50
90.000000
 51
30.000000
  0
ENDBLK
  0
BLOCK
  8
2
 62
134
  6
CONTINUOUS
  2
*D25
 70
    65
 10
0.0
 20
0.0
  0
LINE
  8
2
 62
134
  6
CONTINUOUS
 10
550.948247
 20
287.961947
 11
550.948247
 21
181.961947
  0
LINE
  8
2
 62
134
  6
CONTINUOUS
 10
554.948247
 20
287.961947
 11
529.016779
 21
287.961947
  0
LINE
  8
2
 62
134
  6
CONTINUOUS
 10
554.948247
 20
181.961947
 11
529.045979
 21
181.961947
  0
LINE
  8
2
 62
134
  6
CONTINUOUS
 10
550.948247
 20
287.961947
 11
551.983523
 21
284.098243
  0
LINE
  8
2
 62
134
  6
CONTINUOUS
 10
550.948247
 20
287.961947
 11
549.912971
 21
284.098243
  0
LINE
  8
2
 62
134
  6
CONTINUOUS
 10
551.983523
 20
284.098243
 11
549.912971
 21
284.098243
  0
LINE
  8
2
 62
134
  6
CONTINUOUS
 10
550.948247
 20
286.996021
 11
551.465885
 21
285.064169
  0
LINE
  8
2
 62
134
  6
CONTINUOUS
 10
550.948247
 20
286.996021
 11
550.430609
 21
285.064169
  0
LINE
  8
2
 62
134
  6
CONTINUOUS
 10
551.465885
 20
285.064169
 11
550.430609
 21
285.064169
  0
LINE
  8
2
 62
134
  6
CONTINUOUS
 10
550.948247
 20
181.961947
 11
549.912971
 21
185.825650
  0
LINE
  8
2
 62
134
  6
CONTINUOUS
 10
550.948247
 20
181.961947
 11
551.983523
 21
185.825650
  0
LINE
  8
2
 62
134
  6
CONTINUOUS
 10
549.912971
 20
185.825650
 11
551.983523
 21
185.825650
  0
LINE
  8
2
 62
134
  6
CONTINUOUS
 10
550.948247
 20
182.927873
 11
550.430609
 21
184.859724
  0
LINE
  8
2
 62
134
  6
CONTINUOUS
 10
550.948247
 20
182.927873
 11
551.465885
 21
184.859724
  0
LINE
  8
2
 62
134
  6
CONTINUOUS
 10
550.430609
 20
184.859724
 11
551.465885
 21
184.859724
  0
TEXT
  8
2
 62
134
  6
CONTINUOUS
 10
550.948247
 20
231.062251
 40
8.000000
 41
0.500000
  1
106
  7
KANJI
 50
90.000000
 51
30.000000
  0
ENDBLK
  0
ENDSEC
  0
SECTION
  2
ENTITIES
  0
LINE
  8
5
 62
94
  6
CONTINUOUS
 10
571.685345
 20
393.949889
 11
21.685345
 21
393.949889
  0
LINE
  8
5
 62
94
  6
CONTINUOUS
 10
21.685345
 20
393.949889
 11
21.685345
 21
23.949889
  0
LINE
  8
5
 62
94
  6
CONTINUOUS
 10
21.685345
 20
23.949889
 11
571.685345
 21
23.949889
  0
LINE
  8
5
 62
94
  6
CONTINUOUS
 10
571.685345
 20
23.949889
 11
571.685345
 21
393.949889
  0
LINE
  8
5
 62
94
  6
CONTINUOUS
 10
21.685345
 20
393.949889
 11
261.685345
 21
393.949889
  0
LINE
  8
5
 62
94
  6
CONTINUOUS
 10
21.685345
 20
329.949889
 11
21.685345
 21
393.949889
  0
LINE
  8
5
 62
94
  6
CONTINUOUS
 10
151.685345
 20
393.949889
 11
151.685345
 21
345.949889
  0
LINE
  8
5
 62
94
  6
CONTINUOUS
 10
101.685345
 20
393.949889
 11
101.685345
 21
361.949889
  0
LINE
  8
5
 62
94
  6
CONTINUOUS
 10
31.685345
 20
345.949889
 11
31.685345
 21
393.949889
  0
LINE
  8
5
 62
94
  6
CONTINUOUS
 10
21.685345
 20
377.949889
 11
151.685345
 21
377.949889
  0
LINE
  8
5
 62
94
  6
CONTINUOUS
 10
91.685345
 20
393.949889
 11
91.685345
 21
361.949889
  0
LINE
  8
5
 62
94
  6
CONTINUOUS
 10
71.685345
 20
345.949889
 11
71.685345
 21
361.949889
  0
LINE
  8
5
 62
94
  6
CONTINUOUS
 10
111.685345
 20
345.949889
 11
111.685345
 21
361.949889
  0
LINE
  8
5
 62
94
  6
CONTINUOUS
 10
81.685345
 20
361.949889
 11
81.685345
 21
345.949889
  0
LINE
  8
5
 62
94
  6
CONTINUOUS
 10
121.685345
 20
361.949889
 11
121.685345
 21
345.949889
  0
TEXT
  8
5
 62
94
  6
CONTINUOUS
 10
111.643954
 20
381.249558
 40
8.000000
 41
1.000000
  1
１／２
  7
KANJI
 50
0.000000
 51
0.000000
  0
LINE
  8
5
 62
94
  6
CONTINUOUS
 10
31.685345
 20
297.949889
 11
31.685345
 21
345.949889
  0
TEXT
  8
5
 62
94
  6
CONTINUOUS
 10
35.283098
 20
330.695498
 40
8.000000
 41
0.875000
  1
ＢＢＨ５－３０Ｗ１０００
  7
KANJI
 50
0.000000
 51
0.000000
  0
TEXT
  8
5
 62
94
  6
CONTINUOUS
 10
35.508827
 20
302.576731
 40
8.000000
 41
1.000000
  1
０２４－０８２－Ａ１
  7
KANJI
 50
0.000000
 51
0.000000
  0
LINE
  8
5
 62
94
  6
CONTINUOUS
 10
151.685345
 20
361.949889
 11
21.685345
 21
361.949889
  0
LINE
  8
5
 62
94
  6
CONTINUOUS
 10
151.685345
 20
345.949889
 11
21.685345
 21
345.949889
  0
LINE
  8
5
 62
94
  6
CONTINUOUS
 10
151.685345
 20
281.949889
 11
151.685345
 21
345.949889
  0
LINE
  8
5
 62
94
  6
CONTINUOUS
 10
151.685345
 20
313.949889
 11
21.685345
 21
313.949889
  0
LINE
  8
5
 62
94
  6
CONTINUOUS
 10
151.685345
 20
297.949889
 11
21.685345
 21
297.949889
  0
LINE
  8
5
 62
94
  6
CONTINUOUS
 10
21.685345
 20
281.949889
 11
151.685345
 21
281.949889
  0
LINE
  8
1
 62
7
  6
CONTINUOUS
 10
222.827933
 20
387.717093
 11
330.662475
 21
387.251486
  0
ARC
  8
1
 62
7
  6
CONTINUOUS
 10
330.627933
 20
379.251561
 40
8.000000
 50
0.000000
 51
89.752610
  0
LINE
  8
1
 62
7
  6
CONTINUOUS
 10
218.627933
 20
388.717093
 11
218.627933
 21
389.717093
  0
ARC
  8
1
 62
7
  6
CONTINUOUS
 10
220.627933
 20
389.717093
 40
2.000000
 50
90.000000
 51
180.000000
  0
LINE
  8
1
 62
7
  6
CONTINUOUS
 10
220.627933
 20
391.717093
 11
220.827933
 21
391.717093
  0
LINE
  8
1
 62
7
  6
CONTINUOUS
 10
222.827933
 20
389.717093
 11
222.827933
 21
387.717093
  0
ARC
  8
1
 62
7
  6
CONTINUOUS
 10
220.827933
 20
389.717093
 40
2.000000
 50
0.000000
 51
90.000000
  0
LINE
  8
1
 62
7
  6
CONTINUOUS
 10
218.627933
 20
389.008476
 11
218.627933
 21
388.717093
  0
LINE
  8
1
 62
7
  6
CONTINUOUS
 10
222.827933
 20
265.717093
 11
330.662475
 21
266.182700
  0
ARC
  8
1
 62
7
  6
CONTINUOUS
 10
330.627933
 20
274.182625
 40
8.000000
 50
-89.752610
 51
0.000000
  0
LINE
  8
1
 62
7
  6
CONTINUOUS
 10
218.627933
 20
264.717093
 11
218.627933
 21
263.717093
  0
ARC
  8
1
 62
7
  6
CONTINUOUS
 10
220.627933
 20
263.717093
 40
2.000000
 50
180.000000
 51
-90.000000
  0
LINE
  8
1
 62
7
  6
CONTINUOUS
 10
220.627933
 20
261.717093
 11
220.827933
 21
261.717093
  0
LINE
  8
1
 62
7
  6
CONTINUOUS
 10
222.827933
 20
263.717093
 11
222.827933
 21
265.717093
  0
ARC
  8
1
 62
7
  6
CONTINUOUS
 10
220.827933
 20
263.717093
 40
2.000000
 50
-90.000000
 51
0.000000
  0
LINE
  8
1
 62
7
  6
CONTINUOUS
 10
218.627933
 20
264.425710
 11
218.627933
 21
264.717093
  0
LINE
  8
1
 62
7
  6
CONTINUOUS
 10
338.627933
 20
379.251561
 11
338.627933
 21
273.913584
  0
LINE
  8
1
 62
7
  6
CONTINUOUS
 10
218.627933
 20
389.717093
 11
218.627933
 21
264.425710
  0
LINE
  8
1
 62
7
  6
DASHDOT
 10
213.296476
 20
326.717093
 11
349.985106
 21
326.717093
  0
LINE
  8
1
 62
7
  6
CONTINUOUS
 10
222.827933
 20
265.717093
 11
330.662475
 21
266.182700
  0
ARC
  8
1
 62
7
  6
CONTINUOUS
 10
330.627933
 20
274.182625
 40
8.000000
 50
-89.752610
 51
0.000000
  0
LINE
  8
1
 62
7
  6
CONTINUOUS
 10
218.627933
 20
264.717093
 11
218.627933
 21
263.717093
  0
ARC
  8
1
 62
7
  6
CONTINUOUS
 10
220.627933
 20
263.717093
 40
2.000000
 50
180.000000
 51
-90.000000
  0
LINE
  8
1
 62
7
  6
CONTINUOUS
 10
220.627933
 20
261.717093
 11
220.827933
 21
261.717093
  0
LINE
  8
1
 62
7
  6
CONTINUOUS
 10
222.827933
 20
263.717093
 11
222.827933
 21
265.717093
  0
ARC
  8
1
 62
7
  6
CONTINUOUS
 10
220.827933
 20
263.717093
 40
2.000000
 50
-90.000000
 51
0.000000
  0
LINE
  8
1
 62
7
  6
CONTINUOUS
 10
218.627933
 20
264.425710
 11
218.627933
 21
264.717093
  0
LINE
  8
1
 62
7
  6
CONTINUOUS
 10
222.827933
 20
387.717093
 11
330.662475
 21
387.251486
  0
ARC
  8
1
 62
7
  6
CONTINUOUS
 10
330.627933
 20
379.251561
 40
8.000000
 50
0.000000
 51
89.752610
  0
LINE
  8
1
 62
7
  6
CONTINUOUS
 10
218.627933
 20
388.717093
 11
218.627933
 21
389.717093
  0
ARC
  8
1
 62
7
  6
CONTINUOUS
 10
220.627933
 20
389.717093
 40
2.000000
 50
90.000000
 51
180.000000
  0
LINE
  8
1
 62
7
  6
CONTINUOUS
 10
220.627933
 20
391.717093
 11
220.827933
 21
391.717093
  0
ARC
  8
1
 62
7
  6
CONTINUOUS
 10
220.827933
 20
389.717093
 40
2.000000
 50
0.000000
 51
90.000000
  0
LINE
  8
1
 62
7
  6
CONTINUOUS
 10
218.627933
 20
389.008476
 11
218.627933
 21
388.717093
  0
LINE
  8
1
 62
7
  6
CONTINUOUS
 10
338.627933
 20
274.182625
 11
338.627933
 21
379.520602
  0
LINE
  8
1
 62
7
  6
CONTINUOUS
 10
218.627933
 20
263.717093
 11
218.627933
 21
389.008476
  0
LINE
  8
1
 62
7
  6
DASHDOT
 10
213.296476
 20
326.717093
 11
349.985106
 21
326.717093
  0
LINE
  8
1
 62
7
  6
DASHDOT
 10
226.627933
 20
318.504249
 11
226.627933
 21
333.967108
  0
LINE
  8
1
 62
7
  6
DASHDOT
 10
195.586103
 20
326.717093
 11
213.045860
 21
326.717093
  0
LINE
  8
1
 62
7
  6
CONTINUOUS
 10
202.627933
 20
391.717093
 11
202.627933
 21
261.717093
  0
LINE
  8
1
 62
7
  6
CONTINUOUS
 10
202.627933
 20
261.717093
 11
202.127933
 21
261.717093
  0
LINE
  8
1
 62
7
  6
CONTINUOUS
 10
201.627933
 20
262.217093
 11
202.127933
 21
261.717093
  0
LINE
  8
1
 62
7
  6
CONTINUOUS
 10
201.627933
 20
262.217093
 11
201.627933
 21
391.217093
  0
LINE
  8
1
 62
7
  6
CONTINUOUS
 10
202.627933
 20
391.717093
 11
202.127933
 21
391.717093
  0
LINE
  8
1
 62
7
  6
CONTINUOUS
 10
201.627933
 20
391.217093
 11
202.127933
 21
391.717093
  0
LINE
  8
1
 62
7
  6
DASHDOT
 10
206.586103
 20
326.717093
 11
224.045860
 21
326.717093
  0
LINE
  8
1
 62
7
  6
CONTINUOUS
 10
213.627933
 20
391.717093
 11
213.627933
 21
261.717093
  0
LINE
  8
1
 62
7
  6
CONTINUOUS
 10
213.627933
 20
391.717093
 11
212.627933
 21
391.717093
  0
LINE
  8
1
 62
7
  6
CONTINUOUS
 10
212.627933
 20
391.717093
 11
212.627933
 21
261.717093
  0
LINE
  8
1
 62
7
  6
CONTINUOUS
 10
213.627933
 20
261.717093
 11
212.627933
 21
261.717093
  0
LINE
  8
1
 62
7
  6
CONTINUOUS
 10
222.827933
 20
389.717093
 11
222.827933
 21
265.725953
  0
LINE
  8
1
 62
7
  6
CONTINUOUS
 10
213.627933
 20
329.717093
 11
218.627933
 21
329.717093
  0
LINE
  8
1
 62
7
  6
CONTINUOUS
 10
218.627933
 20
323.717093
 11
213.627933
 21
323.717093
  0
LINE
  8
1
 62
7
  6
CONTINUOUS
 10
212.627933
 20
273.917093
 11
212.627933
 21
279.917093
  0
LINE
  8
1
 62
7
  6
CONTINUOUS
 10
212.627933
 20
279.917093
 11
203.377933
 21
279.917093
  0
ARC
  8
1
 62
7
  6
CONTINUOUS
 10
203.377933
 20
279.167093
 40
0.750000
 50
90.000000
 51
180.000000
  0
ARC
  8
1
 62
7
  6
CONTINUOUS
 10
203.377933
 20
279.167093
 40
0.750000
 50
180.000000
 51
-90.000000
  0
LINE
  8
1
 62
7
  6
CONTINUOUS
 10
212.627933
 20
278.417093
 11
203.377933
 21
278.417093
  0
ARC
  8
1
 62
7
  6
CONTINUOUS
 10
203.377933
 20
277.667093
 40
0.750000
 50
90.000000
 51
180.000000
  0
ARC
  8
1
 62
7
  6
CONTINUOUS
 10
203.377933
 20
276.167093
 40
0.750000
 50
180.000000
 51
-90.000000
  0
LINE
  8
1
 62
7
  6
CONTINUOUS
 10
212.627933
 20
275.417093
 11
203.377933
 21
275.417093
  0
ARC
  8
1
 62
7
  6
CONTINUOUS
 10
203.377933
 20
274.667093
 40
0.750000
 50
90.000000
 51
180.000000
  0
LINE
  8
1
 62
7
  6
CONTINUOUS
 10
202.627933
 20
279.167093
 11
202.627933
 21
274.667093
  0
LINE
  8
1
 62
7
  6
CONTINUOUS
 10
203.377933
 20
273.917093
 11
212.627933
 21
273.917093
  0
ARC
  8
1
 62
7
  6
CONTINUOUS
 10
203.377933
 20
274.667093
 40
0.750000
 50
180.000000
 51
-90.000000
  0
LINE
  8
1
 62
7
  6
DASHDOT
 10
214.200604
 20
276.917093
 11
201.542896
 21
276.917093
  0
LINE
  8
1
 62
7
  6
CONTINUOUS
 10
212.627933
 20
373.517093
 11
212.627933
 21
379.517093
  0
LINE
  8
1
 62
7
  6
CONTINUOUS
 10
212.627933
 20
379.517093
 11
203.377933
 21
379.517093
  0
ARC
  8
1
 62
7
  6
CONTINUOUS
 10
203.377933
 20
378.767093
 40
0.750000
 50
90.000000
 51
180.000000
  0
ARC
  8
1
 62
7
  6
CONTINUOUS
 10
203.377933
 20
378.767093
 40
0.750000
 50
180.000000
 51
-90.000000
  0
LINE
  8
1
 62
7
  6
CONTINUOUS
 10
212.627933
 20
378.017093
 11
203.377933
 21
378.017093
  0
ARC
  8
1
 62
7
  6
CONTINUOUS
 10
203.377933
 20
377.267093
 40
0.750000
 50
90.000000
 51
180.000000
  0
ARC
  8
1
 62
7
  6
CONTINUOUS
 10
203.377933
 20
375.767093
 40
0.750000
 50
180.000000
 51
-90.000000
  0
LINE
  8
1
 62
7
  6
CONTINUOUS
 10
212.627933
 20
375.017093
 11
203.377933
 21
375.017093
  0
ARC
  8
1
 62
7
  6
CONTINUOUS
 10
203.377933
 20
374.267093
 40
0.750000
 50
90.000000
 51
180.000000
  0
LINE
  8
1
 62
7
  6
CONTINUOUS
 10
202.627933
 20
378.767093
 11
202.627933
 21
374.267093
  0
LINE
  8
1
 62
7
  6
CONTINUOUS
 10
203.377933
 20
373.517093
 11
212.627933
 21
373.517093
  0
ARC
  8
1
 62
7
  6
CONTINUOUS
 10
203.377933
 20
374.267093
 40
0.750000
 50
180.000000
 51
-90.000000
  0
LINE
  8
1
 62
7
  6
DASHDOT
 10
214.200604
 20
376.517093
 11
201.542896
 21
376.517093
  0
LINE
  8
1
 62
7
  6
CONTINUOUS
 10
212.627933
 20
323.717093
 11
212.627933
 21
329.717093
  0
LINE
  8
1
 62
7
  6
CONTINUOUS
 10
212.627933
 20
329.717093
 11
203.377933
 21
329.717093
  0
ARC
  8
1
 62
7
  6
CONTINUOUS
 10
203.377933
 20
328.967093
 40
0.750000
 50
90.000000
 51
180.000000
  0
ARC
  8
1
 62
7
  6
CONTINUOUS
 10
203.377933
 20
328.967093
 40
0.750000
 50
180.000000
 51
-90.000000
  0
LINE
  8
1
 62
7
  6
CONTINUOUS
 10
212.627933
 20
328.217093
 11
203.377933
 21
328.217093
  0
ARC
  8
1
 62
7
  6
CONTINUOUS
 10
203.377933
 20
327.467093
 40
0.750000
 50
90.000000
 51
180.000000
  0
ARC
  8
1
 62
7
  6
CONTINUOUS
 10
203.377933
 20
325.967093
 40
0.750000
 50
180.000000
 51
-90.000000
  0
LINE
  8
1
 62
7
  6
CONTINUOUS
 10
212.627933
 20
325.217093
 11
203.377933
 21
325.217093
  0
ARC
  8
1
 62
7
  6
CONTINUOUS
 10
203.377933
 20
324.467093
 40
0.750000
 50
90.000000
 51
180.000000
  0
LINE
  8
1
 62
7
  6
CONTINUOUS
 10
202.627933
 20
328.967093
 11
202.627933
 21
324.467093
  0
LINE
  8
1
 62
7
  6
CONTINUOUS
 10
203.377933
 20
323.717093
 11
212.627933
 21
323.717093
  0
ARC
  8
1
 62
7
  6
CONTINUOUS
 10
203.377933
 20
324.467093
 40
0.750000
 50
180.000000
 51
-90.000000
  0
LINE
  8
1
 62
7
  6
DASHDOT
 10
214.200604
 20
326.717093
 11
201.542896
 21
326.717093
  0
LINE
  8
1
 62
7
  6
CONTINUOUS
 10
218.627933
 20
379.717093
 11
213.627933
 21
379.717093
  0
LINE
  8
1
 62
7
  6
CONTINUOUS
 10
218.627933
 20
273.717093
 11
213.627933
 21
273.717093
  0
LINE
  8
1
 62
7
  6
CONTINUOUS
 10
337.838348
 20
382.717093
 11
338.627933
 21
382.717093
  0
LINE
  8
1
 62
7
  6
CONTINUOUS
 10
339.627933
 20
383.717093
 11
337.265630
 21
383.717093
  0
LINE
  8
1
 62
7
  6
CONTINUOUS
 10
339.627933
 20
383.717093
 11
339.627933
 21
366.717093
  0
LINE
  8
1
 62
7
  6
CONTINUOUS
 10
339.627933
 20
286.717093
 11
339.627933
 21
270.717093
  0
LINE
  8
1
 62
7
  6
CONTINUOUS
 10
337.265630
 20
269.717093
 11
339.627933
 21
269.717093
  0
LINE
  8
1
 62
7
  6
CONTINUOUS
 10
339.627933
 20
269.717093
 11
339.627933
 21
270.717093
  0
LINE
  8
1
 62
7
  6
CONTINUOUS
 10
337.838348
 20
270.717093
 11
338.627933
 21
270.717093
  0
LINE
  8
1
 62
7
  6
CONTINUOUS
 10
338.627933
 20
382.717093
 11
338.627933
 21
270.717093
  0
LINE
  8
1
 62
7
  6
CONTINUOUS
 10
222.827933
 20
240.404881
 11
330.662475
 21
239.939274
  0
ARC
  8
1
 62
7
  6
CONTINUOUS
 10
330.627933
 20
231.939349
 40
8.000000
 50
0.000000
 51
89.752610
  0
LINE
  8
1
 62
7
  6
CONTINUOUS
 10
218.627933
 20
241.404881
 11
218.627933
 21
242.404881
  0
ARC
  8
1
 62
7
  6
CONTINUOUS
 10
220.627933
 20
242.404881
 40
2.000000
 50
90.000000
 51
180.000000
  0
LINE
  8
1
 62
7
  6
CONTINUOUS
 10
220.627933
 20
244.404881
 11
220.827933
 21
244.404881
  0
ARC
  8
1
 62
7
  6
CONTINUOUS
 10
220.827933
 20
242.404881
 40
2.000000
 50
0.000000
 51
90.000000
  0
LINE
  8
1
 62
7
  6
CONTINUOUS
 10
218.627933
 20
241.696264
 11
218.627933
 21
241.404881
  0
LINE
  8
1
 62
7
  6
DASHDOT
 10
213.296476
 20
179.404881
 11
349.985106
 21
179.404881
  0
LINE
  8
1
 62
7
  6
DASHDOT
 10
332.281428
 20
215.154881
 11
348.368579
 21
215.154881
  0
LINE
  8
1
 62
7
  6
CONTINUOUS
 10
338.627933
 20
231.939349
 11
338.627933
 21
156.404881
  0
LINE
  8
1
 62
7
  6
CONTINUOUS
 10
218.627933
 20
242.404881
 11
218.627933
 21
146.404881
  0
LINE
  8
1
 62
7
  6
DOT
 10
301.605103
 20
115.004881
 11
301.605103
 21
83.804881
  0
LINE
  8
1
 62
7
  6
DOT
 10
310.127933
 20
115.004881
 11
301.605103
 21
115.004881
  0
LINE
  8
1
 62
7
  6
DOT
 10
301.605103
 20
83.804881
 11
310.127933
 21
83.804881
  0
LINE
  8
1
 62
7
  6
DOT
 10
316.605103
 20
106.404881
 11
316.605103
 21
92.404881
  0
LINE
  8
1
 62
7
  6
DOT
 10
310.127933
 20
83.804881
 11
316.605103
 21
92.404881
  0
LINE
  8
1
 62
7
  6
DOT
 10
310.127933
 20
115.004881
 11
316.605103
 21
106.404881
  0
LINE
  8
1
 62
7
  6
CONTINUOUS
 10
222.827933
 20
242.404881
 11
222.827933
 21
146.404881
  0
CIRCLE
  8
1
 62
7
  6
CONTINUOUS
 10
92.679254
 20
179.404881
 40
15.000000
  0
LINE
  8
1
 62
7
  6
CONTINUOUS
 10
149.679254
 20
77.404881
 11
149.679254
 21
148.163883
  0
LINE
  8
1
 62
7
  6
CONTINUOUS
 10
146.179254
 20
77.404881
 11
145.679254
 21
69.404881
  0
LINE
  8
1
 62
7
  6
CONTINUOUS
 10
145.679254
 20
69.404881
 11
131.679254
 21
69.404881
  0
LINE
  8
1
 62
7
  6
CONTINUOUS
 10
131.679254
 20
69.404881
 11
131.179254
 21
77.404881
  0
LINE
  8
1
 62
7
  6
CONTINUOUS
 10
131.179254
 20
77.404881
 11
146.179254
 21
77.404881
  0
LINE
  8
1
 62
7
  6
CONTINUOUS
 10
54.179254
 20
77.404881
 11
53.679254
 21
69.404881
  0
LINE
  8
1
 62
7
  6
CONTINUOUS
 10
53.679254
 20
69.404881
 11
39.679254
 21
69.404881
  0
LINE
  8
1
 62
7
  6
CONTINUOUS
 10
39.679254
 20
69.404881
 11
39.179254
 21
77.404881
  0
LINE
  8
1
 62
7
  6
CONTINUOUS
 10
39.179254
 20
77.404881
 11
54.179254
 21
77.404881
  0
LINE
  8
1
 62
7
  6
DASHDOT
 10
46.679254
 20
67.070889
 11
46.679254
 21
88.404881
  0
LINE
  8
1
 62
7
  6
DASHDOT
 10
138.679254
 20
68.070889
 11
138.679254
 21
89.404881
  0
LINE
  8
1
 62
7
  6
CONTINUOUS
 10
77.679254
 20
77.404881
 11
77.679254
 21
72.404881
  0
LINE
  8
1
 62
7
  6
CONTINUOUS
 10
77.679254
 20
72.404881
 11
107.679254
 21
72.404881
  0
LINE
  8
1
 62
7
  6
CONTINUOUS
 10
107.679254
 20
72.404881
 11
107.679254
 21
77.404881
  0
LINE
  8
1
 62
7
  6
CONTINUOUS
 10
107.679254
 20
77.404881
 11
77.679254
 21
77.404881
  0
LINE
  8
1
 62
7
  6
DASHDOT
 10
211.634191
 20
236.904881
 11
219.173976
 21
236.904881
  0
LINE
  8
1
 62
7
  6
DASHDOT
 10
206.586103
 20
179.404881
 11
224.045860
 21
179.404881
  0
LINE
  8
1
 62
7
  6
CONTINUOUS
 10
213.627933
 20
244.404881
 11
213.627933
 21
114.404881
  0
LINE
  8
1
 62
7
  6
CONTINUOUS
 10
213.627933
 20
244.404881
 11
212.627933
 21
244.404881
  0
LINE
  8
1
 62
7
  6
CONTINUOUS
 10
212.627933
 20
244.404881
 11
212.627933
 21
114.404881
  0
LINE
  8
1
 62
7
  6
CONTINUOUS
 10
213.627933
 20
114.404881
 11
212.627933
 21
114.404881
  0
LINE
  8
1
 62
7
  6
CONTINUOUS
 10
212.627933
 20
153.654881
 11
212.627933
 21
147.654881
  0
LINE
  8
1
 62
7
  6
CONTINUOUS
 10
212.627933
 20
147.654881
 11
203.377933
 21
147.654881
  0
ARC
  8
1
 62
7
  6
CONTINUOUS
 10
203.377933
 20
148.404881
 40
0.750000
 50
180.000000
 51
-90.000000
  0
ARC
  8
1
 62
7
  6
CONTINUOUS
 10
203.377933
 20
148.404881
 40
0.750000
 50
90.000000
 51
180.000000
  0
LINE
  8
1
 62
7
  6
CONTINUOUS
 10
212.627933
 20
149.154881
 11
203.377933
 21
149.154881
  0
ARC
  8
1
 62
7
  6
CONTINUOUS
 10
203.377933
 20
149.904881
 40
0.750000
 50
180.000000
 51
-90.000000
  0
ARC
  8
1
 62
7
  6
CONTINUOUS
 10
203.377933
 20
151.404881
 40
0.750000
 50
90.000000
 51
180.000000
  0
LINE
  8
1
 62
7
  6
CONTINUOUS
 10
212.627933
 20
152.154881
 11
203.377933
 21
152.154881
  0
ARC
  8
1
 62
7
  6
CONTINUOUS
 10
203.377933
 20
152.904881
 40
0.750000
 50
180.000000
 51
-90.000000
  0
LINE
  8
1
 62
7
  6
CONTINUOUS
 10
202.627933
 20
148.404881
 11
202.627933
 21
152.904881
  0
LINE
  8
1
 62
7
  6
CONTINUOUS
 10
203.377933
 20
153.654881
 11
212.627933
 21
153.654881
  0
ARC
  8
1
 62
7
  6
CONTINUOUS
 10
203.377933
 20
152.904881
 40
0.750000
 50
90.000000
 51
180.000000
  0
LINE
  8
1
 62
7
  6
DASHDOT
 10
214.200604
 20
150.654881
 11
201.542896
 21
150.654881
  0
LINE
  8
1
 62
7
  6
CONTINUOUS
 10
212.627933
 20
233.904881
 11
212.627933
 21
239.904881
  0
LINE
  8
1
 62
7
  6
CONTINUOUS
 10
212.627933
 20
239.904881
 11
203.377933
 21
239.904881
  0
ARC
  8
1
 62
7
  6
CONTINUOUS
 10
203.377933
 20
239.154881
 40
0.750000
 50
90.000000
 51
180.000000
  0
ARC
  8
1
 62
7
  6
CONTINUOUS
 10
203.377933
 20
239.154881
 40
0.750000
 50
180.000000
 51
-90.000000
  0
LINE
  8
1
 62
7
  6
CONTINUOUS
 10
212.627933
 20
238.404881
 11
203.377933
 21
238.404881
  0
ARC
  8
1
 62
7
  6
CONTINUOUS
 10
203.377933
 20
237.654881
 40
0.750000
 50
90.000000
 51
180.000000
  0
ARC
  8
1
 62
7
  6
CONTINUOUS
 10
203.377933
 20
236.154881
 40
0.750000
 50
180.000000
 51
-90.000000
  0
LINE
  8
1
 62
7
  6
CONTINUOUS
 10
212.627933
 20
235.404881
 11
203.377933
 21
235.404881
  0
ARC
  8
1
 62
7
  6
CONTINUOUS
 10
203.377933
 20
234.654881
 40
0.750000
 50
90.000000
 51
180.000000
  0
LINE
  8
1
 62
7
  6
CONTINUOUS
 10
202.627933
 20
239.154881
 11
202.627933
 21
234.654881
  0
LINE
  8
1
 62
7
  6
CONTINUOUS
 10
203.377933
 20
233.904881
 11
212.627933
 21
233.904881
  0
ARC
  8
1
 62
7
  6
CONTINUOUS
 10
203.377933
 20
234.654881
 40
0.750000
 50
180.000000
 51
-90.000000
  0
LINE
  8
1
 62
7
  6
DASHDOT
 10
214.200604
 20
236.904881
 11
201.542896
 21
236.904881
  0
LINE
  8
1
 62
7
  6
CONTINUOUS
 10
218.627933
 20
239.670339
 11
213.627933
 21
239.670339
  0
LINE
  8
1
 62
7
  6
CONTINUOUS
 10
213.627933
 20
234.270339
 11
218.627933
 21
234.270339
  0
LINE
  8
1
 62
7
  6
CONTINUOUS
 10
336.127933
 20
77.404881
 11
335.627933
 21
69.404881
  0
LINE
  8
1
 62
7
  6
CONTINUOUS
 10
335.627933
 20
69.404881
 11
321.627933
 21
69.404881
  0
LINE
  8
1
 62
7
  6
CONTINUOUS
 10
321.627933
 20
69.404881
 11
321.127933
 21
77.404881
  0
LINE
  8
1
 62
7
  6
CONTINUOUS
 10
321.127933
 20
77.404881
 11
336.127933
 21
77.404881
  0
LINE
  8
1
 62
7
  6
CONTINUOUS
 10
236.127933
 20
77.404881
 11
235.627933
 21
69.404881
  0
LINE
  8
1
 62
7
  6
CONTINUOUS
 10
235.627933
 20
69.404881
 11
221.627933
 21
69.404881
  0
LINE
  8
1
 62
7
  6
CONTINUOUS
 10
221.627933
 20
69.404881
 11
221.127933
 21
77.404881
  0
LINE
  8
1
 62
7
  6
CONTINUOUS
 10
221.127933
 20
77.404881
 11
236.127933
 21
77.404881
  0
LINE
  8
1
 62
7
  6
CONTINUOUS
 10
217.627933
 20
146.404881
 11
217.627933
 21
77.404881
  0
LINE
  8
1
 62
7
  6
CONTINUOUS
 10
223.627933
 20
148.404881
 11
223.627933
 21
156.404881
  0
LINE
  8
1
 62
7
  6
CONTINUOUS
 10
218.627933
 20
146.404881
 11
217.627933
 21
146.404881
  0
LINE
  8
1
 62
7
  6
CONTINUOUS
 10
218.627933
 20
146.404881
 11
221.627933
 21
146.404881
  0
ARC
  8
1
 62
7
  6
CONTINUOUS
 10
221.627933
 20
148.404881
 40
2.000000
 50
-90.000000
 51
0.000000
  0
LINE
  8
1
 62
7
  6
CONTINUOUS
 10
339.627933
 20
156.404881
 11
339.627933
 21
77.404881
  0
LINE
  8
1
 62
7
  6
DASHDOT
 10
328.627933
 20
67.070889
 11
328.627933
 21
88.404881
  0
LINE
  8
1
 62
7
  6
DASHDOT
 10
228.627933
 20
67.070889
 11
228.627933
 21
88.404881
  0
LINE
  8
1
 62
7
  6
CONTINUOUS
 10
217.627933
 20
126.404881
 11
213.627933
 21
126.404881
  0
LINE
  8
1
 62
7
  6
DOT
 10
213.627933
 20
194.404881
 11
251.627933
 21
194.404881
  0
LINE
  8
1
 62
7
  6
DOT
 10
213.627933
 20
164.404881
 11
251.627933
 21
164.404881
  0
CIRCLE
  8
1
 62
7
  6
CONTINUOUS
 10
92.679254
 20
179.404881
 40
65.000000
  0
CIRCLE
  8
1
 62
7
  6
CONTINUOUS
 10
92.679254
 20
179.404881
 40
22.000000
  0
CIRCLE
  8
1
 62
7
  6
CONTINUOUS
 10
92.540251
 20
179.324628
 40
22.580681
  0
ARC
  8
1
 62
7
  6
DASHDOT
 10
92.679254
 20
179.404881
 40
57.500000
 50
84.931135
 51
96.007449
  0
ARC
  8
1
 62
7
  6
DASHDOT
 10
92.679254
 20
179.404881
 40
57.500000
 50
-157.135752
 51
-140.459077
  0
ARC
  8
1
 62
7
  6
DASHDOT
 10
92.679254
 20
179.404881
 40
57.500000
 50
-38.240221
 51
-22.657913
  0
LINE
  8
1
 62
7
  6
DASHDOT
 10
136.184302
 20
154.287230
 11
148.970905
 21
146.904881
  0
LINE
  8
1
 62
7
  6
DASHDOT
 10
49.387394
 20
154.410315
 11
36.387603
 21
146.904882
  0
LINE
  8
1
 62
7
  6
CONTINUOUS
 10
308.627933
 20
76.404881
 11
316.627933
 21
76.404881
  0
LINE
  8
1
 62
7
  6
CONTINUOUS
 10
316.627933
 20
76.404881
 11
316.627933
 21
77.404881
  0
LINE
  8
1
 62
7
  6
CONTINUOUS
 10
316.627933
 20
77.404881
 11
308.627933
 21
77.404881
  0
LINE
  8
1
 62
7
  6
CONTINUOUS
 10
308.627933
 20
77.404881
 11
308.627933
 21
76.404881
  0
LINE
  8
1
 62
7
  6
CONTINUOUS
 10
314.427933
 20
76.404881
 11
310.855375
 21
76.404881
  0
LINE
  8
1
 62
7
  6
CONTINUOUS
 10
310.855375
 20
76.404881
 11
310.855375
 21
76.204881
  0
LINE
  8
1
 62
7
  6
CONTINUOUS
 10
310.855375
 20
76.204881
 11
314.427933
 21
76.204881
  0
LINE
  8
1
 62
7
  6
CONTINUOUS
 10
314.427933
 20
76.204881
 11
314.427933
 21
76.404881
  0
LINE
  8
1
 62
7
  6
DASHDOT
 10
312.627933
 20
80.516921
 11
312.627933
 21
73.142554
  0
LINE
  8
1
 62
7
  6
DASHDOT
 10
92.679254
 20
255.539945
 11
92.679254
 21
60.514008
  0
LINE
  8
1
 62
7
  6
DASHDOT
 10
17.581314
 20
179.404881
 11
169.430793
 21
179.404881
  0
DIMENSION
  8
2
 62
134
  6
CONTINUOUS
  2
*D1
 10
201.627933
 20
250.769271
 11
225.778387
 21
250.769271
 70
     0
  1
50
 13
201.627933
 23
245.904881
 14
251.627933
 24
204.689971
 50
0.000000
  0
LINE
  8
1
 62
7
  6
CONTINUOUS
 10
35.679254
 20
77.404881
 11
35.679254
 21
148.404881
  0
LINE
  8
1
 62
7
  6
DOT
 10
202.127933
 20
304.717093
 11
202.127933
 21
348.717093
  0
LINE
  8
1
 62
7
  6
DOT
 10
201.627933
 20
304.217093
 11
202.127933
 21
304.717093
  0
LINE
  8
1
 62
7
  6
DOT
 10
202.627933
 20
304.717093
 11
202.127933
 21
304.717093
  0
LINE
  8
1
 62
7
  6
DOT
 10
201.627933
 20
349.217093
 11
202.127933
 21
348.717093
  0
LINE
  8
1
 62
7
  6
DOT
 10
202.627933
 20
348.717093
 11
202.127933
 21
348.717093
  0
LINE
  8
1
 62
7
  6
DASHDOT
 10
200.634191
 20
236.904881
 11
208.173976
 21
236.904881
  0
LINE
  8
1
 62
7
  6
DASHDOT
 10
195.586103
 20
179.404881
 11
213.045860
 21
179.404881
  0
LINE
  8
1
 62
7
  6
CONTINUOUS
 10
202.627933
 20
244.404881
 11
202.627933
 21
114.404881
  0
LINE
  8
1
 62
7
  6
CONTINUOUS
 10
202.627933
 20
114.404881
 11
202.127933
 21
114.404881
  0
LINE
  8
1
 62
7
  6
CONTINUOUS
 10
201.627933
 20
114.904881
 11
202.127933
 21
114.404881
  0
LINE
  8
1
 62
7
  6
CONTINUOUS
 10
201.627933
 20
114.904881
 11
201.627933
 21
243.904881
  0
LINE
  8
1
 62
7
  6
CONTINUOUS
 10
202.627933
 20
244.404881
 11
202.127933
 21
244.404881
  0
LINE
  8
1
 62
7
  6
CONTINUOUS
 10
201.627933
 20
243.904881
 11
202.127933
 21
244.404881
  0
LINE
  8
1
 62
7
  6
DOT
 10
202.127933
 20
157.404881
 11
202.127933
 21
201.404881
  0
LINE
  8
1
 62
7
  6
DOT
 10
201.627933
 20
156.904881
 11
202.127933
 21
157.404881
  0
LINE
  8
1
 62
7
  6
DOT
 10
202.627933
 20
157.404881
 11
202.127933
 21
157.404881
  0
LINE
  8
1
 62
7
  6
DOT
 10
201.627933
 20
201.904881
 11
202.127933
 21
201.404881
  0
LINE
  8
1
 62
7
  6
DOT
 10
202.627933
 20
201.404881
 11
202.127933
 21
201.404881
  0
LINE
  8
1
 62
7
  6
DOT
 10
291.627933
 20
150.404881
 11
291.627933
 21
208.404881
  0
LINE
  8
1
 62
7
  6
DOT
 10
251.627933
 20
208.404881
 11
291.627933
 21
208.404881
  0
LINE
  8
1
 62
7
  6
DOT
 10
251.627933
 20
208.404881
 11
251.627933
 21
150.404881
  0
LINE
  8
1
 62
7
  6
DOT
 10
251.627933
 20
150.404881
 11
291.627933
 21
150.404881
  0
CIRCLE
  8
1
 62
7
  6
CONTINUOUS
 10
481.077458
 20
215.154881
 40
2.250000
  0
LINE
  8
1
 62
7
  6
DASHDOT
 10
481.077458
 20
206.735038
 11
481.077458
 21
224.928137
  0
LINE
  8
1
 62
7
  6
DASHDOT
 10
296.866107
 20
99.404881
 11
359.972177
 21
99.404881
  0
CIRCLE
  8
1
 62
7
  6
CONTINUOUS
 10
437.002280
 20
179.404881
 40
40.000000
  0
LINE
  8
1
 62
7
  6
DASHDOT
 10
480.287836
 20
215.154881
 11
465.412391
 21
215.154881
  0
LINE
  8
1
 62
7
  6
DASHDOT
 10
408.787836
 20
215.154881
 11
393.912391
 21
215.154881
  0
LINE
  8
1
 62
7
  6
DASHDOT
 10
401.252280
 20
206.735038
 11
401.252280
 21
224.928137
  0
LINE
  8
1
 62
7
  6
DASHDOT
 10
480.287836
 20
143.654881
 11
465.412391
 21
143.654881
  0
LINE
  8
1
 62
7
  6
DASHDOT
 10
472.752280
 20
135.235038
 11
472.752280
 21
153.428137
  0
LINE
  8
1
 62
7
  6
DASHDOT
 10
408.787836
 20
143.654881
 11
393.912391
 21
143.654881
  0
LINE
  8
1
 62
7
  6
DASHDOT
 10
401.252280
 20
135.235038
 11
401.252280
 21
153.428137
  0
LINE
  8
1
 62
7
  6
DASHDOT
 10
365.322262
 20
179.404881
 11
509.205518
 21
179.404881
  0
LINE
  8
1
 62
7
  6
DASHDOT
 10
387.002280
 20
172.178486
 11
387.002280
 21
186.916275
  0
LINE
  8
1
 62
7
  6
DASHDOT
 10
487.002280
 20
171.555763
 11
487.002280
 21
188.161722
  0
CIRCLE
  8
1
 62
7
  6
CONTINUOUS
 10
407.002280
 20
99.404881
 40
5.000000
  0
LINE
  8
1
 62
7
  6
CONTINUOUS
 10
490.502280
 20
77.404881
 11
490.002280
 21
69.404881
  0
LINE
  8
1
 62
7
  6
CONTINUOUS
 10
490.002280
 20
69.404881
 11
476.002280
 21
69.404881
  0
LINE
  8
1
 62
7
  6
CONTINUOUS
 10
476.002280
 20
69.404881
 11
475.502280
 21
77.404881
  0
LINE
  8
1
 62
7
  6
CONTINUOUS
 10
475.502280
 20
77.404881
 11
490.502280
 21
77.404881
  0
LINE
  8
1
 62
7
  6
DASHDOT
 10
483.002280
 20
80.408255
 11
483.002280
 21
66.371976
  0
LINE
  8
1
 62
7
  6
CONTINUOUS
 10
398.502280
 20
77.404881
 11
398.002280
 21
69.404881
  0
LINE
  8
1
 62
7
  6
CONTINUOUS
 10
398.002280
 20
69.404881
 11
384.002280
 21
69.404881
  0
LINE
  8
1
 62
7
  6
CONTINUOUS
 10
384.002280
 20
69.404881
 11
383.502280
 21
77.404881
  0
LINE
  8
1
 62
7
  6
CONTINUOUS
 10
383.502280
 20
77.404881
 11
398.502280
 21
77.404881
  0
LINE
  8
1
 62
7
  6
DASHDOT
 10
391.002280
 20
80.408255
 11
391.002280
 21
66.371976
  0
LINE
  8
1
 62
7
  6
CONTINUOUS
 10
414.002280
 20
78.404881
 11
400.002280
 21
78.404881
  0
LINE
  8
1
 62
7
  6
DASHDOT
 10
394.722835
 20
99.404881
 11
418.576806
 21
99.404881
  0
LINE
  8
1
 62
7
  6
DASHDOT
 10
407.002280
 20
74.827240
 11
407.002280
 21
113.799715
  0
LINE
  8
1
 62
7
  6
DASHDOT
 10
437.002280
 20
74.439952
 11
437.002280
 21
254.623776
  0
CIRCLE
  8
1
 62
7
  6
CONTINUOUS
 10
387.002280
 20
179.404881
 40
3.000000
  0
LINE
  8
1
 62
7
  6
CONTINUOUS
 10
385.502280
 20
179.704881
 11
385.502280
 21
179.104881
  0
LINE
  8
1
 62
7
  6
CONTINUOUS
 10
386.702280
 20
180.904881
 11
387.302280
 21
180.904881
  0
LINE
  8
1
 62
7
  6
CONTINUOUS
 10
388.502280
 20
179.704881
 11
388.502280
 21
179.104881
  0
LINE
  8
1
 62
7
  6
CONTINUOUS
 10
387.302280
 20
177.904881
 11
386.702280
 21
177.904881
  0
LINE
  8
1
 62
7
  6
CONTINUOUS
 10
387.302280
 20
178.204881
 11
387.302280
 21
177.904881
  0
LINE
  8
1
 62
7
  6
CONTINUOUS
 10
388.502280
 20
179.104881
 11
388.202280
 21
179.104881
  0
ARC
  8
1
 62
7
  6
CONTINUOUS
 10
388.202280
 20
178.204881
 40
0.900000
 50
90.000000
 51
180.000000
  0
LINE
  8
1
 62
7
  6
CONTINUOUS
 10
388.202280
 20
179.704881
 11
388.502280
 21
179.704881
  0
LINE
  8
1
 62
7
  6
CONTINUOUS
 10
387.302280
 20
180.904881
 11
387.302280
 21
180.604881
  0
ARC
  8
1
 62
7
  6
CONTINUOUS
 10
388.202280
 20
180.604881
 40
0.900000
 50
180.000000
 51
-90.000000
  0
LINE
  8
1
 62
7
  6
CONTINUOUS
 10
385.502280
 20
179.704881
 11
385.802280
 21
179.704881
  0
LINE
  8
1
 62
7
  6
CONTINUOUS
 10
386.702280
 20
180.604881
 11
386.702280
 21
180.904881
  0
ARC
  8
1
 62
7
  6
CONTINUOUS
 10
385.802280
 20
180.604881
 40
0.900000
 50
-90.000000
 51
0.000000
  0
LINE
  8
1
 62
7
  6
CONTINUOUS
 10
385.802280
 20
179.104881
 11
385.502280
 21
179.104881
  0
LINE
  8
1
 62
7
  6
CONTINUOUS
 10
386.702280
 20
177.904881
 11
386.702280
 21
178.204881
  0
ARC
  8
1
 62
7
  6
CONTINUOUS
 10
385.802280
 20
178.204881
 40
0.900000
 50
0.000000
 51
90.000000
  0
CIRCLE
  8
1
 62
7
  6
CONTINUOUS
 10
487.002280
 20
179.404881
 40
3.000000
  0
LINE
  8
1
 62
7
  6
CONTINUOUS
 10
485.502280
 20
179.704881
 11
485.502280
 21
179.104881
  0
LINE
  8
1
 62
7
  6
CONTINUOUS
 10
486.702280
 20
180.904881
 11
487.302280
 21
180.904881
  0
LINE
  8
1
 62
7
  6
CONTINUOUS
 10
488.502280
 20
179.704881
 11
488.502280
 21
179.104881
  0
LINE
  8
1
 62
7
  6
CONTINUOUS
 10
487.302280
 20
177.904881
 11
486.702280
 21
177.904881
  0
LINE
  8
1
 62
7
  6
CONTINUOUS
 10
487.302280
 20
178.204881
 11
487.302280
 21
177.904881
  0
LINE
  8
1
 62
7
  6
CONTINUOUS
 10
488.502280
 20
179.104881
 11
488.202280
 21
179.104881
  0
ARC
  8
1
 62
7
  6
CONTINUOUS
 10
488.202280
 20
178.204881
 40
0.900000
 50
90.000000
 51
180.000000
  0
LINE
  8
1
 62
7
  6
CONTINUOUS
 10
488.202280
 20
179.704881
 11
488.502280
 21
179.704881
  0
LINE
  8
1
 62
7
  6
CONTINUOUS
 10
487.302280
 20
180.904881
 11
487.302280
 21
180.604881
  0
ARC
  8
1
 62
7
  6
CONTINUOUS
 10
488.202280
 20
180.604881
 40
0.900000
 50
180.000000
 51
-90.000000
  0
LINE
  8
1
 62
7
  6
CONTINUOUS
 10
485.502280
 20
179.704881
 11
485.802280
 21
179.704881
  0
LINE
  8
1
 62
7
  6
CONTINUOUS
 10
486.702280
 20
180.604881
 11
486.702280
 21
180.904881
  0
ARC
  8
1
 62
7
  6
CONTINUOUS
 10
485.802280
 20
180.604881
 40
0.900000
 50
-90.000000
 51
0.000000
  0
LINE
  8
1
 62
7
  6
CONTINUOUS
 10
485.802280
 20
179.104881
 11
485.502280
 21
179.104881
  0
LINE
  8
1
 62
7
  6
CONTINUOUS
 10
486.702280
 20
177.904881
 11
486.702280
 21
178.204881
  0
ARC
  8
1
 62
7
  6
CONTINUOUS
 10
485.802280
 20
178.204881
 40
0.900000
 50
0.000000
 51
90.000000
  0
LINE
  8
1
 62
7
  6
DASHDOT
 10
522.725601
 20
90.961947
 11
522.725601
 21
186.961947
  0
LINE
  8
1
 62
7
  6
HIDDEN
 10
522.725601
 20
130.961947
 11
526.875282
 21
130.961947
  0
LINE
  8
1
 62
7
  6
HIDDEN
 10
522.725601
 20
130.961947
 11
518.575921
 21
130.961947
  0
LINE
  8
1
 62
7
  6
HIDDEN
 10
522.725601
 20
133.961947
 11
527.725282
 21
133.961947
  0
LINE
  8
1
 62
7
  6
HIDDEN
 10
527.975601
 20
174.961947
 11
522.725601
 21
174.961947
  0
ARC
  8
1
 62
7
  6
HIDDEN
 10
528.975601
 20
180.961947
 40
1.000000
 50
90.000000
 51
180.000000
  0
LINE
  8
1
 62
7
  6
HIDDEN
 10
527.975601
 20
180.961947
 11
527.975601
 21
174.961947
  0
LINE
  8
1
 62
7
  6
HIDDEN
 10
527.725282
 20
174.961947
 11
527.725282
 21
133.961947
  0
ARC
  8
1
 62
7
  6
HIDDEN
 10
516.475601
 20
180.961947
 40
1.000000
 50
0.000000
 51
90.000000
  0
LINE
  8
1
 62
7
  6
HIDDEN
 10
517.475601
 20
180.961947
 11
517.475601
 21
174.961947
  0
LINE
  8
1
 62
7
  6
HIDDEN
 10
517.725921
 20
174.961947
 11
517.725921
 21
133.961947
  0
LINE
  8
1
 62
7
  6
HIDDEN
 10
522.725601
 20
133.961947
 11
517.725921
 21
133.961947
  0
LINE
  8
1
 62
7
  6
HIDDEN
 10
517.475601
 20
174.961947
 11
522.725601
 21
174.961947
  0
LINE
  8
1
 62
7
  6
HIDDEN
 10
518.575921
 20
174.961947
 11
518.575921
 21
130.961947
  0
LINE
  8
1
 62
7
  6
HIDDEN
 10
526.875282
 20
174.961947
 11
526.875282
 21
130.961947
  0
LINE
  8
1
 62
7
  6
CONTINUOUS
 10
540.195180
 20
119.961947
 11
532.810455
 21
181.257636
  0
LINE
  8
1
 62
7
  6
CONTINUOUS
 10
505.256022
 20
119.961947
 11
512.640748
 21
181.257636
  0
LINE
  8
1
 62
7
  6
CONTINUOUS
 10
532.016198
 20
181.961947
 11
513.435005
 21
181.961947
  0
ARC
  8
1
 62
7
  6
CONTINUOUS
 10
532.016198
 20
181.161947
 40
0.800000
 50
6.869719
 51
90.000000
  0
ARC
  8
1
 62
7
  6
CONTINUOUS
 10
522.725601
 20
135.961947
 40
40.000000
 50
-103.500352
 51
-90.000000
  0
ARC
  8
1
 62
7
  6
CONTINUOUS
 10
515.722061
 20
106.790892
 40
10.000000
 50
-178.000000
 51
-103.500352
  0
LINE
  8
1
 62
7
  6
CONTINUOUS
 10
505.728153
 20
106.441897
 11
505.256022
 21
119.961947
  0
ARC
  8
1
 62
7
  6
CONTINUOUS
 10
529.729141
 20
106.790892
 40
10.000000
 50
-76.499648
 51
-2.000000
  0
ARC
  8
1
 62
7
  6
CONTINUOUS
 10
522.725601
 20
135.961947
 40
40.000000
 50
-90.000000
 51
-76.499648
  0
LINE
  8
1
 62
7
  6
CONTINUOUS
 10
527.720339
 20
161.841182
 11
517.720339
 21
161.841182
  0
ARC
  8
1
 62
7
  6
CONTINUOUS
 10
513.435005
 20
181.161947
 40
0.800000
 50
90.000000
 51
173.130281
  0
LINE
  8
1
 62
7
  6
CONTINUOUS
 10
526.908339
 20
161.841182
 11
526.908339
 21
181.841182
  0
LINE
  8
1
 62
7
  6
CONTINUOUS
 10
518.532339
 20
161.841182
 11
518.532339
 21
181.841182
  0
LINE
  8
1
 62
7
  6
CONTINUOUS
 10
517.720339
 20
181.841182
 11
517.720339
 21
161.841182
  0
LINE
  8
1
 62
7
  6
CONTINUOUS
 10
527.720339
 20
181.841182
 11
527.720339
 21
161.841182
  0
LINE
  8
1
 62
7
  6
CONTINUOUS
 10
539.723050
 20
106.441897
 11
540.195180
 21
119.961947
  0
DIMENSION
  8
2
 62
134
  6
CONTINUOUS
  2
*D2
 10
550.948247
 20
95.961947
 11
550.948247
 21
143.315892
 70
     0
  1
86
 13
526.725601
 23
95.961947
 14
532.722212
 24
181.961947
 50
90.000000
  0
DIMENSION
  8
2
 62
134
  6
CONTINUOUS
  2
*D3
 10
505.256022
 20
73.553842
 11
522.949132
 21
73.553842
 70
     0
  1
φ35
 13
505.256022
 23
105.410600
 14
540.195180
 24
106.245916
 50
0.000000
  0
CIRCLE
  8
1
 62
7
  6
CONTINUOUS
 10
401.252280
 20
215.154881
 40
3.999999
  0
LINE
  8
1
 62
7
  6
CONTINUOUS
 10
399.252281
 20
215.554881
 11
399.252281
 21
214.754881
  0
LINE
  8
1
 62
7
  6
CONTINUOUS
 10
400.852281
 20
217.154881
 11
401.652280
 21
217.154881
  0
LINE
  8
1
 62
7
  6
CONTINUOUS
 10
403.252280
 20
215.554881
 11
403.252280
 21
214.754881
  0
LINE
  8
1
 62
7
  6
CONTINUOUS
 10
401.652280
 20
213.154882
 11
400.852281
 21
213.154882
  0
LINE
  8
1
 62
7
  6
CONTINUOUS
 10
401.652280
 20
213.554882
 11
401.652280
 21
213.154882
  0
LINE
  8
1
 62
7
  6
CONTINUOUS
 10
403.252280
 20
214.754881
 11
402.852280
 21
214.754881
  0
ARC
  8
1
 62
7
  6
CONTINUOUS
 10
402.852280
 20
213.554882
 40
1.200000
 50
90.000000
 51
180.000000
  0
LINE
  8
1
 62
7
  6
CONTINUOUS
 10
402.852280
 20
215.554881
 11
403.252280
 21
215.554881
  0
LINE
  8
1
 62
7
  6
CONTINUOUS
 10
401.652280
 20
217.154881
 11
401.652280
 21
216.754881
  0
ARC
  8
1
 62
7
  6
CONTINUOUS
 10
402.852280
 20
216.754881
 40
1.200000
 50
180.000000
 51
-90.000000
  0
LINE
  8
1
 62
7
  6
CONTINUOUS
 10
399.252281
 20
215.554881
 11
399.652281
 21
215.554881
  0
LINE
  8
1
 62
7
  6
CONTINUOUS
 10
400.852281
 20
216.754881
 11
400.852281
 21
217.154881
  0
ARC
  8
1
 62
7
  6
CONTINUOUS
 10
399.652281
 20
216.754881
 40
1.200000
 50
-90.000000
 51
0.000000
  0
LINE
  8
1
 62
7
  6
CONTINUOUS
 10
399.652281
 20
214.754881
 11
399.252281
 21
214.754881
  0
LINE
  8
1
 62
7
  6
CONTINUOUS
 10
400.852281
 20
213.154882
 11
400.852281
 21
213.554882
  0
ARC
  8
1
 62
7
  6
CONTINUOUS
 10
399.652281
 20
213.554882
 40
1.200000
 50
0.000000
 51
90.000000
  0
CIRCLE
  8
1
 62
7
  6
CONTINUOUS
 10
472.752280
 20
215.154881
 40
3.999999
  0
LINE
  8
1
 62
7
  6
CONTINUOUS
 10
470.752281
 20
215.554881
 11
470.752281
 21
214.754881
  0
LINE
  8
1
 62
7
  6
CONTINUOUS
 10
472.352281
 20
217.154881
 11
473.152280
 21
217.154881
  0
LINE
  8
1
 62
7
  6
CONTINUOUS
 10
474.752280
 20
215.554881
 11
474.752280
 21
214.754881
  0
LINE
  8
1
 62
7
  6
CONTINUOUS
 10
473.152280
 20
213.154882
 11
472.352281
 21
213.154882
  0
LINE
  8
1
 62
7
  6
CONTINUOUS
 10
473.152280
 20
213.554882
 11
473.152280
 21
213.154882
  0
LINE
  8
1
 62
7
  6
CONTINUOUS
 10
474.752280
 20
214.754881
 11
474.352280
 21
214.754881
  0
ARC
  8
1
 62
7
  6
CONTINUOUS
 10
474.352280
 20
213.554882
 40
1.200000
 50
90.000000
 51
180.000000
  0
LINE
  8
1
 62
7
  6
CONTINUOUS
 10
474.352280
 20
215.554881
 11
474.752280
 21
215.554881
  0
LINE
  8
1
 62
7
  6
CONTINUOUS
 10
473.152280
 20
217.154881
 11
473.152280
 21
216.754881
  0
ARC
  8
1
 62
7
  6
CONTINUOUS
 10
474.352280
 20
216.754881
 40
1.200000
 50
180.000000
 51
-90.000000
  0
LINE
  8
1
 62
7
  6
CONTINUOUS
 10
470.752281
 20
215.554881
 11
471.152281
 21
215.554881
  0
LINE
  8
1
 62
7
  6
CONTINUOUS
 10
472.352281
 20
216.754881
 11
472.352281
 21
217.154881
  0
ARC
  8
1
 62
7
  6
CONTINUOUS
 10
471.152281
 20
216.754881
 40
1.200000
 50
-90.000000
 51
0.000000
  0
LINE
  8
1
 62
7
  6
CONTINUOUS
 10
471.152281
 20
214.754881
 11
470.752281
 21
214.754881
  0
LINE
  8
1
 62
7
  6
CONTINUOUS
 10
472.352281
 20
213.154882
 11
472.352281
 21
213.554882
  0
ARC
  8
1
 62
7
  6
CONTINUOUS
 10
471.152281
 20
213.554882
 40
1.200000
 50
0.000000
 51
90.000000
  0
CIRCLE
  8
1
 62
7
  6
CONTINUOUS
 10
472.752280
 20
143.654881
 40
3.999999
  0
LINE
  8
1
 62
7
  6
CONTINUOUS
 10
470.752281
 20
144.054881
 11
470.752281
 21
143.254881
  0
LINE
  8
1
 62
7
  6
CONTINUOUS
 10
472.352281
 20
145.654881
 11
473.152280
 21
145.654881
  0
LINE
  8
1
 62
7
  6
CONTINUOUS
 10
474.752280
 20
144.054881
 11
474.752280
 21
143.254881
  0
LINE
  8
1
 62
7
  6
CONTINUOUS
 10
473.152280
 20
141.654882
 11
472.352281
 21
141.654882
  0
LINE
  8
1
 62
7
  6
CONTINUOUS
 10
473.152280
 20
142.054882
 11
473.152280
 21
141.654882
  0
LINE
  8
1
 62
7
  6
CONTINUOUS
 10
474.752280
 20
143.254881
 11
474.352280
 21
143.254881
  0
ARC
  8
1
 62
7
  6
CONTINUOUS
 10
474.352280
 20
142.054882
 40
1.200000
 50
90.000000
 51
180.000000
  0
LINE
  8
1
 62
7
  6
CONTINUOUS
 10
474.352280
 20
144.054881
 11
474.752280
 21
144.054881
  0
LINE
  8
1
 62
7
  6
CONTINUOUS
 10
473.152280
 20
145.654881
 11
473.152280
 21
145.254881
  0
ARC
  8
1
 62
7
  6
CONTINUOUS
 10
474.352280
 20
145.254881
 40
1.200000
 50
180.000000
 51
-90.000000
  0
LINE
  8
1
 62
7
  6
CONTINUOUS
 10
470.752281
 20
144.054881
 11
471.152281
 21
144.054881
  0
LINE
  8
1
 62
7
  6
CONTINUOUS
 10
472.352281
 20
145.254881
 11
472.352281
 21
145.654881
  0
ARC
  8
1
 62
7
  6
CONTINUOUS
 10
471.152281
 20
145.254881
 40
1.200000
 50
-90.000000
 51
0.000000
  0
LINE
  8
1
 62
7
  6
CONTINUOUS
 10
471.152281
 20
143.254881
 11
470.752281
 21
143.254881
  0
LINE
  8
1
 62
7
  6
CONTINUOUS
 10
472.352281
 20
141.654882
 11
472.352281
 21
142.054882
  0
ARC
  8
1
 62
7
  6
CONTINUOUS
 10
471.152281
 20
142.054882
 40
1.200000
 50
0.000000
 51
90.000000
  0
CIRCLE
  8
1
 62
7
  6
CONTINUOUS
 10
401.252280
 20
143.654881
 40
3.999999
  0
LINE
  8
1
 62
7
  6
CONTINUOUS
 10
399.252281
 20
144.054881
 11
399.252281
 21
143.254881
  0
LINE
  8
1
 62
7
  6
CONTINUOUS
 10
400.852281
 20
145.654881
 11
401.652280
 21
145.654881
  0
LINE
  8
1
 62
7
  6
CONTINUOUS
 10
403.252280
 20
144.054881
 11
403.252280
 21
143.254881
  0
LINE
  8
1
 62
7
  6
CONTINUOUS
 10
401.652280
 20
141.654882
 11
400.852281
 21
141.654882
  0
LINE
  8
1
 62
7
  6
CONTINUOUS
 10
401.652280
 20
142.054882
 11
401.652280
 21
141.654882
  0
LINE
  8
1
 62
7
  6
CONTINUOUS
 10
403.252280
 20
143.254881
 11
402.852280
 21
143.254881
  0
ARC
  8
1
 62
7
  6
CONTINUOUS
 10
402.852280
 20
142.054882
 40
1.200000
 50
90.000000
 51
180.000000
  0
LINE
  8
1
 62
7
  6
CONTINUOUS
 10
402.852280
 20
144.054881
 11
403.252280
 21
144.054881
  0
LINE
  8
1
 62
7
  6
CONTINUOUS
 10
401.652280
 20
145.654881
 11
401.652280
 21
145.254881
  0
ARC
  8
1
 62
7
  6
CONTINUOUS
 10
402.852280
 20
145.254881
 40
1.200000
 50
180.000000
 51
-90.000000
  0
LINE
  8
1
 62
7
  6
CONTINUOUS
 10
399.252281
 20
144.054881
 11
399.652281
 21
144.054881
  0
LINE
  8
1
 62
7
  6
CONTINUOUS
 10
400.852281
 20
145.254881
 11
400.852281
 21
145.654881
  0
ARC
  8
1
 62
7
  6
CONTINUOUS
 10
399.652281
 20
145.254881
 40
1.200000
 50
-90.000000
 51
0.000000
  0
LINE
  8
1
 62
7
  6
CONTINUOUS
 10
399.652281
 20
143.254881
 11
399.252281
 21
143.254881
  0
LINE
  8
1
 62
7
  6
CONTINUOUS
 10
400.852281
 20
141.654882
 11
400.852281
 21
142.054882
  0
ARC
  8
1
 62
7
  6
CONTINUOUS
 10
399.652281
 20
142.054882
 40
1.200000
 50
0.000000
 51
90.000000
  0
ARC
  8
1
 62
7
  6
CONTINUOUS
 10
437.002280
 20
179.404881
 40
60.534393
 50
-37.496702
 51
-34.392148
  0
ARC
  8
2
 62
134
  6
CONTINUOUS
 10
92.679254
 20
236.904881
 40
0.705000
 50
179.268238
 51
-179.268238
  0
ARC
  8
2
 62
134
  6
CONTINUOUS
 10
92.679254
 20
236.904881
 40
0.705000
 50
-0.731762
 51
0.731762
  0
CIRCLE
  8
1
 62
7
  6
CONTINUOUS
 10
92.679254
 20
236.904881
 40
3.000000
  0
ARC
  8
1
 62
7
  6
CONTINUOUS
 10
92.242332
 20
236.169950
 40
0.150000
 50
59.268238
 51
114.418332
  0
ARC
  8
1
 62
7
  6
CONTINUOUS
 10
92.679254
 20
236.904881
 40
0.705000
 50
-120.731762
 51
-119.268238
  0
ARC
  8
1
 62
7
  6
CONTINUOUS
 10
92.261245
 20
236.159030
 40
0.150000
 50
5.581665
 51
60.731762
  0
ARC
  8
1
 62
7
  6
CONTINUOUS
 10
92.679254
 20
236.199881
 40
0.270000
 50
-174.418333
 51
-5.581665
  0
ARC
  8
1
 62
7
  6
CONTINUOUS
 10
93.097263
 20
236.159030
 40
0.150000
 50
119.268238
 51
174.418332
  0
ARC
  8
1
 62
7
  6
CONTINUOUS
 10
92.679254
 20
236.904881
 40
0.705000
 50
-60.731762
 51
-59.268238
  0
ARC
  8
1
 62
7
  6
CONTINUOUS
 10
93.116176
 20
236.169950
 40
0.150000
 50
65.581665
 51
120.731762
  0
ARC
  8
1
 62
7
  6
CONTINUOUS
 10
93.289802
 20
236.552381
 40
0.270000
 50
-114.418333
 51
54.418335
  0
ARC
  8
1
 62
7
  6
CONTINUOUS
 10
93.534184
 20
236.893962
 40
0.150000
 50
179.268238
 51
-125.581668
  0
ARC
  8
1
 62
7
  6
CONTINUOUS
 10
93.534184
 20
236.915801
 40
0.150000
 50
125.581668
 51
-179.268238
  0
ARC
  8
1
 62
7
  6
CONTINUOUS
 10
93.289802
 20
237.257381
 40
0.270000
 50
-54.418335
 51
114.418332
  0
ARC
  8
1
 62
7
  6
CONTINUOUS
 10
93.116176
 20
237.639813
 40
0.150000
 50
-120.731765
 51
-65.581664
  0
ARC
  8
1
 62
7
  6
CONTINUOUS
 10
92.679254
 20
236.904881
 40
0.705000
 50
59.268239
 51
60.731762
  0
ARC
  8
1
 62
7
  6
CONTINUOUS
 10
93.097263
 20
237.650732
 40
0.150000
 50
-174.418332
 51
-119.268238
  0
ARC
  8
1
 62
7
  6
CONTINUOUS
 10
92.679254
 20
237.609881
 40
0.270000
 50
5.581665
 51
174.418335
  0
ARC
  8
1
 62
7
  6
CONTINUOUS
 10
92.261245
 20
237.650732
 40
0.150000
 50
-60.731762
 51
-5.581668
  0
ARC
  8
1
 62
7
  6
CONTINUOUS
 10
92.679254
 20
236.904881
 40
0.705000
 50
119.268238
 51
120.731762
  0
ARC
  8
1
 62
7
  6
CONTINUOUS
 10
92.242332
 20
237.639813
 40
0.150000
 50
-114.418332
 51
-59.268238
  0
ARC
  8
1
 62
7
  6
CONTINUOUS
 10
92.068706
 20
237.257381
 40
0.270000
 50
65.581665
 51
-125.581667
  0
ARC
  8
1
 62
7
  6
CONTINUOUS
 10
91.824324
 20
236.915801
 40
0.150000
 50
-0.731762
 51
54.418336
  0
ARC
  8
1
 62
7
  6
CONTINUOUS
 10
91.824324
 20
236.893962
 40
0.150000
 50
-54.418337
 51
0.731762
  0
ARC
  8
1
 62
7
  6
CONTINUOUS
 10
92.068706
 20
236.552381
 40
0.270000
 50
125.581668
 51
-65.581665
  0
ARC
  8
2
 62
134
  6
CONTINUOUS
 10
142.475715
 20
150.654881
 40
0.705000
 50
179.268238
 51
-179.268238
  0
ARC
  8
2
 62
134
  6
CONTINUOUS
 10
142.475715
 20
150.654881
 40
0.705000
 50
-0.731762
 51
0.731762
  0
CIRCLE
  8
1
 62
7
  6
CONTINUOUS
 10
142.475715
 20
150.654881
 40
3.000000
  0
ARC
  8
1
 62
7
  6
CONTINUOUS
 10
142.038793
 20
149.919950
 40
0.150000
 50
59.268238
 51
114.418332
  0
ARC
  8
1
 62
7
  6
CONTINUOUS
 10
142.475715
 20
150.654881
 40
0.705000
 50
-120.731762
 51
-119.268238
  0
ARC
  8
1
 62
7
  6
CONTINUOUS
 10
142.057706
 20
149.909030
 40
0.150000
 50
5.581665
 51
60.731762
  0
ARC
  8
1
 62
7
  6
CONTINUOUS
 10
142.475715
 20
149.949881
 40
0.270000
 50
-174.418333
 51
-5.581665
  0
ARC
  8
1
 62
7
  6
CONTINUOUS
 10
142.893723
 20
149.909030
 40
0.150000
 50
119.268238
 51
174.418332
  0
ARC
  8
1
 62
7
  6
CONTINUOUS
 10
142.475715
 20
150.654881
 40
0.705000
 50
-60.731762
 51
-59.268238
  0
ARC
  8
1
 62
7
  6
CONTINUOUS
 10
142.912636
 20
149.919950
 40
0.150000
 50
65.581665
 51
120.731762
  0
ARC
  8
1
 62
7
  6
CONTINUOUS
 10
143.086263
 20
150.302381
 40
0.270000
 50
-114.418333
 51
54.418335
  0
ARC
  8
1
 62
7
  6
CONTINUOUS
 10
143.330645
 20
150.643962
 40
0.150000
 50
179.268238
 51
-125.581668
  0
ARC
  8
1
 62
7
  6
CONTINUOUS
 10
143.330645
 20
150.665801
 40
0.150000
 50
125.581668
 51
-179.268238
  0
ARC
  8
1
 62
7
  6
CONTINUOUS
 10
143.086263
 20
151.007381
 40
0.270000
 50
-54.418335
 51
114.418332
  0
ARC
  8
1
 62
7
  6
CONTINUOUS
 10
142.912636
 20
151.389813
 40
0.150000
 50
-120.731765
 51
-65.581664
  0
ARC
  8
1
 62
7
  6
CONTINUOUS
 10
142.475715
 20
150.654881
 40
0.705000
 50
59.268239
 51
60.731762
  0
ARC
  8
1
 62
7
  6
CONTINUOUS
 10
142.893723
 20
151.400732
 40
0.150000
 50
-174.418332
 51
-119.268238
  0
ARC
  8
1
 62
7
  6
CONTINUOUS
 10
142.475715
 20
151.359881
 40
0.270000
 50
5.581665
 51
174.418335
  0
ARC
  8
1
 62
7
  6
CONTINUOUS
 10
142.057706
 20
151.400732
 40
0.150000
 50
-60.731762
 51
-5.581668
  0
ARC
  8
1
 62
7
  6
CONTINUOUS
 10
142.475715
 20
150.654881
 40
0.705000
 50
119.268238
 51
120.731762
  0
ARC
  8
1
 62
7
  6
CONTINUOUS
 10
142.038793
 20
151.389813
 40
0.150000
 50
-114.418332
 51
-59.268238
  0
ARC
  8
1
 62
7
  6
CONTINUOUS
 10
141.865167
 20
151.007381
 40
0.270000
 50
65.581665
 51
-125.581667
  0
ARC
  8
1
 62
7
  6
CONTINUOUS
 10
141.620784
 20
150.665801
 40
0.150000
 50
-0.731762
 51
54.418336
  0
ARC
  8
1
 62
7
  6
CONTINUOUS
 10
141.620784
 20
150.643962
 40
0.150000
 50
-54.418337
 51
0.731762
  0
ARC
  8
1
 62
7
  6
CONTINUOUS
 10
141.865167
 20
150.302381
 40
0.270000
 50
125.581668
 51
-65.581665
  0
ARC
  8
2
 62
134
  6
CONTINUOUS
 10
42.882793
 20
150.654882
 40
0.705000
 50
179.268238
 51
-179.268238
  0
ARC
  8
2
 62
134
  6
CONTINUOUS
 10
42.882793
 20
150.654882
 40
0.705000
 50
-0.731762
 51
0.731762
  0
CIRCLE
  8
1
 62
7
  6
CONTINUOUS
 10
42.882793
 20
150.654882
 40
3.000000
  0
ARC
  8
1
 62
7
  6
CONTINUOUS
 10
42.445872
 20
149.919950
 40
0.150000
 50
59.268238
 51
114.418332
  0
ARC
  8
1
 62
7
  6
CONTINUOUS
 10
42.882793
 20
150.654882
 40
0.705000
 50
-120.731762
 51
-119.268238
  0
ARC
  8
1
 62
7
  6
CONTINUOUS
 10
42.464785
 20
149.909030
 40
0.150000
 50
5.581665
 51
60.731762
  0
ARC
  8
1
 62
7
  6
CONTINUOUS
 10
42.882793
 20
149.949882
 40
0.270000
 50
-174.418333
 51
-5.581665
  0
ARC
  8
1
 62
7
  6
CONTINUOUS
 10
43.300802
 20
149.909030
 40
0.150000
 50
119.268238
 51
174.418332
  0
ARC
  8
1
 62
7
  6
CONTINUOUS
 10
42.882793
 20
150.654882
 40
0.705000
 50
-60.731762
 51
-59.268238
  0
ARC
  8
1
 62
7
  6
CONTINUOUS
 10
43.319715
 20
149.919950
 40
0.150000
 50
65.581665
 51
120.731762
  0
ARC
  8
1
 62
7
  6
CONTINUOUS
 10
43.493341
 20
150.302382
 40
0.270000
 50
-114.418333
 51
54.418335
  0
ARC
  8
1
 62
7
  6
CONTINUOUS
 10
43.737723
 20
150.643962
 40
0.150000
 50
179.268238
 51
-125.581668
  0
ARC
  8
1
 62
7
  6
CONTINUOUS
 10
43.737723
 20
150.665801
 40
0.150000
 50
125.581668
 51
-179.268238
  0
ARC
  8
1
 62
7
  6
CONTINUOUS
 10
43.493341
 20
151.007382
 40
0.270000
 50
-54.418335
 51
114.418332
  0
ARC
  8
1
 62
7
  6
CONTINUOUS
 10
43.319715
 20
151.389813
 40
0.150000
 50
-120.731765
 51
-65.581664
  0
ARC
  8
1
 62
7
  6
CONTINUOUS
 10
42.882793
 20
150.654882
 40
0.705000
 50
59.268239
 51
60.731762
  0
ARC
  8
1
 62
7
  6
CONTINUOUS
 10
43.300802
 20
151.400733
 40
0.150000
 50
-174.418332
 51
-119.268238
  0
ARC
  8
1
 62
7
  6
CONTINUOUS
 10
42.882793
 20
151.359882
 40
0.270000
 50
5.581665
 51
174.418335
  0
ARC
  8
1
 62
7
  6
CONTINUOUS
 10
42.464785
 20
151.400733
 40
0.150000
 50
-60.731762
 51
-5.581668
  0
ARC
  8
1
 62
7
  6
CONTINUOUS
 10
42.882793
 20
150.654882
 40
0.705000
 50
119.268238
 51
120.731762
  0
ARC
  8
1
 62
7
  6
CONTINUOUS
 10
42.445872
 20
151.389813
 40
0.150000
 50
-114.418332
 51
-59.268238
  0
ARC
  8
1
 62
7
  6
CONTINUOUS
 10
42.272245
 20
151.007382
 40
0.270000
 50
65.581665
 51
-125.581667
  0
ARC
  8
1
 62
7
  6
CONTINUOUS
 10
42.027863
 20
150.665801
 40
0.150000
 50
-0.731762
 51
54.418336
  0
ARC
  8
1
 62
7
  6
CONTINUOUS
 10
42.027863
 20
150.643962
 40
0.150000
 50
-54.418337
 51
0.731762
  0
ARC
  8
1
 62
7
  6
CONTINUOUS
 10
42.272245
 20
150.302382
 40
0.270000
 50
125.581668
 51
-65.581665
  0
LINE
  8
1
 62
7
  6
CONTINUOUS
 10
201.627933
 20
233.904881
 11
201.627933
 21
239.904881
  0
LINE
  8
1
 62
7
  6
CONTINUOUS
 10
201.127933
 20
233.904881
 11
201.127933
 21
239.904881
  0
LINE
  8
1
 62
7
  6
CONTINUOUS
 10
200.877933
 20
234.591751
 11
200.877933
 21
239.218012
  0
LINE
  8
1
 62
7
  6
CONTINUOUS
 10
201.127933
 20
233.904881
 11
201.627933
 21
233.904881
  0
LINE
  8
1
 62
7
  6
CONTINUOUS
 10
201.627933
 20
239.904881
 11
201.127933
 21
239.904881
  0
LINE
  8
1
 62
7
  6
CONTINUOUS
 10
200.877933
 20
234.591751
 11
201.127933
 21
233.904881
  0
LINE
  8
1
 62
7
  6
CONTINUOUS
 10
201.127933
 20
239.904881
 11
200.877933
 21
239.218012
  0
LINE
  8
1
 62
7
  6
CONTINUOUS
 10
201.627933
 20
147.654881
 11
201.627933
 21
153.654881
  0
LINE
  8
1
 62
7
  6
CONTINUOUS
 10
201.127933
 20
147.654881
 11
201.127933
 21
153.654881
  0
LINE
  8
1
 62
7
  6
CONTINUOUS
 10
200.877933
 20
148.341750
 11
200.877933
 21
152.968012
  0
LINE
  8
1
 62
7
  6
CONTINUOUS
 10
201.127933
 20
147.654881
 11
201.627933
 21
147.654881
  0
LINE
  8
1
 62
7
  6
CONTINUOUS
 10
201.627933
 20
153.654881
 11
201.127933
 21
153.654881
  0
LINE
  8
1
 62
7
  6
CONTINUOUS
 10
200.877933
 20
148.341750
 11
201.127933
 21
147.654881
  0
LINE
  8
1
 62
7
  6
CONTINUOUS
 10
201.127933
 20
153.654881
 11
200.877933
 21
152.968012
  0
LINE
  8
1
 62
7
  6
CONTINUOUS
 10
201.627933
 20
273.917093
 11
201.627933
 21
279.917093
  0
LINE
  8
1
 62
7
  6
CONTINUOUS
 10
201.127933
 20
273.917093
 11
201.127933
 21
279.917093
  0
LINE
  8
1
 62
7
  6
CONTINUOUS
 10
200.877933
 20
274.603962
 11
200.877933
 21
279.230224
  0
LINE
  8
1
 62
7
  6
CONTINUOUS
 10
201.127933
 20
273.917093
 11
201.627933
 21
273.917093
  0
LINE
  8
1
 62
7
  6
CONTINUOUS
 10
201.627933
 20
279.917093
 11
201.127933
 21
279.917093
  0
LINE
  8
1
 62
7
  6
CONTINUOUS
 10
200.877933
 20
274.603962
 11
201.127933
 21
273.917093
  0
LINE
  8
1
 62
7
  6
CONTINUOUS
 10
201.127933
 20
279.917093
 11
200.877933
 21
279.230224
  0
LINE
  8
1
 62
7
  6
CONTINUOUS
 10
201.627933
 20
323.717093
 11
201.627933
 21
329.717093
  0
LINE
  8
1
 62
7
  6
CONTINUOUS
 10
201.127933
 20
323.717093
 11
201.127933
 21
329.717093
  0
LINE
  8
1
 62
7
  6
CONTINUOUS
 10
200.877933
 20
324.403962
 11
200.877933
 21
329.030224
  0
LINE
  8
1
 62
7
  6
CONTINUOUS
 10
201.127933
 20
323.717093
 11
201.627933
 21
323.717093
  0
LINE
  8
1
 62
7
  6
CONTINUOUS
 10
201.627933
 20
329.717093
 11
201.127933
 21
329.717093
  0
LINE
  8
1
 62
7
  6
CONTINUOUS
 10
200.877933
 20
324.403962
 11
201.127933
 21
323.717093
  0
LINE
  8
1
 62
7
  6
CONTINUOUS
 10
201.127933
 20
329.717093
 11
200.877933
 21
329.030224
  0
LINE
  8
1
 62
7
  6
CONTINUOUS
 10
201.627933
 20
373.517093
 11
201.627933
 21
379.517093
  0
LINE
  8
1
 62
7
  6
CONTINUOUS
 10
201.127933
 20
373.517093
 11
201.127933
 21
379.517093
  0
LINE
  8
1
 62
7
  6
CONTINUOUS
 10
200.877933
 20
374.203962
 11
200.877933
 21
378.830224
  0
LINE
  8
1
 62
7
  6
CONTINUOUS
 10
201.127933
 20
373.517093
 11
201.627933
 21
373.517093
  0
LINE
  8
1
 62
7
  6
CONTINUOUS
 10
201.627933
 20
379.517093
 11
201.127933
 21
379.517093
  0
LINE
  8
1
 62
7
  6
CONTINUOUS
 10
200.877933
 20
374.203962
 11
201.127933
 21
373.517093
  0
LINE
  8
1
 62
7
  6
CONTINUOUS
 10
201.127933
 20
379.517093
 11
200.877933
 21
378.830224
  0
ARC
  8
2
 62
134
  6
CONTINUOUS
 10
226.627933
 20
326.717093
 40
0.705000
 50
179.268238
 51
-179.268238
  0
ARC
  8
2
 62
134
  6
CONTINUOUS
 10
226.627933
 20
326.717093
 40
0.705000
 50
-0.731762
 51
0.731762
  0
CIRCLE
  8
1
 62
7
  6
CONTINUOUS
 10
226.627933
 20
326.717093
 40
3.000000
  0
ARC
  8
1
 62
7
  6
CONTINUOUS
 10
226.191011
 20
325.982161
 40
0.150000
 50
59.268238
 51
114.418332
  0
ARC
  8
1
 62
7
  6
CONTINUOUS
 10
226.627933
 20
326.717093
 40
0.705000
 50
-120.731762
 51
-119.268238
  0
ARC
  8
1
 62
7
  6
CONTINUOUS
 10
226.209924
 20
325.971242
 40
0.150000
 50
5.581665
 51
60.731762
  0
ARC
  8
1
 62
7
  6
CONTINUOUS
 10
226.627933
 20
326.012093
 40
0.270000
 50
-174.418333
 51
-5.581665
  0
ARC
  8
1
 62
7
  6
CONTINUOUS
 10
227.045941
 20
325.971242
 40
0.150000
 50
119.268238
 51
174.418332
  0
ARC
  8
1
 62
7
  6
CONTINUOUS
 10
226.627933
 20
326.717093
 40
0.705000
 50
-60.731762
 51
-59.268238
  0
ARC
  8
1
 62
7
  6
CONTINUOUS
 10
227.064855
 20
325.982161
 40
0.150000
 50
65.581665
 51
120.731762
  0
ARC
  8
1
 62
7
  6
CONTINUOUS
 10
227.238481
 20
326.364593
 40
0.270000
 50
-114.418333
 51
54.418335
  0
ARC
  8
1
 62
7
  6
CONTINUOUS
 10
227.482863
 20
326.706174
 40
0.150000
 50
179.268238
 51
-125.581668
  0
ARC
  8
1
 62
7
  6
CONTINUOUS
 10
227.482863
 20
326.728012
 40
0.150000
 50
125.581668
 51
-179.268238
  0
ARC
  8
1
 62
7
  6
CONTINUOUS
 10
227.238481
 20
327.069593
 40
0.270000
 50
-54.418335
 51
114.418332
  0
ARC
  8
1
 62
7
  6
CONTINUOUS
 10
227.064855
 20
327.452025
 40
0.150000
 50
-120.731765
 51
-65.581664
  0
ARC
  8
1
 62
7
  6
CONTINUOUS
 10
226.627933
 20
326.717093
 40
0.705000
 50
59.268239
 51
60.731762
  0
ARC
  8
1
 62
7
  6
CONTINUOUS
 10
227.045941
 20
327.462944
 40
0.150000
 50
-174.418332
 51
-119.268238
  0
ARC
  8
1
 62
7
  6
CONTINUOUS
 10
226.627933
 20
327.422093
 40
0.270000
 50
5.581665
 51
174.418335
  0
ARC
  8
1
 62
7
  6
CONTINUOUS
 10
226.209924
 20
327.462944
 40
0.150000
 50
-60.731762
 51
-5.581668
  0
ARC
  8
1
 62
7
  6
CONTINUOUS
 10
226.627933
 20
326.717093
 40
0.705000
 50
119.268238
 51
120.731762
  0
ARC
  8
1
 62
7
  6
CONTINUOUS
 10
226.191011
 20
327.452025
 40
0.150000
 50
-114.418332
 51
-59.268238
  0
ARC
  8
1
 62
7
  6
CONTINUOUS
 10
226.017385
 20
327.069593
 40
0.270000
 50
65.581665
 51
-125.581667
  0
ARC
  8
1
 62
7
  6
CONTINUOUS
 10
225.773003
 20
326.728012
 40
0.150000
 50
-0.731762
 51
54.418336
  0
ARC
  8
1
 62
7
  6
CONTINUOUS
 10
225.773003
 20
326.706174
 40
0.150000
 50
-54.418337
 51
0.731762
  0
ARC
  8
1
 62
7
  6
CONTINUOUS
 10
226.017385
 20
326.364593
 40
0.270000
 50
125.581668
 51
-65.581665
  0
LINE
  8
1
 62
7
  6
CONTINUOUS
 10
380.002280
 20
77.404881
 11
380.002280
 21
156.404881
  0
LINE
  8
1
 62
7
  6
CONTINUOUS
 10
494.002280
 20
77.404881
 11
494.002280
 21
156.404881
  0
ARC
  8
1
 62
7
  6
CONTINUOUS
 10
437.002280
 20
179.404881
 40
60.534393
 50
-22.330542
 51
-157.669458
  0
LINE
  8
1
 62
7
  6
CONTINUOUS
 10
380.002280
 20
145.404881
 11
380.002280
 21
151.404881
  0
LINE
  8
1
 62
7
  6
CONTINUOUS
 10
379.502280
 20
145.404881
 11
379.502280
 21
151.404881
  0
LINE
  8
1
 62
7
  6
CONTINUOUS
 10
379.252280
 20
146.091751
 11
379.252280
 21
150.718012
  0
LINE
  8
1
 62
7
  6
CONTINUOUS
 10
379.502280
 20
145.404881
 11
380.002280
 21
145.404881
  0
LINE
  8
1
 62
7
  6
CONTINUOUS
 10
380.002280
 20
151.404881
 11
379.502280
 21
151.404881
  0
LINE
  8
1
 62
7
  6
CONTINUOUS
 10
379.252280
 20
146.091751
 11
379.502280
 21
145.404881
  0
LINE
  8
1
 62
7
  6
CONTINUOUS
 10
379.502280
 20
151.404881
 11
379.252280
 21
150.718012
  0
LINE
  8
1
 62
7
  6
CONTINUOUS
 10
494.002280
 20
151.404881
 11
494.002280
 21
145.404881
  0
LINE
  8
1
 62
7
  6
CONTINUOUS
 10
494.502280
 20
151.404881
 11
494.502280
 21
145.404881
  0
LINE
  8
1
 62
7
  6
CONTINUOUS
 10
494.752280
 20
150.718012
 11
494.752280
 21
146.091751
  0
LINE
  8
1
 62
7
  6
CONTINUOUS
 10
494.502280
 20
151.404881
 11
494.002280
 21
151.404881
  0
LINE
  8
1
 62
7
  6
CONTINUOUS
 10
494.002280
 20
145.404881
 11
494.502280
 21
145.404881
  0
LINE
  8
1
 62
7
  6
CONTINUOUS
 10
494.752280
 20
150.718012
 11
494.502280
 21
151.404881
  0
LINE
  8
1
 62
7
  6
CONTINUOUS
 10
494.502280
 20
145.404881
 11
494.752280
 21
146.091751
  0
ARC
  8
1
 62
7
  6
CONTINUOUS
 10
437.002280
 20
179.404881
 40
60.534393
 50
-43.933297
 51
-40.518045
  0
ARC
  8
1
 62
7
  6
CONTINUOUS
 10
437.002280
 20
179.404881
 40
65.000000
 50
-27.319443
 51
-152.680557
  0
LINE
  8
1
 62
7
  6
CONTINUOUS
 10
380.002280
 20
77.404881
 11
494.002280
 21
77.404881
  0
ARC
  8
2
 62
134
  6
CONTINUOUS
 10
437.002280
 20
85.404881
 40
0.705000
 50
179.268238
 51
-179.268238
  0
ARC
  8
2
 62
134
  6
CONTINUOUS
 10
437.002280
 20
85.404881
 40
0.705000
 50
-0.731762
 51
0.731762
  0
CIRCLE
  8
1
 62
7
  6
CONTINUOUS
 10
437.002280
 20
85.404881
 40
3.000000
  0
ARC
  8
1
 62
7
  6
CONTINUOUS
 10
436.565359
 20
84.669950
 40
0.150000
 50
59.268238
 51
114.418332
  0
ARC
  8
1
 62
7
  6
CONTINUOUS
 10
437.002280
 20
85.404881
 40
0.705000
 50
-120.731762
 51
-119.268238
  0
ARC
  8
1
 62
7
  6
CONTINUOUS
 10
436.584272
 20
84.659030
 40
0.150000
 50
5.581665
 51
60.731762
  0
ARC
  8
1
 62
7
  6
CONTINUOUS
 10
437.002280
 20
84.699881
 40
0.270000
 50
-174.418333
 51
-5.581665
  0
ARC
  8
1
 62
7
  6
CONTINUOUS
 10
437.420289
 20
84.659030
 40
0.150000
 50
119.268238
 51
174.418332
  0
ARC
  8
1
 62
7
  6
CONTINUOUS
 10
437.002280
 20
85.404881
 40
0.705000
 50
-60.731762
 51
-59.268238
  0
ARC
  8
1
 62
7
  6
CONTINUOUS
 10
437.439202
 20
84.669950
 40
0.150000
 50
65.581665
 51
120.731762
  0
ARC
  8
1
 62
7
  6
CONTINUOUS
 10
437.612828
 20
85.052381
 40
0.270000
 50
-114.418333
 51
54.418335
  0
ARC
  8
1
 62
7
  6
CONTINUOUS
 10
437.857211
 20
85.393962
 40
0.150000
 50
179.268238
 51
-125.581668
  0
ARC
  8
1
 62
7
  6
CONTINUOUS
 10
437.857211
 20
85.415801
 40
0.150000
 50
125.581668
 51
-179.268238
  0
ARC
  8
1
 62
7
  6
CONTINUOUS
 10
437.612828
 20
85.757381
 40
0.270000
 50
-54.418335
 51
114.418332
  0
ARC
  8
1
 62
7
  6
CONTINUOUS
 10
437.439202
 20
86.139813
 40
0.150000
 50
-120.731765
 51
-65.581664
  0
ARC
  8
1
 62
7
  6
CONTINUOUS
 10
437.002280
 20
85.404881
 40
0.705000
 50
59.268239
 51
60.731762
  0
ARC
  8
1
 62
7
  6
CONTINUOUS
 10
437.420289
 20
86.150732
 40
0.150000
 50
-174.418332
 51
-119.268238
  0
ARC
  8
1
 62
7
  6
CONTINUOUS
 10
437.002280
 20
86.109881
 40
0.270000
 50
5.581665
 51
174.418335
  0
ARC
  8
1
 62
7
  6
CONTINUOUS
 10
436.584272
 20
86.150732
 40
0.150000
 50
-60.731762
 51
-5.581668
  0
ARC
  8
1
 62
7
  6
CONTINUOUS
 10
437.002280
 20
85.404881
 40
0.705000
 50
119.268238
 51
120.731762
  0
ARC
  8
1
 62
7
  6
CONTINUOUS
 10
436.565359
 20
86.139813
 40
0.150000
 50
-114.418332
 51
-59.268238
  0
ARC
  8
1
 62
7
  6
CONTINUOUS
 10
436.391733
 20
85.757381
 40
0.270000
 50
65.581665
 51
-125.581667
  0
ARC
  8
1
 62
7
  6
CONTINUOUS
 10
436.147350
 20
85.415801
 40
0.150000
 50
-0.731762
 51
54.418336
  0
ARC
  8
1
 62
7
  6
CONTINUOUS
 10
436.147350
 20
85.393962
 40
0.150000
 50
-54.418337
 51
0.731762
  0
ARC
  8
1
 62
7
  6
CONTINUOUS
 10
436.391733
 20
85.052381
 40
0.270000
 50
125.581668
 51
-65.581665
  0
LINE
  8
1
 62
7
  6
CONTINUOUS
 10
35.179254
 20
145.404881
 11
35.679254
 21
145.404881
  0
LINE
  8
1
 62
7
  6
CONTINUOUS
 10
34.929254
 20
146.091751
 11
35.179254
 21
145.404881
  0
LINE
  8
1
 62
7
  6
CONTINUOUS
 10
34.929254
 20
146.091751
 11
34.929254
 21
149.573061
  0
LINE
  8
1
 62
7
  6
CONTINUOUS
 10
35.179254
 20
145.404881
 11
35.179254
 21
148.989070
  0
LINE
  8
1
 62
7
  6
CONTINUOUS
 10
35.679254
 20
145.404881
 11
35.679254
 21
148.163883
  0
LINE
  8
1
 62
7
  6
CONTINUOUS
 10
150.179254
 20
145.404881
 11
149.679254
 21
145.404881
  0
LINE
  8
1
 62
7
  6
CONTINUOUS
 10
150.429254
 20
146.091751
 11
150.179254
 21
145.404881
  0
LINE
  8
1
 62
7
  6
CONTINUOUS
 10
150.429254
 20
146.091751
 11
150.429254
 21
149.573061
  0
LINE
  8
1
 62
7
  6
CONTINUOUS
 10
150.179254
 20
145.404881
 11
150.179254
 21
148.989070
  0
LINE
  8
1
 62
7
  6
CONTINUOUS
 10
149.679254
 20
145.404881
 11
149.679254
 21
148.163883
  0
LINE
  8
1
 62
7
  6
CONTINUOUS
 10
422.002280
 20
77.404881
 11
422.002280
 21
72.404881
  0
LINE
  8
1
 62
7
  6
CONTINUOUS
 10
422.002280
 20
72.404881
 11
452.002280
 21
72.404881
  0
LINE
  8
1
 62
7
  6
CONTINUOUS
 10
452.002280
 20
72.404881
 11
452.002280
 21
77.404881
  0
LINE
  8
1
 62
7
  6
CONTINUOUS
 10
452.002280
 20
77.404881
 11
422.002280
 21
77.404881
  0
LINE
  8
1
 62
7
  6
CONTINUOUS
 10
217.627933
 20
77.404881
 11
339.627933
 21
77.404881
  0
LINE
  8
1
 62
7
  6
CONTINUOUS
 10
35.679254
 20
77.404881
 11
149.679254
 21
77.404881
  0
LINE
  8
1
 62
7
  6
CONTINUOUS
 10
516.724996
 20
181.961947
 11
528.724996
 21
181.961947
  0
DIMENSION
  8
2
 62
134
  6
CONTINUOUS
  2
*D4
 10
516.725238
 20
250.174125
 11
500.721639
 21
250.174125
 70
     0
  1
φ12
 13
516.725238
 23
239.374377
 14
528.725224
 24
236.235045
 50
0.000000
  0
LINE
  8
1
 62
7
  6
CONTINUOUS
 10
255.627933
 20
77.404881
 11
255.627933
 21
72.404881
  0
LINE
  8
1
 62
7
  6
CONTINUOUS
 10
255.627933
 20
72.404881
 11
285.627933
 21
72.404881
  0
LINE
  8
1
 62
7
  6
CONTINUOUS
 10
285.627933
 20
72.404881
 11
285.627933
 21
77.404881
  0
LINE
  8
1
 62
7
  6
CONTINUOUS
 10
285.627933
 20
77.404881
 11
255.627933
 21
77.404881
  0
LINE
  8
1
 62
7
  6
DASHDOT
 10
270.627933
 20
66.121288
 11
270.627933
 21
72.688474
  0
LINE
  8
1
 62
7
  6
CONTINUOUS
 10
280.442887
 20
72.404881
 11
280.442887
 21
66.901449
  0
LINE
  8
1
 62
7
  6
CONTINUOUS
 10
280.442887
 20
66.901449
 11
280.403610
 21
66.859697
  0
LINE
  8
1
 62
7
  6
CONTINUOUS
 10
280.403610
 20
66.859697
 11
280.325547
 21
66.786618
  0
LINE
  8
1
 62
7
  6
CONTINUOUS
 10
280.325547
 20
66.786618
 11
280.248087
 21
66.724883
  0
LINE
  8
1
 62
7
  6
CONTINUOUS
 10
280.248087
 20
66.724883
 11
280.207266
 21
66.695991
  0
LINE
  8
1
 62
7
  6
CONTINUOUS
 10
280.207266
 20
66.695991
 11
280.165395
 21
66.668661
  0
LINE
  8
1
 62
7
  6
CONTINUOUS
 10
280.165395
 20
66.668661
 11
280.079802
 21
66.619256
  0
LINE
  8
1
 62
7
  6
CONTINUOUS
 10
280.079802
 20
66.619256
 11
279.993955
 21
66.577306
  0
LINE
  8
1
 62
7
  6
CONTINUOUS
 10
279.993955
 20
66.577306
 11
279.910592
 21
66.542824
  0
LINE
  8
1
 62
7
  6
CONTINUOUS
 10
279.910592
 20
66.542824
 11
279.828198
 21
66.514006
  0
LINE
  8
1
 62
7
  6
CONTINUOUS
 10
279.828198
 20
66.514006
 11
279.740947
 21
66.488476
  0
LINE
  8
1
 62
7
  6
CONTINUOUS
 10
279.740947
 20
66.488476
 11
279.696598
 21
66.477260
  0
LINE
  8
1
 62
7
  6
CONTINUOUS
 10
279.696598
 20
66.477260
 11
279.652421
 21
66.467165
  0
LINE
  8
1
 62
7
  6
CONTINUOUS
 10
279.652421
 20
66.467165
 11
279.566561
 21
66.450365
  0
LINE
  8
1
 62
7
  6
CONTINUOUS
 10
279.566561
 20
66.450365
 11
279.482866
 21
66.437202
  0
LINE
  8
1
 62
7
  6
CONTINUOUS
 10
279.482866
 20
66.437202
 11
279.180086
 21
66.410303
  0
LINE
  8
1
 62
7
  6
CONTINUOUS
 10
279.180086
 20
66.410303
 11
278.916511
 21
66.404881
  0
LINE
  8
1
 62
7
  6
CONTINUOUS
 10
260.812978
 20
72.404881
 11
280.442887
 21
72.404881
  0
LINE
  8
1
 62
7
  6
CONTINUOUS
 10
275.535410
 20
72.404881
 11
275.535410
 21
66.901449
  0
LINE
  8
1
 62
7
  6
CONTINUOUS
 10
277.061787
 20
66.404881
 11
276.798211
 21
66.410303
  0
LINE
  8
1
 62
7
  6
CONTINUOUS
 10
276.798211
 20
66.410303
 11
276.495431
 21
66.437202
  0
LINE
  8
1
 62
7
  6
CONTINUOUS
 10
276.495431
 20
66.437202
 11
276.411736
 21
66.450365
  0
LINE
  8
1
 62
7
  6
CONTINUOUS
 10
276.411736
 20
66.450365
 11
276.325877
 21
66.467165
  0
LINE
  8
1
 62
7
  6
CONTINUOUS
 10
276.325877
 20
66.467165
 11
276.281700
 21
66.477260
  0
LINE
  8
1
 62
7
  6
CONTINUOUS
 10
276.281700
 20
66.477260
 11
276.237351
 21
66.488476
  0
LINE
  8
1
 62
7
  6
CONTINUOUS
 10
276.237351
 20
66.488476
 11
276.150099
 21
66.514006
  0
LINE
  8
1
 62
7
  6
CONTINUOUS
 10
276.150099
 20
66.514006
 11
276.067706
 21
66.542824
  0
LINE
  8
1
 62
7
  6
CONTINUOUS
 10
276.067706
 20
66.542824
 11
275.984343
 21
66.577306
  0
LINE
  8
1
 62
7
  6
CONTINUOUS
 10
275.984343
 20
66.577306
 11
275.898496
 21
66.619256
  0
LINE
  8
1
 62
7
  6
CONTINUOUS
 10
275.898496
 20
66.619256
 11
275.812903
 21
66.668661
  0
LINE
  8
1
 62
7
  6
CONTINUOUS
 10
275.812903
 20
66.668661
 11
275.771032
 21
66.695991
  0
LINE
  8
1
 62
7
  6
CONTINUOUS
 10
275.771032
 20
66.695991
 11
275.730210
 21
66.724883
  0
LINE
  8
1
 62
7
  6
CONTINUOUS
 10
275.730210
 20
66.724883
 11
275.652750
 21
66.786618
  0
LINE
  8
1
 62
7
  6
CONTINUOUS
 10
275.652750
 20
66.786618
 11
275.607528
 21
66.827468
  0
LINE
  8
1
 62
7
  6
CONTINUOUS
 10
275.607528
 20
66.827468
 11
275.594412
 21
66.840065
  0
LINE
  8
1
 62
7
  6
CONTINUOUS
 10
275.594412
 20
66.840065
 11
275.581264
 21
66.853057
  0
LINE
  8
1
 62
7
  6
CONTINUOUS
 10
275.581264
 20
66.853057
 11
275.574687
 21
66.859697
  0
LINE
  8
1
 62
7
  6
CONTINUOUS
 10
275.574687
 20
66.859697
 11
275.568113
 21
66.866432
  0
LINE
  8
1
 62
7
  6
CONTINUOUS
 10
275.568113
 20
66.866432
 11
275.554988
 21
66.880175
  0
LINE
  8
1
 62
7
  6
CONTINUOUS
 10
275.554988
 20
66.880175
 11
275.541917
 21
66.894273
  0
LINE
  8
1
 62
7
  6
CONTINUOUS
 10
275.541917
 20
66.894273
 11
275.535410
 21
66.901449
  0
LINE
  8
1
 62
7
  6
CONTINUOUS
 10
275.535410
 20
66.901449
 11
275.456856
 21
66.859697
  0
LINE
  8
1
 62
7
  6
CONTINUOUS
 10
275.456856
 20
66.859697
 11
275.300730
 21
66.786618
  0
LINE
  8
1
 62
7
  6
CONTINUOUS
 10
275.300730
 20
66.786618
 11
275.145810
 21
66.724883
  0
LINE
  8
1
 62
7
  6
CONTINUOUS
 10
275.145810
 20
66.724883
 11
275.064167
 21
66.695991
  0
LINE
  8
1
 62
7
  6
CONTINUOUS
 10
275.064167
 20
66.695991
 11
274.980425
 21
66.668661
  0
LINE
  8
1
 62
7
  6
CONTINUOUS
 10
274.980425
 20
66.668661
 11
274.809239
 21
66.619256
  0
LINE
  8
1
 62
7
  6
CONTINUOUS
 10
274.809239
 20
66.619256
 11
274.637544
 21
66.577306
  0
LINE
  8
1
 62
7
  6
CONTINUOUS
 10
274.637544
 20
66.577306
 11
274.470819
 21
66.542824
  0
LINE
  8
1
 62
7
  6
CONTINUOUS
 10
274.470819
 20
66.542824
 11
274.306032
 21
66.514006
  0
LINE
  8
1
 62
7
  6
CONTINUOUS
 10
274.306032
 20
66.514006
 11
274.131529
 21
66.488476
  0
LINE
  8
1
 62
7
  6
CONTINUOUS
 10
274.131529
 20
66.488476
 11
274.042831
 21
66.477260
  0
LINE
  8
1
 62
7
  6
CONTINUOUS
 10
274.042831
 20
66.477260
 11
273.954477
 21
66.467165
  0
LINE
  8
1
 62
7
  6
CONTINUOUS
 10
273.954477
 20
66.467165
 11
273.782758
 21
66.450365
  0
LINE
  8
1
 62
7
  6
CONTINUOUS
 10
273.782758
 20
66.450365
 11
273.615368
 21
66.437202
  0
LINE
  8
1
 62
7
  6
CONTINUOUS
 10
273.615368
 20
66.437202
 11
273.009808
 21
66.410303
  0
LINE
  8
1
 62
7
  6
CONTINUOUS
 10
273.009808
 20
66.410303
 11
272.482657
 21
66.404881
  0
LINE
  8
1
 62
7
  6
CONTINUOUS
 10
265.720456
 20
72.404881
 11
265.720456
 21
66.901449
  0
LINE
  8
1
 62
7
  6
CONTINUOUS
 10
268.773209
 20
66.404881
 11
268.246058
 21
66.410303
  0
LINE
  8
1
 62
7
  6
CONTINUOUS
 10
268.246058
 20
66.410303
 11
267.640498
 21
66.437202
  0
LINE
  8
1
 62
7
  6
CONTINUOUS
 10
267.640498
 20
66.437202
 11
267.473108
 21
66.450365
  0
LINE
  8
1
 62
7
  6
CONTINUOUS
 10
267.473108
 20
66.450365
 11
267.301389
 21
66.467165
  0
LINE
  8
1
 62
7
  6
CONTINUOUS
 10
267.301389
 20
66.467165
 11
267.213035
 21
66.477260
  0
LINE
  8
1
 62
7
  6
CONTINUOUS
 10
267.213035
 20
66.477260
 11
267.124336
 21
66.488476
  0
LINE
  8
1
 62
7
  6
CONTINUOUS
 10
267.124336
 20
66.488476
 11
266.949833
 21
66.514006
  0
LINE
  8
1
 62
7
  6
CONTINUOUS
 10
266.949833
 20
66.514006
 11
266.785047
 21
66.542824
  0
LINE
  8
1
 62
7
  6
CONTINUOUS
 10
266.785047
 20
66.542824
 11
266.618321
 21
66.577306
  0
LINE
  8
1
 62
7
  6
CONTINUOUS
 10
266.618321
 20
66.577306
 11
266.446627
 21
66.619256
  0
LINE
  8
1
 62
7
  6
CONTINUOUS
 10
266.446627
 20
66.619256
 11
266.275441
 21
66.668661
  0
LINE
  8
1
 62
7
  6
CONTINUOUS
 10
266.275441
 20
66.668661
 11
266.191699
 21
66.695991
  0
LINE
  8
1
 62
7
  6
CONTINUOUS
 10
266.191699
 20
66.695991
 11
266.110056
 21
66.724883
  0
LINE
  8
1
 62
7
  6
CONTINUOUS
 10
266.110056
 20
66.724883
 11
265.955136
 21
66.786618
  0
LINE
  8
1
 62
7
  6
CONTINUOUS
 10
265.955136
 20
66.786618
 11
265.864691
 21
66.827468
  0
LINE
  8
1
 62
7
  6
CONTINUOUS
 10
265.864691
 20
66.827468
 11
265.838459
 21
66.840065
  0
LINE
  8
1
 62
7
  6
CONTINUOUS
 10
265.838459
 20
66.840065
 11
265.812164
 21
66.853057
  0
LINE
  8
1
 62
7
  6
CONTINUOUS
 10
265.812164
 20
66.853057
 11
265.799010
 21
66.859697
  0
LINE
  8
1
 62
7
  6
CONTINUOUS
 10
265.799010
 20
66.859697
 11
265.785862
 21
66.866432
  0
LINE
  8
1
 62
7
  6
CONTINUOUS
 10
265.785862
 20
66.866432
 11
265.759612
 21
66.880175
  0
LINE
  8
1
 62
7
  6
CONTINUOUS
 10
265.759612
 20
66.880175
 11
265.733469
 21
66.894273
  0
LINE
  8
1
 62
7
  6
CONTINUOUS
 10
265.733469
 20
66.894273
 11
265.720456
 21
66.901449
  0
LINE
  8
1
 62
7
  6
CONTINUOUS
 10
260.812978
 20
72.404881
 11
260.812978
 21
66.901449
  0
LINE
  8
1
 62
7
  6
CONTINUOUS
 10
262.339355
 20
66.404881
 11
262.075779
 21
66.410303
  0
LINE
  8
1
 62
7
  6
CONTINUOUS
 10
262.075779
 20
66.410303
 11
261.773000
 21
66.437202
  0
LINE
  8
1
 62
7
  6
CONTINUOUS
 10
261.773000
 20
66.437202
 11
261.689304
 21
66.450365
  0
LINE
  8
1
 62
7
  6
CONTINUOUS
 10
261.689304
 20
66.450365
 11
261.603445
 21
66.467165
  0
LINE
  8
1
 62
7
  6
CONTINUOUS
 10
261.603445
 20
66.467165
 11
261.559268
 21
66.477260
  0
LINE
  8
1
 62
7
  6
CONTINUOUS
 10
261.559268
 20
66.477260
 11
261.514919
 21
66.488476
  0
LINE
  8
1
 62
7
  6
CONTINUOUS
 10
261.514919
 20
66.488476
 11
261.427667
 21
66.514006
  0
LINE
  8
1
 62
7
  6
CONTINUOUS
 10
261.427667
 20
66.514006
 11
261.345274
 21
66.542824
  0
LINE
  8
1
 62
7
  6
CONTINUOUS
 10
261.345274
 20
66.542824
 11
261.261911
 21
66.577306
  0
LINE
  8
1
 62
7
  6
CONTINUOUS
 10
261.261911
 20
66.577306
 11
261.176064
 21
66.619256
  0
LINE
  8
1
 62
7
  6
CONTINUOUS
 10
261.176064
 20
66.619256
 11
261.090471
 21
66.668661
  0
LINE
  8
1
 62
7
  6
CONTINUOUS
 10
261.090471
 20
66.668661
 11
261.048600
 21
66.695991
  0
LINE
  8
1
 62
7
  6
CONTINUOUS
 10
261.048600
 20
66.695991
 11
261.007778
 21
66.724883
  0
LINE
  8
1
 62
7
  6
CONTINUOUS
 10
261.007778
 20
66.724883
 11
260.930318
 21
66.786618
  0
LINE
  8
1
 62
7
  6
CONTINUOUS
 10
260.930318
 20
66.786618
 11
260.885096
 21
66.827468
  0
LINE
  8
1
 62
7
  6
CONTINUOUS
 10
260.885096
 20
66.827468
 11
260.871980
 21
66.840065
  0
LINE
  8
1
 62
7
  6
CONTINUOUS
 10
260.871980
 20
66.840065
 11
260.858832
 21
66.853057
  0
LINE
  8
1
 62
7
  6
CONTINUOUS
 10
260.858832
 20
66.853057
 11
260.852256
 21
66.859697
  0
LINE
  8
1
 62
7
  6
CONTINUOUS
 10
260.852256
 20
66.859697
 11
260.845682
 21
66.866432
  0
LINE
  8
1
 62
7
  6
CONTINUOUS
 10
260.845682
 20
66.866432
 11
260.832556
 21
66.880175
  0
LINE
  8
1
 62
7
  6
CONTINUOUS
 10
260.832556
 20
66.880175
 11
260.819485
 21
66.894273
  0
LINE
  8
1
 62
7
  6
CONTINUOUS
 10
260.819485
 20
66.894273
 11
260.812978
 21
66.901449
  0
LINE
  8
1
 62
7
  6
CONTINUOUS
 10
265.720456
 20
66.901449
 11
265.681178
 21
66.859697
  0
LINE
  8
1
 62
7
  6
CONTINUOUS
 10
265.681178
 20
66.859697
 11
265.603115
 21
66.786618
  0
LINE
  8
1
 62
7
  6
CONTINUOUS
 10
265.603115
 20
66.786618
 11
265.525655
 21
66.724883
  0
LINE
  8
1
 62
7
  6
CONTINUOUS
 10
265.525655
 20
66.724883
 11
265.484834
 21
66.695991
  0
LINE
  8
1
 62
7
  6
CONTINUOUS
 10
265.484834
 20
66.695991
 11
265.442963
 21
66.668661
  0
LINE
  8
1
 62
7
  6
CONTINUOUS
 10
265.442963
 20
66.668661
 11
265.357370
 21
66.619256
  0
LINE
  8
1
 62
7
  6
CONTINUOUS
 10
265.357370
 20
66.619256
 11
265.271523
 21
66.577306
  0
LINE
  8
1
 62
7
  6
CONTINUOUS
 10
265.271523
 20
66.577306
 11
265.188160
 21
66.542824
  0
LINE
  8
1
 62
7
  6
CONTINUOUS
 10
265.188160
 20
66.542824
 11
265.105767
 21
66.514006
  0
LINE
  8
1
 62
7
  6
CONTINUOUS
 10
265.105767
 20
66.514006
 11
265.018515
 21
66.488476
  0
LINE
  8
1
 62
7
  6
CONTINUOUS
 10
265.018515
 20
66.488476
 11
264.974166
 21
66.477260
  0
LINE
  8
1
 62
7
  6
CONTINUOUS
 10
264.974166
 20
66.477260
 11
264.929989
 21
66.467165
  0
LINE
  8
1
 62
7
  6
CONTINUOUS
 10
264.929989
 20
66.467165
 11
264.844129
 21
66.450365
  0
LINE
  8
1
 62
7
  6
CONTINUOUS
 10
264.844129
 20
66.450365
 11
264.760434
 21
66.437202
  0
LINE
  8
1
 62
7
  6
CONTINUOUS
 10
264.760434
 20
66.437202
 11
264.457654
 21
66.410303
  0
LINE
  8
1
 62
7
  6
CONTINUOUS
 10
264.457654
 20
66.410303
 11
264.194079
 21
66.404881
  0
LINE
  8
1
 62
7
  6
CONTINUOUS
 10
279.327933
 20
66.404881
 11
261.927933
 21
66.404881
  0
ARC
  8
1
 62
7
  6
CONTINUOUS
 10
279.327933
 20
67.904881
 40
1.500000
 50
-90.000000
 51
-41.986450
  0
ARC
  8
1
 62
7
  6
CONTINUOUS
 10
261.927933
 20
67.904881
 40
1.500000
 50
-138.013550
 51
-90.000000
  0
LINE
  8
1
 62
7
  6
CONTINUOUS
 10
275.626179
 20
57.404881
 11
275.626179
 21
66.404881
  0
LINE
  8
1
 62
7
  6
CONTINUOUS
 10
274.814179
 20
66.437202
 11
274.814179
 21
57.404881
  0
LINE
  8
1
 62
7
  6
CONTINUOUS
 10
265.626179
 20
57.404881
 11
265.626179
 21
66.404881
  0
LINE
  8
1
 62
7
  6
CONTINUOUS
 10
266.438179
 20
66.404881
 11
266.438179
 21
57.404881
  0
LINE
  8
1
 62
7
  6
CONTINUOUS
 10
264.628052
 20
57.404881
 11
276.628052
 21
57.404881
  0
LINE
  8
1
 62
7
  6
CONTINUOUS
 10
264.627327
 20
-52.715884
 11
264.628052
 21
57.404881
  0
LINE
  8
1
 62
7
  6
CONTINUOUS
 10
276.627327
 20
-52.715884
 11
276.628052
 21
57.404881
  0
LINE
  8
1
 62
7
  6
DASHDOT
 10
270.627933
 20
88.833519
 11
270.627933
 21
-81.022481
  0
LINE
  8
1
 62
7
  6
DASHDOT
 10
270.630717
 20
-143.595119
 11
270.630717
 21
-47.595119
  0
LINE
  8
1
 62
7
  6
HIDDEN
 10
270.630717
 20
-103.595119
 11
274.780397
 21
-103.595119
  0
LINE
  8
1
 62
7
  6
HIDDEN
 10
270.630717
 20
-103.595119
 11
266.481037
 21
-103.595119
  0
LINE
  8
1
 62
7
  6
HIDDEN
 10
270.630717
 20
-100.595119
 11
275.630397
 21
-100.595119
  0
LINE
  8
1
 62
7
  6
HIDDEN
 10
275.880717
 20
-59.595119
 11
270.630717
 21
-59.595119
  0
ARC
  8
1
 62
7
  6
HIDDEN
 10
276.880717
 20
-53.595119
 40
1.000000
 50
90.000000
 51
180.000000
  0
LINE
  8
1
 62
7
  6
HIDDEN
 10
275.880717
 20
-53.595119
 11
275.880717
 21
-59.595119
  0
LINE
  8
1
 62
7
  6
HIDDEN
 10
275.630397
 20
-59.595119
 11
275.630397
 21
-100.595119
  0
ARC
  8
1
 62
7
  6
HIDDEN
 10
264.380717
 20
-53.595119
 40
1.000000
 50
0.000000
 51
90.000000
  0
LINE
  8
1
 62
7
  6
HIDDEN
 10
265.380717
 20
-53.595119
 11
265.380717
 21
-59.595119
  0
LINE
  8
1
 62
7
  6
HIDDEN
 10
265.631037
 20
-59.595119
 11
265.631037
 21
-100.595119
  0
LINE
  8
1
 62
7
  6
HIDDEN
 10
270.630717
 20
-100.595119
 11
265.631037
 21
-100.595119
  0
LINE
  8
1
 62
7
  6
HIDDEN
 10
265.380717
 20
-59.595119
 11
270.630717
 21
-59.595119
  0
LINE
  8
1
 62
7
  6
HIDDEN
 10
266.481037
 20
-59.595119
 11
266.481037
 21
-103.595119
  0
LINE
  8
1
 62
7
  6
HIDDEN
 10
274.780397
 20
-59.595119
 11
274.780397
 21
-103.595119
  0
LINE
  8
1
 62
7
  6
CONTINUOUS
 10
288.100296
 20
-114.595119
 11
280.715570
 21
-53.299429
  0
LINE
  8
1
 62
7
  6
CONTINUOUS
 10
253.161138
 20
-114.595119
 11
260.545864
 21
-53.299429
  0
LINE
  8
1
 62
7
  6
CONTINUOUS
 10
279.921314
 20
-52.595119
 11
261.340120
 21
-52.595119
  0
ARC
  8
1
 62
7
  6
CONTINUOUS
 10
279.921314
 20
-53.395119
 40
0.800000
 50
6.869719
 51
90.000000
  0
ARC
  8
1
 62
7
  6
CONTINUOUS
 10
270.630717
 20
-98.595119
 40
40.000000
 50
-103.500352
 51
-90.000000
  0
ARC
  8
1
 62
7
  6
CONTINUOUS
 10
263.627177
 20
-127.766173
 40
10.000000
 50
-178.000000
 51
-103.500352
  0
LINE
  8
1
 62
7
  6
CONTINUOUS
 10
253.633269
 20
-128.115168
 11
253.161138
 21
-114.595119
  0
ARC
  8
1
 62
7
  6
CONTINUOUS
 10
277.634257
 20
-127.766173
 40
10.000000
 50
-76.499648
 51
-2.000000
  0
LINE
  8
1
 62
7
  6
CONTINUOUS
 10
287.628165
 20
-128.115168
 11
288.100296
 21
-114.595119
  0
ARC
  8
1
 62
7
  6
CONTINUOUS
 10
270.630717
 20
-98.595119
 40
40.000000
 50
-90.000000
 51
-76.499648
  0
LINE
  8
1
 62
7
  6
CONTINUOUS
 10
275.625454
 20
-72.715884
 11
265.625454
 21
-72.715884
  0
ARC
  8
1
 62
7
  6
CONTINUOUS
 10
261.340120
 20
-53.395119
 40
0.800000
 50
90.000000
 51
173.130281
  0
LINE
  8
1
 62
7
  6
CONTINUOUS
 10
274.813454
 20
-72.715884
 11
274.813454
 21
-52.715884
  0
LINE
  8
1
 62
7
  6
CONTINUOUS
 10
266.437454
 20
-72.715884
 11
266.437454
 21
-52.715884
  0
LINE
  8
1
 62
7
  6
CONTINUOUS
 10
265.625454
 20
-52.715884
 11
265.625454
 21
-72.715884
  0
LINE
  8
1
 62
7
  6
CONTINUOUS
 10
275.625454
 20
-52.715884
 11
275.625454
 21
-72.715884
  0
LINE
  8
1
 62
7
  6
CONTINUOUS
 10
264.627327
 20
-52.715884
 11
276.627327
 21
-52.715884
  0
LINE
  8
1
 62
7
  6
DASHDOT
 10
333.627933
 20
153.180193
 11
333.627933
 21
143.736084
  0
LINE
  8
1
 62
7
  6
DASHDOT
 10
328.623706
 20
148.404881
 11
338.660719
 21
148.404881
  0
LINE
  8
1
 62
7
  6
CONTINUOUS
 10
223.627933
 20
156.404881
 11
339.627933
 21
156.404881
  0
DIMENSION
  8
2
 62
134
  6
CONTINUOUS
  2
*D5
 10
46.679254
 20
56.250638
 11
92.679254
 21
56.250638
 70
     0
  1
92
 13
46.679254
 23
65.404881
 14
138.679254
 24
65.404881
 50
0.000000
  0
DIMENSION
  8
2
 62
134
  6
CONTINUOUS
  2
*D6
 10
35.679254
 20
45.447654
 11
93.700629
 21
45.447654
 70
     0
  1
114
 13
35.679254
 23
75.404881
 14
149.679254
 24
75.404881
 50
0.000000
  0
DIMENSION
  8
2
 62
134
  6
CONTINUOUS
  2
*D7
 10
217.627933
 20
59.026409
 11
222.330707
 21
59.026409
 70
     0
  1
11
 13
217.627933
 23
82.298214
 14
228.627933
 24
75.895268
 50
0.000000
  0
DIMENSION
  8
2
 62
134
  6
CONTINUOUS
  2
*D8
 10
217.627933
 20
47.169102
 11
238.962420
 21
47.169102
 70
     0
  1
53
 13
217.627933
 23
78.503876
 14
270.627933
 24
50.994925
 50
0.000000
  0
DIMENSION
  8
2
 62
134
  6
CONTINUOUS
  2
*D9
 10
201.627933
 20
47.169102
 11
209.524816
 21
47.169102
 70
     0
  1
16
 13
201.627933
 23
112.904881
 14
217.627933
 24
75.404881
 50
0.000000
  0
DIMENSION
  8
2
 62
134
  6
CONTINUOUS
  2
*D10
 10
270.627933
 20
47.169102
 11
303.908975
 21
47.169102
 70
     0
  1
69
 13
270.627933
 23
64.749400
 14
339.627933
 24
75.420976
 50
0.000000
  0
LINE
  8
1
 62
7
  6
CONTINUOUS
 10
223.627933
 20
240.388474
 11
229.627933
 21
240.388474
  0
LINE
  8
1
 62
7
  6
CONTINUOUS
 10
223.627933
 20
240.888474
 11
229.627933
 21
240.888474
  0
LINE
  8
1
 62
7
  6
CONTINUOUS
 10
224.314802
 20
241.138474
 11
228.941064
 21
241.138474
  0
LINE
  8
1
 62
7
  6
CONTINUOUS
 10
223.627933
 20
240.888474
 11
223.627933
 21
240.388474
  0
LINE
  8
1
 62
7
  6
CONTINUOUS
 10
229.627933
 20
240.388474
 11
229.627933
 21
240.888474
  0
LINE
  8
1
 62
7
  6
CONTINUOUS
 10
224.314802
 20
241.138474
 11
223.627933
 21
240.888474
  0
LINE
  8
1
 62
7
  6
CONTINUOUS
 10
229.627933
 20
240.888474
 11
228.941064
 21
241.138474
  0
LINE
  8
1
 62
7
  6
DASHDOT
 10
226.627933
 20
241.248310
 11
226.627933
 21
235.778637
  0
LINE
  8
1
 62
7
  6
CONTINUOUS
 10
339.627933
 20
379.717093
 11
340.127933
 21
373.717093
  0
LINE
  8
1
 62
7
  6
CONTINUOUS
 10
340.127933
 20
379.717093
 11
340.627933
 21
373.717093
  0
LINE
  8
1
 62
7
  6
CONTINUOUS
 10
339.627933
 20
379.717093
 11
340.127933
 21
379.717093
  0
LINE
  8
1
 62
7
  6
CONTINUOUS
 10
340.127933
 20
373.717093
 11
340.627933
 21
373.717093
  0
LINE
  8
1
 62
7
  6
CONTINUOUS
 10
340.627933
 20
379.717093
 11
340.627933
 21
373.717093
  0
LINE
  8
1
 62
7
  6
CONTINUOUS
 10
342.127933
 20
379.717093
 11
340.627933
 21
379.717093
  0
ARC
  8
1
 62
7
  6
CONTINUOUS
 10
342.127933
 20
378.217093
 40
1.500000
 50
0.000000
 51
90.000000
  0
LINE
  8
1
 62
7
  6
CONTINUOUS
 10
343.627933
 20
375.217093
 11
343.627933
 21
378.217093
  0
LINE
  8
1
 62
7
  6
CONTINUOUS
 10
340.627933
 20
373.717093
 11
342.127933
 21
373.717093
  0
ARC
  8
1
 62
7
  6
CONTINUOUS
 10
342.127933
 20
375.217093
 40
1.500000
 50
-90.000000
 51
0.000000
  0
LINE
  8
1
 62
7
  6
DASHDOT
 10
344.978781
 20
376.717093
 11
333.224954
 21
376.717093
  0
LINE
  8
1
 62
7
  6
CONTINUOUS
 10
339.627933
 20
279.717093
 11
340.127933
 21
273.717093
  0
LINE
  8
1
 62
7
  6
CONTINUOUS
 10
340.127933
 20
279.717093
 11
340.627933
 21
273.717093
  0
LINE
  8
1
 62
7
  6
CONTINUOUS
 10
339.627933
 20
279.717093
 11
340.127933
 21
279.717093
  0
LINE
  8
1
 62
7
  6
CONTINUOUS
 10
340.127933
 20
273.717093
 11
340.627933
 21
273.717093
  0
LINE
  8
1
 62
7
  6
CONTINUOUS
 10
340.627933
 20
279.717093
 11
340.627933
 21
273.717093
  0
LINE
  8
1
 62
7
  6
CONTINUOUS
 10
342.127933
 20
279.717093
 11
340.627933
 21
279.717093
  0
ARC
  8
1
 62
7
  6
CONTINUOUS
 10
342.127933
 20
278.217093
 40
1.500000
 50
0.000000
 51
90.000000
  0
LINE
  8
1
 62
7
  6
CONTINUOUS
 10
343.627933
 20
275.217093
 11
343.627933
 21
278.217093
  0
LINE
  8
1
 62
7
  6
CONTINUOUS
 10
340.627933
 20
273.717093
 11
342.127933
 21
273.717093
  0
ARC
  8
1
 62
7
  6
CONTINUOUS
 10
342.127933
 20
275.217093
 40
1.500000
 50
-90.000000
 51
0.000000
  0
LINE
  8
1
 62
7
  6
DASHDOT
 10
344.978781
 20
276.717093
 11
333.224954
 21
276.717093
  0
DIMENSION
  8
2
 62
134
  6
CONTINUOUS
  2
*D11
 10
197.261972
 20
69.404881
 11
197.261972
 21
73.680531
 70
     0
  1
8
 13
221.977470
 23
69.404881
 14
221.845140
 24
77.404881
 50
90.000000
  0
LINE
  8
1
 62
7
  6
CONTINUOUS
 10
96.679254
 20
76.404881
 11
104.679254
 21
76.404881
  0
LINE
  8
1
 62
7
  6
CONTINUOUS
 10
104.679254
 20
76.404881
 11
104.679254
 21
77.404881
  0
LINE
  8
1
 62
7
  6
CONTINUOUS
 10
104.679254
 20
77.404881
 11
96.679254
 21
77.404881
  0
LINE
  8
1
 62
7
  6
CONTINUOUS
 10
96.679254
 20
77.404881
 11
96.679254
 21
76.404881
  0
LINE
  8
1
 62
7
  6
CONTINUOUS
 10
102.479254
 20
76.404881
 11
98.906696
 21
76.404881
  0
LINE
  8
1
 62
7
  6
CONTINUOUS
 10
98.906696
 20
76.404881
 11
98.906696
 21
76.204881
  0
LINE
  8
1
 62
7
  6
CONTINUOUS
 10
98.906696
 20
76.204881
 11
102.479254
 21
76.204881
  0
LINE
  8
1
 62
7
  6
CONTINUOUS
 10
102.479254
 20
76.204881
 11
102.479254
 21
76.404881
  0
LINE
  8
1
 62
7
  6
DASHDOT
 10
100.679254
 20
80.516921
 11
100.679254
 21
73.142554
  0
LINE
  8
1
 62
7
  6
CONTINUOUS
 10
80.679254
 20
76.404881
 11
88.679254
 21
76.404881
  0
LINE
  8
1
 62
7
  6
CONTINUOUS
 10
88.679254
 20
76.404881
 11
88.679254
 21
77.404881
  0
LINE
  8
1
 62
7
  6
CONTINUOUS
 10
88.679254
 20
77.404881
 11
80.679254
 21
77.404881
  0
LINE
  8
1
 62
7
  6
CONTINUOUS
 10
80.679254
 20
77.404881
 11
80.679254
 21
76.404881
  0
LINE
  8
1
 62
7
  6
CONTINUOUS
 10
86.479254
 20
76.404881
 11
82.906696
 21
76.404881
  0
LINE
  8
1
 62
7
  6
CONTINUOUS
 10
82.906696
 20
76.404881
 11
82.906696
 21
76.204881
  0
LINE
  8
1
 62
7
  6
CONTINUOUS
 10
82.906696
 20
76.204881
 11
86.479254
 21
76.204881
  0
LINE
  8
1
 62
7
  6
CONTINUOUS
 10
86.479254
 20
76.204881
 11
86.479254
 21
76.404881
  0
LINE
  8
1
 62
7
  6
DASHDOT
 10
84.679254
 20
80.516921
 11
84.679254
 21
73.142554
  0
LINE
  8
1
 62
7
  6
CONTINUOUS
 10
433.002280
 20
76.404881
 11
441.002280
 21
76.404881
  0
LINE
  8
1
 62
7
  6
CONTINUOUS
 10
441.002280
 20
76.404881
 11
441.002280
 21
77.404881
  0
LINE
  8
1
 62
7
  6
CONTINUOUS
 10
441.002280
 20
77.404881
 11
433.002280
 21
77.404881
  0
LINE
  8
1
 62
7
  6
CONTINUOUS
 10
433.002280
 20
77.404881
 11
433.002280
 21
76.404881
  0
LINE
  8
1
 62
7
  6
CONTINUOUS
 10
438.802280
 20
76.404881
 11
435.229722
 21
76.404881
  0
LINE
  8
1
 62
7
  6
CONTINUOUS
 10
435.229722
 20
76.404881
 11
435.229722
 21
76.204881
  0
LINE
  8
1
 62
7
  6
CONTINUOUS
 10
435.229722
 20
76.204881
 11
438.802280
 21
76.204881
  0
LINE
  8
1
 62
7
  6
CONTINUOUS
 10
438.802280
 20
76.204881
 11
438.802280
 21
76.404881
  0
LINE
  8
1
 62
7
  6
DOT
 10
326.427933
 20
76.404881
 11
322.855375
 21
76.404881
  0
LINE
  8
1
 62
7
  6
DOT
 10
322.855375
 20
76.404881
 11
322.855375
 21
76.204881
  0
LINE
  8
1
 62
7
  6
DOT
 10
322.855375
 20
76.204881
 11
326.427933
 21
76.204881
  0
LINE
  8
1
 62
7
  6
DOT
 10
326.427933
 20
76.204881
 11
326.427933
 21
76.404881
  0
LINE
  8
1
 62
7
  6
DOT
 10
320.627933
 20
76.404881
 11
328.627933
 21
76.404881
  0
LINE
  8
1
 62
7
  6
DOT
 10
328.627933
 20
76.404881
 11
328.627933
 21
77.404881
  0
LINE
  8
1
 62
7
  6
DOT
 10
328.627933
 20
77.404881
 11
320.627933
 21
77.404881
  0
LINE
  8
1
 62
7
  6
DOT
 10
320.627933
 20
77.404881
 11
320.627933
 21
76.404881
  0
LINE
  8
1
 62
7
  6
DASHDOT
 10
324.627933
 20
80.516921
 11
324.627933
 21
73.142554
  0
LINE
  8
1
 62
7
  6
DOT
 10
230.427933
 20
76.404881
 11
226.855375
 21
76.404881
  0
LINE
  8
1
 62
7
  6
DOT
 10
226.855375
 20
76.404881
 11
226.855375
 21
76.204881
  0
LINE
  8
1
 62
7
  6
DOT
 10
226.855375
 20
76.204881
 11
230.427933
 21
76.204881
  0
LINE
  8
1
 62
7
  6
DOT
 10
230.427933
 20
76.204881
 11
230.427933
 21
76.404881
  0
LINE
  8
1
 62
7
  6
DOT
 10
224.627933
 20
76.404881
 11
232.627933
 21
76.404881
  0
LINE
  8
1
 62
7
  6
DOT
 10
232.627933
 20
76.404881
 11
232.627933
 21
77.404881
  0
LINE
  8
1
 62
7
  6
DOT
 10
232.627933
 20
77.404881
 11
224.627933
 21
77.404881
  0
LINE
  8
1
 62
7
  6
DOT
 10
224.627933
 20
77.404881
 11
224.627933
 21
76.404881
  0
LINE
  8
1
 62
7
  6
CONTINUOUS
 10
352.547261
 20
91.125362
 11
356.013624
 21
107.115362
  0
LINE
  8
1
 62
7
  6
CONTINUOUS
 10
354.442400
 20
91.125362
 11
357.908763
 21
107.115362
  0
LINE
  8
1
 62
7
  6
CONTINUOUS
 10
339.627933
 20
104.404881
 11
355.426038
 21
104.404881
  0
LINE
  8
1
 62
7
  6
CONTINUOUS
 10
339.627933
 20
94.404881
 11
353.258206
 21
94.404881
  0
LINE
  8
1
 62
7
  6
DASHDOT
 10
331.477276
 20
296.717093
 11
492.281498
 21
296.717093
  0
LINE
  8
1
 62
7
  6
DASHDOT
 10
72.679254
 20
108.851349
 11
72.679254
 21
93.851349
  0
LINE
  8
1
 62
7
  6
DASHDOT
 10
72.679254
 20
93.851349
 11
112.679254
 21
93.851349
  0
LINE
  8
1
 62
7
  6
DASHDOT
 10
112.679254
 20
93.851349
 11
112.679254
 21
108.851349
  0
LINE
  8
1
 62
7
  6
DASHDOT
 10
112.679254
 20
108.851349
 11
72.679254
 21
108.851349
  0
LINE
  8
3
 62
214
  6
CONTINUOUS
 10
280.706557
 20
192.311410
 11
308.186743
 21
250.701832
  0
LINE
  8
3
 62
214
  6
CONTINUOUS
 10
308.186743
 20
250.701832
 11
336.689175
 21
250.701832
  0
TEXT
  8
3
 62
214
  6
CONTINUOUS
 10
320.689175
 20
250.701832
 40
8.000000
 41
1.000000
  1
炉心
  7
KANJI
 50
0.000000
 51
30.000000
  0
LINE
  8
3
 62
214
  6
CONTINUOUS
 10
280.706557
 20
192.311410
 11
281.415102
 21
196.248155
  0
LINE
  8
3
 62
214
  6
CONTINUOUS
 10
280.706557
 20
192.311410
 11
283.288548
 21
195.366459
  0
LINE
  8
3
 62
214
  6
CONTINUOUS
 10
281.415102
 20
196.248155
 11
283.288548
 21
195.366459
  0
LINE
  8
3
 62
214
  6
CONTINUOUS
 10
281.117874
 20
193.185384
 11
281.472147
 21
195.153757
  0
LINE
  8
3
 62
214
  6
CONTINUOUS
 10
281.117874
 20
193.185384
 11
282.408869
 21
194.712909
  0
LINE
  8
3
 62
214
  6
CONTINUOUS
 10
281.472147
 20
195.153757
 11
282.408869
 21
194.712909
  0
TEXT
  8
6
 62
14
  6
CONTINUOUS
 10
308.186743
 20
250.701832
 40
8.000000
 41
1.000000
  1
①
  7
KANJI
 50
0.000000
 51
0.000000
  0
LINE
  8
3
 62
214
  6
CONTINUOUS
 10
101.808216
 20
184.718233
 11
156.689078
 21
256.129476
  0
LINE
  8
3
 62
214
  6
CONTINUOUS
 10
156.689078
 20
256.129476
 11
190.013268
 21
256.129476
  0
TEXT
  8
3
 62
214
  6
CONTINUOUS
 10
166.013268
 20
255.964172
 40
8.000000
 41
1.000000
  1
開口部
  7
KANJI
 50
0.000000
 51
30.000000
  0
LINE
  8
3
 62
214
  6
CONTINUOUS
 10
101.808216
 20
184.718233
 11
103.341719
 21
188.412603
  0
LINE
  8
3
 62
214
  6
CONTINUOUS
 10
101.808216
 20
184.718233
 11
104.983453
 21
187.150899
  0
LINE
  8
3
 62
214
  6
CONTINUOUS
 10
103.341719
 20
188.412603
 11
104.983453
 21
187.150899
  0
LINE
  8
3
 62
214
  6
CONTINUOUS
 10
102.396808
 20
185.484113
 11
103.163560
 21
187.331297
  0
LINE
  8
3
 62
214
  6
CONTINUOUS
 10
102.396808
 20
185.484113
 11
103.984427
 21
186.700446
  0
LINE
  8
3
 62
214
  6
CONTINUOUS
 10
103.163560
 20
187.331297
 11
103.984427
 21
186.700446
  0
LINE
  8
3
 62
214
  6
CONTINUOUS
 10
201.627933
 20
179.404881
 11
198.781878
 21
182.215570
  0
LINE
  8
3
 62
214
  6
CONTINUOUS
 10
201.627933
 20
179.404881
 11
200.568522
 21
183.262037
  0
LINE
  8
3
 62
214
  6
CONTINUOUS
 10
198.781878
 20
182.215570
 11
200.568522
 21
183.262037
  0
LINE
  8
3
 62
214
  6
CONTINUOUS
 10
201.139750
 20
180.238362
 11
199.716722
 21
181.643706
  0
LINE
  8
3
 62
214
  6
CONTINUOUS
 10
201.139750
 20
180.238362
 11
200.610044
 21
182.166939
  0
LINE
  8
3
 62
214
  6
CONTINUOUS
 10
199.716722
 20
181.643706
 11
200.610044
 21
182.166939
  0
LINE
  8
3
 62
214
  6
CONTINUOUS
 10
201.627933
 20
179.404881
 11
156.689078
 21
256.129476
  0
LINE
  8
3
 62
214
  6
CONTINUOUS
 10
352.604369
 20
218.904881
 11
364.353291
 21
250.701832
  0
LINE
  8
3
 62
214
  6
CONTINUOUS
 10
364.353291
 20
250.701832
 11
387.408176
 21
250.701832
  0
TEXT
  8
3
 62
214
  6
CONTINUOUS
 10
375.408176
 20
250.701832
 40
8.000000
 41
0.500000
  1
ﾌｧﾝ
  7
KANJI
 50
0.000000
 51
30.000000
  0
LINE
  8
3
 62
214
  6
CONTINUOUS
 10
352.604369
 20
218.904881
 11
352.972405
 21
222.887914
  0
LINE
  8
3
 62
214
  6
CONTINUOUS
 10
352.604369
 20
218.904881
 11
354.914614
 21
222.170271
  0
LINE
  8
3
 62
214
  6
CONTINUOUS
 10
352.972405
 20
222.887914
 11
354.914614
 21
222.170271
  0
LINE
  8
3
 62
214
  6
CONTINUOUS
 10
352.939155
 20
219.810934
 11
353.123172
 21
221.802450
  0
LINE
  8
3
 62
214
  6
CONTINUOUS
 10
352.939155
 20
219.810934
 11
354.094277
 21
221.443629
  0
LINE
  8
3
 62
214
  6
CONTINUOUS
 10
353.123172
 20
221.802450
 11
354.094277
 21
221.443629
  0
TEXT
  8
3
 62
214
  6
CONTINUOUS
 10
510.608527
 20
352.453641
 40
8.000000
 41
0.500000
  1
ｸﾞﾘｯﾌﾟ
  7
KANJI
 50
0.000000
 51
0.000000
  0
LINE
  8
3
 62
214
  6
CONTINUOUS
 10
268.627929
 20
30.146537
 11
190.591133
 21
43.932713
  0
LINE
  8
3
 62
214
  6
CONTINUOUS
 10
190.591133
 20
43.932713
 11
158.317351
 21
43.932713
  0
TEXT
  8
3
 62
214
  6
CONTINUOUS
 10
158.317351
 20
43.932713
 40
8.000000
 41
0.500000
  1
ｸﾞﾘｯﾌﾟ
  7
KANJI
 50
0.000000
 51
0.000000
  0
LINE
  8
3
 62
214
  6
CONTINUOUS
 10
268.627929
 20
30.146537
 11
264.643037
 21
29.799210
  0
LINE
  8
3
 62
214
  6
CONTINUOUS
 10
268.627929
 20
30.146537
 11
265.003248
 21
31.838189
  0
LINE
  8
3
 62
214
  6
CONTINUOUS
 10
264.643037
 20
29.799210
 11
265.003248
 21
31.838189
  0
LINE
  8
3
 62
214
  6
CONTINUOUS
 10
267.676732
 20
30.314577
 11
265.684286
 21
30.140914
  0
LINE
  8
3
 62
214
  6
CONTINUOUS
 10
267.676732
 20
30.314577
 11
265.864391
 21
31.160404
  0
LINE
  8
3
 62
214
  6
CONTINUOUS
 10
265.684286
 20
30.140914
 11
265.864391
 21
31.160404
  0
DIMENSION
  8
2
 62
134
  6
CONTINUOUS
  2
*D12
 10
228.627933
 20
59.026409
 11
250.857374
 21
59.026409
 70
     0
  1
100
 13
228.627933
 23
65.404881
 14
328.627933
 24
65.404881
 50
0.000000
  0
LINE
  8
3
 62
214
  6
CONTINUOUS
 10
281.105066
 20
74.912425
 11
312.727653
 21
27.969578
  0
LINE
  8
3
 62
214
  6
CONTINUOUS
 10
312.727653
 20
27.969578
 11
359.832728
 21
27.969578
  0
TEXT
  8
3
 62
214
  6
CONTINUOUS
 10
319.832728
 20
27.969578
 40
8.000000
 41
0.500000
  1
ｸﾞﾘｯﾌﾟﾎﾙﾀﾞ
  7
KANJI
 50
0.000000
 51
30.000000
  0
LINE
  8
3
 62
214
  6
CONTINUOUS
 10
281.105066
 20
74.912425
 11
284.122337
 21
72.286387
  0
LINE
  8
3
 62
214
  6
CONTINUOUS
 10
281.105066
 20
74.912425
 11
282.405081
 21
71.129574
  0
LINE
  8
3
 62
214
  6
CONTINUOUS
 10
284.122337
 20
72.286387
 11
282.405081
 21
71.129574
  0
LINE
  8
3
 62
214
  6
CONTINUOUS
 10
281.644727
 20
74.111314
 11
283.153362
 21
72.798295
  0
LINE
  8
3
 62
214
  6
CONTINUOUS
 10
281.644727
 20
74.111314
 11
282.294734
 21
72.219888
  0
LINE
  8
3
 62
214
  6
CONTINUOUS
 10
283.153362
 20
72.798295
 11
282.294734
 21
72.219888
  0
DIMENSION
  8
2
 62
134
  6
CONTINUOUS
  2
*D13
 10
48.197667
 20
226.800961
 11
63.333188
 21
210.673740
 70
     3
  1
φ130
 13
48.197667
 23
226.800961
 14
137.160841
 24
132.008802
 15
137.160841
 25
132.008802
  0
TEXT
  8
3
 62
214
  6
CONTINUOUS
 10
418.828183
 20
348.856447
 40
8.000000
 41
1.000000
  1
ｸﾞﾘｯﾌﾟ　0.22Kg
  7
KANJI
 50
0.000000
 51
0.000000
  0
LINE
  8
3
 62
214
  6
CONTINUOUS
 10
201.627933
 20
213.665423
 11
135.175336
 21
256.129476
  0
LINE
  8
3
 62
214
  6
CONTINUOUS
 10
135.175336
 20
256.129476
 11
109.757212
 21
256.129476
  0
TEXT
  8
3
 62
214
  6
CONTINUOUS
 10
109.757212
 20
256.129476
 40
8.000000
 41
0.500000
  1
ｱﾊﾟｰﾁｬ
  7
KANJI
 50
0.000000
 51
30.000000
  0
LINE
  8
3
 62
214
  6
CONTINUOUS
 10
201.627933
 20
213.665423
 11
197.814729
 21
214.873511
  0
LINE
  8
3
 62
214
  6
CONTINUOUS
 10
201.627933
 20
213.665423
 11
198.929646
 21
216.618260
  0
LINE
  8
3
 62
214
  6
CONTINUOUS
 10
197.814729
 20
214.873511
 11
198.929646
 21
216.618260
  0
LINE
  8
3
 62
214
  6
CONTINUOUS
 10
200.813996
 20
214.185539
 11
198.907395
 21
214.789583
  0
LINE
  8
3
 62
214
  6
CONTINUOUS
 10
200.813996
 20
214.185539
 11
199.464853
 21
215.661957
  0
LINE
  8
3
 62
214
  6
CONTINUOUS
 10
198.907395
 20
214.789583
 11
199.464853
 21
215.661957
  0
TEXT
  8
6
 62
14
  6
CONTINUOUS
 10
100.703109
 20
255.898129
 40
8.000000
 41
1.000000
  1
②
  7
KANJI
 50
0.000000
 51
0.000000
  0
LINE
  8
3
 62
214
  6
CONTINUOUS
 10
110.189863
 20
221.762567
 11
111.624504
 21
225.496440
  0
LINE
  8
3
 62
214
  6
CONTINUOUS
 10
110.189863
 20
221.762567
 11
113.299235
 21
224.278875
  0
LINE
  8
3
 62
214
  6
CONTINUOUS
 10
111.624504
 20
225.496440
 11
113.299235
 21
224.278875
  0
LINE
  8
3
 62
214
  6
CONTINUOUS
 10
110.757864
 20
222.543840
 11
111.475185
 21
224.410776
  0
LINE
  8
3
 62
214
  6
CONTINUOUS
 10
110.757864
 20
222.543840
 11
112.312550
 21
223.801994
  0
LINE
  8
3
 62
214
  6
CONTINUOUS
 10
111.475185
 20
224.410776
 11
112.312550
 21
223.801994
  0
LINE
  8
3
 62
214
  6
CONTINUOUS
 10
110.189863
 20
221.762567
 11
135.175336
 21
256.129476
  0
TEXT
  8
6
 62
14
  6
CONTINUOUS
 10
156.603702
 20
256.126604
 40
8.000000
 41
1.000000
  1
③
  7
KANJI
 50
0.000000
 51
0.000000
  0
TEXT
  8
6
 62
14
  6
CONTINUOUS
 10
364.206552
 20
251.674432
 40
8.000000
 41
1.000000
  1
④
  7
KANJI
 50
0.000000
 51
0.000000
  0
TEXT
  8
6
 62
14
  6
CONTINUOUS
 10
399.158637
 20
331.011129
 40
8.000000
 41
1.000000
  1
⑤
  7
KANJI
 50
0.000000
 51
0.000000
  0
TEXT
  8
6
 62
14
  6
CONTINUOUS
 10
501.244138
 20
352.744838
 40
8.000000
 41
1.000000
  1
⑦
  7
KANJI
 50
0.000000
 51
0.000000
  0
TEXT
  8
6
 62
14
  6
CONTINUOUS
 10
158.317351
 20
51.932713
 40
8.000000
 41
1.000000
  1
⑦
  7
KANJI
 50
0.000000
 51
0.000000
  0
LINE
  8
1
 62
7
  6
DOT
 10
289.845113
 20
104.404881
 11
339.627933
 21
104.404881
  0
LINE
  8
1
 62
7
  6
DOT
 10
290.122665
 20
94.404881
 11
339.627933
 21
94.404881
  0
TEXT
  8
5
 62
94
  6
CONTINUOUS
 10
113.610842
 20
361.252870
 40
3.500000
 41
4.000000
  1
製図
  7
KANJI
 50
-90.000000
 51
0.000000
  0
TEXT
  8
5
 62
94
  6
CONTINUOUS
 10
23.461835
 20
376.660154
 40
3.500000
 41
4.000000
  1
日付
  7
KANJI
 50
-90.000000
 51
0.000000
  0
TEXT
  8
5
 62
94
  6
CONTINUOUS
 10
93.614153
 20
376.987969
 40
3.500000
 41
4.000000
  1
図法
  7
KANJI
 50
-90.000000
 51
0.000000
  0
TEXT
  8
5
 62
94
  6
CONTINUOUS
 10
93.286338
 20
393.050883
 40
3.500000
 41
4.000000
  1
尺度
  7
KANJI
 50
-90.000000
 51
0.000000
  0
TEXT
  8
5
 62
94
  6
CONTINUOUS
 10
23.461835
 20
392.723068
 40
3.500000
 41
4.000000
  1
公差
  7
KANJI
 50
-90.000000
 51
0.000000
  0
TEXT
  8
5
 62
94
  6
CONTINUOUS
 10
23.461835
 20
360.925055
 40
3.500000
 41
4.000000
  1
承認
  7
KANJI
 50
-90.000000
 51
0.000000
  0
TEXT
  8
5
 62
94
  6
CONTINUOUS
 10
73.617464
 20
360.925055
 40
3.500000
 41
4.000000
  1
設計
  7
KANJI
 50
-90.000000
 51
0.000000
  0
TEXT
  8
5
 62
94
  6
CONTINUOUS
 10
109.677067
 20
364.531015
 40
8.000000
 41
1.000000
  1
三角法
  7
KANJI
 50
0.000000
 51
0.000000
  0
TEXT
  8
5
 62
94
  6
CONTINUOUS
 10
84.107531
 20
349.451545
 40
8.000000
 41
1.000000
  1
須藤
  7
KANJI
 50
0.810149
 51
0.000000
  0
TEXT
  8
5
 62
94
  6
CONTINUOUS
 10
124.100908
 20
349.779360
 40
8.000000
 41
1.000000
  1
須藤
  7
KANJI
 50
-0.112820
 51
0.000000
  0
TEXT
  8
5
 62
94
  6
CONTINUOUS
 10
23.276405
 20
312.925055
 40
3.500000
 41
4.000000
  1
図番
  7
KANJI
 50
-90.000000
 51
0.000000
  0
TEXT
  8
5
 62
94
  6
CONTINUOUS
 10
23.276405
 20
339.478035
 40
3.500000
 41
4.000000
  1
図　名
  7
KANJI
 50
-90.000000
 51
0.000000
  0
TEXT
  8
5
 62
94
  6
CONTINUOUS
 10
35.283098
 20
318.756640
 40
8.000000
 41
0.875000
  1
黒体部　外形図
  7
KANJI
 50
0.000000
 51
0.000000
  0
TEXT
  8
5
 62
94
  6
CONTINUOUS
 10
22.507838
 20
285.060817
 40
8.000000
 41
1.875000
  1
ジャパンセンサー株式会社
  7
KANJI
 50
0.000000
 51
0.000000
  0
TEXT
  8
3
 62
214
  6
CONTINUOUS
 10
394.833590
 20
358.728446
 40
8.000000
 41
1.000000
  1
質量：黒体部　2.3Kg
  7
KANJI
 50
0.000000
 51
0.000000
  0
LINE
  8
1
 62
7
  6
CONTINUOUS
 10
499.761296
 20
306.817093
 11
499.761296
 21
286.617093
  0
LINE
  8
1
 62
7
  6
CONTINUOUS
 10
483.761296
 20
312.592093
 11
483.761296
 21
280.842093
  0
LINE
  8
1
 62
7
  6
CONTINUOUS
 10
494.761296
 20
312.592093
 11
494.761296
 21
280.842093
  0
LINE
  8
1
 62
7
  6
CONTINUOUS
 10
499.761296
 20
306.817093
 11
494.761296
 21
306.817093
  0
LINE
  8
1
 62
7
  6
CONTINUOUS
 10
499.761296
 20
286.617093
 11
494.761296
 21
286.617093
  0
LINE
  8
1
 62
7
  6
CONTINUOUS
 10
483.761296
 20
312.592093
 11
494.761296
 21
312.592093
  0
LINE
  8
1
 62
7
  6
CONTINUOUS
 10
483.761296
 20
280.842093
 11
494.761296
 21
280.842093
  0
LINE
  8
1
 62
7
  6
CONTINUOUS
 10
483.761296
 20
307.417093
 11
480.761296
 21
307.417093
  0
LINE
  8
1
 62
7
  6
CONTINUOUS
 10
483.761296
 20
286.017093
 11
480.761296
 21
286.017093
  0
LINE
  8
1
 62
7
  6
CONTINUOUS
 10
477.761296
 20
309.917093
 11
477.761296
 21
312.717093
  0
LINE
  8
1
 62
7
  6
CONTINUOUS
 10
477.761296
 20
283.517093
 11
477.761296
 21
280.717093
  0
LINE
  8
1
 62
7
  6
CONTINUOUS
 10
480.761296
 20
309.917093
 11
480.761296
 21
283.517093
  0
LINE
  8
1
 62
7
  6
CONTINUOUS
 10
480.761296
 20
309.917093
 11
473.561296
 21
309.917093
  0
LINE
  8
1
 62
7
  6
CONTINUOUS
 10
473.561296
 20
309.917093
 11
473.561296
 21
283.517093
  0
LINE
  8
1
 62
7
  6
CONTINUOUS
 10
480.761296
 20
283.517093
 11
473.561296
 21
283.517093
  0
CIRCLE
  8
1
 62
7
  6
CONTINUOUS
 10
470.472634
 20
309.717093
 40
3.000000
  0
LINE
  8
1
 62
7
  6
CONTINUOUS
 10
468.972634
 20
310.017093
 11
468.972634
 21
309.417093
  0
LINE
  8
1
 62
7
  6
CONTINUOUS
 10
470.172634
 20
311.217093
 11
470.772634
 21
311.217093
  0
LINE
  8
1
 62
7
  6
CONTINUOUS
 10
471.972634
 20
310.017093
 11
471.972634
 21
309.417093
  0
LINE
  8
1
 62
7
  6
CONTINUOUS
 10
470.772634
 20
308.217093
 11
470.172634
 21
308.217093
  0
LINE
  8
1
 62
7
  6
CONTINUOUS
 10
470.772634
 20
308.517093
 11
470.772634
 21
308.217093
  0
LINE
  8
1
 62
7
  6
CONTINUOUS
 10
471.972634
 20
309.417093
 11
471.672634
 21
309.417093
  0
ARC
  8
1
 62
7
  6
CONTINUOUS
 10
471.672634
 20
308.517093
 40
0.900000
 50
90.000000
 51
180.000000
  0
LINE
  8
1
 62
7
  6
CONTINUOUS
 10
471.672634
 20
310.017093
 11
471.972634
 21
310.017093
  0
LINE
  8
1
 62
7
  6
CONTINUOUS
 10
470.772634
 20
311.217093
 11
470.772634
 21
310.917093
  0
ARC
  8
1
 62
7
  6
CONTINUOUS
 10
471.672634
 20
310.917093
 40
0.900000
 50
180.000000
 51
-90.000000
  0
LINE
  8
1
 62
7
  6
CONTINUOUS
 10
468.972634
 20
310.017093
 11
469.272634
 21
310.017093
  0
LINE
  8
1
 62
7
  6
CONTINUOUS
 10
470.172634
 20
310.917093
 11
470.172634
 21
311.217093
  0
ARC
  8
1
 62
7
  6
CONTINUOUS
 10
469.272634
 20
310.917093
 40
0.900000
 50
-90.000000
 51
0.000000
  0
LINE
  8
1
 62
7
  6
CONTINUOUS
 10
469.272634
 20
309.417093
 11
468.972634
 21
309.417093
  0
LINE
  8
1
 62
7
  6
CONTINUOUS
 10
470.172634
 20
308.217093
 11
470.172634
 21
308.517093
  0
ARC
  8
1
 62
7
  6
CONTINUOUS
 10
469.272634
 20
308.517093
 40
0.900000
 50
0.000000
 51
90.000000
  0
CIRCLE
  8
1
 62
7
  6
CONTINUOUS
 10
470.472634
 20
283.717093
 40
3.000000
  0
LINE
  8
1
 62
7
  6
CONTINUOUS
 10
468.972634
 20
283.417093
 11
468.972634
 21
284.017093
  0
LINE
  8
1
 62
7
  6
CONTINUOUS
 10
470.172634
 20
282.217093
 11
470.772634
 21
282.217093
  0
LINE
  8
1
 62
7
  6
CONTINUOUS
 10
471.972634
 20
283.417093
 11
471.972634
 21
284.017093
  0
LINE
  8
1
 62
7
  6
CONTINUOUS
 10
470.772634
 20
285.217093
 11
470.172634
 21
285.217093
  0
LINE
  8
1
 62
7
  6
CONTINUOUS
 10
470.772634
 20
284.917093
 11
470.772634
 21
285.217093
  0
LINE
  8
1
 62
7
  6
CONTINUOUS
 10
471.972634
 20
284.017093
 11
471.672634
 21
284.017093
  0
ARC
  8
1
 62
7
  6
CONTINUOUS
 10
471.672634
 20
284.917093
 40
0.900000
 50
180.000000
 51
-90.000000
  0
LINE
  8
1
 62
7
  6
CONTINUOUS
 10
471.672634
 20
283.417093
 11
471.972634
 21
283.417093
  0
LINE
  8
1
 62
7
  6
CONTINUOUS
 10
470.772634
 20
282.217093
 11
470.772634
 21
282.517093
  0
ARC
  8
1
 62
7
  6
CONTINUOUS
 10
471.672634
 20
282.517093
 40
0.900000
 50
90.000000
 51
180.000000
  0
LINE
  8
1
 62
7
  6
CONTINUOUS
 10
468.972634
 20
283.417093
 11
469.272634
 21
283.417093
  0
LINE
  8
1
 62
7
  6
CONTINUOUS
 10
470.172634
 20
282.517093
 11
470.172634
 21
282.217093
  0
ARC
  8
1
 62
7
  6
CONTINUOUS
 10
469.272634
 20
282.517093
 40
0.900000
 50
0.000000
 51
90.000000
  0
LINE
  8
1
 62
7
  6
CONTINUOUS
 10
469.272634
 20
284.017093
 11
468.972634
 21
284.017093
  0
LINE
  8
1
 62
7
  6
CONTINUOUS
 10
470.172634
 20
285.217093
 11
470.172634
 21
284.917093
  0
ARC
  8
1
 62
7
  6
CONTINUOUS
 10
469.272634
 20
284.917093
 40
0.900000
 50
-90.000000
 51
0.000000
  0
LINE
  8
1
 62
7
  6
CONTINUOUS
 10
470.472634
 20
312.717093
 11
477.761296
 21
312.717093
  0
LINE
  8
1
 62
7
  6
CONTINUOUS
 10
470.472634
 20
280.717093
 11
477.761296
 21
280.717093
  0
LINE
  8
1
 62
7
  6
CONTINUOUS
 10
467.449721
 20
309.917093
 11
467.449721
 21
307.217093
  0
LINE
  8
1
 62
7
  6
CONTINUOUS
 10
467.449721
 20
286.217093
 11
467.449721
 21
283.517093
  0
LINE
  8
1
 62
7
  6
CONTINUOUS
 10
466.261296
 20
282.817093
 11
466.261296
 21
310.617093
  0
LINE
  8
1
 62
7
  6
CONTINUOUS
 10
467.449721
 20
307.217093
 11
466.261296
 21
307.217093
  0
LINE
  8
1
 62
7
  6
CONTINUOUS
 10
467.449721
 20
286.217093
 11
466.261296
 21
286.217093
  0
LINE
  8
1
 62
7
  6
CONTINUOUS
 10
466.261296
 20
310.617093
 11
454.261296
 21
310.617093
  0
LINE
  8
1
 62
7
  6
CONTINUOUS
 10
454.261296
 20
282.817093
 11
466.261296
 21
282.817093
  0
CIRCLE
  8
1
 62
7
  6
CONTINUOUS
 10
448.467258
 20
307.417864
 40
3.999999
  0
LINE
  8
1
 62
7
  6
CONTINUOUS
 10
446.467258
 20
307.817864
 11
446.467258
 21
307.017864
  0
LINE
  8
1
 62
7
  6
CONTINUOUS
 10
448.067258
 20
309.417863
 11
448.867258
 21
309.417863
  0
LINE
  8
1
 62
7
  6
CONTINUOUS
 10
450.467257
 20
307.817864
 11
450.467257
 21
307.017864
  0
LINE
  8
1
 62
7
  6
CONTINUOUS
 10
448.867258
 20
305.417864
 11
448.067258
 21
305.417864
  0
LINE
  8
1
 62
7
  6
CONTINUOUS
 10
448.867258
 20
305.817864
 11
448.867258
 21
305.417864
  0
LINE
  8
1
 62
7
  6
CONTINUOUS
 10
450.467257
 20
307.017864
 11
450.067257
 21
307.017864
  0
ARC
  8
1
 62
7
  6
CONTINUOUS
 10
450.067257
 20
305.817864
 40
1.200000
 50
90.000000
 51
180.000000
  0
LINE
  8
1
 62
7
  6
CONTINUOUS
 10
450.067257
 20
307.817864
 11
450.467257
 21
307.817864
  0
LINE
  8
1
 62
7
  6
CONTINUOUS
 10
448.867258
 20
309.417863
 11
448.867258
 21
309.017863
  0
ARC
  8
1
 62
7
  6
CONTINUOUS
 10
450.067257
 20
309.017863
 40
1.200000
 50
180.000000
 51
-90.000000
  0
LINE
  8
1
 62
7
  6
CONTINUOUS
 10
446.467258
 20
307.817864
 11
446.867258
 21
307.817864
  0
LINE
  8
1
 62
7
  6
CONTINUOUS
 10
448.067258
 20
309.017863
 11
448.067258
 21
309.417863
  0
ARC
  8
1
 62
7
  6
CONTINUOUS
 10
446.867258
 20
309.017863
 40
1.200000
 50
-90.000000
 51
0.000000
  0
LINE
  8
1
 62
7
  6
CONTINUOUS
 10
446.867258
 20
307.017864
 11
446.467258
 21
307.017864
  0
LINE
  8
1
 62
7
  6
CONTINUOUS
 10
448.067258
 20
305.417864
 11
448.067258
 21
305.817864
  0
ARC
  8
1
 62
7
  6
CONTINUOUS
 10
446.867258
 20
305.817864
 40
1.200000
 50
0.000000
 51
90.000000
  0
ARC
  8
1
 62
7
  6
CONTINUOUS
 10
447.761296
 20
306.417093
 40
5.000000
 50
90.000000
 51
180.000000
  0
LINE
  8
1
 62
7
  6
CONTINUOUS
 10
454.261296
 20
311.417093
 11
447.761296
 21
311.417093
  0
LINE
  8
1
 62
7
  6
CONTINUOUS
 10
454.261296
 20
311.417093
 11
454.261296
 21
282.017093
  0
ARC
  8
1
 62
7
  6
CONTINUOUS
 10
449.261296
 20
306.417093
 40
5.000000
 50
0.000000
 51
90.000000
  0
CIRCLE
  8
1
 62
7
  6
CONTINUOUS
 10
448.467258
 20
286.016322
 40
3.999999
  0
LINE
  8
1
 62
7
  6
CONTINUOUS
 10
446.467258
 20
285.616322
 11
446.467258
 21
286.416322
  0
LINE
  8
1
 62
7
  6
CONTINUOUS
 10
448.067258
 20
284.016323
 11
448.867258
 21
284.016323
  0
LINE
  8
1
 62
7
  6
CONTINUOUS
 10
450.467257
 20
285.616322
 11
450.467257
 21
286.416322
  0
LINE
  8
1
 62
7
  6
CONTINUOUS
 10
448.867258
 20
288.016322
 11
448.067258
 21
288.016322
  0
LINE
  8
1
 62
7
  6
CONTINUOUS
 10
448.867258
 20
287.616322
 11
448.867258
 21
288.016322
  0
LINE
  8
1
 62
7
  6
CONTINUOUS
 10
450.467257
 20
286.416322
 11
450.067257
 21
286.416322
  0
ARC
  8
1
 62
7
  6
CONTINUOUS
 10
450.067257
 20
287.616322
 40
1.200000
 50
180.000000
 51
-90.000000
  0
LINE
  8
1
 62
7
  6
CONTINUOUS
 10
450.067257
 20
285.616322
 11
450.467257
 21
285.616322
  0
LINE
  8
1
 62
7
  6
CONTINUOUS
 10
448.867258
 20
284.016323
 11
448.867258
 21
284.416323
  0
ARC
  8
1
 62
7
  6
CONTINUOUS
 10
450.067257
 20
284.416323
 40
1.200000
 50
90.000000
 51
180.000000
  0
LINE
  8
1
 62
7
  6
CONTINUOUS
 10
446.467258
 20
285.616322
 11
446.867258
 21
285.616322
  0
LINE
  8
1
 62
7
  6
CONTINUOUS
 10
448.067258
 20
284.416323
 11
448.067258
 21
284.016323
  0
ARC
  8
1
 62
7
  6
CONTINUOUS
 10
446.867258
 20
284.416323
 40
1.200000
 50
0.000000
 51
90.000000
  0
LINE
  8
1
 62
7
  6
CONTINUOUS
 10
446.867258
 20
286.416322
 11
446.467258
 21
286.416322
  0
LINE
  8
1
 62
7
  6
CONTINUOUS
 10
448.067258
 20
288.016322
 11
448.067258
 21
287.616322
  0
ARC
  8
1
 62
7
  6
CONTINUOUS
 10
446.867258
 20
287.616322
 40
1.200000
 50
-90.000000
 51
0.000000
  0
ARC
  8
1
 62
7
  6
CONTINUOUS
 10
447.761296
 20
287.017093
 40
5.000000
 50
180.000000
 51
-90.000000
  0
ARC
  8
1
 62
7
  6
CONTINUOUS
 10
449.261296
 20
287.017093
 40
5.000000
 50
-90.000000
 51
0.000000
  0
LINE
  8
1
 62
7
  6
CONTINUOUS
 10
442.761296
 20
306.417093
 11
442.761296
 21
286.823649
  0
LINE
  8
1
 62
7
  6
CONTINUOUS
 10
454.261296
 20
282.017093
 11
447.423157
 21
282.017093
  0
TEXT
  8
6
 62
14
  6
CONTINUOUS
 10
466.434879
 20
330.873630
 40
8.000000
 41
1.000000
  1
⑥
  7
KANJI
 50
0.000000
 51
0.000000
  0
LINE
  8
3
 62
214
  6
CONTINUOUS
 10
459.188181
 20
310.617093
 11
466.353135
 21
331.011129
  0
LINE
  8
3
 62
214
  6
CONTINUOUS
 10
466.353135
 20
331.011129
 11
490.999541
 21
331.011129
  0
TEXT
  8
3
 62
214
  6
CONTINUOUS
 10
474.999541
 20
331.011129
 40
8.000000
 41
0.500000
  1
ｺﾈｸﾀ
  7
KANJI
 50
0.000000
 51
30.000000
  0
LINE
  8
3
 62
214
  6
CONTINUOUS
 10
459.188181
 20
310.617093
 11
459.492112
 21
314.605529
  0
LINE
  8
3
 62
214
  6
CONTINUOUS
 10
459.188181
 20
310.617093
 11
461.445611
 21
313.919215
  0
LINE
  8
3
 62
214
  6
CONTINUOUS
 10
459.492112
 20
314.605529
 11
461.445611
 21
313.919215
  0
LINE
  8
3
 62
214
  6
CONTINUOUS
 10
459.508351
 20
311.528413
 11
459.660317
 21
313.522631
  0
LINE
  8
3
 62
214
  6
CONTINUOUS
 10
459.508351
 20
311.528413
 11
460.637066
 21
313.179474
  0
LINE
  8
3
 62
214
  6
CONTINUOUS
 10
459.660317
 20
313.522631
 11
460.637066
 21
313.179474
  0
LINE
  8
1
 62
7
  6
CONTINUOUS
 10
410.006728
 20
290.517093
 11
442.761296
 21
290.517093
  0
LINE
  8
1
 62
7
  6
CONTINUOUS
 10
410.006728
 20
302.917093
 11
410.006728
 21
290.517093
  0
LINE
  8
1
 62
7
  6
CONTINUOUS
 10
442.761296
 20
302.917093
 11
410.006728
 21
302.917093
  0
LINE
  8
1
 62
7
  6
CONTINUOUS
 10
391.457419
 20
288.437574
 11
394.923782
 21
304.427573
  0
LINE
  8
1
 62
7
  6
CONTINUOUS
 10
393.352558
 20
288.437574
 11
396.818921
 21
304.427573
  0
LINE
  8
1
 62
7
  6
CONTINUOUS
 10
369.027933
 20
301.717093
 11
394.336195
 21
301.717093
  0
LINE
  8
1
 62
7
  6
CONTINUOUS
 10
396.231335
 20
301.717093
 11
410.006728
 21
301.717093
  0
LINE
  8
1
 62
7
  6
CONTINUOUS
 10
394.063502
 20
291.717093
 11
410.006728
 21
291.717093
  0
TEXT
  8
6
 62
14
  6
CONTINUOUS
 10
312.727653
 20
27.969578
 40
8.000000
 41
1.000000
  1
⑧
  7
KANJI
 50
0.000000
 51
0.000000
  0
LINE
  8
1
 62
7
  6
DASHDOT
 10
376.005723
 20
326.717093
 11
358.017781
 21
326.717093
  0
LINE
  8
1
 62
7
  6
CONTINUOUS
 10
365.627933
 20
358.039349
 11
365.627933
 21
367.517093
  0
LINE
  8
1
 62
7
  6
CONTINUOUS
 10
365.827921
 20
366.096639
 11
365.827921
 21
361.852615
  0
LINE
  8
1
 62
7
  6
CONTINUOUS
 10
365.827921
 20
359.502039
 11
365.827921
 21
357.439365
  0
LINE
  8
1
 62
7
  6
CONTINUOUS
 10
367.427927
 20
366.096639
 11
367.427927
 21
360.633412
  0
LINE
  8
1
 62
7
  6
CONTINUOUS
 10
367.427927
 20
357.828421
 11
367.427927
 21
356.220161
  0
LINE
  8
1
 62
7
  6
CONTINUOUS
 10
365.627933
 20
359.647611
 11
367.016433
 21
358.636914
  0
LINE
  8
1
 62
7
  6
CONTINUOUS
 10
368.204944
 20
360.067818
 11
366.039427
 21
361.644106
  0
ARC
  8
1
 62
7
  6
CONTINUOUS
 10
366.627933
 20
362.452599
 40
1.000000
 50
180.000000
 51
-126.051024
  0
ARC
  8
1
 62
7
  6
CONTINUOUS
 10
366.427927
 20
357.828421
 40
1.000000
 50
0.000000
 51
53.948927
  0
ARC
  8
1
 62
7
  6
CONTINUOUS
 10
367.027933
 20
358.450831
 40
2.000000
 50
0.000000
 51
53.948976
  0
ARC
  8
1
 62
7
  6
CONTINUOUS
 10
364.827933
 20
367.517093
 40
0.800000
 50
0.000000
 51
90.000000
  0
ARC
  8
1
 62
7
  6
CONTINUOUS
 10
364.827933
 20
367.517093
 40
0.800000
 50
90.000000
 51
180.000000
  0
ARC
  8
1
 62
7
  6
CONTINUOUS
 10
366.627933
 20
366.096639
 40
0.800000
 50
0.000000
 51
90.000000
  0
LINE
  8
1
 62
7
  6
CONTINUOUS
 10
365.827921
 20
355.088788
 11
365.827921
 21
326.717093
  0
LINE
  8
1
 62
7
  6
CONTINUOUS
 10
367.427927
 20
353.415171
 11
367.427927
 21
336.717093
  0
ARC
  8
1
 62
7
  6
CONTINUOUS
 10
366.627933
 20
358.039349
 40
1.000000
 50
180.000000
 51
-126.051024
  0
ARC
  8
1
 62
7
  6
CONTINUOUS
 10
366.027933
 20
357.416937
 40
2.000000
 50
180.000000
 51
-126.051073
  0
ARC
  8
1
 62
7
  6
CONTINUOUS
 10
366.427927
 20
353.415171
 40
1.000000
 50
0.000000
 51
53.948927
  0
ARC
  8
1
 62
7
  6
CONTINUOUS
 10
367.027933
 20
354.037581
 40
2.000000
 50
0.000000
 51
53.948976
  0
LINE
  8
1
 62
7
  6
CONTINUOUS
 10
364.850920
 20
355.799952
 11
367.016433
 21
354.223664
  0
LINE
  8
1
 62
7
  6
CONTINUOUS
 10
364.027933
 20
367.517093
 11
364.027933
 21
357.416937
  0
LINE
  8
1
 62
7
  6
CONTINUOUS
 10
368.204944
 20
355.654567
 11
366.039427
 21
357.230856
  0
ARC
  8
1
 62
7
  6
CONTINUOUS
 10
366.627927
 20
366.096639
 40
0.800000
 50
90.000000
 51
180.000000
  0
LINE
  8
1
 62
7
  6
CONTINUOUS
 10
369.027933
 20
358.450831
 11
369.027933
 21
328.400960
  0
LINE
  8
1
 62
7
  6
CONTINUOUS
 10
367.427927
 20
336.717093
 11
367.427927
 21
326.717093
  0
LINE
  8
1
 62
7
  6
CONTINUOUS
 10
365.627933
 20
295.394838
 11
365.627933
 21
285.917093
  0
LINE
  8
1
 62
7
  6
CONTINUOUS
 10
365.827921
 20
287.337548
 11
365.827921
 21
291.581571
  0
LINE
  8
1
 62
7
  6
CONTINUOUS
 10
365.827921
 20
293.932148
 11
365.827921
 21
295.994822
  0
LINE
  8
1
 62
7
  6
CONTINUOUS
 10
367.427927
 20
287.337548
 11
367.427927
 21
292.800775
  0
LINE
  8
1
 62
7
  6
CONTINUOUS
 10
367.427927
 20
295.605765
 11
367.427927
 21
297.214025
  0
LINE
  8
1
 62
7
  6
CONTINUOUS
 10
365.627933
 20
293.786576
 11
367.016433
 21
294.797272
  0
LINE
  8
1
 62
7
  6
CONTINUOUS
 10
368.204944
 20
293.366369
 11
366.039427
 21
291.790081
  0
ARC
  8
1
 62
7
  6
CONTINUOUS
 10
366.627933
 20
290.981587
 40
1.000000
 50
126.051024
 51
180.000000
  0
ARC
  8
1
 62
7
  6
CONTINUOUS
 10
366.427927
 20
295.605765
 40
1.000000
 50
-53.948927
 51
0.000000
  0
ARC
  8
1
 62
7
  6
CONTINUOUS
 10
367.027933
 20
294.983355
 40
2.000000
 50
-53.948976
 51
0.000000
  0
ARC
  8
1
 62
7
  6
CONTINUOUS
 10
364.827933
 20
285.917093
 40
0.800000
 50
-90.000000
 51
0.000000
  0
ARC
  8
1
 62
7
  6
CONTINUOUS
 10
364.827933
 20
285.917093
 40
0.800000
 50
180.000000
 51
-90.000000
  0
ARC
  8
1
 62
7
  6
CONTINUOUS
 10
366.627933
 20
287.337548
 40
0.800000
 50
-90.000000
 51
0.000000
  0
LINE
  8
1
 62
7
  6
CONTINUOUS
 10
365.827921
 20
298.345398
 11
365.827921
 21
326.717093
  0
LINE
  8
1
 62
7
  6
CONTINUOUS
 10
367.427927
 20
300.019015
 11
367.427927
 21
316.717093
  0
ARC
  8
1
 62
7
  6
CONTINUOUS
 10
366.627933
 20
295.394838
 40
1.000000
 50
126.051024
 51
180.000000
  0
ARC
  8
1
 62
7
  6
CONTINUOUS
 10
366.027933
 20
296.017249
 40
2.000000
 50
126.051073
 51
180.000000
  0
ARC
  8
1
 62
7
  6
CONTINUOUS
 10
366.427927
 20
300.019015
 40
1.000000
 50
-53.948927
 51
0.000000
  0
ARC
  8
1
 62
7
  6
CONTINUOUS
 10
367.027933
 20
299.396606
 40
2.000000
 50
-53.948976
 51
0.000000
  0
LINE
  8
1
 62
7
  6
CONTINUOUS
 10
364.850920
 20
297.634235
 11
367.016433
 21
299.210523
  0
LINE
  8
1
 62
7
  6
CONTINUOUS
 10
364.027933
 20
285.917093
 11
364.027933
 21
296.017249
  0
LINE
  8
1
 62
7
  6
CONTINUOUS
 10
368.204944
 20
297.779619
 11
366.039427
 21
296.203331
  0
ARC
  8
1
 62
7
  6
CONTINUOUS
 10
366.627927
 20
287.337548
 40
0.800000
 50
180.000000
 51
-90.000000
  0
LINE
  8
1
 62
7
  6
CONTINUOUS
 10
369.027933
 20
294.983355
 11
369.027933
 21
325.033226
  0
LINE
  8
1
 62
7
  6
CONTINUOUS
 10
367.427927
 20
316.717093
 11
367.427927
 21
326.717093
  0
ARC
  8
1
 62
7
  6
CONTINUOUS
 10
368.227946
 20
325.033226
 40
0.800000
 50
0.000000
 51
90.000000
  0
LINE
  8
1
 62
7
  6
CONTINUOUS
 10
367.427927
 20
325.833214
 11
368.227946
 21
325.833214
  0
ARC
  8
1
 62
7
  6
CONTINUOUS
 10
368.227946
 20
328.400960
 40
0.800000
 50
-90.000000
 51
0.000000
  0
LINE
  8
1
 62
7
  6
CONTINUOUS
 10
367.427927
 20
327.600972
 11
368.227946
 21
327.600972
  0
LINE
  8
1
 62
7
  6
DASHDOT
 10
376.005723
 20
179.404881
 11
358.017781
 21
179.404881
  0
LINE
  8
1
 62
7
  6
CONTINUOUS
 10
365.627933
 20
210.727137
 11
365.627933
 21
220.204881
  0
LINE
  8
1
 62
7
  6
CONTINUOUS
 10
365.827921
 20
218.784427
 11
365.827921
 21
214.540403
  0
LINE
  8
1
 62
7
  6
CONTINUOUS
 10
365.827921
 20
212.189827
 11
365.827921
 21
210.127153
  0
LINE
  8
1
 62
7
  6
CONTINUOUS
 10
367.427927
 20
218.784427
 11
367.427927
 21
213.321200
  0
LINE
  8
1
 62
7
  6
CONTINUOUS
 10
367.427927
 20
210.516209
 11
367.427927
 21
208.907949
  0
LINE
  8
1
 62
7
  6
CONTINUOUS
 10
365.627933
 20
212.335399
 11
367.016433
 21
211.324702
  0
LINE
  8
1
 62
7
  6
CONTINUOUS
 10
368.204944
 20
212.755606
 11
366.039427
 21
214.331894
  0
ARC
  8
1
 62
7
  6
CONTINUOUS
 10
366.627933
 20
215.140387
 40
1.000000
 50
180.000000
 51
-126.051024
  0
ARC
  8
1
 62
7
  6
CONTINUOUS
 10
366.427927
 20
210.516209
 40
1.000000
 50
0.000000
 51
53.948927
  0
ARC
  8
1
 62
7
  6
CONTINUOUS
 10
367.027933
 20
211.138619
 40
2.000000
 50
0.000000
 51
53.948976
  0
ARC
  8
1
 62
7
  6
CONTINUOUS
 10
364.827933
 20
220.204881
 40
0.800000
 50
0.000000
 51
90.000000
  0
ARC
  8
1
 62
7
  6
CONTINUOUS
 10
364.827933
 20
220.204881
 40
0.800000
 50
90.000000
 51
180.000000
  0
ARC
  8
1
 62
7
  6
CONTINUOUS
 10
366.627933
 20
218.784427
 40
0.800000
 50
0.000000
 51
90.000000
  0
LINE
  8
1
 62
7
  6
CONTINUOUS
 10
365.827921
 20
207.776576
 11
365.827921
 21
179.404881
  0
LINE
  8
1
 62
7
  6
CONTINUOUS
 10
367.427927
 20
206.102959
 11
367.427927
 21
189.404881
  0
ARC
  8
1
 62
7
  6
CONTINUOUS
 10
366.627933
 20
210.727137
 40
1.000000
 50
180.000000
 51
-126.051024
  0
ARC
  8
1
 62
7
  6
CONTINUOUS
 10
366.027933
 20
210.104725
 40
2.000000
 50
180.000000
 51
-126.051073
  0
ARC
  8
1
 62
7
  6
CONTINUOUS
 10
366.427927
 20
206.102959
 40
1.000000
 50
0.000000
 51
53.948927
  0
ARC
  8
1
 62
7
  6
CONTINUOUS
 10
367.027933
 20
206.725369
 40
2.000000
 50
0.000000
 51
53.948976
  0
LINE
  8
1
 62
7
  6
CONTINUOUS
 10
364.850920
 20
208.487740
 11
367.016433
 21
206.911452
  0
LINE
  8
1
 62
7
  6
CONTINUOUS
 10
364.027933
 20
220.204881
 11
364.027933
 21
210.104725
  0
LINE
  8
1
 62
7
  6
CONTINUOUS
 10
368.204944
 20
208.342355
 11
366.039427
 21
209.918644
  0
ARC
  8
1
 62
7
  6
CONTINUOUS
 10
366.627927
 20
218.784427
 40
0.800000
 50
90.000000
 51
180.000000
  0
LINE
  8
1
 62
7
  6
CONTINUOUS
 10
369.027933
 20
211.138619
 11
369.027933
 21
181.088748
  0
LINE
  8
1
 62
7
  6
CONTINUOUS
 10
367.427927
 20
189.404881
 11
367.427927
 21
179.404881
  0
LINE
  8
1
 62
7
  6
CONTINUOUS
 10
365.627933
 20
148.082626
 11
365.627933
 21
138.604881
  0
LINE
  8
1
 62
7
  6
CONTINUOUS
 10
365.827921
 20
140.025336
 11
365.827921
 21
144.269359
  0
LINE
  8
1
 62
7
  6
CONTINUOUS
 10
365.827921
 20
146.619936
 11
365.827921
 21
148.682610
  0
LINE
  8
1
 62
7
  6
CONTINUOUS
 10
367.427927
 20
140.025336
 11
367.427927
 21
145.488563
  0
LINE
  8
1
 62
7
  6
CONTINUOUS
 10
367.427927
 20
148.293553
 11
367.427927
 21
149.901813
  0
LINE
  8
1
 62
7
  6
CONTINUOUS
 10
365.627933
 20
146.474364
 11
367.016433
 21
147.485060
  0
LINE
  8
1
 62
7
  6
CONTINUOUS
 10
368.204944
 20
146.054157
 11
366.039427
 21
144.477869
  0
ARC
  8
1
 62
7
  6
CONTINUOUS
 10
366.627933
 20
143.669375
 40
1.000000
 50
126.051024
 51
180.000000
  0
ARC
  8
1
 62
7
  6
CONTINUOUS
 10
366.427927
 20
148.293553
 40
1.000000
 50
-53.948927
 51
0.000000
  0
ARC
  8
1
 62
7
  6
CONTINUOUS
 10
367.027933
 20
147.671143
 40
2.000000
 50
-53.948976
 51
0.000000
  0
ARC
  8
1
 62
7
  6
CONTINUOUS
 10
364.827933
 20
138.604881
 40
0.800000
 50
-90.000000
 51
0.000000
  0
ARC
  8
1
 62
7
  6
CONTINUOUS
 10
364.827933
 20
138.604881
 40
0.800000
 50
180.000000
 51
-90.000000
  0
ARC
  8
1
 62
7
  6
CONTINUOUS
 10
366.627933
 20
140.025336
 40
0.800000
 50
-90.000000
 51
0.000000
  0
LINE
  8
1
 62
7
  6
CONTINUOUS
 10
365.827921
 20
151.033186
 11
365.827921
 21
179.404881
  0
LINE
  8
1
 62
7
  6
CONTINUOUS
 10
367.427927
 20
152.706803
 11
367.427927
 21
169.404881
  0
ARC
  8
1
 62
7
  6
CONTINUOUS
 10
366.627933
 20
148.082626
 40
1.000000
 50
126.051024
 51
180.000000
  0
ARC
  8
1
 62
7
  6
CONTINUOUS
 10
366.027933
 20
148.705037
 40
2.000000
 50
126.051073
 51
180.000000
  0
ARC
  8
1
 62
7
  6
CONTINUOUS
 10
366.427927
 20
152.706803
 40
1.000000
 50
-53.948927
 51
0.000000
  0
ARC
  8
1
 62
7
  6
CONTINUOUS
 10
367.027933
 20
152.084394
 40
2.000000
 50
-53.948976
 51
0.000000
  0
LINE
  8
1
 62
7
  6
CONTINUOUS
 10
364.850920
 20
150.322023
 11
367.016433
 21
151.898311
  0
LINE
  8
1
 62
7
  6
CONTINUOUS
 10
364.027933
 20
138.604881
 11
364.027933
 21
148.705037
  0
LINE
  8
1
 62
7
  6
CONTINUOUS
 10
368.204944
 20
150.467407
 11
366.039427
 21
148.891119
  0
ARC
  8
1
 62
7
  6
CONTINUOUS
 10
366.627927
 20
140.025336
 40
0.800000
 50
180.000000
 51
-90.000000
  0
LINE
  8
1
 62
7
  6
CONTINUOUS
 10
369.027933
 20
147.671143
 11
369.027933
 21
177.721014
  0
LINE
  8
1
 62
7
  6
CONTINUOUS
 10
367.427927
 20
169.404881
 11
367.427927
 21
179.404881
  0
ARC
  8
1
 62
7
  6
CONTINUOUS
 10
368.227946
 20
177.721014
 40
0.800000
 50
0.000000
 51
90.000000
  0
LINE
  8
1
 62
7
  6
CONTINUOUS
 10
367.427927
 20
178.521002
 11
368.227946
 21
178.521002
  0
ARC
  8
1
 62
7
  6
CONTINUOUS
 10
368.227946
 20
181.088748
 40
0.800000
 50
-90.000000
 51
0.000000
  0
LINE
  8
1
 62
7
  6
CONTINUOUS
 10
367.427927
 20
180.288760
 11
368.227946
 21
180.288760
  0
LINE
  8
1
 62
7
  6
DASHDOT
 10
331.612820
 20
326.717093
 11
365.027933
 21
326.717093
  0
LINE
  8
1
 62
7
  6
CONTINUOUS
 10
338.627933
 20
366.717093
 11
338.627933
 21
326.717093
  0
LINE
  8
1
 62
7
  6
CONTINUOUS
 10
338.627933
 20
366.717093
 11
342.627933
 21
366.717093
  0
LINE
  8
1
 62
7
  6
CONTINUOUS
 10
342.627933
 20
366.717093
 11
342.627933
 21
326.717093
  0
LINE
  8
1
 62
7
  6
CONTINUOUS
 10
360.027933
 20
366.717093
 11
360.027933
 21
326.717093
  0
LINE
  8
1
 62
7
  6
CONTINUOUS
 10
360.027933
 20
366.717093
 11
364.027933
 21
366.717093
  0
LINE
  8
1
 62
7
  6
CONTINUOUS
 10
364.027933
 20
366.717093
 11
364.027933
 21
326.717093
  0
LINE
  8
1
 62
7
  6
CONTINUOUS
 10
342.627933
 20
366.217093
 11
360.027933
 21
366.217093
  0
LINE
  8
1
 62
7
  6
CONTINUOUS
 10
342.627933
 20
354.517509
 11
344.627933
 21
351.675834
  0
LINE
  8
1
 62
7
  6
CONTINUOUS
 10
338.627933
 20
286.717093
 11
338.627933
 21
326.717093
  0
LINE
  8
1
 62
7
  6
CONTINUOUS
 10
338.627933
 20
286.717093
 11
342.627933
 21
286.717093
  0
LINE
  8
1
 62
7
  6
CONTINUOUS
 10
342.627933
 20
286.717093
 11
342.627933
 21
326.717093
  0
LINE
  8
1
 62
7
  6
CONTINUOUS
 10
360.027933
 20
286.717093
 11
360.027933
 21
326.717093
  0
LINE
  8
1
 62
7
  6
CONTINUOUS
 10
360.027933
 20
286.717093
 11
364.027933
 21
286.717093
  0
LINE
  8
1
 62
7
  6
CONTINUOUS
 10
364.027933
 20
286.717093
 11
364.027933
 21
326.717093
  0
LINE
  8
1
 62
7
  6
CONTINUOUS
 10
342.627933
 20
287.217093
 11
360.027933
 21
287.217093
  0
LINE
  8
1
 62
7
  6
CONTINUOUS
 10
342.627933
 20
298.916678
 11
344.627933
 21
301.758384
  0
LINE
  8
1
 62
7
  6
CONTINUOUS
 10
344.627933
 20
347.717093
 11
360.027933
 21
347.717093
  0
LINE
  8
1
 62
7
  6
CONTINUOUS
 10
344.627933
 20
347.717093
 11
344.627933
 21
351.675834
  0
LINE
  8
1
 62
7
  6
CONTINUOUS
 10
344.627933
 20
351.675834
 11
360.027933
 21
351.675834
  0
LINE
  8
1
 62
7
  6
CONTINUOUS
 10
343.250003
 20
341.717093
 11
360.027933
 21
341.717093
  0
LINE
  8
1
 62
7
  6
CONTINUOUS
 10
343.250003
 20
341.717093
 11
342.627933
 21
342.451713
  0
LINE
  8
1
 62
7
  6
CONTINUOUS
 10
344.627933
 20
347.717093
 11
343.250003
 21
341.717093
  0
LINE
  8
1
 62
7
  6
CONTINUOUS
 10
343.250003
 20
311.717093
 11
360.027933
 21
311.717093
  0
LINE
  8
1
 62
7
  6
CONTINUOUS
 10
343.250003
 20
311.717093
 11
342.627933
 21
310.982413
  0
LINE
  8
1
 62
7
  6
CONTINUOUS
 10
344.627933
 20
305.717093
 11
343.250003
 21
311.717093
  0
LINE
  8
1
 62
7
  6
CONTINUOUS
 10
344.627933
 20
305.717093
 11
360.027933
 21
305.717093
  0
LINE
  8
1
 62
7
  6
CONTINUOUS
 10
344.627933
 20
305.717093
 11
344.627933
 21
301.758384
  0
LINE
  8
1
 62
7
  6
CONTINUOUS
 10
344.627933
 20
301.758384
 11
360.027933
 21
301.758384
  0
TEXT
  8
1
 62
7
  6
CONTINUOUS
 10
349.661534
 20
312.936390
 40
2.700000
 41
1.000000
  1
△ＡＩＲ　ＦＬＯＷ
  7
KANJI
 50
90.000000
 51
0.000000
  0
TEXT
  8
1
 62
7
  6
CONTINUOUS
 10
354.889405
 20
312.819989
 40
2.700000
 41
1.000000
  1
ＲＯＴＡＴＩＯＮ
  7
KANJI
 50
90.000000
 51
0.000000
  0
TEXT
  8
1
 62
7
  6
CONTINUOUS
 10
352.348305
 20
338.238379
 40
2.700000
 41
1.000000
  1
△
  7
KANJI
 50
0.000000
 51
0.000000
  0
LINE
  8
1
 62
7
  6
DASHDOT
 10
331.612820
 20
179.404881
 11
365.027933
 21
179.404881
  0
ARC
  8
2
 62
134
  6
CONTINUOUS
 10
333.627933
 20
148.404881
 40
0.705000
 50
179.268238
 51
-179.268238
  0
ARC
  8
2
 62
134
  6
CONTINUOUS
 10
333.627933
 20
148.404881
 40
0.705000
 50
-0.731762
 51
0.731762
  0
CIRCLE
  8
1
 62
7
  6
CONTINUOUS
 10
333.627933
 20
148.404881
 40
3.000000
  0
ARC
  8
1
 62
7
  6
CONTINUOUS
 10
333.191011
 20
147.669950
 40
0.150000
 50
59.268238
 51
114.418332
  0
ARC
  8
1
 62
7
  6
CONTINUOUS
 10
333.627933
 20
148.404881
 40
0.705000
 50
-120.731762
 51
-119.268238
  0
ARC
  8
1
 62
7
  6
CONTINUOUS
 10
333.209924
 20
147.659030
 40
0.150000
 50
5.581665
 51
60.731762
  0
ARC
  8
1
 62
7
  6
CONTINUOUS
 10
333.627933
 20
147.699881
 40
0.270000
 50
-174.418333
 51
-5.581665
  0
ARC
  8
1
 62
7
  6
CONTINUOUS
 10
334.045941
 20
147.659030
 40
0.150000
 50
119.268238
 51
174.418332
  0
ARC
  8
1
 62
7
  6
CONTINUOUS
 10
333.627933
 20
148.404881
 40
0.705000
 50
-60.731762
 51
-59.268238
  0
ARC
  8
1
 62
7
  6
CONTINUOUS
 10
334.064855
 20
147.669950
 40
0.150000
 50
65.581665
 51
120.731762
  0
ARC
  8
1
 62
7
  6
CONTINUOUS
 10
334.238481
 20
148.052381
 40
0.270000
 50
-114.418333
 51
54.418335
  0
ARC
  8
1
 62
7
  6
CONTINUOUS
 10
334.482863
 20
148.393962
 40
0.150000
 50
179.268238
 51
-125.581668
  0
ARC
  8
1
 62
7
  6
CONTINUOUS
 10
334.482863
 20
148.415801
 40
0.150000
 50
125.581668
 51
-179.268238
  0
ARC
  8
1
 62
7
  6
CONTINUOUS
 10
334.238481
 20
148.757381
 40
0.270000
 50
-54.418335
 51
114.418332
  0
ARC
  8
1
 62
7
  6
CONTINUOUS
 10
334.064855
 20
149.139813
 40
0.150000
 50
-120.731765
 51
-65.581664
  0
ARC
  8
1
 62
7
  6
CONTINUOUS
 10
333.627933
 20
148.404881
 40
0.705000
 50
59.268239
 51
60.731762
  0
ARC
  8
1
 62
7
  6
CONTINUOUS
 10
334.045941
 20
149.150732
 40
0.150000
 50
-174.418332
 51
-119.268238
  0
ARC
  8
1
 62
7
  6
CONTINUOUS
 10
333.627933
 20
149.109881
 40
0.270000
 50
5.581665
 51
174.418335
  0
ARC
  8
1
 62
7
  6
CONTINUOUS
 10
333.209924
 20
149.150732
 40
0.150000
 50
-60.731762
 51
-5.581668
  0
ARC
  8
1
 62
7
  6
CONTINUOUS
 10
333.627933
 20
148.404881
 40
0.705000
 50
119.268238
 51
120.731762
  0
ARC
  8
1
 62
7
  6
CONTINUOUS
 10
333.191011
 20
149.139813
 40
0.150000
 50
-114.418332
 51
-59.268238
  0
ARC
  8
1
 62
7
  6
CONTINUOUS
 10
333.017385
 20
148.757381
 40
0.270000
 50
65.581665
 51
-125.581667
  0
ARC
  8
1
 62
7
  6
CONTINUOUS
 10
332.773003
 20
148.415801
 40
0.150000
 50
-0.731762
 51
54.418336
  0
ARC
  8
1
 62
7
  6
CONTINUOUS
 10
332.773003
 20
148.393962
 40
0.150000
 50
-54.418337
 51
0.731762
  0
ARC
  8
1
 62
7
  6
CONTINUOUS
 10
333.017385
 20
148.052381
 40
0.270000
 50
125.581668
 51
-65.581665
  0
LINE
  8
1
 62
7
  6
CONTINUOUS
 10
338.627933
 20
219.404881
 11
338.627933
 21
179.404881
  0
LINE
  8
1
 62
7
  6
CONTINUOUS
 10
338.627933
 20
219.404881
 11
342.627933
 21
219.404881
  0
LINE
  8
1
 62
7
  6
CONTINUOUS
 10
342.627933
 20
219.404881
 11
342.627933
 21
179.404881
  0
LINE
  8
1
 62
7
  6
CONTINUOUS
 10
360.027933
 20
219.404881
 11
360.027933
 21
179.404881
  0
LINE
  8
1
 62
7
  6
CONTINUOUS
 10
360.027933
 20
219.404881
 11
364.027933
 21
219.404881
  0
LINE
  8
1
 62
7
  6
CONTINUOUS
 10
364.027933
 20
219.404881
 11
364.027933
 21
179.404881
  0
LINE
  8
1
 62
7
  6
CONTINUOUS
 10
342.627933
 20
218.904881
 11
360.027933
 21
218.904881
  0
LINE
  8
1
 62
7
  6
CONTINUOUS
 10
342.627933
 20
207.205297
 11
344.627933
 21
204.363622
  0
LINE
  8
1
 62
7
  6
CONTINUOUS
 10
344.627933
 20
200.404881
 11
360.027933
 21
200.404881
  0
LINE
  8
1
 62
7
  6
CONTINUOUS
 10
344.627933
 20
200.404881
 11
344.627933
 21
204.363622
  0
LINE
  8
1
 62
7
  6
CONTINUOUS
 10
344.627933
 20
204.363622
 11
360.027933
 21
204.363622
  0
LINE
  8
1
 62
7
  6
CONTINUOUS
 10
343.250003
 20
194.404881
 11
360.027933
 21
194.404881
  0
LINE
  8
1
 62
7
  6
CONTINUOUS
 10
343.250003
 20
194.404881
 11
342.627933
 21
195.139501
  0
LINE
  8
1
 62
7
  6
CONTINUOUS
 10
344.627933
 20
200.404881
 11
343.250003
 21
194.404881
  0
TEXT
  8
1
 62
7
  6
CONTINUOUS
 10
349.661534
 20
165.624178
 40
2.700000
 41
1.000000
  1
△ＡＩＲ　ＦＬＯＷ
  7
KANJI
 50
90.000000
 51
0.000000
  0
TEXT
  8
1
 62
7
  6
CONTINUOUS
 10
354.889405
 20
165.507777
 40
2.700000
 41
1.000000
  1
ＲＯＴＡＴＩＯＮ
  7
KANJI
 50
90.000000
 51
0.000000
  0
TEXT
  8
1
 62
7
  6
CONTINUOUS
 10
352.348305
 20
190.926167
 40
2.700000
 41
1.000000
  1
△
  7
KANJI
 50
0.000000
 51
0.000000
  0
LINE
  8
1
 62
7
  6
CONTINUOUS
 10
339.627933
 20
139.404881
 11
342.627933
 21
139.404881
  0
LINE
  8
1
 62
7
  6
CONTINUOUS
 10
338.627933
 20
156.404881
 11
338.627933
 21
179.404881
  0
LINE
  8
1
 62
7
  6
CONTINUOUS
 10
342.627933
 20
139.404881
 11
342.627933
 21
179.404881
  0
LINE
  8
1
 62
7
  6
CONTINUOUS
 10
360.027933
 20
139.404881
 11
360.027933
 21
179.404881
  0
LINE
  8
1
 62
7
  6
CONTINUOUS
 10
360.027933
 20
139.404881
 11
364.027933
 21
139.404881
  0
LINE
  8
1
 62
7
  6
CONTINUOUS
 10
364.027933
 20
139.404881
 11
364.027933
 21
179.404881
  0
LINE
  8
1
 62
7
  6
CONTINUOUS
 10
342.627933
 20
139.904881
 11
360.027933
 21
139.904881
  0
LINE
  8
1
 62
7
  6
CONTINUOUS
 10
342.627933
 20
151.604466
 11
344.627933
 21
154.446172
  0
LINE
  8
1
 62
7
  6
CONTINUOUS
 10
343.250003
 20
164.404881
 11
360.027933
 21
164.404881
  0
LINE
  8
1
 62
7
  6
CONTINUOUS
 10
344.627933
 20
158.404881
 11
343.250003
 21
164.404881
  0
LINE
  8
1
 62
7
  6
CONTINUOUS
 10
344.627933
 20
158.404881
 11
360.027933
 21
158.404881
  0
LINE
  8
1
 62
7
  6
CONTINUOUS
 10
344.627933
 20
158.404881
 11
344.627933
 21
154.446172
  0
LINE
  8
1
 62
7
  6
CONTINUOUS
 10
344.627933
 20
154.446172
 11
360.027933
 21
154.446172
  0
ARC
  8
1
 62
7
  6
CONTINUOUS
 10
473.002280
 20
143.404881
 40
4.000000
 50
-90.000000
 51
0.000000
  0
ARC
  8
1
 62
7
  6
CONTINUOUS
 10
473.002280
 20
215.404881
 40
4.000000
 50
0.000000
 51
90.000000
  0
ARC
  8
1
 62
7
  6
CONTINUOUS
 10
401.002280
 20
215.404881
 40
4.000000
 50
90.000000
 51
180.000000
  0
ARC
  8
1
 62
7
  6
CONTINUOUS
 10
401.002280
 20
143.404881
 40
4.000000
 50
180.000000
 51
-90.000000
  0
LINE
  8
1
 62
7
  6
CONTINUOUS
 10
477.002280
 20
143.404881
 11
477.002280
 21
215.404881
  0
LINE
  8
1
 62
7
  6
CONTINUOUS
 10
397.002280
 20
143.404881
 11
397.002280
 21
215.404881
  0
LINE
  8
1
 62
7
  6
CONTINUOUS
 10
401.002280
 20
219.404881
 11
473.002280
 21
219.404881
  0
LINE
  8
1
 62
7
  6
CONTINUOUS
 10
401.002280
 20
139.404881
 11
473.002280
 21
139.404881
  0
CIRCLE
  8
1
 62
7
  6
CONTINUOUS
 10
472.752280
 20
143.654881
 40
2.150000
  0
CIRCLE
  8
1
 62
7
  6
CONTINUOUS
 10
472.752280
 20
215.154881
 40
2.150000
  0
CIRCLE
  8
1
 62
7
  6
CONTINUOUS
 10
401.252280
 20
215.154881
 40
2.150000
  0
CIRCLE
  8
1
 62
7
  6
CONTINUOUS
 10
401.252280
 20
143.654881
 40
2.150000
  0
ARC
  8
1
 62
7
  6
CONTINUOUS
 10
424.925558
 20
206.063512
 40
7.491428
 50
51.051666
 51
114.370203
  0
ARC
  8
1
 62
7
  6
CONTINUOUS
 10
363.907812
 20
157.759724
 40
85.314514
 50
28.355621
 51
37.216492
  0
ARC
  8
1
 62
7
  6
CONTINUOUS
 10
508.859701
 20
153.952321
 40
85.314514
 50
-179.396591
 51
-177.633659
  0
ARC
  8
1
 62
7
  6
CONTINUOUS
 10
508.859701
 20
153.952321
 40
85.314514
 50
172.355598
 51
178.406387
  0
ARC
  8
1
 62
7
  6
CONTINUOUS
 10
405.142416
 20
165.755925
 40
32.857616
 50
58.493103
 51
82.837433
  0
ARC
  8
1
 62
7
  6
CONTINUOUS
 10
393.829062
 20
242.233128
 40
85.314514
 50
-42.323563
 51
-33.633621
  0
ARC
  8
1
 62
7
  6
CONTINUOUS
 10
470.800101
 20
171.720342
 40
32.857616
 50
-159.231796
 51
-133.162659
  0
ARC
  8
1
 62
7
  6
CONTINUOUS
 10
454.754812
 20
209.173863
 40
32.857616
 50
-75.909210
 51
-61.162628
  0
ARC
  8
1
 62
7
  6
CONTINUOUS
 10
462.442099
 20
164.936101
 40
7.491428
 50
-105.633804
 51
-33.629318
  0
ARC
  8
1
 62
7
  6
CONTINUOUS
 10
437.002280
 20
179.404881
 40
36.757938
 50
-20.875793
 51
-1.444916
  0
ARC
  8
1
 62
7
  6
CONTINUOUS
 10
437.002280
 20
179.404881
 40
36.757938
 50
114.370974
 51
142.555161
  0
ARC
  8
1
 62
7
  6
CONTINUOUS
 10
409.503927
 20
200.463170
 40
2.122571
 50
142.557076
 51
-97.162415
  0
ARC
  8
1
 62
7
  6
CONTINUOUS
 10
414.176169
 20
205.487645
 40
32.857616
 50
-16.299393
 51
10.837402
  0
ARC
  8
1
 62
7
  6
CONTINUOUS
 10
437.002341
 20
179.404881
 40
36.757938
 50
42.371063
 51
70.555176
  0
ARC
  8
1
 62
7
  6
CONTINUOUS
 10
458.624258
 20
199.128484
 40
7.491428
 50
-33.633682
 51
42.370453
  0
ARC
  8
1
 62
7
  6
CONTINUOUS
 10
448.532461
 20
212.064732
 40
2.122571
 50
70.556091
 51
-169.161987
  0
ARC
  8
1
 62
7
  6
CONTINUOUS
 10
483.414267
 20
239.880101
 40
85.314514
 50
-115.644394
 51
-105.633652
  0
ARC
  8
1
 62
7
  6
CONTINUOUS
 10
471.626669
 20
178.531499
 40
2.122571
 50
-1.444244
 51
118.838331
  0
ARC
  8
1
 62
7
  6
CONTINUOUS
 10
437.002280
 20
179.404881
 40
36.757938
 50
-101.628983
 51
-73.444885
  0
ARC
  8
1
 62
7
  6
CONTINUOUS
 10
431.102988
 20
150.739095
 40
7.491428
 50
-177.633797
 51
-101.629440
  0
ARC
  8
1
 62
7
  6
CONTINUOUS
 10
446.871176
 20
146.205251
 40
2.122571
 50
-73.444122
 51
46.838684
  0
ARC
  8
1
 62
7
  6
CONTINUOUS
 10
435.000632
 20
103.199170
 40
85.314514
 50
100.355603
 51
110.366344
  0
ARC
  8
1
 62
7
  6
CONTINUOUS
 10
440.137961
 20
144.886617
 40
32.857616
 50
127.700645
 51
154.837395
  0
ARC
  8
1
 62
7
  6
CONTINUOUS
 10
437.002280
 20
179.404881
 40
36.757938
 50
-173.628990
 51
-145.444946
  0
ARC
  8
1
 62
7
  6
CONTINUOUS
 10
407.916525
 20
176.157231
 40
7.491428
 50
110.366215
 51
-173.629448
  0
ARC
  8
1
 62
7
  6
CONTINUOUS
 10
408.477194
 20
159.759786
 40
2.122571
 50
-145.444214
 51
-25.162018
  0
LINE
  8
1
 62
7
  6
CONTINUOUS
 10
467.613241
 20
158.091542
 11
471.133566
 21
153.585713
  0
ARC
  8
1
 62
7
  6
CONTINUOUS
 10
437.002280
 20
179.404881
 40
42.796921
 50
-37.106308
 51
-33.612473
  0
LINE
  8
1
 62
7
  6
CONTINUOUS
 10
474.302298
 20
179.404881
 11
474.856955
 21
165.874852
  0
LINE
  8
1
 62
7
  6
CONTINUOUS
 10
472.709952
 20
168.622899
 11
474.856955
 21
165.874852
  0
LINE
  8
1
 62
7
  6
CONTINUOUS
 10
417.345907
 20
147.704518
 11
411.340231
 21
145.155263
  0
ARC
  8
1
 62
7
  6
CONTINUOUS
 10
437.002280
 20
179.404881
 40
42.796921
 50
-130.643387
 51
-126.842941
  0
LINE
  8
1
 62
7
  6
CONTINUOUS
 10
404.893698
 20
151.109731
 11
410.270041
 21
153.391896
  0
ARC
  8
1
 62
7
  6
CONTINUOUS
 10
437.002280
 20
179.404881
 40
42.796921
 50
-138.612427
 51
-135.046265
  0
LINE
  8
1
 62
7
  6
CONTINUOUS
 10
437.517477
 20
216.717870
 11
459.010550
 21
217.259618
  0
LINE
  8
1
 62
7
  6
CONTINUOUS
 10
437.736349
 20
217.259618
 11
437.517477
 21
216.717870
  0
LINE
  8
1
 62
7
  6
CONTINUOUS
 10
414.993979
 20
217.259618
 11
428.965842
 21
216.907445
  0
LINE
  8
1
 62
7
  6
CONTINUOUS
 10
429.108114
 20
217.259618
 11
428.485922
 21
215.719640
  0
LINE
  8
1
 62
7
  6
CONTINUOUS
 10
435.888876
 20
216.732945
 11
437.002280
 21
216.704869
  0
LINE
  8
1
 62
7
  6
CONTINUOUS
 10
474.856985
 20
201.413182
 11
474.302298
 21
179.404881
  0
LINE
  8
1
 62
7
  6
CONTINUOUS
 10
399.147543
 20
201.413182
 11
399.702292
 21
179.404881
  0
LINE
  8
1
 62
7
  6
CONTINUOUS
 10
399.702292
 20
179.404881
 11
399.147543
 21
157.396596
  0
LINE
  8
1
 62
7
  6
CONTINUOUS
 10
437.002280
 20
142.104909
 11
459.010519
 21
141.550160
  0
LINE
  8
1
 62
7
  6
CONTINUOUS
 10
414.993979
 20
141.550160
 11
437.002280
 21
142.104909
  0
ARC
  8
1
 62
7
  6
CONTINUOUS
 10
437.002280
 20
179.404881
 40
37.299999
 50
98.622797
 51
-131.598816
  0
ARC
  8
1
 62
7
  6
CONTINUOUS
 10
437.002280
 20
179.404881
 40
37.299999
 50
-21.377243
 51
93.401266
  0
ARC
  8
1
 62
7
  6
CONTINUOUS
 10
437.002280
 20
179.404881
 40
37.299999
 50
-126.377228
 51
-30.781281
  0
ARC
  8
1
 62
7
  6
CONTINUOUS
 10
437.002280
 20
179.404881
 40
19.000000
 50
-66.999985
 51
-6.722418
  0
LINE
  8
1
 62
7
  6
CONTINUOUS
 10
455.871653
 20
177.180754
 11
474.163901
 21
153.767781
  0
LINE
  8
1
 62
7
  6
CONTINUOUS
 10
474.857016
 20
161.814137
 11
451.974447
 21
191.102452
  0
LINE
  8
1
 62
7
  6
CONTINUOUS
 10
474.856955
 20
161.814137
 11
474.856985
 21
201.413182
  0
ARC
  8
1
 62
7
  6
CONTINUOUS
 10
437.002280
 20
179.404881
 40
45.500000
 50
-51.687408
 51
-35.208557
  0
ARC
  8
1
 62
7
  6
CONTINUOUS
 10
473.769919
 20
153.459950
 40
0.500000
 50
-35.209183
 51
38.001648
  0
ARC
  8
1
 62
7
  6
CONTINUOUS
 10
437.002280
 20
179.404881
 40
45.500000
 50
38.312561
 51
51.687408
  0
ARC
  8
1
 62
7
  6
CONTINUOUS
 10
464.856985
 20
201.413182
 40
10.000000
 50
-0.000000
 51
38.312225
  0
ARC
  8
1
 62
7
  6
CONTINUOUS
 10
459.010550
 20
207.259618
 40
10.000000
 50
51.687286
 51
90.000000
  0
ARC
  8
1
 62
7
  6
CONTINUOUS
 10
459.010519
 20
151.550160
 40
10.000000
 50
-90.000000
 51
-51.687271
  0
ARC
  8
1
 62
7
  6
CONTINUOUS
 10
473.769919
 20
153.459950
 40
0.500000
 50
-35.209183
 51
38.001648
  0
LINE
  8
1
 62
7
  6
CONTINUOUS
 10
431.804404
 20
217.259618
 11
419.385763
 21
186.522405
  0
LINE
  8
1
 62
7
  6
CONTINUOUS
 10
431.076803
 20
159.507924
 11
406.715842
 21
149.167287
  0
LINE
  8
1
 62
7
  6
CONTINUOUS
 10
409.126547
 20
146.931508
 11
444.426169
 21
161.915303
  0
ARC
  8
1
 62
7
  6
CONTINUOUS
 10
407.105551
 20
150.942677
 40
4.491555
 50
-115.401657
 51
-63.259109
  0
ARC
  8
1
 62
7
  6
CONTINUOUS
 10
408.198508
 20
146.510091
 40
3.042863
 50
119.160425
 51
172.915749
  0
ARC
  8
1
 62
7
  6
CONTINUOUS
 10
437.002280
 20
179.404881
 40
45.500000
 50
-141.687454
 51
-132.317978
  0
ARC
  8
1
 62
7
  6
CONTINUOUS
 10
437.002280
 20
179.404881
 40
19.000000
 50
38.000061
 51
116.590403
  0
LINE
  8
1
 62
7
  6
CONTINUOUS
 10
427.122885
 20
197.664098
 11
435.039999
 21
217.259618
  0
LINE
  8
1
 62
7
  6
CONTINUOUS
 10
459.010550
 20
217.259618
 11
414.993979
 21
217.259618
  0
ARC
  8
1
 62
7
  6
CONTINUOUS
 10
437.002280
 20
179.404881
 40
45.500000
 50
128.312637
 51
141.687473
  0
ARC
  8
1
 62
7
  6
CONTINUOUS
 10
414.993979
 20
207.259618
 40
10.000000
 50
90.000000
 51
128.312729
  0
LINE
  8
1
 62
7
  6
CONTINUOUS
 10
399.147543
 20
201.413182
 11
399.147543
 21
157.396596
  0
ARC
  8
1
 62
7
  6
CONTINUOUS
 10
409.147543
 20
201.413182
 40
10.000000
 50
141.687763
 51
180.000000
  0
LINE
  8
1
 62
7
  6
CONTINUOUS
 10
414.993979
 20
141.550160
 11
459.010519
 21
141.550160
  0
ARC
  8
1
 62
7
  6
CONTINUOUS
 10
437.002280
 20
179.404881
 40
45.500000
 50
-132.317978
 51
-128.312653
  0
ARC
  8
1
 62
7
  6
CONTINUOUS
 10
414.993979
 20
151.550160
 40
10.000000
 50
-128.312729
 51
-90.000000
  0
ARC
  8
1
 62
7
  6
CONTINUOUS
 10
409.147543
 20
157.396596
 40
10.000000
 50
180.000000
 51
-141.687622
  0
ARC
  8
1
 62
7
  6
CONTINUOUS
 10
428.050070
 20
197.289464
 40
1.000000
 50
157.998581
 51
-63.408356
  0
ARC
  8
1
 62
7
  6
CONTINUOUS
 10
437.002280
 20
179.404881
 40
19.000000
 50
157.999947
 51
-108.409637
  0
ARC
  8
1
 62
7
  6
CONTINUOUS
 10
430.686056
 20
160.428456
 40
1.000000
 50
-66.999771
 51
71.587158
  0
LINE
  8
1
 62
7
  6
CONTINUOUS
 10
477.002249
 20
151.759221
 11
484.346730
 21
137.749331
  0
LINE
  8
1
 62
7
  6
CONTINUOUS
 10
477.002249
 20
154.195256
 11
485.490904
 21
138.893505
  0
LINE
  8
1
 62
7
  6
CONTINUOUS
 10
477.002250
 20
156.631976
 11
486.527505
 21
139.930106
  0
LINE
  8
1
 62
7
  6
DASHDOT
 10
437.002280
 20
138.758779
 11
437.002280
 21
222.386327
  0
LINE
  8
1
 62
7
  6
DASHDOT
 10
397.914005
 20
143.654881
 11
404.739209
 21
143.654881
  0
LINE
  8
1
 62
7
  6
DASHDOT
 10
401.252280
 20
147.180949
 11
401.252280
 21
140.355749
  0
LINE
  8
1
 62
7
  6
DASHDOT
 10
397.914005
 20
215.154881
 11
404.739209
 21
215.154881
  0
LINE
  8
1
 62
7
  6
DASHDOT
 10
401.252280
 20
218.680949
 11
401.252280
 21
211.855749
  0
LINE
  8
1
 62
7
  6
DASHDOT
 10
469.414005
 20
215.154881
 11
476.239209
 21
215.154881
  0
LINE
  8
1
 62
7
  6
DASHDOT
 10
472.752280
 20
218.680949
 11
472.752280
 21
211.855749
  0
LINE
  8
1
 62
7
  6
DASHDOT
 10
469.414005
 20
143.654881
 11
476.239209
 21
143.654881
  0
LINE
  8
1
 62
7
  6
DASHDOT
 10
472.752280
 20
147.180949
 11
472.752280
 21
140.355749
  0
LINE
  8
1
 62
7
  6
DASHDOT
 10
395.604780
 20
179.404881
 11
479.442288
 21
179.404881
  0
LINE
  8
1
 62
7
  6
CONTINUOUS
 10
443.189464
 20
178.520998
 11
442.058093
 21
177.389627
  0
LINE
  8
1
 62
7
  6
CONTINUOUS
 10
439.017534
 20
174.349068
 11
437.886163
 21
173.217697
  0
LINE
  8
1
 62
7
  6
CONTINUOUS
 10
430.815096
 20
180.288764
 11
431.946467
 21
181.420135
  0
LINE
  8
1
 62
7
  6
CONTINUOUS
 10
434.987026
 20
184.460694
 11
436.118397
 21
185.592065
  0
LINE
  8
1
 62
7
  6
CONTINUOUS
 10
439.017534
 20
174.349068
 11
471.937025
 21
141.429578
  0
LINE
  8
1
 62
7
  6
CONTINUOUS
 10
437.886164
 20
173.217697
 11
470.740859
 21
140.363002
  0
LINE
  8
1
 62
7
  6
CONTINUOUS
 10
442.058094
 20
177.389627
 11
474.977584
 21
144.470137
  0
LINE
  8
1
 62
7
  6
CONTINUOUS
 10
443.189464
 20
178.520998
 11
476.044160
 21
145.666303
  0
ARC
  8
1
 62
7
  6
CONTINUOUS
 10
473.488990
 20
142.918171
 40
3.752481
 50
-137.083806
 51
47.083806
  0
ARC
  8
1
 62
7
  6
CONTINUOUS
 10
473.488990
 20
142.918171
 40
2.150467
 50
-136.194008
 51
46.194008
  0
LINE
  8
1
 62
7
  6
CONTINUOUS
 10
430.815097
 20
180.288764
 11
397.960401
 21
213.143459
  0
LINE
  8
1
 62
7
  6
CONTINUOUS
 10
431.946467
 20
181.420135
 11
399.026977
 21
214.339625
  0
ARC
  8
1
 62
7
  6
CONTINUOUS
 10
437.002280
 20
179.404881
 40
46.000000
 50
130.323959
 51
132.321069
  0
ARC
  8
1
 62
7
  6
CONTINUOUS
 10
437.002280
 20
179.404881
 40
43.100000
 50
130.008557
 51
132.140671
  0
LINE
  8
1
 62
7
  6
CONTINUOUS
 10
434.987027
 20
184.460694
 11
402.067536
 21
217.380184
  0
LINE
  8
1
 62
7
  6
CONTINUOUS
 10
436.118397
 20
185.592065
 11
403.263702
 21
218.446760
  0
ARC
  8
1
 62
7
  6
DASHDOT
 10
437.002280
 20
179.404881
 40
46.000000
 50
137.678931
 51
139.676041
  0
ARC
  8
1
 62
7
  6
CONTINUOUS
 10
400.515571
 20
215.891591
 40
2.150467
 50
43.805992
 51
-133.805992
  0
ARC
  8
1
 62
7
  6
CONTINUOUS
 10
437.002280
 20
179.404881
 40
43.100000
 50
137.859329
 51
139.991443
  0
ARC
  8
1
 62
7
  6
CONTINUOUS
 10
400.515571
 20
215.891591
 40
3.752481
 50
42.916194
 51
-132.916194
  0
LINE
  8
1
 62
7
  6
CONTINUOUS
 10
436.118397
 20
173.217697
 11
434.987026
 21
174.349068
  0
LINE
  8
1
 62
7
  6
CONTINUOUS
 10
431.946467
 20
177.389627
 11
430.815096
 21
178.520998
  0
LINE
  8
1
 62
7
  6
CONTINUOUS
 10
436.118397
 20
173.217697
 11
403.263702
 21
140.363002
  0
LINE
  8
1
 62
7
  6
CONTINUOUS
 10
434.987027
 20
174.349068
 11
402.067536
 21
141.429578
  0
LINE
  8
1
 62
7
  6
CONTINUOUS
 10
431.946467
 20
177.389627
 11
399.026977
 21
144.470137
  0
LINE
  8
1
 62
7
  6
CONTINUOUS
 10
430.815097
 20
178.520998
 11
397.960401
 21
145.666303
  0
ARC
  8
1
 62
7
  6
CONTINUOUS
 10
400.515571
 20
142.918171
 40
2.150467
 50
133.805992
 51
-43.805992
  0
ARC
  8
1
 62
7
  6
CONTINUOUS
 10
400.515571
 20
142.918171
 40
3.752481
 50
132.916194
 51
-42.916194
  0
ARC
  8
1
 62
7
  6
CONTINUOUS
 10
473.488990
 20
215.891591
 40
2.150467
 50
-46.194008
 51
136.194008
  0
ARC
  8
1
 62
7
  6
CONTINUOUS
 10
473.488990
 20
215.891591
 40
3.752481
 50
-47.083806
 51
137.083806
  0
LINE
  8
1
 62
7
  6
CONTINUOUS
 10
443.189464
 20
180.288764
 11
476.044160
 21
213.143459
  0
LINE
  8
1
 62
7
  6
CONTINUOUS
 10
437.886164
 20
185.592065
 11
470.740859
 21
218.446760
  0
LINE
  8
1
 62
7
  6
CONTINUOUS
 10
442.058094
 20
181.420135
 11
474.977584
 21
214.339625
  0
LINE
  8
1
 62
7
  6
CONTINUOUS
 10
439.017534
 20
184.460694
 11
471.937025
 21
217.380184
  0
ARC
  8
1
 62
7
  6
CONTINUOUS
 10
437.002280
 20
179.404881
 40
16.400000
 50
-142.533021
 51
-127.466979
  0
ARC
  8
1
 62
7
  6
CONTINUOUS
 10
437.002280
 20
179.404881
 40
16.400000
 50
148.218107
 51
-148.218107
  0
ARC
  8
1
 62
7
  6
CONTINUOUS
 10
437.002280
 20
179.404881
 40
14.800000
 50
-143.352930
 51
-126.647070
  0
ARC
  8
1
 62
7
  6
CONTINUOUS
 10
437.002280
 20
179.404881
 40
14.800000
 50
149.677518
 51
-149.677518
  0
ARC
  8
1
 62
7
  6
CONTINUOUS
 10
437.002280
 20
179.404881
 40
29.000000
 50
-139.251691
 51
-130.748309
  0
ARC
  8
1
 62
7
  6
CONTINUOUS
 10
437.002280
 20
179.404881
 40
29.000000
 50
142.429742
 51
-142.429742
  0
ARC
  8
1
 62
7
  6
CONTINUOUS
 10
437.002280
 20
179.404881
 40
27.400000
 50
-139.500463
 51
-130.499537
  0
ARC
  8
1
 62
7
  6
CONTINUOUS
 10
437.002280
 20
179.404881
 40
27.400000
 50
142.866264
 51
-142.866264
  0
ARC
  8
1
 62
7
  6
CONTINUOUS
 10
437.002280
 20
179.404881
 40
22.700000
 50
-140.434839
 51
-129.565161
  0
ARC
  8
1
 62
7
  6
CONTINUOUS
 10
437.002280
 20
179.404881
 40
22.700000
 50
144.508751
 51
-144.508751
  0
ARC
  8
1
 62
7
  6
CONTINUOUS
 10
437.002280
 20
179.404881
 40
21.100000
 50
-140.848346
 51
-129.151654
  0
ARC
  8
1
 62
7
  6
CONTINUOUS
 10
437.002280
 20
179.404881
 40
21.100000
 50
145.237282
 51
-145.237282
  0
ARC
  8
1
 62
7
  6
CONTINUOUS
 10
437.002280
 20
179.404881
 40
33.700000
 50
-138.657853
 51
-131.342147
  0
ARC
  8
1
 62
7
  6
CONTINUOUS
 10
437.002280
 20
179.404881
 40
33.700000
 50
141.388875
 51
-141.388875
  0
ARC
  8
1
 62
7
  6
CONTINUOUS
 10
437.002280
 20
179.404881
 40
40.000000
 50
-138.081133
 51
-131.918867
  0
ARC
  8
1
 62
7
  6
CONTINUOUS
 10
437.002280
 20
179.404881
 40
40.000000
 50
140.379379
 51
-140.379379
  0
ARC
  8
1
 62
7
  6
CONTINUOUS
 10
437.002280
 20
179.404881
 40
35.300000
 50
-138.491847
 51
-131.508153
  0
ARC
  8
1
 62
7
  6
CONTINUOUS
 10
437.002280
 20
179.404881
 40
35.300000
 50
141.098169
 51
-141.098169
  0
ARC
  8
1
 62
7
  6
CONTINUOUS
 10
437.002280
 20
179.404881
 40
41.600000
 50
-137.962520
 51
-132.037480
  0
ARC
  8
1
 62
7
  6
CONTINUOUS
 10
437.002280
 20
179.404881
 40
41.600000
 50
140.171905
 51
-140.171905
  0
ARC
  8
1
 62
7
  6
CONTINUOUS
 10
437.002280
 20
179.404881
 40
33.700000
 50
-128.611125
 51
-51.388875
  0
ARC
  8
1
 62
7
  6
CONTINUOUS
 10
437.002280
 20
179.404881
 40
40.000000
 50
-129.620621
 51
-50.379379
  0
ARC
  8
1
 62
7
  6
CONTINUOUS
 10
437.002280
 20
179.404881
 40
35.300000
 50
-128.901831
 51
-51.098169
  0
ARC
  8
1
 62
7
  6
CONTINUOUS
 10
437.002280
 20
179.404881
 40
41.600000
 50
-129.828095
 51
-50.171905
  0
ARC
  8
1
 62
7
  6
CONTINUOUS
 10
437.002280
 20
179.404881
 40
29.000000
 50
-127.570258
 51
-52.429742
  0
ARC
  8
1
 62
7
  6
CONTINUOUS
 10
437.002280
 20
179.404881
 40
27.400000
 50
-127.133736
 51
-52.866264
  0
ARC
  8
1
 62
7
  6
CONTINUOUS
 10
437.002280
 20
179.404881
 40
22.700000
 50
-125.491249
 51
-54.508751
  0
ARC
  8
1
 62
7
  6
CONTINUOUS
 10
437.002280
 20
179.404881
 40
21.100000
 50
-124.762718
 51
-55.237282
  0
ARC
  8
1
 62
7
  6
CONTINUOUS
 10
437.002280
 20
179.404881
 40
16.400000
 50
-121.781893
 51
-58.218107
  0
ARC
  8
1
 62
7
  6
CONTINUOUS
 10
437.002280
 20
179.404881
 40
14.800000
 50
-120.322482
 51
-59.677518
  0
ARC
  8
1
 62
7
  6
CONTINUOUS
 10
437.002280
 20
179.404881
 40
10.000000
 50
-112.975687
 51
-67.024313
  0
ARC
  8
1
 62
7
  6
CONTINUOUS
 10
437.002280
 20
179.404881
 40
10.000000
 50
-147.415527
 51
-122.584473
  0
ARC
  8
1
 62
7
  6
CONTINUOUS
 10
437.002280
 20
179.404881
 40
10.000000
 50
157.024313
 51
-157.024313
  0
ARC
  8
1
 62
7
  6
CONTINUOUS
 10
437.002280
 20
179.404881
 40
16.400000
 50
-52.533021
 51
-37.466979
  0
ARC
  8
1
 62
7
  6
CONTINUOUS
 10
437.002280
 20
179.404881
 40
14.800000
 50
-53.352930
 51
-36.647070
  0
ARC
  8
1
 62
7
  6
CONTINUOUS
 10
437.002280
 20
179.404881
 40
29.000000
 50
-49.251691
 51
-40.748309
  0
ARC
  8
1
 62
7
  6
CONTINUOUS
 10
437.002280
 20
179.404881
 40
27.400000
 50
-49.500463
 51
-40.499537
  0
ARC
  8
1
 62
7
  6
CONTINUOUS
 10
437.002280
 20
179.404881
 40
22.700000
 50
-50.434839
 51
-39.565161
  0
ARC
  8
1
 62
7
  6
CONTINUOUS
 10
437.002280
 20
179.404881
 40
21.100000
 50
-50.848346
 51
-39.151654
  0
ARC
  8
1
 62
7
  6
CONTINUOUS
 10
437.002280
 20
179.404881
 40
33.700000
 50
-48.657853
 51
-41.342147
  0
ARC
  8
1
 62
7
  6
CONTINUOUS
 10
437.002280
 20
179.404881
 40
40.000000
 50
-48.081133
 51
-41.918867
  0
ARC
  8
1
 62
7
  6
CONTINUOUS
 10
437.002280
 20
179.404881
 40
35.300000
 50
-48.491847
 51
-41.508153
  0
ARC
  8
1
 62
7
  6
CONTINUOUS
 10
437.002280
 20
179.404881
 40
41.600000
 50
-47.962520
 51
-42.037480
  0
ARC
  8
1
 62
7
  6
CONTINUOUS
 10
437.002280
 20
179.404881
 40
33.700000
 50
-38.611125
 51
38.611125
  0
ARC
  8
1
 62
7
  6
CONTINUOUS
 10
437.002280
 20
179.404881
 40
40.000000
 50
-39.620621
 51
39.620621
  0
ARC
  8
1
 62
7
  6
CONTINUOUS
 10
437.002280
 20
179.404881
 40
35.300000
 50
-38.901831
 51
38.901831
  0
ARC
  8
1
 62
7
  6
CONTINUOUS
 10
437.002280
 20
179.404881
 40
41.600000
 50
-39.828095
 51
39.828095
  0
ARC
  8
1
 62
7
  6
CONTINUOUS
 10
437.002280
 20
179.404881
 40
29.000000
 50
-37.570258
 51
37.570258
  0
ARC
  8
1
 62
7
  6
CONTINUOUS
 10
437.002280
 20
179.404881
 40
27.400000
 50
-37.133736
 51
37.133736
  0
ARC
  8
1
 62
7
  6
CONTINUOUS
 10
437.002280
 20
179.404881
 40
22.700000
 50
-35.491249
 51
35.491249
  0
ARC
  8
1
 62
7
  6
CONTINUOUS
 10
437.002280
 20
179.404881
 40
21.100000
 50
-34.762718
 51
34.762718
  0
ARC
  8
1
 62
7
  6
CONTINUOUS
 10
437.002280
 20
179.404881
 40
16.400000
 50
-31.781893
 51
31.781893
  0
ARC
  8
1
 62
7
  6
CONTINUOUS
 10
437.002280
 20
179.404881
 40
14.800000
 50
-30.322482
 51
30.322482
  0
ARC
  8
1
 62
7
  6
CONTINUOUS
 10
437.002280
 20
179.404881
 40
10.000000
 50
-22.975687
 51
22.975687
  0
ARC
  8
1
 62
7
  6
CONTINUOUS
 10
437.002280
 20
179.404881
 40
10.000000
 50
-57.415527
 51
-32.584473
  0
ARC
  8
1
 62
7
  6
CONTINUOUS
 10
437.002280
 20
179.404881
 40
33.700000
 50
41.342147
 51
48.657853
  0
ARC
  8
1
 62
7
  6
CONTINUOUS
 10
437.002280
 20
179.404881
 40
40.000000
 50
41.918867
 51
48.081133
  0
ARC
  8
1
 62
7
  6
CONTINUOUS
 10
437.002280
 20
179.404881
 40
35.300000
 50
41.508153
 51
48.491847
  0
ARC
  8
1
 62
7
  6
CONTINUOUS
 10
437.002280
 20
179.404881
 40
41.600000
 50
42.037480
 51
47.962520
  0
ARC
  8
1
 62
7
  6
CONTINUOUS
 10
437.002280
 20
179.404881
 40
29.000000
 50
40.748309
 51
49.251691
  0
ARC
  8
1
 62
7
  6
CONTINUOUS
 10
437.002280
 20
179.404881
 40
27.400000
 50
40.499537
 51
49.500463
  0
ARC
  8
1
 62
7
  6
CONTINUOUS
 10
437.002280
 20
179.404881
 40
22.700000
 50
39.565161
 51
50.434839
  0
ARC
  8
1
 62
7
  6
CONTINUOUS
 10
437.002280
 20
179.404881
 40
21.100000
 50
39.151654
 51
50.848346
  0
ARC
  8
1
 62
7
  6
CONTINUOUS
 10
437.002280
 20
179.404881
 40
16.400000
 50
37.466979
 51
52.533021
  0
ARC
  8
1
 62
7
  6
CONTINUOUS
 10
437.002280
 20
179.404881
 40
14.800000
 50
36.647070
 51
53.352930
  0
ARC
  8
1
 62
7
  6
CONTINUOUS
 10
437.002280
 20
179.404881
 40
33.700000
 50
51.388875
 51
128.611125
  0
ARC
  8
1
 62
7
  6
CONTINUOUS
 10
437.002280
 20
179.404881
 40
40.000000
 50
50.379379
 51
129.620621
  0
ARC
  8
1
 62
7
  6
CONTINUOUS
 10
437.002280
 20
179.404881
 40
35.300000
 50
51.098169
 51
128.901831
  0
ARC
  8
1
 62
7
  6
CONTINUOUS
 10
437.002280
 20
179.404881
 40
41.600000
 50
50.171905
 51
129.828095
  0
ARC
  8
1
 62
7
  6
CONTINUOUS
 10
437.002280
 20
179.404881
 40
29.000000
 50
52.429742
 51
127.570258
  0
ARC
  8
1
 62
7
  6
CONTINUOUS
 10
437.002280
 20
179.404881
 40
27.400000
 50
52.866264
 51
127.133736
  0
ARC
  8
1
 62
7
  6
CONTINUOUS
 10
437.002280
 20
179.404881
 40
22.700000
 50
54.508751
 51
125.491249
  0
ARC
  8
1
 62
7
  6
CONTINUOUS
 10
437.002280
 20
179.404881
 40
21.100000
 50
55.237282
 51
124.762718
  0
ARC
  8
1
 62
7
  6
CONTINUOUS
 10
437.002280
 20
179.404881
 40
16.400000
 50
58.218107
 51
121.781893
  0
ARC
  8
1
 62
7
  6
CONTINUOUS
 10
437.002280
 20
179.404881
 40
14.800000
 50
59.677518
 51
120.322482
  0
ARC
  8
1
 62
7
  6
CONTINUOUS
 10
437.002280
 20
179.404881
 40
10.000000
 50
32.584473
 51
57.415527
  0
ARC
  8
1
 62
7
  6
CONTINUOUS
 10
437.002280
 20
179.404881
 40
10.000000
 50
67.024313
 51
112.975687
  0
ARC
  8
1
 62
7
  6
CONTINUOUS
 10
437.002280
 20
179.404881
 40
41.600000
 50
132.037480
 51
137.962520
  0
ARC
  8
1
 62
7
  6
CONTINUOUS
 10
437.002280
 20
179.404881
 40
40.000000
 50
131.918867
 51
138.081133
  0
ARC
  8
1
 62
7
  6
CONTINUOUS
 10
437.002280
 20
179.404881
 40
35.300000
 50
131.508153
 51
138.491847
  0
ARC
  8
1
 62
7
  6
CONTINUOUS
 10
437.002280
 20
179.404881
 40
33.700000
 50
131.342147
 51
138.657853
  0
ARC
  8
1
 62
7
  6
CONTINUOUS
 10
437.002280
 20
179.404881
 40
29.000000
 50
130.748309
 51
139.251691
  0
ARC
  8
1
 62
7
  6
CONTINUOUS
 10
437.002280
 20
179.404881
 40
27.400000
 50
130.499537
 51
139.500463
  0
ARC
  8
1
 62
7
  6
CONTINUOUS
 10
437.002280
 20
179.404881
 40
22.700000
 50
129.565161
 51
140.434839
  0
ARC
  8
1
 62
7
  6
CONTINUOUS
 10
437.002280
 20
179.404881
 40
21.100000
 50
129.151654
 51
140.848346
  0
ARC
  8
1
 62
7
  6
CONTINUOUS
 10
437.002280
 20
179.404881
 40
16.400000
 50
127.466979
 51
142.533021
  0
ARC
  8
1
 62
7
  6
CONTINUOUS
 10
437.002280
 20
179.404881
 40
14.800000
 50
126.647070
 51
143.352930
  0
ARC
  8
1
 62
7
  6
CONTINUOUS
 10
437.002280
 20
179.404881
 40
10.000000
 50
122.584473
 51
147.415527
  0
LINE
  8
1
 62
7
  6
CONTINUOUS
 10
442.058093
 20
181.420135
 11
443.189464
 21
180.288764
  0
LINE
  8
1
 62
7
  6
CONTINUOUS
 10
437.886163
 20
185.592065
 11
439.017534
 21
184.460694
  0
ARC
  8
1
 62
7
  6
DASHDOT
 10
437.002280
 20
179.404881
 40
46.000000
 50
47.678931
 51
49.676041
  0
ARC
  8
1
 62
7
  6
CONTINUOUS
 10
437.002280
 20
179.404881
 40
46.000000
 50
40.323959
 51
42.321069
  0
ARC
  8
1
 62
7
  6
CONTINUOUS
 10
437.002280
 20
179.404881
 40
43.100000
 50
47.859329
 51
49.991443
  0
ARC
  8
1
 62
7
  6
CONTINUOUS
 10
437.002280
 20
179.404881
 40
43.100000
 50
40.008557
 51
42.140671
  0
ARC
  8
1
 62
7
  6
DASHDOT
 10
437.002280
 20
179.404881
 40
51.600000
 50
33.242330
 51
55.773853
  0
LINE
  8
1
 62
7
  6
DASHDOT
 10
393.847092
 20
136.249693
 11
480.157468
 21
222.560069
  0
ARC
  8
1
 62
7
  6
DASHDOT
 10
437.002280
 20
179.404881
 40
51.600000
 50
-146.757670
 51
-124.226147
  0
ARC
  8
1
 62
7
  6
DASHDOT
 10
437.002280
 20
179.404881
 40
51.600000
 50
123.242330
 51
145.773853
  0
ARC
  8
1
 62
7
  6
DASHDOT
 10
437.002280
 20
179.404881
 40
51.600000
 50
-56.757670
 51
-34.226147
  0
LINE
  8
1
 62
7
  6
DASHDOT
 10
480.157468
 20
136.249693
 11
393.847092
 21
222.560069
  0
LINE
  8
3
 62
214
  6
CONTINUOUS
 10
386.710262
 20
301.717093
 11
399.426266
 21
331.011129
  0
LINE
  8
3
 62
214
  6
CONTINUOUS
 10
399.426266
 20
331.011129
 11
447.540674
 21
331.011129
  0
TEXT
  8
3
 62
214
  6
CONTINUOUS
 10
411.540674
 20
331.242329
 40
8.000000
 41
1.000000
  1
黒体ｹｰﾌﾞﾙ
  7
KANJI
 50
0.000000
 51
30.000000
  0
LINE
  8
3
 62
214
  6
CONTINUOUS
 10
386.710262
 20
301.717093
 11
387.299067
 21
305.673519
  0
LINE
  8
3
 62
214
  6
CONTINUOUS
 10
386.710262
 20
301.717093
 11
389.198395
 21
304.849056
  0
LINE
  8
3
 62
214
  6
CONTINUOUS
 10
387.299067
 20
305.673519
 11
389.198395
 21
304.849056
  0
LINE
  8
3
 62
214
  6
CONTINUOUS
 10
387.094879
 20
302.603142
 11
387.389282
 21
304.581355
  0
LINE
  8
3
 62
214
  6
CONTINUOUS
 10
387.094879
 20
302.603142
 11
388.338946
 21
304.169123
  0
LINE
  8
3
 62
214
  6
CONTINUOUS
 10
387.389282
 20
304.581355
 11
388.338946
 21
304.169123
  0
DIMENSION
  8
2
 62
134
  6
CONTINUOUS
  2
*D14
 10
338.627933
 20
268.305246
 11
417.483903
 21
268.305246
 70
     0
  1
ケーブル長
 13
338.627933
 23
284.717093
 14
499.761296
 24
284.617093
 50
0.000000
  0
DIMENSION
  8
2
 62
134
  6
CONTINUOUS
  2
*D15
 10
186.440218
 20
69.404881
 11
186.440218
 21
124.711828
 70
     0
  1
110
 13
219.627933
 23
69.404881
 14
197.700421
 24
179.404881
 50
90.000000
  0
TEXT
  8
2
 62
134
  6
CONTINUOUS
 10
186.440218
 20
125.711828
 40
8.000000
 41
1.000000
  1
±3
  7
KANJI
 50
90.000000
 51
0.000000
  0
LINE
  8
1
 62
7
  6
CONTINUOUS
 10
365.627933
 20
210.654881
 11
366.427933
 21
210.654881
  0
LINE
  8
1
 62
7
  6
CONTINUOUS
 10
366.427933
 20
210.654881
 11
366.427933
 21
219.654881
  0
LINE
  8
1
 62
7
  6
CONTINUOUS
 10
366.427933
 20
219.654881
 11
365.627933
 21
219.654881
  0
LINE
  8
1
 62
7
  6
CONTINUOUS
 10
365.627933
 20
219.654881
 11
365.627933
 21
210.654881
  0
LINE
  8
1
 62
7
  6
CONTINUOUS
 10
366.427933
 20
219.154880
 11
366.427933
 21
211.154882
  0
LINE
  8
1
 62
7
  6
CONTINUOUS
 10
367.627933
 20
219.154880
 11
366.427933
 21
219.154880
  0
ARC
  8
1
 62
7
  6
CONTINUOUS
 10
367.627933
 20
217.154881
 40
2.000000
 50
0.000000
 51
90.000000
  0
LINE
  8
1
 62
7
  6
CONTINUOUS
 10
369.627933
 20
213.154882
 11
369.627933
 21
217.154881
  0
LINE
  8
1
 62
7
  6
CONTINUOUS
 10
366.427933
 20
211.154882
 11
367.627933
 21
211.154882
  0
ARC
  8
1
 62
7
  6
CONTINUOUS
 10
367.627933
 20
213.154882
 40
2.000000
 50
-90.000000
 51
0.000000
  0
LINE
  8
1
 62
7
  6
DASHDOT
 10
363.755618
 20
215.154881
 11
370.597116
 21
215.154881
  0
LINE
  8
1
 62
7
  6
DASHDOT
 10
375.988497
 20
82.404881
 11
387.113554
 21
82.404881
  0
LINE
  8
1
 62
7
  6
DASHDOT
 10
431.998053
 20
85.404881
 11
442.035066
 21
85.404881
  0
LINE
  8
1
 62
7
  6
CONTINUOUS
 10
400.002280
 20
78.404881
 11
381.002280
 21
78.404881
  0
LINE
  8
1
 62
7
  6
CONTINUOUS
 10
393.002280
 20
153.404881
 11
390.002280
 21
156.404881
  0
LINE
  8
1
 62
7
  6
CONTINUOUS
 10
393.002280
 20
140.404881
 11
393.002280
 21
153.404881
  0
LINE
  8
1
 62
7
  6
CONTINUOUS
 10
396.002280
 20
137.404881
 11
393.002280
 21
140.404881
  0
LINE
  8
1
 62
7
  6
CONTINUOUS
 10
381.002280
 20
156.404881
 11
381.002280
 21
78.404881
  0
LINE
  8
1
 62
7
  6
CONTINUOUS
 10
493.002280
 20
156.404881
 11
493.002280
 21
78.404881
  0
LINE
  8
1
 62
7
  6
DASHDOT
 10
407.002280
 20
74.827240
 11
407.002280
 21
113.799715
  0
ARC
  8
1
 62
7
  6
CONTINUOUS
 10
407.002280
 20
99.404881
 40
7.000000
 50
0.000000
 51
-180.000000
  0
LINE
  8
1
 62
7
  6
CONTINUOUS
 10
414.002280
 20
99.404881
 11
414.002280
 21
78.404881
  0
LINE
  8
1
 62
7
  6
CONTINUOUS
 10
400.002280
 20
99.404881
 11
400.002280
 21
78.404881
  0
LINE
  8
1
 62
7
  6
CONTINUOUS
 10
487.002280
 20
153.404881
 11
490.002280
 21
156.404881
  0
LINE
  8
1
 62
7
  6
CONTINUOUS
 10
487.002280
 20
140.404881
 11
487.002280
 21
153.404881
  0
LINE
  8
1
 62
7
  6
CONTINUOUS
 10
484.002280
 20
137.404881
 11
487.002280
 21
140.404881
  0
LINE
  8
1
 62
7
  6
CONTINUOUS
 10
396.158996
 20
137.404881
 11
484.002280
 21
137.404881
  0
LINE
  8
1
 62
7
  6
CONTINUOUS
 10
493.002280
 20
78.404881
 11
414.002280
 21
78.404881
  0
LINE
  8
1
 62
7
  6
DASHDOT
 10
377.624284
 20
148.404881
 11
383.854948
 21
148.404881
  0
LINE
  8
1
 62
7
  6
DASHDOT
 10
497.637573
 20
148.404881
 11
488.517244
 21
148.404881
  0
LINE
  8
1
 62
7
  6
CONTINUOUS
 10
490.002280
 20
156.404881
 11
494.002280
 21
156.404881
  0
LINE
  8
1
 62
7
  6
CONTINUOUS
 10
380.002280
 20
156.404881
 11
390.002280
 21
156.404881
  0
LINE
  8
1
 62
7
  6
DASHDOT
 10
437.002280
 20
145.226086
 11
437.002280
 21
67.297004
  0
DIMENSION
  8
2
 62
134
  6
CONTINUOUS
  2
*D16
 10
339.627933
 20
47.169102
 11
354.781127
 21
47.169102
 70
     0
  1
30
 13
339.627933
 23
82.561415
 14
369.627933
 24
139.654881
 50
0.000000
  0
LINE
  8
1
 62
7
  6
CONTINUOUS
 10
365.627933
 20
139.154881
 11
366.427933
 21
139.154881
  0
LINE
  8
1
 62
7
  6
CONTINUOUS
 10
366.427933
 20
139.154881
 11
366.427933
 21
148.154881
  0
LINE
  8
1
 62
7
  6
CONTINUOUS
 10
366.427933
 20
148.154881
 11
365.627933
 21
148.154881
  0
LINE
  8
1
 62
7
  6
CONTINUOUS
 10
365.627933
 20
148.154881
 11
365.627933
 21
139.154881
  0
LINE
  8
1
 62
7
  6
CONTINUOUS
 10
366.427933
 20
147.654880
 11
366.427933
 21
139.654882
  0
LINE
  8
1
 62
7
  6
CONTINUOUS
 10
367.627933
 20
147.654880
 11
366.427933
 21
147.654880
  0
ARC
  8
1
 62
7
  6
CONTINUOUS
 10
367.627933
 20
145.654881
 40
2.000000
 50
0.000000
 51
90.000000
  0
LINE
  8
1
 62
7
  6
CONTINUOUS
 10
369.627933
 20
141.654882
 11
369.627933
 21
145.654881
  0
LINE
  8
1
 62
7
  6
CONTINUOUS
 10
366.427933
 20
139.654882
 11
367.627933
 21
139.654882
  0
ARC
  8
1
 62
7
  6
CONTINUOUS
 10
367.627933
 20
141.654882
 40
2.000000
 50
-90.000000
 51
0.000000
  0
LINE
  8
1
 62
7
  6
DASHDOT
 10
363.755618
 20
143.654881
 11
368.797122
 21
143.654881
  0
DIMENSION
  8
2
 62
134
  6
CONTINUOUS
  2
*D17
 10
177.765479
 20
164.404881
 11
177.765479
 21
179.585806
 70
     0
  1
φ30
 13
211.627933
 23
164.404881
 14
211.627933
 24
194.404881
 50
90.000000
  0
TEXT
  8
2
 62
134
  6
CONTINUOUS
 10
177.765479
 20
182.585806
 40
8.000000
 41
1.000000
  1
±1
  7
KANJI
 50
90.000000
 51
0.000000
  0
DIMENSION
  8
2
 62
134
  6
CONTINUOUS
  2
*D18
 10
201.627933
 20
36.218948
 11
249.950205
 21
36.218948
 70
     0
  1
168
 13
201.627933
 23
115.181228
 14
369.627933
 24
138.753492
 50
0.000000
  0
TEXT
  8
2
 62
134
  6
CONTINUOUS
 10
250.950205
 20
36.218948
 40
8.000000
 41
1.000000
  1
±2
  7
KANJI
 50
0.000000
 51
30.000000
  0
LINE
  8
1
 62
7
  6
CONTINUOUS
 10
365.627933
 20
286.467093
 11
366.427933
 21
286.467093
  0
LINE
  8
1
 62
7
  6
CONTINUOUS
 10
366.427933
 20
286.467093
 11
366.427933
 21
295.467093
  0
LINE
  8
1
 62
7
  6
CONTINUOUS
 10
366.427933
 20
295.467093
 11
365.627933
 21
295.467093
  0
LINE
  8
1
 62
7
  6
CONTINUOUS
 10
365.627933
 20
295.467093
 11
365.627933
 21
286.467093
  0
LINE
  8
1
 62
7
  6
CONTINUOUS
 10
366.427933
 20
294.967092
 11
366.427933
 21
286.967094
  0
LINE
  8
1
 62
7
  6
CONTINUOUS
 10
367.627933
 20
294.967092
 11
366.427933
 21
294.967092
  0
ARC
  8
1
 62
7
  6
CONTINUOUS
 10
367.627933
 20
292.967093
 40
2.000000
 50
0.000000
 51
90.000000
  0
LINE
  8
1
 62
7
  6
CONTINUOUS
 10
369.627933
 20
288.967094
 11
369.627933
 21
292.967093
  0
LINE
  8
1
 62
7
  6
CONTINUOUS
 10
366.427933
 20
286.967094
 11
367.627933
 21
286.967094
  0
ARC
  8
1
 62
7
  6
CONTINUOUS
 10
367.627933
 20
288.967094
 40
2.000000
 50
-90.000000
 51
0.000000
  0
LINE
  8
1
 62
7
  6
DASHDOT
 10
363.755618
 20
290.967093
 11
370.597116
 21
290.967093
  0
LINE
  8
1
 62
7
  6
CONTINUOUS
 10
365.627933
 20
357.967093
 11
366.427933
 21
357.967093
  0
LINE
  8
1
 62
7
  6
CONTINUOUS
 10
366.427933
 20
357.967093
 11
366.427933
 21
366.967093
  0
LINE
  8
1
 62
7
  6
CONTINUOUS
 10
366.427933
 20
366.967093
 11
365.627933
 21
366.967093
  0
LINE
  8
1
 62
7
  6
CONTINUOUS
 10
365.627933
 20
366.967093
 11
365.627933
 21
357.967093
  0
LINE
  8
1
 62
7
  6
CONTINUOUS
 10
366.427933
 20
366.467092
 11
366.427933
 21
358.467094
  0
LINE
  8
1
 62
7
  6
CONTINUOUS
 10
367.627933
 20
366.467092
 11
366.427933
 21
366.467092
  0
ARC
  8
1
 62
7
  6
CONTINUOUS
 10
367.627933
 20
364.467093
 40
2.000000
 50
0.000000
 51
90.000000
  0
LINE
  8
1
 62
7
  6
CONTINUOUS
 10
369.627933
 20
360.467094
 11
369.627933
 21
364.467093
  0
LINE
  8
1
 62
7
  6
CONTINUOUS
 10
366.427933
 20
358.467094
 11
367.627933
 21
358.467094
  0
ARC
  8
1
 62
7
  6
CONTINUOUS
 10
367.627933
 20
360.467094
 40
2.000000
 50
-90.000000
 51
0.000000
  0
LINE
  8
1
 62
7
  6
DASHDOT
 10
363.755618
 20
362.467093
 11
370.597116
 21
362.467093
  0
DIMENSION
  8
2
 62
134
  6
CONTINUOUS
  2
*D19
 10
168.382006
 20
69.404881
 11
168.382006
 21
154.510355
 70
     0
  1
175
 13
219.627933
 23
69.404881
 14
200.127933
 24
244.404881
 50
90.000000
  0
TEXT
  8
2
 62
134
  6
CONTINUOUS
 10
168.382006
 20
155.510355
 40
8.000000
 41
1.000000
  1
±3
  7
KANJI
 50
90.000000
 51
0.000000
  0
LINE
  8
1
 62
7
  6
CONTINUOUS
 10
369.627933
 20
291.717093
 11
392.168363
 21
291.717093
  0
DIMENSION
  8
2
 62
134
  6
CONTINUOUS
  2
*D20
 10
403.679632
 20
291.717093
 11
403.679632
 21
314.897842
 70
     0
  1
φ13
 13
403.679632
 23
291.717093
 14
403.679632
 24
301.717093
 50
90.000000
  0
TEXT
  8
5
 62
94
  6
CONTINUOUS
 10
37.230047
 20
365.514459
 40
8.000000
 41
0.500000
  1
2011/09/12
  7
KANJI
 50
-0.091868
 51
0.000000
  0
DIMENSION
  8
2
 62
134
  6
CONTINUOUS
  2
*D21
 10
475.857574
 20
280.717093
 11
475.857574
 21
321.817535
 70
     0
  1
φ32
 13
475.857574
 23
280.717093
 14
475.857574
 24
312.717093
 50
90.000000
  0
LINE
  8
1
 62
7
  6
DASHDOT
 10
522.725601
 20
321.390585
 11
522.725601
 21
153.655350
  0
LINE
  8
1
 62
7
  6
CONTINUOUS
 10
517.723847
 20
309.961947
 11
527.723847
 21
309.961947
  0
DIMENSION
  8
2
 62
134
  6
CONTINUOUS
  2
*D22
 10
564.477913
 20
95.961947
 11
564.477913
 21
200.149598
 70
     0
  1
214
 13
526.725601
 23
95.961947
 14
529.609853
 24
309.961947
 50
90.000000
  0
DIMENSION
  8
2
 62
134
  6
CONTINUOUS
  2
*D23
 10
517.723847
 20
318.934240
 11
506.635779
 21
318.934240
 70
     0
  1
M10
 13
517.723847
 23
313.961947
 14
527.723847
 24
313.961947
 50
0.000000
  0
TEXT
  8
6
 62
14
  6
CONTINUOUS
 10
490.635779
 20
318.934240
 40
8.000000
 41
1.000000
  1
⑨
  7
KANJI
 50
0.000000
 51
0.000000
  0
LINE
  8
1
 62
7
  6
DASHDOT
 10
522.725601
 20
294.850633
 11
522.725601
 21
301.417819
  0
LINE
  8
1
 62
7
  6
CONTINUOUS
 10
532.540556
 20
301.134226
 11
532.540556
 21
295.630794
  0
LINE
  8
1
 62
7
  6
CONTINUOUS
 10
532.540556
 20
295.630794
 11
532.501279
 21
295.589043
  0
LINE
  8
1
 62
7
  6
CONTINUOUS
 10
532.501279
 20
295.589043
 11
532.423216
 21
295.515963
  0
LINE
  8
1
 62
7
  6
CONTINUOUS
 10
532.423216
 20
295.515963
 11
532.345756
 21
295.454228
  0
LINE
  8
1
 62
7
  6
CONTINUOUS
 10
532.345756
 20
295.454228
 11
532.304934
 21
295.425336
  0
LINE
  8
1
 62
7
  6
CONTINUOUS
 10
532.304934
 20
295.425336
 11
532.263063
 21
295.398006
  0
LINE
  8
1
 62
7
  6
CONTINUOUS
 10
532.263063
 20
295.398006
 11
532.177470
 21
295.348602
  0
LINE
  8
1
 62
7
  6
CONTINUOUS
 10
532.177470
 20
295.348602
 11
532.091623
 21
295.306651
  0
LINE
  8
1
 62
7
  6
CONTINUOUS
 10
532.091623
 20
295.306651
 11
532.008260
 21
295.272169
  0
LINE
  8
1
 62
7
  6
CONTINUOUS
 10
532.008260
 20
295.272169
 11
531.925867
 21
295.243351
  0
LINE
  8
1
 62
7
  6
CONTINUOUS
 10
531.925867
 20
295.243351
 11
531.838616
 21
295.217821
  0
LINE
  8
1
 62
7
  6
CONTINUOUS
 10
531.838616
 20
295.217821
 11
531.794266
 21
295.206605
  0
LINE
  8
1
 62
7
  6
CONTINUOUS
 10
531.794266
 20
295.206605
 11
531.750089
 21
295.196511
  0
LINE
  8
1
 62
7
  6
CONTINUOUS
 10
531.750089
 20
295.196511
 11
531.664230
 21
295.179710
  0
LINE
  8
1
 62
7
  6
CONTINUOUS
 10
531.664230
 20
295.179710
 11
531.580535
 21
295.166547
  0
LINE
  8
1
 62
7
  6
CONTINUOUS
 10
531.580535
 20
295.166547
 11
531.277755
 21
295.139648
  0
LINE
  8
1
 62
7
  6
CONTINUOUS
 10
531.277755
 20
295.139648
 11
531.014179
 21
295.134226
  0
LINE
  8
1
 62
7
  6
CONTINUOUS
 10
527.633079
 20
301.134226
 11
527.633079
 21
295.630794
  0
LINE
  8
1
 62
7
  6
CONTINUOUS
 10
529.159455
 20
295.134226
 11
528.895880
 21
295.139648
  0
LINE
  8
1
 62
7
  6
CONTINUOUS
 10
528.895880
 20
295.139648
 11
528.593100
 21
295.166547
  0
LINE
  8
1
 62
7
  6
CONTINUOUS
 10
528.593100
 20
295.166547
 11
528.509405
 21
295.179710
  0
LINE
  8
1
 62
7
  6
CONTINUOUS
 10
528.509405
 20
295.179710
 11
528.423545
 21
295.196511
  0
LINE
  8
1
 62
7
  6
CONTINUOUS
 10
528.423545
 20
295.196511
 11
528.379368
 21
295.206605
  0
LINE
  8
1
 62
7
  6
CONTINUOUS
 10
528.379368
 20
295.206605
 11
528.335019
 21
295.217821
  0
LINE
  8
1
 62
7
  6
CONTINUOUS
 10
528.335019
 20
295.217821
 11
528.247768
 21
295.243351
  0
LINE
  8
1
 62
7
  6
CONTINUOUS
 10
528.247768
 20
295.243351
 11
528.165374
 21
295.272169
  0
LINE
  8
1
 62
7
  6
CONTINUOUS
 10
528.165374
 20
295.272169
 11
528.082011
 21
295.306651
  0
LINE
  8
1
 62
7
  6
CONTINUOUS
 10
528.082011
 20
295.306651
 11
527.996164
 21
295.348602
  0
LINE
  8
1
 62
7
  6
CONTINUOUS
 10
527.996164
 20
295.348602
 11
527.910571
 21
295.398006
  0
LINE
  8
1
 62
7
  6
CONTINUOUS
 10
527.910571
 20
295.398006
 11
527.868700
 21
295.425336
  0
LINE
  8
1
 62
7
  6
CONTINUOUS
 10
527.868700
 20
295.425336
 11
527.827879
 21
295.454228
  0
LINE
  8
1
 62
7
  6
CONTINUOUS
 10
527.827879
 20
295.454228
 11
527.750419
 21
295.515963
  0
LINE
  8
1
 62
7
  6
CONTINUOUS
 10
527.750419
 20
295.515963
 11
527.705196
 21
295.556813
  0
LINE
  8
1
 62
7
  6
CONTINUOUS
 10
527.705196
 20
295.556813
 11
527.692081
 21
295.569410
  0
LINE
  8
1
 62
7
  6
CONTINUOUS
 10
527.692081
 20
295.569410
 11
527.678933
 21
295.582402
  0
LINE
  8
1
 62
7
  6
CONTINUOUS
 10
527.678933
 20
295.582402
 11
527.672356
 21
295.589043
  0
LINE
  8
1
 62
7
  6
CONTINUOUS
 10
527.672356
 20
295.589043
 11
527.665782
 21
295.595777
  0
LINE
  8
1
 62
7
  6
CONTINUOUS
 10
527.665782
 20
295.595777
 11
527.652657
 21
295.609520
  0
LINE
  8
1
 62
7
  6
CONTINUOUS
 10
527.652657
 20
295.609520
 11
527.639586
 21
295.623618
  0
LINE
  8
1
 62
7
  6
CONTINUOUS
 10
527.639586
 20
295.623618
 11
527.633079
 21
295.630794
  0
LINE
  8
1
 62
7
  6
CONTINUOUS
 10
527.633079
 20
295.630794
 11
527.554524
 21
295.589043
  0
LINE
  8
1
 62
7
  6
CONTINUOUS
 10
527.554524
 20
295.589043
 11
527.398398
 21
295.515963
  0
LINE
  8
1
 62
7
  6
CONTINUOUS
 10
527.398398
 20
295.515963
 11
527.243478
 21
295.454228
  0
LINE
  8
1
 62
7
  6
CONTINUOUS
 10
527.243478
 20
295.454228
 11
527.161835
 21
295.425336
  0
LINE
  8
1
 62
7
  6
CONTINUOUS
 10
527.161835
 20
295.425336
 11
527.078094
 21
295.398006
  0
LINE
  8
1
 62
7
  6
CONTINUOUS
 10
527.078094
 20
295.398006
 11
526.906907
 21
295.348602
  0
LINE
  8
1
 62
7
  6
CONTINUOUS
 10
526.906907
 20
295.348602
 11
526.735213
 21
295.306651
  0
LINE
  8
1
 62
7
  6
CONTINUOUS
 10
526.735213
 20
295.306651
 11
526.568487
 21
295.272169
  0
LINE
  8
1
 62
7
  6
CONTINUOUS
 10
526.568487
 20
295.272169
 11
526.403701
 21
295.243351
  0
LINE
  8
1
 62
7
  6
CONTINUOUS
 10
526.403701
 20
295.243351
 11
526.229198
 21
295.217821
  0
LINE
  8
1
 62
7
  6
CONTINUOUS
 10
526.229198
 20
295.217821
 11
526.140500
 21
295.206605
  0
LINE
  8
1
 62
7
  6
CONTINUOUS
 10
526.140500
 20
295.206605
 11
526.052145
 21
295.196511
  0
LINE
  8
1
 62
7
  6
CONTINUOUS
 10
526.052145
 20
295.196511
 11
525.880426
 21
295.179710
  0
LINE
  8
1
 62
7
  6
CONTINUOUS
 10
525.880426
 20
295.179710
 11
525.713036
 21
295.166547
  0
LINE
  8
1
 62
7
  6
CONTINUOUS
 10
525.713036
 20
295.166547
 11
525.107476
 21
295.139648
  0
LINE
  8
1
 62
7
  6
CONTINUOUS
 10
525.107476
 20
295.139648
 11
524.580325
 21
295.134226
  0
LINE
  8
1
 62
7
  6
CONTINUOUS
 10
517.818124
 20
301.134226
 11
517.818124
 21
295.630794
  0
LINE
  8
1
 62
7
  6
CONTINUOUS
 10
520.870878
 20
295.134226
 11
520.343726
 21
295.139648
  0
LINE
  8
1
 62
7
  6
CONTINUOUS
 10
520.343726
 20
295.139648
 11
519.738167
 21
295.166547
  0
LINE
  8
1
 62
7
  6
CONTINUOUS
 10
519.738167
 20
295.166547
 11
519.570776
 21
295.179710
  0
LINE
  8
1
 62
7
  6
CONTINUOUS
 10
519.570776
 20
295.179710
 11
519.399058
 21
295.196511
  0
LINE
  8
1
 62
7
  6
CONTINUOUS
 10
519.399058
 20
295.196511
 11
519.310703
 21
295.206605
  0
LINE
  8
1
 62
7
  6
CONTINUOUS
 10
519.310703
 20
295.206605
 11
519.222005
 21
295.217821
  0
LINE
  8
1
 62
7
  6
CONTINUOUS
 10
519.222005
 20
295.217821
 11
519.047502
 21
295.243351
  0
LINE
  8
1
 62
7
  6
CONTINUOUS
 10
519.047502
 20
295.243351
 11
518.882715
 21
295.272169
  0
LINE
  8
1
 62
7
  6
CONTINUOUS
 10
518.882715
 20
295.272169
 11
518.715990
 21
295.306651
  0
LINE
  8
1
 62
7
  6
CONTINUOUS
 10
518.715990
 20
295.306651
 11
518.544296
 21
295.348602
  0
LINE
  8
1
 62
7
  6
CONTINUOUS
 10
518.544296
 20
295.348602
 11
518.373109
 21
295.398006
  0
LINE
  8
1
 62
7
  6
CONTINUOUS
 10
518.373109
 20
295.398006
 11
518.289367
 21
295.425336
  0
LINE
  8
1
 62
7
  6
CONTINUOUS
 10
518.289367
 20
295.425336
 11
518.207724
 21
295.454228
  0
LINE
  8
1
 62
7
  6
CONTINUOUS
 10
518.207724
 20
295.454228
 11
518.052804
 21
295.515963
  0
LINE
  8
1
 62
7
  6
CONTINUOUS
 10
518.052804
 20
295.515963
 11
517.962359
 21
295.556813
  0
LINE
  8
1
 62
7
  6
CONTINUOUS
 10
517.962359
 20
295.556813
 11
517.936128
 21
295.569410
  0
LINE
  8
1
 62
7
  6
CONTINUOUS
 10
517.936128
 20
295.569410
 11
517.909832
 21
295.582402
  0
LINE
  8
1
 62
7
  6
CONTINUOUS
 10
517.909832
 20
295.582402
 11
517.896679
 21
295.589043
  0
LINE
  8
1
 62
7
  6
CONTINUOUS
 10
517.896679
 20
295.589043
 11
517.883531
 21
295.595777
  0
LINE
  8
1
 62
7
  6
CONTINUOUS
 10
517.883531
 20
295.595777
 11
517.857280
 21
295.609520
  0
LINE
  8
1
 62
7
  6
CONTINUOUS
 10
517.857280
 20
295.609520
 11
517.831138
 21
295.623618
  0
LINE
  8
1
 62
7
  6
CONTINUOUS
 10
517.831138
 20
295.623618
 11
517.818124
 21
295.630794
  0
LINE
  8
1
 62
7
  6
CONTINUOUS
 10
512.910647
 20
301.134226
 11
512.910647
 21
295.630794
  0
LINE
  8
1
 62
7
  6
CONTINUOUS
 10
514.437024
 20
295.134226
 11
514.173448
 21
295.139648
  0
LINE
  8
1
 62
7
  6
CONTINUOUS
 10
514.173448
 20
295.139648
 11
513.870668
 21
295.166547
  0
LINE
  8
1
 62
7
  6
CONTINUOUS
 10
513.870668
 20
295.166547
 11
513.786973
 21
295.179710
  0
LINE
  8
1
 62
7
  6
CONTINUOUS
 10
513.786973
 20
295.179710
 11
513.701114
 21
295.196511
  0
LINE
  8
1
 62
7
  6
CONTINUOUS
 10
513.701114
 20
295.196511
 11
513.656936
 21
295.206605
  0
LINE
  8
1
 62
7
  6
CONTINUOUS
 10
513.656936
 20
295.206605
 11
513.612587
 21
295.217821
  0
LINE
  8
1
 62
7
  6
CONTINUOUS
 10
513.612587
 20
295.217821
 11
513.525336
 21
295.243351
  0
LINE
  8
1
 62
7
  6
CONTINUOUS
 10
513.525336
 20
295.243351
 11
513.442942
 21
295.272169
  0
LINE
  8
1
 62
7
  6
CONTINUOUS
 10
513.442942
 20
295.272169
 11
513.359580
 21
295.306651
  0
LINE
  8
1
 62
7
  6
CONTINUOUS
 10
513.359580
 20
295.306651
 11
513.273733
 21
295.348602
  0
LINE
  8
1
 62
7
  6
CONTINUOUS
 10
513.273733
 20
295.348602
 11
513.188139
 21
295.398006
  0
LINE
  8
1
 62
7
  6
CONTINUOUS
 10
513.188139
 20
295.398006
 11
513.146268
 21
295.425336
  0
LINE
  8
1
 62
7
  6
CONTINUOUS
 10
513.146268
 20
295.425336
 11
513.105447
 21
295.454228
  0
LINE
  8
1
 62
7
  6
CONTINUOUS
 10
513.105447
 20
295.454228
 11
513.027987
 21
295.515963
  0
LINE
  8
1
 62
7
  6
CONTINUOUS
 10
513.027987
 20
295.515963
 11
512.982764
 21
295.556813
  0
LINE
  8
1
 62
7
  6
CONTINUOUS
 10
512.982764
 20
295.556813
 11
512.969649
 21
295.569410
  0
LINE
  8
1
 62
7
  6
CONTINUOUS
 10
512.969649
 20
295.569410
 11
512.956501
 21
295.582402
  0
LINE
  8
1
 62
7
  6
CONTINUOUS
 10
512.956501
 20
295.582402
 11
512.949924
 21
295.589043
  0
LINE
  8
1
 62
7
  6
CONTINUOUS
 10
512.949924
 20
295.589043
 11
512.943350
 21
295.595777
  0
LINE
  8
1
 62
7
  6
CONTINUOUS
 10
512.943350
 20
295.595777
 11
512.930225
 21
295.609520
  0
LINE
  8
1
 62
7
  6
CONTINUOUS
 10
512.930225
 20
295.609520
 11
512.917154
 21
295.623618
  0
LINE
  8
1
 62
7
  6
CONTINUOUS
 10
512.917154
 20
295.623618
 11
512.910647
 21
295.630794
  0
LINE
  8
1
 62
7
  6
CONTINUOUS
 10
517.818124
 20
295.630794
 11
517.778847
 21
295.589043
  0
LINE
  8
1
 62
7
  6
CONTINUOUS
 10
517.778847
 20
295.589043
 11
517.700784
 21
295.515963
  0
LINE
  8
1
 62
7
  6
CONTINUOUS
 10
517.700784
 20
295.515963
 11
517.623324
 21
295.454228
  0
LINE
  8
1
 62
7
  6
CONTINUOUS
 10
517.623324
 20
295.454228
 11
517.582502
 21
295.425336
  0
LINE
  8
1
 62
7
  6
CONTINUOUS
 10
517.582502
 20
295.425336
 11
517.540632
 21
295.398006
  0
LINE
  8
1
 62
7
  6
CONTINUOUS
 10
517.540632
 20
295.398006
 11
517.455038
 21
295.348602
  0
LINE
  8
1
 62
7
  6
CONTINUOUS
 10
517.455038
 20
295.348602
 11
517.369191
 21
295.306651
  0
LINE
  8
1
 62
7
  6
CONTINUOUS
 10
517.369191
 20
295.306651
 11
517.285828
 21
295.272169
  0
LINE
  8
1
 62
7
  6
CONTINUOUS
 10
517.285828
 20
295.272169
 11
517.203435
 21
295.243351
  0
LINE
  8
1
 62
7
  6
CONTINUOUS
 10
517.203435
 20
295.243351
 11
517.116184
 21
295.217821
  0
LINE
  8
1
 62
7
  6
CONTINUOUS
 10
517.116184
 20
295.217821
 11
517.071835
 21
295.206605
  0
LINE
  8
1
 62
7
  6
CONTINUOUS
 10
517.071835
 20
295.206605
 11
517.027657
 21
295.196511
  0
LINE
  8
1
 62
7
  6
CONTINUOUS
 10
517.027657
 20
295.196511
 11
516.941798
 21
295.179710
  0
LINE
  8
1
 62
7
  6
CONTINUOUS
 10
516.941798
 20
295.179710
 11
516.858103
 21
295.166547
  0
LINE
  8
1
 62
7
  6
CONTINUOUS
 10
516.858103
 20
295.166547
 11
516.555323
 21
295.139648
  0
LINE
  8
1
 62
7
  6
CONTINUOUS
 10
516.555323
 20
295.139648
 11
516.291747
 21
295.134226
  0
LINE
  8
1
 62
7
  6
CONTINUOUS
 10
531.425601
 20
295.134226
 11
514.025601
 21
295.134226
  0
ARC
  8
1
 62
7
  6
CONTINUOUS
 10
531.425601
 20
296.634226
 40
1.500000
 50
-90.000000
 51
-41.986450
  0
ARC
  8
1
 62
7
  6
CONTINUOUS
 10
514.025601
 20
296.634226
 40
1.500000
 50
-138.013550
 51
-90.000000
  0
LINE
  8
1
 62
7
  6
CONTINUOUS
 10
512.910647
 20
301.134226
 11
532.540556
 21
301.134226
  0
LINE
  8
1
 62
7
  6
CONTINUOUS
 10
512.910647
 20
301.134226
 11
532.540556
 21
301.134226
  0
LINE
  8
1
 62
7
  6
CONTINUOUS
 10
522.725601
 20
305.800888
 11
532.058925
 21
304.634223
  0
LINE
  8
1
 62
7
  6
CONTINUOUS
 10
522.725601
 20
303.467557
 11
532.058925
 21
302.300892
  0
LINE
  8
1
 62
7
  6
CONTINUOUS
 10
522.725601
 20
301.134226
 11
513.392277
 21
302.300892
  0
LINE
  8
1
 62
7
  6
CONTINUOUS
 10
522.725601
 20
303.467557
 11
513.392277
 21
304.634223
  0
LINE
  8
1
 62
7
  6
CONTINUOUS
 10
513.392277
 20
302.300892
 11
513.392277
 21
304.634223
  0
LINE
  8
1
 62
7
  6
CONTINUOUS
 10
522.725601
 20
301.134226
 11
522.725601
 21
303.467557
  0
LINE
  8
1
 62
7
  6
CONTINUOUS
 10
522.725601
 20
305.800888
 11
522.725601
 21
303.467557
  0
LINE
  8
1
 62
7
  6
CONTINUOUS
 10
532.058925
 20
302.300892
 11
532.058925
 21
304.634223
  0
LINE
  8
1
 62
7
  6
CONTINUOUS
 10
526.911847
 20
302.944277
 11
526.911847
 21
301.134226
  0
LINE
  8
1
 62
7
  6
CONTINUOUS
 10
527.723847
 20
301.134226
 11
527.723847
 21
302.842777
  0
LINE
  8
1
 62
7
  6
CONTINUOUS
 10
527.723847
 20
305.176108
 11
527.723847
 21
309.961947
  0
LINE
  8
1
 62
7
  6
CONTINUOUS
 10
526.911847
 20
309.994267
 11
526.911847
 21
305.277608
  0
LINE
  8
1
 62
7
  6
CONTINUOUS
 10
517.723847
 20
301.134226
 11
517.723847
 21
301.759446
  0
LINE
  8
1
 62
7
  6
CONTINUOUS
 10
518.535847
 20
301.657946
 11
518.535847
 21
301.134226
  0
LINE
  8
1
 62
7
  6
CONTINUOUS
 10
517.723847
 20
304.092777
 11
517.723847
 21
309.961947
  0
LINE
  8
1
 62
7
  6
CONTINUOUS
 10
518.535847
 20
309.961947
 11
518.535847
 21
303.991277
  0
LINE
  8
2
 62
134
  6
CONTINUOUS
 10
530.817727
 20
304.789373
 11
543.027561
 21
334.144967
  0
LINE
  8
2
 62
134
  6
CONTINUOUS
 10
543.027561
 20
334.144967
 11
563.875111
 21
334.144967
  0
TEXT
  8
2
 62
134
  6
CONTINUOUS
 10
543.875111
 20
333.970007
 40
8.000000
 41
0.500000
  1
M10SW
  7
KANJI
 50
0.000000
 51
30.000000
  0
LINE
  8
2
 62
134
  6
CONTINUOUS
 10
530.817727
 20
304.789373
 11
531.345634
 21
308.754384
  0
LINE
  8
2
 62
134
  6
CONTINUOUS
 10
530.817727
 20
304.789373
 11
533.257413
 21
307.959220
  0
LINE
  8
2
 62
134
  6
CONTINUOUS
 10
531.345634
 20
308.754384
 11
533.257413
 21
307.959220
  0
LINE
  8
2
 62
134
  6
CONTINUOUS
 10
531.188676
 20
305.681230
 11
531.452630
 21
307.663736
  0
LINE
  8
2
 62
134
  6
CONTINUOUS
 10
531.188676
 20
305.681230
 11
532.408519
 21
307.266154
  0
LINE
  8
2
 62
134
  6
CONTINUOUS
 10
531.452630
 20
307.663736
 11
532.408519
 21
307.266154
  0
LINE
  8
3
 62
214
  6
CONTINUOUS
 10
532.540556
 20
297.949556
 11
546.176850
 21
322.247654
  0
LINE
  8
3
 62
214
  6
CONTINUOUS
 10
546.176850
 20
322.247654
 11
570.074163
 21
322.247654
  0
TEXT
  8
3
 62
214
  6
CONTINUOUS
 10
546.074163
 20
322.422615
 40
8.000000
 41
0.500000
  1
M10ﾅｯﾄ
  7
KANJI
 50
0.000000
 51
30.000000
  0
LINE
  8
3
 62
214
  6
CONTINUOUS
 10
532.540556
 20
297.949556
 11
533.528654
 21
301.825594
  0
LINE
  8
3
 62
214
  6
CONTINUOUS
 10
532.540556
 20
297.949556
 11
535.334292
 21
300.812254
  0
LINE
  8
3
 62
214
  6
CONTINUOUS
 10
533.528654
 20
301.825594
 11
535.334292
 21
300.812254
  0
LINE
  8
3
 62
214
  6
CONTINUOUS
 10
533.013285
 20
298.791898
 11
533.507334
 21
300.729917
  0
LINE
  8
3
 62
214
  6
CONTINUOUS
 10
533.013285
 20
298.791898
 11
534.410153
 21
300.223247
  0
LINE
  8
3
 62
214
  6
CONTINUOUS
 10
533.507334
 20
300.729917
 11
534.410153
 21
300.223247
  0
LINE
  8
1
 62
7
  6
CONTINUOUS
 10
516.724996
 20
181.961947
 11
516.725720
 21
287.961947
  0
LINE
  8
1
 62
7
  6
CONTINUOUS
 10
528.724996
 20
181.961947
 11
528.725720
 21
287.961947
  0
LINE
  8
1
 62
7
  6
CONTINUOUS
 10
516.725720
 20
287.961947
 11
528.725720
 21
287.961947
  0
DIMENSION
  8
2
 62
134
  6
CONTINUOUS
  2
*D24
 10
550.951031
 20
287.961947
 11
550.951031
 21
298.978328
 70
     0
  1
22
 13
530.911847
 23
287.961947
 14
530.911847
 24
309.961947
 50
90.000000
  0
DIMENSION
  8
2
 62
134
  6
CONTINUOUS
  2
*D25
 10
550.948247
 20
287.961947
 11
550.948247
 21
237.062251
 70
     0
  1
106
 13
529.016779
 23
287.961947
 14
529.045979
 24
181.961947
 50
-90.000000
  0
LINE
  8
1
 62
7
  6
CONTINUOUS
 10
527.723847
 20
287.961947
 11
527.723847
 21
295.134226
  0
LINE
  8
1
 62
7
  6
CONTINUOUS
 10
526.911847
 20
295.166547
 11
526.911847
 21
287.961947
  0
LINE
  8
1
 62
7
  6
CONTINUOUS
 10
517.723847
 20
287.961947
 11
517.723847
 21
295.134226
  0
LINE
  8
1
 62
7
  6
CONTINUOUS
 10
518.535847
 20
295.134226
 11
518.535847
 21
287.961947
  0
ENDSEC
  0
EOF
