  0
SECTION
  2
HEADER
  9
$ACADVER
  1
AC1003
  9
$INSBASE
 10
0.000000
 20
0.000000
  9
$EXTMIN
 10
0.000000
 20
0.000000
  9
$EXTMAX
 10
210.000000
 20
297.000000
  9
$LIMMIN
 10
0.000000
 20
0.000000
  9
$LIMMAX
 10
210.000000
 20
297.000000
  9
$VIEWCTR
 10
105.000000
 20
148.500000
  9
$VIEWSIZE
 40
297.000000
  9
$PEXTMIN
 10
0.000000
 20
0.000000
 30
0.000000
  9
$PEXTMAX
 10
210.000000
 20
297.000000
 30
0.000000
  9
$SNAPMODE
 70
     0
  9
$SNAPUNIT
 10
1.000000
 20
1.000000
  9
$SNAPBASE
 10
0.000000
 20
0.000000
  9
$SNAPANG
 50
0.000000
  9
$SNAPISOPAIR
 70
     0
  9
$SNAPSTYLE
 70
     0
  9
$GRIDMODE
 70
     0
  9
$GRIDUNIT
 10
0.000000
 20
0.000000
  9
$ORTHOMODE
 70
     0
  9
$REGENMODE
 70
     1
  9
$FILLMODE
 70
     1
  9
$QTEXTMODE
 70
     0
  9
$DRAGMODE
 70
     2
  9
$LTSCALE
 40
0.250000
  9
$OSMODE
 70
     0
  9
$ATTMODE
 70
     1
  9
$TEXTSIZE
 40
0.200000
  9
$TRACEWID
 40
0.050000
  9
$TEXTSTYLE
  7
STANDARD
  9
$CLAYER
  8
0
  9
$CELTYPE
  6
BYLAYER
  9
$CECOLOR
 62
   256
  9
$DIMSCALE
 40
1.000000
  9
$DIMASZ
 40
1.000000
  9
$DIMEXO
 40
0.000000
  9
$DIMDLI
 40
0.500000
  9
$DIMRND
 40
0.000000
  9
$DIMDLE
 40
0.000000
  9
$DIMEXE
 40
0.000000
  9
$DIMTP
 40
0.000000
  9
$DIMTM
 40
0.000000
  9
$DIMTXT
 40
0.180000
  9
$DIMCEN
 40
0.000000
  9
$DIMTSZ
 40
0.000000
  9
$DIMTOL
 70
     0
  9
$DIMLIM
 70
     0
  9
$DIMTIH
 70
     1
  9
$DIMTOH
 70
     1
  9
$DIMSE1
 70
     0
  9
$DIMSE2
 70
     0
  9
$DIMTAD
 70
     0
  9
$DIMZIN
 70
     0
  9
$DIMBLK
  1

  9
$DIMASO
 70
     0
  9
$DIMSHO
 70
     0
  9
$DIMPOST
  1

  9
$DIMAPOST
  1

  9
$DIMALT
 70
     0
  9
$DIMALTD
 70
     0
  9
$DIMALTF
 40
25.400000
  9
$DIMLFAC
 40
1.000000
  9
$DIMTOFL
 70
     0
  9
$DIMTVP
 40
0.000000
  9
$DIMTIX
 70
     0
  9
$DIMSOXD
 70
     0
  9
$DIMSAH
 70
     0
  9
$DIMBLKL
  1

  9
$DIMBLKR
  1

  9
$LUNITS
 70
     2
  9
$LUPREC
 70
     2
  9
$AXISMODE
 70
     0
  9
$AXISUNIT
 10
1.000000
 20
1.000000
  9
$SKETCHINC
 40
0.000000
  9
$FILLETRAD
 40
0.000000
  9
$AUNITS
 70
     1
  9
$AUPREC
 70
     2
  9
$MENU
  1
ACAD
  9
$ELEVATION
 40
0.000000
  9
$THICKNESS
 40
0.000000
  9
$VIEWDIR
 10
0.000000
 20
0.000000
 30
1.000000
  9
$LIMCHECK
 70
     1
  9
$BLIPMODE
 70
     1
  9
$CHAMFERA
 40
0.000000
  9
$CHAMFERB
 40
0.000000
  9
$FASTZOOM
 70
     1
  9
$SKPOLY
 70
     0
  9
$TDCREATE
 40
0.000000
  9
$TDUPDATE
 40
0.000000
  9
$TDINDWG
 40
0.000000
  9
$TDUSRTIMER
 40
0.000000
  9
$USRTIMER
 70
     1
  9
$ANGBASE
 50
0.000000
  9
$ANGDIR
 70
     0
  9
$PDMODE
 70
     0
  9
$PDSIZE
 40
0.000000
  9
$PLINEWID
 40
0.000000
  9
$COORDS
 70
     2
  9
$USERI1
 70
     0
  9
$USERI2
 70
     0
  9
$USERI3
 70
     0
  9
$USERI4
 70
     0
  9
$USERI5
 70
     0
  9
$USERR1
 40
0.000000
  9
$USERR2
 40
0.000000
  9
$USERR3
 40
0.000000
  9
$USERR4
 40
0.000000
  9
$USERR5
 40
0.000000
  0
ENDSEC
  0
SECTION
  2
TABLES
  0
TABLE
  2
LTYPE
 70
     5
  0
LTYPE
  2
CONTINUOUS
 70
    64
  3
Solid line
 72
    65
 73
     0
 40
0.0
  0
LTYPE
  2
HIDDEN
 70
    64
  3
------------------------
 72
    65
 73
     2
 40
12.6
 49
8.4
 49
-4.2
  0
LTYPE
  2
DOT
 70
    64
  3
････････････････････････
 72
    65
 73
     2
 40
8.0
 49
6.0
 49
-2.0
  0
LTYPE
  2
DASHDOT
 70
    64
  3
--･--･--･--･--･--･--･--
 72
    65
 73
     4
 40
50.5
 49
30.0
 49
-9.0
 49
2.5
 49
-9.0
  0
LTYPE
  2
DIVIDE
 70
    64
  3
--･･--･･--･･--･･--･･--
 72
    65
 73
     6
 40
58.0
 49
30.0
 49
-9.0
 49
2.5
 49
-5.0
 49
2.5
 49
-9.0
  0
LTYPE
  2
ACAD_ISO06W100
 70
    64
  3
____ ... ____ ... ____
 72
    65
 73
     8
 40
37.5
 49
24.0
 49
-3.0
 49
0.5
 49
-3.0
 49
0.5
 49
-3.0
 49
0.5
 49
-3.0
  0
LTYPE
  2
ACAD_ISO14W100
 70
    64
  3
__ . . . __ . . . __ . . . 
 72
    65
 73
     8
 40
25.5
 49
12.0
 49
-3.0
 49
0.5
 49
-3.0
 49
0.5
 49
-3.0
 49
0.5
 49
-3.0
  0
ENDTAB
  0
TABLE
  2
LAYER
 70
4
  0
LAYER
  2
1
 70
64
 62
7
  6
CONTINUOUS
  0
LAYER
  2
2
 70
64
 62
134
  6
CONTINUOUS
  0
LAYER
  2
3
 70
64
 62
214
  6
CONTINUOUS
  0
LAYER
  2
5
 70
64
 62
94
  6
CONTINUOUS
  0
ENDTAB
  0
TABLE
  2
STYLE
 70
     2
  0
STYLE
  2
STANDARD
 70
    64
 40
0.0
 41
1.0
 50
0.0
 71
     0
 42
0.2
  3
TXT
  4

  0
STYLE
  2
KANJI
 70
    64
 40
0.0
 41
1.0
 50
0.0
 71
     0
 42
0.2
  3
TXT
  4
BIGFONT
  0
ENDTAB
  0
TABLE
  2
VIEW
 70
     0
  0
ENDTAB
  0
ENDSEC
  0
SECTION
  2
BLOCKS
  0
BLOCK
  8
2
 62
134
  6
CONTINUOUS
  2
*D1
 70
    65
 10
0.0
 20
0.0
  0
LINE
  8
2
 62
134
  6
CONTINUOUS
 10
120.000000
 20
131.230647
 11
131.000000
 21
131.230647
  0
LINE
  8
2
 62
134
  6
CONTINUOUS
 10
120.000000
 20
129.230647
 11
120.000000
 21
143.000000
  0
LINE
  8
2
 62
134
  6
CONTINUOUS
 10
131.000000
 20
129.230647
 11
131.000000
 21
161.511563
  0
LINE
  8
2
 62
134
  6
CONTINUOUS
 10
120.000000
 20
131.230647
 11
121.931852
 21
131.748285
  0
LINE
  8
2
 62
134
  6
CONTINUOUS
 10
120.000000
 20
131.230647
 11
121.931852
 21
130.713009
  0
LINE
  8
2
 62
134
  6
CONTINUOUS
 10
121.931852
 20
131.748285
 11
121.931852
 21
130.713009
  0
LINE
  8
2
 62
134
  6
CONTINUOUS
 10
120.482963
 20
131.230647
 11
121.448889
 21
131.489466
  0
LINE
  8
2
 62
134
  6
CONTINUOUS
 10
120.482963
 20
131.230647
 11
121.448889
 21
130.971828
  0
LINE
  8
2
 62
134
  6
CONTINUOUS
 10
121.448889
 20
131.489466
 11
121.448889
 21
130.971828
  0
LINE
  8
2
 62
134
  6
CONTINUOUS
 10
131.000000
 20
131.230647
 11
129.068148
 21
130.713009
  0
LINE
  8
2
 62
134
  6
CONTINUOUS
 10
131.000000
 20
131.230647
 11
129.068148
 21
131.748285
  0
LINE
  8
2
 62
134
  6
CONTINUOUS
 10
129.068148
 20
130.713009
 11
129.068148
 21
131.748285
  0
LINE
  8
2
 62
134
  6
CONTINUOUS
 10
130.517037
 20
131.230647
 11
129.551111
 21
130.971828
  0
LINE
  8
2
 62
134
  6
CONTINUOUS
 10
130.517037
 20
131.230647
 11
129.551111
 21
131.489466
  0
LINE
  8
2
 62
134
  6
CONTINUOUS
 10
129.551111
 20
130.971828
 11
129.551111
 21
131.489466
  0
TEXT
  8
2
 62
134
  6
CONTINUOUS
 10
123.070975
 20
131.230647
 40
4.000000
 41
0.500000
  1
11
  7
KANJI
 50
0.000000
 51
30.000000
  0
ENDBLK
  0
BLOCK
  8
2
 62
134
  6
CONTINUOUS
  2
*D2
 70
    65
 10
0.0
 20
0.0
  0
LINE
  8
2
 62
134
  6
CONTINUOUS
 10
110.641439
 20
145.000000
 11
110.641439
 21
165.499998
  0
LINE
  8
2
 62
134
  6
CONTINUOUS
 10
108.641439
 20
145.000000
 11
118.000000
 21
145.000000
  0
LINE
  8
2
 62
134
  6
CONTINUOUS
 10
108.641439
 20
165.499998
 11
127.000033
 21
165.499998
  0
LINE
  8
2
 62
134
  6
CONTINUOUS
 10
110.641439
 20
145.000000
 11
110.123801
 21
146.931852
  0
LINE
  8
2
 62
134
  6
CONTINUOUS
 10
110.641439
 20
145.000000
 11
111.159077
 21
146.931852
  0
LINE
  8
2
 62
134
  6
CONTINUOUS
 10
110.123801
 20
146.931852
 11
111.159077
 21
146.931852
  0
LINE
  8
2
 62
134
  6
CONTINUOUS
 10
110.641439
 20
145.482963
 11
110.382620
 21
146.448889
  0
LINE
  8
2
 62
134
  6
CONTINUOUS
 10
110.641439
 20
145.482963
 11
110.900258
 21
146.448889
  0
LINE
  8
2
 62
134
  6
CONTINUOUS
 10
110.382620
 20
146.448889
 11
110.900258
 21
146.448889
  0
LINE
  8
2
 62
134
  6
CONTINUOUS
 10
110.641439
 20
165.499998
 11
111.159077
 21
163.568147
  0
LINE
  8
2
 62
134
  6
CONTINUOUS
 10
110.641439
 20
165.499998
 11
110.123801
 21
163.568147
  0
LINE
  8
2
 62
134
  6
CONTINUOUS
 10
111.159077
 20
163.568147
 11
110.123801
 21
163.568147
  0
LINE
  8
2
 62
134
  6
CONTINUOUS
 10
110.641439
 20
165.017035
 11
110.900258
 21
164.051110
  0
LINE
  8
2
 62
134
  6
CONTINUOUS
 10
110.641439
 20
165.017035
 11
110.382620
 21
164.051110
  0
LINE
  8
2
 62
134
  6
CONTINUOUS
 10
110.900258
 20
164.051110
 11
110.382620
 21
164.051110
  0
TEXT
  8
2
 62
134
  6
CONTINUOUS
 10
110.641439
 20
151.790796
 40
4.000000
 41
0.500000
  1
20.5
  7
KANJI
 50
90.000000
 51
30.000000
  0
ENDBLK
  0
BLOCK
  8
2
 62
134
  6
CONTINUOUS
  2
*D3
 70
    65
 10
0.0
 20
0.0
  0
LINE
  8
2
 62
134
  6
CONTINUOUS
 10
110.641439
 20
165.499998
 11
110.641439
 21
187.000002
  0
LINE
  8
2
 62
134
  6
CONTINUOUS
 10
108.641439
 20
165.499998
 11
127.000033
 21
165.499998
  0
LINE
  8
2
 62
134
  6
CONTINUOUS
 10
108.641439
 20
187.000002
 11
127.000000
 21
187.000002
  0
LINE
  8
2
 62
134
  6
CONTINUOUS
 10
110.641439
 20
165.499998
 11
110.123801
 21
167.431850
  0
LINE
  8
2
 62
134
  6
CONTINUOUS
 10
110.641439
 20
165.499998
 11
111.159077
 21
167.431850
  0
LINE
  8
2
 62
134
  6
CONTINUOUS
 10
110.123801
 20
167.431850
 11
111.159077
 21
167.431850
  0
LINE
  8
2
 62
134
  6
CONTINUOUS
 10
110.641439
 20
165.982961
 11
110.382620
 21
166.948887
  0
LINE
  8
2
 62
134
  6
CONTINUOUS
 10
110.641439
 20
165.982961
 11
110.900258
 21
166.948887
  0
LINE
  8
2
 62
134
  6
CONTINUOUS
 10
110.382620
 20
166.948887
 11
110.900258
 21
166.948887
  0
LINE
  8
2
 62
134
  6
CONTINUOUS
 10
110.641439
 20
187.000002
 11
111.159077
 21
185.068150
  0
LINE
  8
2
 62
134
  6
CONTINUOUS
 10
110.641439
 20
187.000002
 11
110.123801
 21
185.068150
  0
LINE
  8
2
 62
134
  6
CONTINUOUS
 10
111.159077
 20
185.068150
 11
110.123801
 21
185.068150
  0
LINE
  8
2
 62
134
  6
CONTINUOUS
 10
110.641439
 20
186.517039
 11
110.900258
 21
185.551113
  0
LINE
  8
2
 62
134
  6
CONTINUOUS
 10
110.641439
 20
186.517039
 11
110.382620
 21
185.551113
  0
LINE
  8
2
 62
134
  6
CONTINUOUS
 10
110.900258
 20
185.551113
 11
110.382620
 21
185.551113
  0
TEXT
  8
2
 62
134
  6
CONTINUOUS
 10
110.641439
 20
172.210341
 40
4.000000
 41
0.500000
  1
21.5
  7
KANJI
 50
90.000000
 51
30.000000
  0
ENDBLK
  0
BLOCK
  8
2
 62
134
  6
CONTINUOUS
  2
*D4
 70
    65
 10
0.0
 20
0.0
  0
LINE
  8
2
 62
134
  6
CONTINUOUS
 10
131.000000
 20
131.230647
 11
151.000000
 21
131.230647
  0
LINE
  8
2
 62
134
  6
CONTINUOUS
 10
131.000000
 20
129.230647
 11
131.000000
 21
161.511563
  0
LINE
  8
2
 62
134
  6
CONTINUOUS
 10
151.000000
 20
129.230647
 11
151.000000
 21
158.500000
  0
LINE
  8
2
 62
134
  6
CONTINUOUS
 10
131.000000
 20
131.230647
 11
132.931852
 21
131.748285
  0
LINE
  8
2
 62
134
  6
CONTINUOUS
 10
131.000000
 20
131.230647
 11
132.931852
 21
130.713009
  0
LINE
  8
2
 62
134
  6
CONTINUOUS
 10
132.931852
 20
131.748285
 11
132.931852
 21
130.713009
  0
LINE
  8
2
 62
134
  6
CONTINUOUS
 10
131.482963
 20
131.230647
 11
132.448889
 21
131.489466
  0
LINE
  8
2
 62
134
  6
CONTINUOUS
 10
131.482963
 20
131.230647
 11
132.448889
 21
130.971828
  0
LINE
  8
2
 62
134
  6
CONTINUOUS
 10
132.448889
 20
131.489466
 11
132.448889
 21
130.971828
  0
LINE
  8
2
 62
134
  6
CONTINUOUS
 10
151.000000
 20
131.230647
 11
149.068148
 21
130.713009
  0
LINE
  8
2
 62
134
  6
CONTINUOUS
 10
151.000000
 20
131.230647
 11
149.068148
 21
131.748285
  0
LINE
  8
2
 62
134
  6
CONTINUOUS
 10
149.068148
 20
130.713009
 11
149.068148
 21
131.748285
  0
LINE
  8
2
 62
134
  6
CONTINUOUS
 10
150.517037
 20
131.230647
 11
149.551111
 21
130.971828
  0
LINE
  8
2
 62
134
  6
CONTINUOUS
 10
150.517037
 20
131.230647
 11
149.551111
 21
131.489466
  0
LINE
  8
2
 62
134
  6
CONTINUOUS
 10
149.551111
 20
130.971828
 11
149.551111
 21
131.489466
  0
TEXT
  8
2
 62
134
  6
CONTINUOUS
 10
138.703547
 20
131.230647
 40
4.000000
 41
0.500000
  1
20
  7
KANJI
 50
0.000000
 51
30.000000
  0
ENDBLK
  0
BLOCK
  8
2
 62
134
  6
CONTINUOUS
  2
*D5
 70
    65
 10
0.0
 20
0.0
  0
LINE
  8
2
 62
134
  6
CONTINUOUS
 10
36.707848
 20
145.000002
 11
36.707848
 21
191.000002
  0
LINE
  8
2
 62
134
  6
CONTINUOUS
 10
34.707848
 20
145.000002
 11
49.000000
 21
145.000002
  0
LINE
  8
2
 62
134
  6
CONTINUOUS
 10
34.707848
 20
191.000002
 11
47.500000
 21
191.000002
  0
LINE
  8
2
 62
134
  6
CONTINUOUS
 10
36.707848
 20
145.000002
 11
36.190209
 21
146.931853
  0
LINE
  8
2
 62
134
  6
CONTINUOUS
 10
36.707848
 20
145.000002
 11
37.225486
 21
146.931853
  0
LINE
  8
2
 62
134
  6
CONTINUOUS
 10
36.190209
 20
146.931853
 11
37.225486
 21
146.931853
  0
LINE
  8
2
 62
134
  6
CONTINUOUS
 10
36.707848
 20
145.482965
 11
36.449028
 21
146.448890
  0
LINE
  8
2
 62
134
  6
CONTINUOUS
 10
36.707848
 20
145.482965
 11
36.966667
 21
146.448890
  0
LINE
  8
2
 62
134
  6
CONTINUOUS
 10
36.449028
 20
146.448890
 11
36.966667
 21
146.448890
  0
LINE
  8
2
 62
134
  6
CONTINUOUS
 10
36.707848
 20
191.000002
 11
37.225486
 21
189.068150
  0
LINE
  8
2
 62
134
  6
CONTINUOUS
 10
36.707848
 20
191.000002
 11
36.190209
 21
189.068150
  0
LINE
  8
2
 62
134
  6
CONTINUOUS
 10
37.225486
 20
189.068150
 11
36.190209
 21
189.068150
  0
LINE
  8
2
 62
134
  6
CONTINUOUS
 10
36.707848
 20
190.517039
 11
36.966667
 21
189.551113
  0
LINE
  8
2
 62
134
  6
CONTINUOUS
 10
36.707848
 20
190.517039
 11
36.449028
 21
189.551113
  0
LINE
  8
2
 62
134
  6
CONTINUOUS
 10
36.966667
 20
189.551113
 11
36.449028
 21
189.551113
  0
TEXT
  8
2
 62
134
  6
CONTINUOUS
 10
36.707848
 20
165.896649
 40
4.000000
 41
0.500000
  1
46
  7
KANJI
 50
90.000000
 51
30.000000
  0
ENDBLK
  0
BLOCK
  8
2
 62
134
  6
CONTINUOUS
  2
*D6
 70
    65
 10
0.0
 20
0.0
  0
LINE
  8
2
 62
134
  6
CONTINUOUS
 10
49.500000
 20
131.230647
 11
87.500000
 21
131.230647
  0
LINE
  8
2
 62
134
  6
CONTINUOUS
 10
49.500000
 20
129.230647
 11
49.500000
 21
144.500002
  0
LINE
  8
2
 62
134
  6
CONTINUOUS
 10
87.500000
 20
129.230647
 11
87.500000
 21
143.000002
  0
LINE
  8
2
 62
134
  6
CONTINUOUS
 10
49.500000
 20
131.230647
 11
51.431852
 21
131.748285
  0
LINE
  8
2
 62
134
  6
CONTINUOUS
 10
49.500000
 20
131.230647
 11
51.431852
 21
130.713009
  0
LINE
  8
2
 62
134
  6
CONTINUOUS
 10
51.431852
 20
131.748285
 11
51.431852
 21
130.713009
  0
LINE
  8
2
 62
134
  6
CONTINUOUS
 10
49.982963
 20
131.230647
 11
50.948889
 21
131.489466
  0
LINE
  8
2
 62
134
  6
CONTINUOUS
 10
49.982963
 20
131.230647
 11
50.948889
 21
130.971828
  0
LINE
  8
2
 62
134
  6
CONTINUOUS
 10
50.948889
 20
131.489466
 11
50.948889
 21
130.971828
  0
LINE
  8
2
 62
134
  6
CONTINUOUS
 10
87.500000
 20
131.230647
 11
85.568148
 21
130.713009
  0
LINE
  8
2
 62
134
  6
CONTINUOUS
 10
87.500000
 20
131.230647
 11
85.568148
 21
131.748285
  0
LINE
  8
2
 62
134
  6
CONTINUOUS
 10
85.568148
 20
130.713009
 11
85.568148
 21
131.748285
  0
LINE
  8
2
 62
134
  6
CONTINUOUS
 10
87.017037
 20
131.230647
 11
86.051111
 21
130.971828
  0
LINE
  8
2
 62
134
  6
CONTINUOUS
 10
87.017037
 20
131.230647
 11
86.051111
 21
131.489466
  0
LINE
  8
2
 62
134
  6
CONTINUOUS
 10
86.051111
 20
130.971828
 11
86.051111
 21
131.489466
  0
TEXT
  8
2
 62
134
  6
CONTINUOUS
 10
66.020086
 20
131.230647
 40
4.000000
 41
0.500000
  1
38
  7
KANJI
 50
0.000000
 51
30.000000
  0
ENDBLK
  0
BLOCK
  8
2
 62
134
  6
CONTINUOUS
  2
*D7
 70
    65
 10
0.0
 20
0.0
  0
LINE
  8
2
 62
134
  6
CONTINUOUS
 10
125.500000
 20
209.941351
 11
145.500000
 21
209.941351
  0
LINE
  8
2
 62
134
  6
CONTINUOUS
 10
125.500000
 20
207.941351
 11
125.500000
 21
221.737894
  0
LINE
  8
2
 62
134
  6
CONTINUOUS
 10
145.500000
 20
207.941351
 11
145.500000
 21
218.737894
  0
LINE
  8
2
 62
134
  6
CONTINUOUS
 10
125.500000
 20
209.941351
 11
127.431852
 21
210.458989
  0
LINE
  8
2
 62
134
  6
CONTINUOUS
 10
125.500000
 20
209.941351
 11
127.431852
 21
209.423713
  0
LINE
  8
2
 62
134
  6
CONTINUOUS
 10
127.431852
 20
210.458989
 11
127.431852
 21
209.423713
  0
LINE
  8
2
 62
134
  6
CONTINUOUS
 10
125.982963
 20
209.941351
 11
126.948889
 21
210.200170
  0
LINE
  8
2
 62
134
  6
CONTINUOUS
 10
125.982963
 20
209.941351
 11
126.948889
 21
209.682532
  0
LINE
  8
2
 62
134
  6
CONTINUOUS
 10
126.948889
 20
210.200170
 11
126.948889
 21
209.682532
  0
LINE
  8
2
 62
134
  6
CONTINUOUS
 10
145.500000
 20
209.941351
 11
143.568148
 21
209.423713
  0
LINE
  8
2
 62
134
  6
CONTINUOUS
 10
145.500000
 20
209.941351
 11
143.568148
 21
210.458989
  0
LINE
  8
2
 62
134
  6
CONTINUOUS
 10
143.568148
 20
209.423713
 11
143.568148
 21
210.458989
  0
LINE
  8
2
 62
134
  6
CONTINUOUS
 10
145.017037
 20
209.941351
 11
144.051111
 21
209.682532
  0
LINE
  8
2
 62
134
  6
CONTINUOUS
 10
145.017037
 20
209.941351
 11
144.051111
 21
210.200170
  0
LINE
  8
2
 62
134
  6
CONTINUOUS
 10
144.051111
 20
209.682532
 11
144.051111
 21
210.200170
  0
TEXT
  8
2
 62
134
  6
CONTINUOUS
 10
132.610177
 20
209.941351
 40
4.000000
 41
0.500000
  1
20
  7
KANJI
 50
0.000000
 51
30.000000
  0
ENDBLK
  0
BLOCK
  8
2
 62
134
  6
CONTINUOUS
  2
*D8
 70
    65
 10
0.0
 20
0.0
  0
LINE
  8
2
 62
134
  6
CONTINUOUS
 10
109.977237
 20
209.941351
 11
133.500000
 21
209.941351
  0
LINE
  8
2
 62
134
  6
CONTINUOUS
 10
120.000000
 20
207.941351
 11
120.000000
 21
218.737894
  0
LINE
  8
2
 62
134
  6
CONTINUOUS
 10
125.500000
 20
207.941351
 11
125.500000
 21
221.737894
  0
LINE
  8
2
 62
134
  6
CONTINUOUS
 10
120.000000
 20
209.941351
 11
118.068148
 21
209.423713
  0
LINE
  8
2
 62
134
  6
CONTINUOUS
 10
120.000000
 20
209.941351
 11
118.068148
 21
210.458989
  0
LINE
  8
2
 62
134
  6
CONTINUOUS
 10
118.068148
 20
209.423713
 11
118.068148
 21
210.458989
  0
LINE
  8
2
 62
134
  6
CONTINUOUS
 10
119.517037
 20
209.941351
 11
118.551111
 21
209.682532
  0
LINE
  8
2
 62
134
  6
CONTINUOUS
 10
119.517037
 20
209.941351
 11
118.551111
 21
210.200170
  0
LINE
  8
2
 62
134
  6
CONTINUOUS
 10
118.551111
 20
209.682532
 11
118.551111
 21
210.200170
  0
LINE
  8
2
 62
134
  6
CONTINUOUS
 10
125.500000
 20
209.941351
 11
127.431852
 21
210.458989
  0
LINE
  8
2
 62
134
  6
CONTINUOUS
 10
125.500000
 20
209.941351
 11
127.431852
 21
209.423713
  0
LINE
  8
2
 62
134
  6
CONTINUOUS
 10
127.431852
 20
210.458989
 11
127.431852
 21
209.423713
  0
LINE
  8
2
 62
134
  6
CONTINUOUS
 10
125.982963
 20
209.941351
 11
126.948889
 21
210.200170
  0
LINE
  8
2
 62
134
  6
CONTINUOUS
 10
125.982963
 20
209.941351
 11
126.948889
 21
209.682532
  0
LINE
  8
2
 62
134
  6
CONTINUOUS
 10
126.948889
 20
210.200170
 11
126.948889
 21
209.682532
  0
TEXT
  8
2
 62
134
  6
CONTINUOUS
 10
110.977237
 20
209.941351
 40
4.000000
 41
0.500000
  1
5.5
  7
KANJI
 50
0.000000
 51
30.000000
  0
ENDBLK
  0
BLOCK
  8
2
 62
134
  6
CONTINUOUS
  2
*D9
 70
    65
 10
0.0
 20
0.0
  0
LINE
  8
2
 62
134
  6
CONTINUOUS
 10
110.444199
 20
218.737894
 11
110.444199
 21
225.737894
  0
LINE
  8
2
 62
134
  6
CONTINUOUS
 10
108.444199
 20
218.737894
 11
120.000000
 21
218.737894
  0
LINE
  8
2
 62
134
  6
CONTINUOUS
 10
108.444199
 20
225.737894
 11
120.315206
 21
225.737894
  0
LINE
  8
2
 62
134
  6
CONTINUOUS
 10
110.444199
 20
218.737894
 11
109.926561
 21
220.669745
  0
LINE
  8
2
 62
134
  6
CONTINUOUS
 10
110.444199
 20
218.737894
 11
110.961837
 21
220.669745
  0
LINE
  8
2
 62
134
  6
CONTINUOUS
 10
109.926561
 20
220.669745
 11
110.961837
 21
220.669745
  0
LINE
  8
2
 62
134
  6
CONTINUOUS
 10
110.444199
 20
219.220857
 11
110.185380
 21
220.186782
  0
LINE
  8
2
 62
134
  6
CONTINUOUS
 10
110.444199
 20
219.220857
 11
110.703018
 21
220.186782
  0
LINE
  8
2
 62
134
  6
CONTINUOUS
 10
110.185380
 20
220.186782
 11
110.703018
 21
220.186782
  0
LINE
  8
2
 62
134
  6
CONTINUOUS
 10
110.444199
 20
225.737894
 11
110.961837
 21
223.806042
  0
LINE
  8
2
 62
134
  6
CONTINUOUS
 10
110.444199
 20
225.737894
 11
109.926561
 21
223.806042
  0
LINE
  8
2
 62
134
  6
CONTINUOUS
 10
110.961837
 20
223.806042
 11
109.926561
 21
223.806042
  0
LINE
  8
2
 62
134
  6
CONTINUOUS
 10
110.444199
 20
225.254931
 11
110.703018
 21
224.289005
  0
LINE
  8
2
 62
134
  6
CONTINUOUS
 10
110.444199
 20
225.254931
 11
110.185380
 21
224.289005
  0
LINE
  8
2
 62
134
  6
CONTINUOUS
 10
110.703018
 20
224.289005
 11
110.185380
 21
224.289005
  0
TEXT
  8
2
 62
134
  6
CONTINUOUS
 10
110.444199
 20
221.518965
 40
4.000000
 41
0.500000
  1
7
  7
KANJI
 50
90.000000
 51
30.000000
  0
ENDBLK
  0
BLOCK
  8
2
 62
134
  6
CONTINUOUS
  2
*D10
 70
    65
 10
0.0
 20
0.0
  0
LINE
  8
2
 62
134
  6
CONTINUOUS
 10
110.444199
 20
225.737894
 11
110.444199
 21
256.737894
  0
LINE
  8
2
 62
134
  6
CONTINUOUS
 10
108.444199
 20
225.737894
 11
118.000000
 21
225.737894
  0
LINE
  8
2
 62
134
  6
CONTINUOUS
 10
108.444199
 20
256.737894
 11
118.000000
 21
256.737894
  0
LINE
  8
2
 62
134
  6
CONTINUOUS
 10
110.444199
 20
225.737894
 11
109.926561
 21
227.669745
  0
LINE
  8
2
 62
134
  6
CONTINUOUS
 10
110.444199
 20
225.737894
 11
110.961837
 21
227.669745
  0
LINE
  8
2
 62
134
  6
CONTINUOUS
 10
109.926561
 20
227.669745
 11
110.961837
 21
227.669745
  0
LINE
  8
2
 62
134
  6
CONTINUOUS
 10
110.444199
 20
226.220857
 11
110.185380
 21
227.186782
  0
LINE
  8
2
 62
134
  6
CONTINUOUS
 10
110.444199
 20
226.220857
 11
110.703018
 21
227.186782
  0
LINE
  8
2
 62
134
  6
CONTINUOUS
 10
110.185380
 20
227.186782
 11
110.703018
 21
227.186782
  0
LINE
  8
2
 62
134
  6
CONTINUOUS
 10
110.444199
 20
256.737894
 11
110.961837
 21
254.806042
  0
LINE
  8
2
 62
134
  6
CONTINUOUS
 10
110.444199
 20
256.737894
 11
109.926561
 21
254.806042
  0
LINE
  8
2
 62
134
  6
CONTINUOUS
 10
110.961837
 20
254.806042
 11
109.926561
 21
254.806042
  0
LINE
  8
2
 62
134
  6
CONTINUOUS
 10
110.444199
 20
256.254931
 11
110.703018
 21
255.289005
  0
LINE
  8
2
 62
134
  6
CONTINUOUS
 10
110.444199
 20
256.254931
 11
110.185380
 21
255.289005
  0
LINE
  8
2
 62
134
  6
CONTINUOUS
 10
110.703018
 20
255.289005
 11
110.185380
 21
255.289005
  0
TEXT
  8
2
 62
134
  6
CONTINUOUS
 10
110.444199
 20
238.646136
 40
4.000000
 41
0.500000
  1
31
  7
KANJI
 50
90.000000
 51
30.000000
  0
ENDBLK
  0
BLOCK
  8
2
 62
134
  6
CONTINUOUS
  2
*D11
 70
    65
 10
0.0
 20
0.0
  0
LINE
  8
2
 62
134
  6
CONTINUOUS
 10
156.000000
 20
219.737894
 11
166.091377
 21
209.646516
  0
LINE
  8
2
 62
134
  6
CONTINUOUS
 10
156.000000
 20
219.737894
 11
157.732051
 21
218.737894
  0
LINE
  8
2
 62
134
  6
CONTINUOUS
 10
156.000000
 20
219.737894
 11
157.000000
 21
218.005843
  0
LINE
  8
2
 62
134
  6
CONTINUOUS
 10
157.732051
 20
218.737894
 11
157.000000
 21
218.005843
  0
LINE
  8
2
 62
134
  6
CONTINUOUS
 10
156.341506
 20
219.396387
 11
157.207532
 21
218.896387
  0
LINE
  8
2
 62
134
  6
CONTINUOUS
 10
156.341506
 20
219.396387
 11
156.841506
 21
218.530362
  0
LINE
  8
2
 62
134
  6
CONTINUOUS
 10
157.207532
 20
218.896387
 11
156.841506
 21
218.530362
  0
TEXT
  8
2
 62
134
  6
CONTINUOUS
 10
159.450460
 20
216.287434
 40
4.000000
 41
0.500000
  1
4-C2
  7
KANJI
 50
-45.000000
 51
30.000000
  0
ENDBLK
  0
BLOCK
  8
2
 62
134
  6
CONTINUOUS
  2
*D12
 70
    65
 10
0.0
 20
0.0
  0
LINE
  8
2
 62
134
  6
CONTINUOUS
 10
141.000000
 20
196.492673
 11
161.000000
 21
196.492673
  0
LINE
  8
2
 62
134
  6
CONTINUOUS
 10
149.000000
 20
198.492673
 11
149.000000
 21
187.388342
  0
LINE
  8
2
 62
134
  6
CONTINUOUS
 10
153.000000
 20
198.492673
 11
153.000000
 21
187.018197
  0
LINE
  8
2
 62
134
  6
CONTINUOUS
 10
149.000000
 20
196.492673
 11
147.068148
 21
195.975035
  0
LINE
  8
2
 62
134
  6
CONTINUOUS
 10
149.000000
 20
196.492673
 11
147.068148
 21
197.010311
  0
LINE
  8
2
 62
134
  6
CONTINUOUS
 10
147.068148
 20
195.975035
 11
147.068148
 21
197.010311
  0
LINE
  8
2
 62
134
  6
CONTINUOUS
 10
148.517037
 20
196.492673
 11
147.551111
 21
196.233854
  0
LINE
  8
2
 62
134
  6
CONTINUOUS
 10
148.517037
 20
196.492673
 11
147.551111
 21
196.751492
  0
LINE
  8
2
 62
134
  6
CONTINUOUS
 10
147.551111
 20
196.233854
 11
147.551111
 21
196.751492
  0
LINE
  8
2
 62
134
  6
CONTINUOUS
 10
153.000000
 20
196.492673
 11
154.931852
 21
197.010311
  0
LINE
  8
2
 62
134
  6
CONTINUOUS
 10
153.000000
 20
196.492673
 11
154.931852
 21
195.975035
  0
LINE
  8
2
 62
134
  6
CONTINUOUS
 10
154.931852
 20
197.010311
 11
154.931852
 21
195.975035
  0
LINE
  8
2
 62
134
  6
CONTINUOUS
 10
153.482963
 20
196.492673
 11
154.448889
 21
196.751492
  0
LINE
  8
2
 62
134
  6
CONTINUOUS
 10
153.482963
 20
196.492673
 11
154.448889
 21
196.233854
  0
LINE
  8
2
 62
134
  6
CONTINUOUS
 10
154.448889
 20
196.751492
 11
154.448889
 21
196.233854
  0
TEXT
  8
2
 62
134
  6
CONTINUOUS
 10
150.138837
 20
196.492673
 40
4.000000
 41
0.500000
  1
4
  7
KANJI
 50
0.000000
 51
30.000000
  0
ENDBLK
  0
BLOCK
  8
2
 62
134
  6
CONTINUOUS
  2
*D13
 70
    65
 10
0.0
 20
0.0
  0
LINE
  8
2
 62
134
  6
CONTINUOUS
 10
165.910038
 20
181.000002
 11
165.910038
 21
189.000002
  0
LINE
  8
2
 62
134
  6
CONTINUOUS
 10
167.910038
 20
181.000002
 11
153.000000
 21
181.000002
  0
LINE
  8
2
 62
134
  6
CONTINUOUS
 10
167.910038
 20
189.000002
 11
153.000000
 21
189.000002
  0
LINE
  8
2
 62
134
  6
CONTINUOUS
 10
165.910038
 20
181.000002
 11
165.392400
 21
182.931853
  0
LINE
  8
2
 62
134
  6
CONTINUOUS
 10
165.910038
 20
181.000002
 11
166.427676
 21
182.931853
  0
LINE
  8
2
 62
134
  6
CONTINUOUS
 10
165.392400
 20
182.931853
 11
166.427676
 21
182.931853
  0
LINE
  8
2
 62
134
  6
CONTINUOUS
 10
165.910038
 20
181.482965
 11
165.651219
 21
182.448890
  0
LINE
  8
2
 62
134
  6
CONTINUOUS
 10
165.910038
 20
181.482965
 11
166.168857
 21
182.448890
  0
LINE
  8
2
 62
134
  6
CONTINUOUS
 10
165.651219
 20
182.448890
 11
166.168857
 21
182.448890
  0
LINE
  8
2
 62
134
  6
CONTINUOUS
 10
165.910038
 20
189.000002
 11
166.427676
 21
187.068150
  0
LINE
  8
2
 62
134
  6
CONTINUOUS
 10
165.910038
 20
189.000002
 11
165.392400
 21
187.068150
  0
LINE
  8
2
 62
134
  6
CONTINUOUS
 10
166.427676
 20
187.068150
 11
165.392400
 21
187.068150
  0
LINE
  8
2
 62
134
  6
CONTINUOUS
 10
165.910038
 20
188.517039
 11
166.168857
 21
187.551113
  0
LINE
  8
2
 62
134
  6
CONTINUOUS
 10
165.910038
 20
188.517039
 11
165.651219
 21
187.551113
  0
LINE
  8
2
 62
134
  6
CONTINUOUS
 10
166.168857
 20
187.551113
 11
165.651219
 21
187.551113
  0
TEXT
  8
2
 62
134
  6
CONTINUOUS
 10
165.910038
 20
183.714138
 40
4.000000
 41
0.500000
  1
8
  7
KANJI
 50
90.000000
 51
30.000000
  0
ENDBLK
  0
BLOCK
  8
2
 62
134
  6
CONTINUOUS
  2
*D14
 70
    65
 10
0.0
 20
0.0
  0
LINE
  8
2
 62
134
  6
CONTINUOUS
 10
165.910038
 20
169.499834
 11
165.910038
 21
181.000002
  0
LINE
  8
2
 62
134
  6
CONTINUOUS
 10
167.910038
 20
169.499834
 11
153.000000
 21
169.499834
  0
LINE
  8
2
 62
134
  6
CONTINUOUS
 10
167.910038
 20
181.000002
 11
153.000000
 21
181.000002
  0
LINE
  8
2
 62
134
  6
CONTINUOUS
 10
165.910038
 20
169.499834
 11
165.392400
 21
171.431686
  0
LINE
  8
2
 62
134
  6
CONTINUOUS
 10
165.910038
 20
169.499834
 11
166.427676
 21
171.431686
  0
LINE
  8
2
 62
134
  6
CONTINUOUS
 10
165.392400
 20
171.431686
 11
166.427676
 21
171.431686
  0
LINE
  8
2
 62
134
  6
CONTINUOUS
 10
165.910038
 20
169.982797
 11
165.651219
 21
170.948723
  0
LINE
  8
2
 62
134
  6
CONTINUOUS
 10
165.910038
 20
169.982797
 11
166.168857
 21
170.948723
  0
LINE
  8
2
 62
134
  6
CONTINUOUS
 10
165.651219
 20
170.948723
 11
166.168857
 21
170.948723
  0
LINE
  8
2
 62
134
  6
CONTINUOUS
 10
165.910038
 20
181.000002
 11
166.427676
 21
179.068150
  0
LINE
  8
2
 62
134
  6
CONTINUOUS
 10
165.910038
 20
181.000002
 11
165.392400
 21
179.068150
  0
LINE
  8
2
 62
134
  6
CONTINUOUS
 10
166.427676
 20
179.068150
 11
165.392400
 21
179.068150
  0
LINE
  8
2
 62
134
  6
CONTINUOUS
 10
165.910038
 20
180.517039
 11
166.168857
 21
179.551113
  0
LINE
  8
2
 62
134
  6
CONTINUOUS
 10
165.910038
 20
180.517039
 11
165.651219
 21
179.551113
  0
LINE
  8
2
 62
134
  6
CONTINUOUS
 10
166.168857
 20
179.551113
 11
165.651219
 21
179.551113
  0
TEXT
  8
2
 62
134
  6
CONTINUOUS
 10
165.910038
 20
171.551534
 40
4.000000
 41
0.500000
  1
11.5
  7
KANJI
 50
90.000000
 51
30.000000
  0
ENDBLK
  0
BLOCK
  8
2
 62
134
  6
CONTINUOUS
  2
*D15
 70
    65
 10
0.0
 20
0.0
  0
LINE
  8
2
 62
134
  6
CONTINUOUS
 10
165.910038
 20
145.000000
 11
165.910038
 21
161.500000
  0
LINE
  8
2
 62
134
  6
CONTINUOUS
 10
167.910038
 20
145.000000
 11
159.000000
 21
145.000000
  0
LINE
  8
2
 62
134
  6
CONTINUOUS
 10
167.910038
 20
161.500000
 11
153.036417
 21
161.500000
  0
LINE
  8
2
 62
134
  6
CONTINUOUS
 10
165.910038
 20
145.000000
 11
165.392400
 21
146.931852
  0
LINE
  8
2
 62
134
  6
CONTINUOUS
 10
165.910038
 20
145.000000
 11
166.427676
 21
146.931852
  0
LINE
  8
2
 62
134
  6
CONTINUOUS
 10
165.392400
 20
146.931852
 11
166.427676
 21
146.931852
  0
LINE
  8
2
 62
134
  6
CONTINUOUS
 10
165.910038
 20
145.482963
 11
165.651219
 21
146.448889
  0
LINE
  8
2
 62
134
  6
CONTINUOUS
 10
165.910038
 20
145.482963
 11
166.168857
 21
146.448889
  0
LINE
  8
2
 62
134
  6
CONTINUOUS
 10
165.651219
 20
146.448889
 11
166.168857
 21
146.448889
  0
LINE
  8
2
 62
134
  6
CONTINUOUS
 10
165.910038
 20
161.500000
 11
166.427676
 21
159.568148
  0
LINE
  8
2
 62
134
  6
CONTINUOUS
 10
165.910038
 20
161.500000
 11
165.392400
 21
159.568148
  0
LINE
  8
2
 62
134
  6
CONTINUOUS
 10
166.427676
 20
159.568148
 11
165.392400
 21
159.568148
  0
LINE
  8
2
 62
134
  6
CONTINUOUS
 10
165.910038
 20
161.017037
 11
166.168857
 21
160.051111
  0
LINE
  8
2
 62
134
  6
CONTINUOUS
 10
165.910038
 20
161.017037
 11
165.651219
 21
160.051111
  0
LINE
  8
2
 62
134
  6
CONTINUOUS
 10
166.168857
 20
160.051111
 11
165.651219
 21
160.051111
  0
TEXT
  8
2
 62
134
  6
CONTINUOUS
 10
165.910038
 20
149.981294
 40
4.000000
 41
0.500000
  1
16.5
  7
KANJI
 50
90.000000
 51
30.000000
  0
ENDBLK
  0
BLOCK
  8
2
 62
134
  6
CONTINUOUS
  2
*D16
 70
    65
 10
0.0
 20
0.0
  0
LINE
  8
2
 62
134
  6
CONTINUOUS
 10
165.910038
 20
161.500000
 11
165.910038
 21
169.499834
  0
LINE
  8
2
 62
134
  6
CONTINUOUS
 10
167.910038
 20
161.500000
 11
153.000000
 21
161.500000
  0
LINE
  8
2
 62
134
  6
CONTINUOUS
 10
167.910038
 20
169.499834
 11
153.000000
 21
169.499834
  0
LINE
  8
2
 62
134
  6
CONTINUOUS
 10
165.910038
 20
161.500000
 11
165.392400
 21
163.431852
  0
LINE
  8
2
 62
134
  6
CONTINUOUS
 10
165.910038
 20
161.500000
 11
166.427676
 21
163.431852
  0
LINE
  8
2
 62
134
  6
CONTINUOUS
 10
165.392400
 20
163.431852
 11
166.427676
 21
163.431852
  0
LINE
  8
2
 62
134
  6
CONTINUOUS
 10
165.910038
 20
161.982963
 11
165.651219
 21
162.948889
  0
LINE
  8
2
 62
134
  6
CONTINUOUS
 10
165.910038
 20
161.982963
 11
166.168857
 21
162.948889
  0
LINE
  8
2
 62
134
  6
CONTINUOUS
 10
165.651219
 20
162.948889
 11
166.168857
 21
162.948889
  0
LINE
  8
2
 62
134
  6
CONTINUOUS
 10
165.910038
 20
169.499834
 11
166.427676
 21
167.567983
  0
LINE
  8
2
 62
134
  6
CONTINUOUS
 10
165.910038
 20
169.499834
 11
165.392400
 21
167.567983
  0
LINE
  8
2
 62
134
  6
CONTINUOUS
 10
166.427676
 20
167.567983
 11
165.392400
 21
167.567983
  0
LINE
  8
2
 62
134
  6
CONTINUOUS
 10
165.910038
 20
169.016871
 11
166.168857
 21
168.050945
  0
LINE
  8
2
 62
134
  6
CONTINUOUS
 10
165.910038
 20
169.016871
 11
165.651219
 21
168.050945
  0
LINE
  8
2
 62
134
  6
CONTINUOUS
 10
166.168857
 20
168.050945
 11
165.651219
 21
168.050945
  0
TEXT
  8
2
 62
134
  6
CONTINUOUS
 10
165.910038
 20
164.189065
 40
4.000000
 41
0.500000
  1
8
  7
KANJI
 50
90.000000
 51
30.000000
  0
ENDBLK
  0
BLOCK
  8
2
 62
134
  6
CONTINUOUS
  2
*D17
 70
    65
 10
0.0
 20
0.0
  0
LINE
  8
2
 62
134
  6
CONTINUOUS
 10
168.527338
 20
215.007427
 11
168.527338
 21
229.737894
  0
LINE
  8
2
 62
134
  6
CONTINUOUS
 10
170.527338
 20
218.737894
 11
147.500000
 21
218.737894
  0
LINE
  8
2
 62
134
  6
CONTINUOUS
 10
170.527338
 20
221.737894
 11
147.500000
 21
221.737894
  0
LINE
  8
2
 62
134
  6
CONTINUOUS
 10
168.527338
 20
218.737894
 11
169.044976
 21
216.806042
  0
LINE
  8
2
 62
134
  6
CONTINUOUS
 10
168.527338
 20
218.737894
 11
168.009700
 21
216.806042
  0
LINE
  8
2
 62
134
  6
CONTINUOUS
 10
169.044976
 20
216.806042
 11
168.009700
 21
216.806042
  0
LINE
  8
2
 62
134
  6
CONTINUOUS
 10
168.527338
 20
218.254931
 11
168.786157
 21
217.289005
  0
LINE
  8
2
 62
134
  6
CONTINUOUS
 10
168.527338
 20
218.254931
 11
168.268519
 21
217.289005
  0
LINE
  8
2
 62
134
  6
CONTINUOUS
 10
168.786157
 20
217.289005
 11
168.268519
 21
217.289005
  0
LINE
  8
2
 62
134
  6
CONTINUOUS
 10
168.527338
 20
221.737894
 11
168.009700
 21
223.669745
  0
LINE
  8
2
 62
134
  6
CONTINUOUS
 10
168.527338
 20
221.737894
 11
169.044976
 21
223.669745
  0
LINE
  8
2
 62
134
  6
CONTINUOUS
 10
168.009700
 20
223.669745
 11
169.044976
 21
223.669745
  0
LINE
  8
2
 62
134
  6
CONTINUOUS
 10
168.527338
 20
222.220857
 11
168.268519
 21
223.186782
  0
LINE
  8
2
 62
134
  6
CONTINUOUS
 10
168.527338
 20
222.220857
 11
168.786157
 21
223.186782
  0
LINE
  8
2
 62
134
  6
CONTINUOUS
 10
168.268519
 20
223.186782
 11
168.786157
 21
223.186782
  0
TEXT
  8
2
 62
134
  6
CONTINUOUS
 10
168.527338
 20
216.007427
 40
4.000000
 41
0.500000
  1
3
  7
KANJI
 50
90.000000
 51
30.000000
  0
ENDBLK
  0
BLOCK
  8
2
 62
134
  6
CONTINUOUS
  2
*D18
 70
    65
 10
0.0
 20
0.0
  0
LINE
  8
2
 62
134
  6
CONTINUOUS
 10
135.500000
 20
235.096579
 11
155.500000
 21
235.096579
  0
LINE
  8
2
 62
134
  6
CONTINUOUS
 10
143.500000
 20
237.096579
 11
143.500000
 21
229.686713
  0
LINE
  8
2
 62
134
  6
CONTINUOUS
 10
147.500000
 20
237.096579
 11
147.500000
 21
229.686713
  0
LINE
  8
2
 62
134
  6
CONTINUOUS
 10
143.500000
 20
235.096579
 11
141.568148
 21
234.578941
  0
LINE
  8
2
 62
134
  6
CONTINUOUS
 10
143.500000
 20
235.096579
 11
141.568148
 21
235.614217
  0
LINE
  8
2
 62
134
  6
CONTINUOUS
 10
141.568148
 20
234.578941
 11
141.568148
 21
235.614217
  0
LINE
  8
2
 62
134
  6
CONTINUOUS
 10
143.017037
 20
235.096579
 11
142.051111
 21
234.837760
  0
LINE
  8
2
 62
134
  6
CONTINUOUS
 10
143.017037
 20
235.096579
 11
142.051111
 21
235.355398
  0
LINE
  8
2
 62
134
  6
CONTINUOUS
 10
142.051111
 20
234.837760
 11
142.051111
 21
235.355398
  0
LINE
  8
2
 62
134
  6
CONTINUOUS
 10
147.500000
 20
235.096579
 11
149.431852
 21
235.614217
  0
LINE
  8
2
 62
134
  6
CONTINUOUS
 10
147.500000
 20
235.096579
 11
149.431852
 21
234.578941
  0
LINE
  8
2
 62
134
  6
CONTINUOUS
 10
149.431852
 20
235.614217
 11
149.431852
 21
234.578941
  0
LINE
  8
2
 62
134
  6
CONTINUOUS
 10
147.982963
 20
235.096579
 11
148.948889
 21
235.355398
  0
LINE
  8
2
 62
134
  6
CONTINUOUS
 10
147.982963
 20
235.096579
 11
148.948889
 21
234.837760
  0
LINE
  8
2
 62
134
  6
CONTINUOUS
 10
148.948889
 20
235.355398
 11
148.948889
 21
234.837760
  0
TEXT
  8
2
 62
134
  6
CONTINUOUS
 10
144.491932
 20
235.096579
 40
4.000000
 41
0.500000
  1
4
  7
KANJI
 50
0.000000
 51
30.000000
  0
ENDBLK
  0
BLOCK
  8
2
 62
134
  6
CONTINUOUS
  2
*D19
 70
    65
 10
0.0
 20
0.0
  0
LINE
  8
2
 62
134
  6
CONTINUOUS
 10
168.527338
 20
221.737894
 11
168.527338
 21
229.737894
  0
LINE
  8
2
 62
134
  6
CONTINUOUS
 10
170.527338
 20
221.737894
 11
147.500000
 21
221.737894
  0
LINE
  8
2
 62
134
  6
CONTINUOUS
 10
170.527338
 20
229.737894
 11
147.500000
 21
229.737894
  0
LINE
  8
2
 62
134
  6
CONTINUOUS
 10
168.527338
 20
221.737894
 11
168.009700
 21
223.669745
  0
LINE
  8
2
 62
134
  6
CONTINUOUS
 10
168.527338
 20
221.737894
 11
169.044976
 21
223.669745
  0
LINE
  8
2
 62
134
  6
CONTINUOUS
 10
168.009700
 20
223.669745
 11
169.044976
 21
223.669745
  0
LINE
  8
2
 62
134
  6
CONTINUOUS
 10
168.527338
 20
222.220857
 11
168.268519
 21
223.186782
  0
LINE
  8
2
 62
134
  6
CONTINUOUS
 10
168.527338
 20
222.220857
 11
168.786157
 21
223.186782
  0
LINE
  8
2
 62
134
  6
CONTINUOUS
 10
168.268519
 20
223.186782
 11
168.786157
 21
223.186782
  0
LINE
  8
2
 62
134
  6
CONTINUOUS
 10
168.527338
 20
229.737894
 11
169.044976
 21
227.806042
  0
LINE
  8
2
 62
134
  6
CONTINUOUS
 10
168.527338
 20
229.737894
 11
168.009700
 21
227.806042
  0
LINE
  8
2
 62
134
  6
CONTINUOUS
 10
169.044976
 20
227.806042
 11
168.009700
 21
227.806042
  0
LINE
  8
2
 62
134
  6
CONTINUOUS
 10
168.527338
 20
229.254931
 11
168.786157
 21
228.289005
  0
LINE
  8
2
 62
134
  6
CONTINUOUS
 10
168.527338
 20
229.254931
 11
168.268519
 21
228.289005
  0
LINE
  8
2
 62
134
  6
CONTINUOUS
 10
168.786157
 20
228.289005
 11
168.268519
 21
228.289005
  0
TEXT
  8
2
 62
134
  6
CONTINUOUS
 10
168.527338
 20
224.628038
 40
4.000000
 41
0.500000
  1
8
  7
KANJI
 50
90.000000
 51
30.000000
  0
ENDBLK
  0
BLOCK
  8
2
 62
134
  6
CONTINUOUS
  2
*D20
 70
    65
 10
0.0
 20
0.0
  0
LINE
  8
2
 62
134
  6
CONTINUOUS
 10
120.000000
 20
124.557165
 11
157.000000
 21
124.557165
  0
LINE
  8
2
 62
134
  6
CONTINUOUS
 10
120.000000
 20
122.557165
 11
120.000000
 21
143.000000
  0
LINE
  8
2
 62
134
  6
CONTINUOUS
 10
157.000000
 20
122.557165
 11
157.000000
 21
143.000000
  0
LINE
  8
2
 62
134
  6
CONTINUOUS
 10
120.000000
 20
124.557165
 11
121.931852
 21
125.074803
  0
LINE
  8
2
 62
134
  6
CONTINUOUS
 10
120.000000
 20
124.557165
 11
121.931852
 21
124.039527
  0
LINE
  8
2
 62
134
  6
CONTINUOUS
 10
121.931852
 20
125.074803
 11
121.931852
 21
124.039527
  0
LINE
  8
2
 62
134
  6
CONTINUOUS
 10
120.482963
 20
124.557165
 11
121.448889
 21
124.815984
  0
LINE
  8
2
 62
134
  6
CONTINUOUS
 10
120.482963
 20
124.557165
 11
121.448889
 21
124.298346
  0
LINE
  8
2
 62
134
  6
CONTINUOUS
 10
121.448889
 20
124.815984
 11
121.448889
 21
124.298346
  0
LINE
  8
2
 62
134
  6
CONTINUOUS
 10
157.000000
 20
124.557165
 11
155.068148
 21
124.039527
  0
LINE
  8
2
 62
134
  6
CONTINUOUS
 10
157.000000
 20
124.557165
 11
155.068148
 21
125.074803
  0
LINE
  8
2
 62
134
  6
CONTINUOUS
 10
155.068148
 20
124.039527
 11
155.068148
 21
125.074803
  0
LINE
  8
2
 62
134
  6
CONTINUOUS
 10
156.517037
 20
124.557165
 11
155.551111
 21
124.298346
  0
LINE
  8
2
 62
134
  6
CONTINUOUS
 10
156.517037
 20
124.557165
 11
155.551111
 21
124.815984
  0
LINE
  8
2
 62
134
  6
CONTINUOUS
 10
155.551111
 20
124.298346
 11
155.551111
 21
124.815984
  0
TEXT
  8
2
 62
134
  6
CONTINUOUS
 10
137.742011
 20
124.557165
 40
4.000000
 41
0.500000
  1
37
  7
KANJI
 50
0.000000
 51
30.000000
  0
ENDBLK
  0
ENDSEC
  0
SECTION
  2
ENTITIES
  0
TEXT
  8
5
 62
94
  6
CONTINUOUS
 10
125.962748
 20
25.651490
 40
1.750000
 41
4.000000
  1
製図
  7
KANJI
 50
-90.000000
 51
0.000000
  0
TEXT
  8
5
 62
94
  6
CONTINUOUS
 10
145.795530
 20
25.487583
 40
1.750000
 41
4.000000
  1
図番
  7
KANJI
 50
-90.000000
 51
0.000000
  0
TEXT
  8
5
 62
94
  6
CONTINUOUS
 10
145.795530
 20
38.764073
 40
1.750000
 41
4.000000
  1
図　名
  7
KANJI
 50
-90.000000
 51
0.000000
  0
TEXT
  8
5
 62
94
  6
CONTINUOUS
 10
80.888245
 20
33.355132
 40
1.750000
 41
4.000000
  1
日付
  7
KANJI
 50
-90.000000
 51
0.000000
  0
TEXT
  8
5
 62
94
  6
CONTINUOUS
 10
115.964404
 20
33.519040
 40
1.750000
 41
4.000000
  1
図法
  7
KANJI
 50
-90.000000
 51
0.000000
  0
TEXT
  8
5
 62
94
  6
CONTINUOUS
 10
115.800497
 20
41.550497
 40
1.750000
 41
4.000000
  1
尺度
  7
KANJI
 50
-90.000000
 51
0.000000
  0
TEXT
  8
5
 62
94
  6
CONTINUOUS
 10
80.888245
 20
41.386589
 40
1.750000
 41
4.000000
  1
公差
  7
KANJI
 50
-90.000000
 51
0.000000
  0
TEXT
  8
5
 62
94
  6
CONTINUOUS
 10
80.888245
 20
25.487583
 40
1.750000
 41
4.000000
  1
承認
  7
KANJI
 50
-90.000000
 51
0.000000
  0
TEXT
  8
5
 62
94
  6
CONTINUOUS
 10
105.966060
 20
25.487583
 40
1.750000
 41
4.000000
  1
設計
  7
KANJI
 50
-90.000000
 51
0.000000
  0
TEXT
  8
5
 62
94
  6
CONTINUOUS
 10
99.409768
 20
11.555464
 40
4.500000
 41
1.888889
  1
ジャパンセンサー株式会社
  7
KANJI
 50
0.000000
 51
0.000000
  0
LINE
  8
5
 62
94
  6
CONTINUOUS
 10
200.000000
 20
10.000000
 11
200.000000
 21
285.000000
  0
LINE
  8
5
 62
94
  6
CONTINUOUS
 10
200.000000
 20
285.000000
 11
15.000000
 21
285.000000
  0
LINE
  8
5
 62
94
  6
CONTINUOUS
 10
15.000000
 20
285.000000
 11
15.000000
 21
10.000000
  0
LINE
  8
5
 62
94
  6
CONTINUOUS
 10
15.000000
 20
10.000000
 11
200.000000
 21
10.000000
  0
LINE
  8
5
 62
94
  6
CONTINUOUS
 10
80.000000
 20
42.000000
 11
200.000000
 21
42.000000
  0
LINE
  8
5
 62
94
  6
CONTINUOUS
 10
80.000000
 20
10.000000
 11
80.000000
 21
42.000000
  0
LINE
  8
5
 62
94
  6
CONTINUOUS
 10
200.000000
 20
18.000000
 11
80.000000
 21
18.000000
  0
LINE
  8
5
 62
94
  6
CONTINUOUS
 10
145.000000
 20
42.000000
 11
145.000000
 21
18.000000
  0
LINE
  8
5
 62
94
  6
CONTINUOUS
 10
200.000000
 20
26.000000
 11
80.000000
 21
26.000000
  0
LINE
  8
5
 62
94
  6
CONTINUOUS
 10
150.000000
 20
18.000000
 11
150.000000
 21
42.000000
  0
LINE
  8
5
 62
94
  6
CONTINUOUS
 10
120.000000
 20
42.000000
 11
120.000000
 21
26.000000
  0
LINE
  8
5
 62
94
  6
CONTINUOUS
 10
85.000000
 20
18.000000
 11
85.000000
 21
42.000000
  0
LINE
  8
5
 62
94
  6
CONTINUOUS
 10
80.000000
 20
34.000000
 11
145.000000
 21
34.000000
  0
LINE
  8
5
 62
94
  6
CONTINUOUS
 10
115.000000
 20
42.000000
 11
115.000000
 21
26.000000
  0
LINE
  8
5
 62
94
  6
CONTINUOUS
 10
105.000000
 20
18.000000
 11
105.000000
 21
26.000000
  0
LINE
  8
5
 62
94
  6
CONTINUOUS
 10
125.000000
 20
18.000000
 11
125.000000
 21
26.000000
  0
LINE
  8
5
 62
94
  6
CONTINUOUS
 10
110.000000
 20
26.000000
 11
110.000000
 21
18.000000
  0
LINE
  8
5
 62
94
  6
CONTINUOUS
 10
130.000000
 20
26.000000
 11
130.000000
 21
18.000000
  0
TEXT
  8
5
 62
94
  6
CONTINUOUS
 10
124.979305
 20
35.649834
 40
4.000000
 41
1.000000
  1
１／１
  7
KANJI
 50
0.000000
 51
0.000000
  0
TEXT
  8
5
 62
94
  6
CONTINUOUS
 10
123.995861
 20
27.290563
 40
4.000000
 41
1.000000
  1
三角法
  7
KANJI
 50
0.000000
 51
0.000000
  0
TEXT
  8
5
 62
94
  6
CONTINUOUS
 10
111.211093
 20
19.750828
 40
4.000000
 41
1.000000
  1
須藤
  7
KANJI
 50
0.810149
 51
0.000000
  0
TEXT
  8
5
 62
94
  6
CONTINUOUS
 10
131.207781
 20
19.914735
 40
4.000000
 41
1.000000
  1
須藤
  7
KANJI
 50
-0.112820
 51
0.000000
  0
LINE
  8
1
 62
7
  6
DASHDOT
 10
151.000000
 20
192.187502
 11
151.000000
 21
178.886813
  0
LINE
  8
1
 62
7
  6
DASHDOT
 10
125.298936
 20
187.000002
 11
135.019109
 21
187.000002
  0
LINE
  8
1
 62
7
  6
DASHDOT
 10
131.000000
 20
191.574665
 11
131.000000
 21
183.521186
  0
CIRCLE
  8
1
 62
7
  6
CONTINUOUS
 10
131.000000
 20
187.000002
 40
2.000000
  0
LINE
  8
1
 62
7
  6
DASHDOT
 10
44.166595
 20
187.000002
 11
56.201291
 21
187.000002
  0
DIMENSION
  8
2
 62
134
  6
CONTINUOUS
  2
*D1
 10
120.000000
 20
131.230647
 11
125.070975
 21
131.230647
 70
     0
  1
11
 13
120.000000
 23
143.000000
 14
131.000000
 24
161.511563
 50
0.000000
  0
DIMENSION
  8
2
 62
134
  6
CONTINUOUS
  2
*D2
 10
110.641439
 20
145.000000
 11
110.641439
 21
155.790796
 70
     0
  1
20.5
 13
118.000000
 23
145.000000
 14
127.000033
 24
165.499998
 50
90.000000
  0
DIMENSION
  8
2
 62
134
  6
CONTINUOUS
  2
*D3
 10
110.641439
 20
165.499998
 11
110.641439
 21
176.210341
 70
     0
  1
21.5
 13
127.000033
 23
165.499998
 14
127.000000
 24
187.000002
 50
90.000000
  0
DIMENSION
  8
2
 62
134
  6
CONTINUOUS
  2
*D4
 10
131.000000
 20
131.230647
 11
140.703547
 21
131.230647
 70
     0
  1
20
 13
131.000000
 23
161.511563
 14
151.000000
 24
158.500000
 50
0.000000
  0
LINE
  8
1
 62
7
  6
DASHDOT
 10
125.500000
 20
142.403963
 11
125.500000
 21
149.259630
  0
LINE
  8
1
 62
7
  6
DASHDOT
 10
145.500000
 20
142.318661
 11
145.500000
 21
149.313426
  0
CIRCLE
  8
1
 62
7
  6
CONTINUOUS
 10
131.000000
 20
165.511563
 40
2.000000
  0
LINE
  8
1
 62
7
  6
CONTINUOUS
 10
120.000000
 20
145.000000
 11
157.000000
 21
145.000000
  0
LINE
  8
1
 62
7
  6
CONTINUOUS
 10
120.000000
 20
145.000000
 11
120.000000
 21
189.000002
  0
LINE
  8
1
 62
7
  6
CONTINUOUS
 10
120.000000
 20
189.000002
 11
122.000000
 21
191.000002
  0
LINE
  8
1
 62
7
  6
CONTINUOUS
 10
122.000000
 20
191.000002
 11
155.000000
 21
191.000002
  0
LINE
  8
1
 62
7
  6
CONTINUOUS
 10
157.000000
 20
145.000000
 11
157.000000
 21
189.000002
  0
LINE
  8
1
 62
7
  6
CONTINUOUS
 10
155.000000
 20
191.000002
 11
157.000000
 21
189.000002
  0
LINE
  8
1
 62
7
  6
DASHDOT
 10
131.000000
 20
170.511563
 11
131.000000
 21
160.511563
  0
LINE
  8
1
 62
7
  6
DASHDOT
 10
127.742126
 20
165.499998
 11
135.488681
 21
165.499998
  0
LINE
  8
1
 62
7
  6
DASHDOT
 10
151.000000
 20
173.100610
 11
151.000000
 21
157.893850
  0
LINE
  8
1
 62
7
  6
DASHDOT
 10
131.000000
 20
260.740384
 11
131.000000
 21
250.305419
  0
LINE
  8
1
 62
7
  6
DASHDOT
 10
150.981791
 20
260.380558
 11
150.981791
 21
249.585766
  0
LINE
  8
1
 62
7
  6
CONTINUOUS
 10
157.000000
 20
256.737894
 11
120.000000
 21
256.737894
  0
LINE
  8
1
 62
7
  6
DASHDOT
 10
55.063502
 20
165.500000
 11
45.192103
 21
165.500000
  0
LINE
  8
1
 62
7
  6
CONTINUOUS
 10
49.500000
 20
146.500002
 11
49.500000
 21
191.000002
  0
ARC
  8
1
 62
7
  6
CONTINUOUS
 10
51.000000
 20
146.500002
 40
1.500000
 50
180.000000
 51
-90.000000
  0
DIMENSION
  8
2
 62
134
  6
CONTINUOUS
  2
*D5
 10
36.707848
 20
145.000002
 11
36.707848
 21
167.896649
 70
     0
  1
46
 13
49.000000
 23
145.000002
 14
47.500000
 24
191.000002
 50
90.000000
  0
LINE
  8
1
 62
7
  6
DASHDOT
 10
80.500000
 20
150.506639
 11
80.500000
 21
140.909446
  0
LINE
  8
1
 62
7
  6
CONTINUOUS
 10
87.500000
 20
145.000002
 11
51.000000
 21
145.000002
  0
DIMENSION
  8
2
 62
134
  6
CONTINUOUS
  2
*D6
 10
49.500000
 20
131.230647
 11
68.020086
 21
131.230647
 70
     0
  1
38
 13
49.500000
 23
144.500002
 14
87.500000
 24
143.000002
 50
0.000000
  0
DIMENSION
  8
2
 62
134
  6
CONTINUOUS
  2
*D7
 10
125.500000
 20
209.941351
 11
134.610177
 21
209.941351
 70
     0
  1
20
 13
125.500000
 23
221.737894
 14
145.500000
 24
218.737894
 50
0.000000
  0
DIMENSION
  8
2
 62
134
  6
CONTINUOUS
  2
*D8
 10
120.000000
 20
209.941351
 11
113.977237
 21
209.941351
 70
     0
  1
5.5
 13
120.000000
 23
218.737894
 14
125.500000
 24
221.737894
 50
0.000000
  0
DIMENSION
  8
2
 62
134
  6
CONTINUOUS
  2
*D9
 10
110.444199
 20
218.737894
 11
110.444199
 21
222.518965
 70
     0
  1
7
 13
120.000000
 23
218.737894
 14
120.315206
 24
225.737894
 50
90.000000
  0
DIMENSION
  8
2
 62
134
  6
CONTINUOUS
  2
*D10
 10
110.444199
 20
225.737894
 11
110.444199
 21
240.646136
 70
     0
  1
31
 13
118.000000
 23
225.737894
 14
118.000000
 24
256.737894
 50
90.000000
  0
CIRCLE
  8
1
 62
7
  6
CONTINUOUS
 10
125.500000
 20
225.737894
 40
2.000000
  0
LINE
  8
1
 62
7
  6
CONTINUOUS
 10
120.000000
 20
256.737894
 11
120.000000
 21
220.737894
  0
LINE
  8
1
 62
7
  6
CONTINUOUS
 10
122.000000
 20
218.737894
 11
155.000000
 21
218.737894
  0
LINE
  8
1
 62
7
  6
CONTINUOUS
 10
157.000000
 20
256.737894
 11
157.000000
 21
220.737894
  0
LINE
  8
1
 62
7
  6
CONTINUOUS
 10
120.000000
 20
220.737894
 11
122.000000
 21
218.737894
  0
LINE
  8
1
 62
7
  6
CONTINUOUS
 10
155.000000
 20
218.737894
 11
157.000000
 21
220.737894
  0
LINE
  8
1
 62
7
  6
DASHDOT
 10
125.500000
 20
230.312557
 11
125.500000
 21
222.259078
  0
LINE
  8
1
 62
7
  6
DASHDOT
 10
122.148254
 20
225.737894
 11
129.556336
 21
225.737894
  0
LINE
  8
2
 62
134
  6
CONTINUOUS
 10
45.916118
 20
231.452245
 11
56.732063
 21
231.452245
  0
DIMENSION
  8
2
 62
134
  6
CONTINUOUS
  2
*D11
 10
156.000000
 20
219.737894
 11
162.278887
 21
213.459007
 70
     4
  1
4-C2
 15
166.091377
 25
209.646516
  0
TEXT
  8
2
 62
134
  6
CONTINUOUS
 10
45.331473
 20
232.621536
 40
4.000000
 41
0.625000
  1
ｔ1.6
  7
KANJI
 50
0.000000
 51
0.000000
  0
DIMENSION
  8
2
 62
134
  6
CONTINUOUS
  2
*D12
 10
149.000000
 20
196.492673
 11
151.138837
 21
196.492673
 70
     0
  1
4
 13
149.000000
 23
187.388342
 14
153.000000
 24
187.018197
 50
0.000000
  0
LINE
  8
1
 62
7
  6
DASHDOT
 10
151.000000
 20
173.100610
 11
151.000000
 21
157.893850
  0
ARC
  8
1
 62
7
  6
CONTINUOUS
 10
151.000000
 20
187.000002
 40
2.000000
 50
0.000000
 51
90.000000
  0
ARC
  8
1
 62
7
  6
CONTINUOUS
 10
151.000000
 20
187.000002
 40
2.000000
 50
90.000000
 51
180.000000
  0
LINE
  8
1
 62
7
  6
DASHDOT
 10
145.931841
 20
186.948820
 11
154.828359
 21
186.948820
  0
ARC
  8
1
 62
7
  6
CONTINUOUS
 10
151.000000
 20
183.000002
 40
2.000000
 50
-90.000000
 51
0.000000
  0
ARC
  8
1
 62
7
  6
CONTINUOUS
 10
151.000000
 20
183.000002
 40
2.000000
 50
180.000000
 51
-90.000000
  0
LINE
  8
1
 62
7
  6
DASHDOT
 10
146.059732
 20
182.956202
 11
154.940213
 21
182.956202
  0
LINE
  8
1
 62
7
  6
DASHDOT
 10
151.000000
 20
192.187502
 11
151.000000
 21
179.886813
  0
LINE
  8
1
 62
7
  6
CONTINUOUS
 10
153.000000
 20
187.000002
 11
153.000000
 21
183.000002
  0
LINE
  8
1
 62
7
  6
CONTINUOUS
 10
149.000000
 20
183.000002
 11
149.000000
 21
187.000002
  0
DIMENSION
  8
2
 62
134
  6
CONTINUOUS
  2
*D13
 10
165.910038
 20
181.000002
 11
165.910038
 21
184.714138
 70
     0
  1
8
 13
153.000000
 23
181.000002
 14
153.000000
 24
189.000002
 50
90.000000
  0
TEXT
  8
2
 62
134
  6
CONTINUOUS
 10
153.018209
 20
182.706593
 40
4.000000
 41
0.500000
  1
ｱﾅ
  7
KANJI
 50
90.000000
 51
0.000000
  0
LINE
  8
1
 62
7
  6
DASHDOT
 10
147.205432
 20
167.484661
 11
155.157392
 21
167.484661
  0
DIMENSION
  8
2
 62
134
  6
CONTINUOUS
  2
*D14
 10
165.910038
 20
169.499834
 11
165.910038
 21
175.551534
 70
     0
  1
11.5
 13
153.000000
 23
169.499834
 14
153.000000
 24
181.000002
 50
90.000000
  0
DIMENSION
  8
2
 62
134
  6
CONTINUOUS
  2
*D15
 10
165.910038
 20
145.000000
 11
165.910038
 21
153.981294
 70
     0
  1
16.5
 13
159.000000
 23
145.000000
 14
153.036417
 24
161.500000
 50
90.000000
  0
LINE
  8
1
 62
7
  6
DASHDOT
 10
147.205432
 20
163.492043
 11
155.980008
 21
163.492043
  0
DIMENSION
  8
2
 62
134
  6
CONTINUOUS
  2
*D16
 10
165.910038
 20
161.500000
 11
165.910038
 21
165.189065
 70
     0
  1
8
 13
153.000000
 23
161.500000
 14
153.000000
 24
169.499834
 50
90.000000
  0
TEXT
  8
2
 62
134
  6
CONTINUOUS
 10
153.018209
 20
163.272216
 40
4.000000
 41
0.500000
  1
ｱﾅ
  7
KANJI
 50
90.000000
 51
0.000000
  0
ARC
  8
1
 62
7
  6
CONTINUOUS
 10
151.018209
 20
163.499917
 40
2.000000
 50
180.000000
 51
-90.000000
  0
LINE
  8
1
 62
7
  6
CONTINUOUS
 10
149.018209
 20
163.499917
 11
149.018209
 21
167.499917
  0
ARC
  8
1
 62
7
  6
CONTINUOUS
 10
151.018209
 20
167.499917
 40
2.000000
 50
90.000000
 51
180.000000
  0
ARC
  8
1
 62
7
  6
CONTINUOUS
 10
151.018209
 20
163.499917
 40
2.000000
 50
-90.000000
 51
0.000000
  0
LINE
  8
1
 62
7
  6
CONTINUOUS
 10
153.018209
 20
167.499917
 11
153.018209
 21
163.499917
  0
ARC
  8
1
 62
7
  6
CONTINUOUS
 10
151.018209
 20
167.499917
 40
2.000000
 50
0.000000
 51
90.000000
  0
LINE
  8
1
 62
7
  6
DASHDOT
 10
145.500000
 20
232.925394
 11
145.500000
 21
219.624705
  0
DIMENSION
  8
2
 62
134
  6
CONTINUOUS
  2
*D17
 10
168.527338
 20
218.737894
 11
168.527338
 21
217.007427
 70
     0
  1
3
 13
147.500000
 23
218.737894
 14
147.500000
 24
221.737894
 50
90.000000
  0
LINE
  8
1
 62
7
  6
DASHDOT
 10
140.559732
 20
223.694094
 11
149.440213
 21
223.694094
  0
DIMENSION
  8
2
 62
134
  6
CONTINUOUS
  2
*D18
 10
143.500000
 20
235.096579
 11
145.491932
 21
235.096579
 70
     0
  1
4
 13
143.500000
 23
229.686713
 14
147.500000
 24
229.686713
 50
0.000000
  0
LINE
  8
1
 62
7
  6
DASHDOT
 10
140.431841
 20
227.686713
 11
149.328359
 21
227.686713
  0
DIMENSION
  8
2
 62
134
  6
CONTINUOUS
  2
*D19
 10
168.527338
 20
221.737894
 11
168.527338
 21
225.628038
 70
     0
  1
8
 13
147.500000
 23
221.737894
 14
147.500000
 24
229.737894
 50
90.000000
  0
TEXT
  8
2
 62
134
  6
CONTINUOUS
 10
147.518209
 20
223.518825
 40
4.000000
 41
0.500000
  1
ｱﾅ
  7
KANJI
 50
90.000000
 51
0.000000
  0
ARC
  8
1
 62
7
  6
CONTINUOUS
 10
145.500000
 20
223.737894
 40
2.000000
 50
180.000000
 51
-90.000000
  0
LINE
  8
1
 62
7
  6
CONTINUOUS
 10
143.500000
 20
223.737894
 11
143.500000
 21
227.737894
  0
ARC
  8
1
 62
7
  6
CONTINUOUS
 10
145.500000
 20
227.737894
 40
2.000000
 50
90.000000
 51
180.000000
  0
ARC
  8
1
 62
7
  6
CONTINUOUS
 10
145.500000
 20
223.737894
 40
2.000000
 50
-90.000000
 51
0.000000
  0
LINE
  8
1
 62
7
  6
CONTINUOUS
 10
147.500000
 20
227.737894
 11
147.500000
 21
223.737894
  0
ARC
  8
1
 62
7
  6
CONTINUOUS
 10
145.500000
 20
227.737894
 40
2.000000
 50
0.000000
 51
90.000000
  0
LINE
  8
2
 62
134
  6
CONTINUOUS
 10
129.656842
 20
188.481868
 11
125.211915
 21
197.516083
  0
LINE
  8
2
 62
134
  6
CONTINUOUS
 10
125.211915
 20
197.516083
 11
110.779953
 21
197.516083
  0
TEXT
  8
2
 62
134
  6
CONTINUOUS
 10
110.779953
 20
197.286229
 40
4.000000
 41
0.583333
  1
3-φ4ｱﾅ
  7
KANJI
 50
0.000000
 51
30.000000
  0
LINE
  8
2
 62
134
  6
CONTINUOUS
 10
129.656842
 20
188.481868
 11
128.339525
 21
189.986751
  0
LINE
  8
2
 62
134
  6
CONTINUOUS
 10
129.656842
 20
188.481868
 11
129.268454
 21
190.443794
  0
LINE
  8
2
 62
134
  6
CONTINUOUS
 10
128.339525
 20
189.986751
 11
129.268454
 21
190.443794
  0
LINE
  8
2
 62
134
  6
CONTINUOUS
 10
129.443629
 20
188.915219
 11
128.784970
 21
189.667661
  0
LINE
  8
2
 62
134
  6
CONTINUOUS
 10
129.443629
 20
188.915219
 11
129.249435
 21
189.896182
  0
LINE
  8
2
 62
134
  6
CONTINUOUS
 10
128.784970
 20
189.667661
 11
129.249435
 21
189.896182
  0
DIMENSION
  8
2
 62
134
  6
CONTINUOUS
  2
*D20
 10
120.000000
 20
124.557165
 11
139.742011
 21
124.557165
 70
     0
  1
37
 13
120.000000
 23
143.000000
 14
157.000000
 24
143.000000
 50
0.000000
  0
LINE
  8
1
 62
7
  6
CONTINUOUS
 10
49.500000
 20
191.000002
 11
51.100000
 21
191.000002
  0
LINE
  8
1
 62
7
  6
CONTINUOUS
 10
51.100000
 20
191.000002
 11
51.100000
 21
146.600002
  0
LINE
  8
1
 62
7
  6
CONTINUOUS
 10
51.100000
 20
146.600002
 11
87.500000
 21
146.600002
  0
LINE
  8
1
 62
7
  6
CONTINUOUS
 10
87.500000
 20
146.600002
 11
87.500000
 21
145.000002
  0
LINE
  8
1
 62
7
  6
CONTINUOUS
 10
120.000000
 20
146.600002
 11
157.000000
 21
146.600002
  0
LINE
  8
1
 62
7
  6
CONTINUOUS
 10
120.000000
 20
255.137894
 11
157.000000
 21
255.137894
  0
TEXT
  8
2
 62
134
  6
CONTINUOUS
 10
150.000000
 20
116.000000
 40
4.000000
 41
0.750000
  1
重量 ；約35g
  7
KANJI
 50
0.000000
 51
0.000000
  0
TEXT
  8
5
 62
94
  6
CONTINUOUS
 10
87.772351
 20
27.782285
 40
4.000000
 41
0.500000
  1
2006/12/14
  7
KANJI
 50
0.160943
 51
0.000000
  0
TEXT
  8
5
 62
94
  6
CONTINUOUS
 10
154.627881
 20
29.181727
 40
4.000000
 41
1.000000
  1
ＦＴＸ９－４
  7
KANJI
 50
0.000000
 51
0.000000
  0
TEXT
  8
5
 62
94
  6
CONTINUOUS
 10
154.627881
 20
35.322020
 40
4.000000
 41
1.000000
  1
温度変換器取付金具
  7
KANJI
 50
0.000000
 51
0.000000
  0
TEXT
  8
5
 62
94
  6
CONTINUOUS
 10
152.187914
 20
20.406457
 40
4.000000
 41
1.000000
  1
０１５－８７７－Ａ１２４
  7
KANJI
 50
0.000000
 51
0.000000
  0
LINE
  8
3
 62
214
  6
CONTINUOUS
 10
172.658999
 20
105.000000
 11
172.658999
 21
68.000000
  0
LINE
  8
3
 62
214
  6
CONTINUOUS
 10
25.000000
 20
68.000000
 11
172.658999
 21
68.000000
  0
LINE
  8
3
 62
214
  6
CONTINUOUS
 10
25.000000
 20
74.000000
 11
172.658999
 21
74.000000
  0
LINE
  8
3
 62
214
  6
CONTINUOUS
 10
25.000000
 20
99.000000
 11
172.658999
 21
99.000000
  0
LINE
  8
3
 62
214
  6
CONTINUOUS
 10
25.000000
 20
105.000000
 11
172.658999
 21
105.000000
  0
LINE
  8
3
 62
214
  6
CONTINUOUS
 10
25.000000
 20
80.000000
 11
172.658999
 21
80.000000
  0
LINE
  8
3
 62
214
  6
CONTINUOUS
 10
25.000000
 20
86.000000
 11
172.658999
 21
86.000000
  0
LINE
  8
3
 62
214
  6
CONTINUOUS
 10
25.000000
 20
92.000000
 11
172.658999
 21
92.000000
  0
LINE
  8
3
 62
214
  6
CONTINUOUS
 10
25.000000
 20
98.000000
 11
172.658999
 21
98.000000
  0
TEXT
  8
3
 62
214
  6
CONTINUOUS
 10
108.311649
 20
68.000000
 40
4.000000
 41
0.968750
  1
温度変換器固定用/取付金具固定用
  7
KANJI
 50
0.000000
 51
0.000000
  0
TEXT
  8
3
 62
214
  6
CONTINUOUS
 10
108.311649
 20
74.000000
 40
4.000000
 41
1.000000
  1
温度変換器貫通固定用
  7
KANJI
 50
0.000000
 51
0.000000
  0
TEXT
  8
3
 62
214
  6
CONTINUOUS
 10
108.509159
 20
80.000000
 40
4.000000
 41
1.000000
  1
温度変換器貫通固定用
  7
KANJI
 50
0.000000
 51
0.000000
  0
TEXT
  8
3
 62
214
  6
CONTINUOUS
 10
108.904179
 20
86.000000
 40
4.000000
 41
1.000000
  1
温度変換器貫通固定用
  7
KANJI
 50
0.000000
 51
0.000000
  0
TEXT
  8
3
 62
214
  6
CONTINUOUS
 10
109.101689
 20
92.000000
 40
4.000000
 41
1.000000
  1
温度変換器貫通固定用
  7
KANJI
 50
0.000000
 51
0.000000
  0
TEXT
  8
3
 62
214
  6
CONTINUOUS
 10
71.378343
 20
74.000000
 40
4.000000
 41
0.500000
  1
M3L30
  7
KANJI
 50
0.000000
 51
0.000000
  0
TEXT
  8
3
 62
214
  6
CONTINUOUS
 10
97.448597
 20
74.000000
 40
4.000000
 41
0.500000
  1
2
  7
KANJI
 50
0.000000
 51
0.000000
  0
TEXT
  8
3
 62
214
  6
CONTINUOUS
 10
28.281993
 20
74.000000
 40
4.000000
 41
0.500000
  1
ﾅﾍﾞﾈｼﾞ BS
  7
KANJI
 50
0.000000
 51
0.000000
  0
TEXT
  8
3
 62
214
  6
CONTINUOUS
 10
97.448597
 20
68.000000
 40
4.000000
 41
0.500000
  1
4
  7
KANJI
 50
0.000000
 51
0.000000
  0
TEXT
  8
3
 62
214
  6
CONTINUOUS
 10
71.378343
 20
68.000000
 40
4.000000
 41
0.600000
  1
M3L6大
  7
KANJI
 50
0.000000
 51
0.000000
  0
TEXT
  8
3
 62
214
  6
CONTINUOUS
 10
28.281993
 20
68.000000
 40
4.000000
 41
0.533333
  1
ﾅﾍﾞﾈｼﾞ ｾﾑｽ3点 BS
  7
KANJI
 50
0.000000
 51
0.000000
  0
LINE
  8
3
 62
214
  6
CONTINUOUS
 10
103.000000
 20
68.000000
 11
103.000000
 21
105.000000
  0
LINE
  8
3
 62
214
  6
CONTINUOUS
 10
91.000000
 20
68.000000
 11
91.000000
 21
105.000000
  0
LINE
  8
3
 62
214
  6
CONTINUOUS
 10
67.000000
 20
68.000000
 11
67.000000
 21
99.000000
  0
LINE
  8
3
 62
214
  6
CONTINUOUS
 10
25.000000
 20
68.000000
 11
25.000000
 21
105.000000
  0
TEXT
  8
3
 62
214
  6
CONTINUOUS
 10
97.448597
 20
86.000000
 40
4.000000
 41
0.500000
  1
2
  7
KANJI
 50
0.000000
 51
0.000000
  0
TEXT
  8
3
 62
214
  6
CONTINUOUS
 10
97.448597
 20
80.000000
 40
4.000000
 41
0.500000
  1
2
  7
KANJI
 50
0.000000
 51
0.000000
  0
TEXT
  8
3
 62
214
  6
CONTINUOUS
 10
71.076970
 20
80.000000
 40
4.000000
 41
0.500000
  1
M3
  7
KANJI
 50
0.000000
 51
0.000000
  0
TEXT
  8
3
 62
214
  6
CONTINUOUS
 10
27.980620
 20
80.000000
 40
4.000000
 41
0.500000
  1
ﾅｯﾄ BS
  7
KANJI
 50
0.000000
 51
0.000000
  0
TEXT
  8
3
 62
214
  6
CONTINUOUS
 10
123.927475
 20
99.829769
 40
4.000000
 41
1.000000
  1
用途
  7
KANJI
 50
0.000000
 51
0.000000
  0
TEXT
  8
3
 62
214
  6
CONTINUOUS
 10
93.181310
 20
99.447829
 40
4.000000
 41
1.000000
  1
数量
  7
KANJI
 50
0.000000
 51
0.000000
  0
TEXT
  8
3
 62
214
  6
CONTINUOUS
 10
97.448597
 20
92.000000
 40
4.000000
 41
0.500000
  1
2
  7
KANJI
 50
0.000000
 51
0.000000
  0
TEXT
  8
3
 62
214
  6
CONTINUOUS
 10
25.000000
 20
105.000000
 40
5.000000
 41
1.000000
  1
付属部品リスト
  7
KANJI
 50
0.000000
 51
0.000000
  0
TEXT
  8
3
 62
214
  6
CONTINUOUS
 10
49.369257
 20
100.020739
 40
4.000000
 41
1.000000
  1
品名
  7
KANJI
 50
0.000000
 51
0.000000
  0
TEXT
  8
3
 62
214
  6
CONTINUOUS
 10
71.037110
 20
91.904131
 40
4.000000
 41
0.500000
  1
M3
  7
KANJI
 50
0.000000
 51
0.000000
  0
TEXT
  8
3
 62
214
  6
CONTINUOUS
 10
70.803058
 20
86.000000
 40
4.000000
 41
0.666667
  1
M3大
  7
KANJI
 50
0.000000
 51
0.000000
  0
TEXT
  8
3
 62
214
  6
CONTINUOUS
 10
28.281993
 20
86.000000
 40
4.000000
 41
0.562500
  1
平ﾜｯｼｬ BS
  7
KANJI
 50
0.000000
 51
0.000000
  0
TEXT
  8
3
 62
214
  6
CONTINUOUS
 10
27.980620
 20
92.000000
 40
4.000000
 41
0.531250
  1
ｽﾌﾟﾘﾝｸﾞﾜｯｼｬ　PbSW
  7
KANJI
 50
0.000000
 51
0.000000
  0
ENDSEC
  0
EOF
